  0
SECTION
  2
HEADER
  9
$ACADVER
  1
AC1015
  9
$ACADMAINTVER
 70
     6
  9
$DWGCODEPAGE
  3
ANSI_949
  9
$INSBASE
 10
0.0
 20
0.0
 30
0.0
  9
$EXTMIN
 10
-70.28165667455187
 20
-38.72926899923939
 30
0.0
  9
$EXTMAX
 10
93.651255112291
 20
61.4600977822756
 30
0.0
  9
$LIMMIN
 10
0.0
 20
0.0
  9
$LIMMAX
 10
420.0
 20
297.0
  9
$ORTHOMODE
 70
     1
  9
$REGENMODE
 70
     1
  9
$FILLMODE
 70
     1
  9
$QTEXTMODE
 70
     0
  9
$MIRRTEXT
 70
     1
  9
$LTSCALE
 40
1.0
  9
$ATTMODE
 70
     1
  9
$TEXTSIZE
 40
3.5
  9
$TRACEWID
 40
1.0
  9
$TEXTSTYLE
  7
Standard
  9
$CLAYER
  8
0
  9
$CELTYPE
  6
ByLayer
  9
$CECOLOR
 62
   256
  9
$CELTSCALE
 40
1.0
  9
$DISPSILH
 70
     0
  9
$DIMSCALE
 40
1.0
  9
$DIMASZ
 40
3.302
  9
$DIMEXO
 40
1.0
  9
$DIMDLI
 40
3.75
  9
$DIMRND
 40
0.0
  9
$DIMDLE
 40
0.0
  9
$DIMEXE
 40
1.0
  9
$DIMTP
 40
0.0
  9
$DIMTM
 40
0.0
  9
$DIMTXT
 40
3.5
  9
$DIMCEN
 40
2.5
  9
$DIMTSZ
 40
0.0
  9
$DIMTOL
 70
     0
  9
$DIMLIM
 70
     0
  9
$DIMTIH
 70
     1
  9
$DIMTOH
 70
     1
  9
$DIMSE1
 70
     0
  9
$DIMSE2
 70
     0
  9
$DIMTAD
 70
     1
  9
$DIMZIN
 70
     0
  9
$DIMBLK
  1

  9
$DIMASO
 70
     1
  9
$DIMSHO
 70
     1
  9
$DIMPOST
  1

  9
$DIMAPOST
  1

  9
$DIMALT
 70
     0
  9
$DIMALTD
 70
     3
  9
$DIMALTF
 40
0.0393700787401575
  9
$DIMLFAC
 40
1.0
  9
$DIMTOFL
 70
     1
  9
$DIMTVP
 40
0.0
  9
$DIMTIX
 70
     0
  9
$DIMSOXD
 70
     0
  9
$DIMSAH
 70
     0
  9
$DIMBLK1
  1

  9
$DIMBLK2
  1

  9
$DIMSTYLE
  2
ISO-25
  9
$DIMCLRD
 70
     0
  9
$DIMCLRE
 70
     0
  9
$DIMCLRT
 70
     0
  9
$DIMTFAC
 40
1.0
  9
$DIMGAP
 40
1.524
  9
$DIMJUST
 70
     0
  9
$DIMSD1
 70
     0
  9
$DIMSD2
 70
     0
  9
$DIMTOLJ
 70
     0
  9
$DIMTZIN
 70
     0
  9
$DIMALTZ
 70
     0
  9
$DIMALTTZ
 70
     0
  9
$DIMUPT
 70
     0
  9
$DIMDEC
 70
     2
  9
$DIMTDEC
 70
     2
  9
$DIMALTU
 70
     2
  9
$DIMALTTD
 70
     3
  9
$DIMTXSTY
  7
Standard
  9
$DIMAUNIT
 70
     0
  9
$DIMADEC
 70
     2
  9
$DIMALTRND
 40
0.0
  9
$DIMAZIN
 70
     0
  9
$DIMDSEP
 70
    44
  9
$DIMATFIT
 70
     3
  9
$DIMFRAC
 70
     0
  9
$DIMLDRBLK
  1

  9
$DIMLUNIT
 70
     2
  9
$DIMLWD
 70
    -2
  9
$DIMLWE
 70
    -2
  9
$DIMTMOVE
 70
     0
  9
$LUNITS
 70
     2
  9
$LUPREC
 70
     2
  9
$SKETCHINC
 40
1.0
  9
$FILLETRAD
 40
10.0
  9
$AUNITS
 70
     0
  9
$AUPREC
 70
     2
  9
$MENU
  1
.
  9
$ELEVATION
 40
0.0
  9
$PELEVATION
 40
0.0
  9
$THICKNESS
 40
0.0
  9
$LIMCHECK
 70
     0
  9
$CHAMFERA
 40
0.0
  9
$CHAMFERB
 40
0.0
  9
$CHAMFERC
 40
0.0
  9
$CHAMFERD
 40
0.0
  9
$SKPOLY
 70
     0
  9
$TDCREATE
 40
2458269.433275602
  9
$TDUCREATE
 40
2458269.058275602
  9
$TDUPDATE
 40
2458269.871770382
  9
$TDUUPDATE
 40
2458269.496770382
  9
$TDINDWG
 40
0.0033945023
  9
$TDUSRTIMER
 40
2458269.493376018
  9
$USRTIMER
 70
     1
  9
$ANGBASE
 50
0.0
  9
$ANGDIR
 70
     0
  9
$PDMODE
 70
     0
  9
$PDSIZE
 40
-1.0
  9
$PLINEWID
 40
0.0
  9
$SPLFRAME
 70
     0
  9
$SPLINETYPE
 70
     6
  9
$SPLINESEGS
 70
     8
  9
$HANDSEED
  5
172
  9
$SURFTAB1
 70
     6
  9
$SURFTAB2
 70
     6
  9
$SURFTYPE
 70
     6
  9
$SURFU
 70
     6
  9
$SURFV
 70
     6
  9
$UCSBASE
  2

  9
$UCSNAME
  2

  9
$UCSORG
 10
0.0
 20
0.0
 30
0.0
  9
$UCSXDIR
 10
1.0
 20
0.0
 30
0.0
  9
$UCSYDIR
 10
0.0
 20
1.0
 30
0.0
  9
$UCSORTHOREF
  2

  9
$UCSORTHOVIEW
 70
     0
  9
$UCSORGTOP
 10
0.0
 20
0.0
 30
0.0
  9
$UCSORGBOTTOM
 10
0.0
 20
0.0
 30
0.0
  9
$UCSORGLEFT
 10
0.0
 20
0.0
 30
0.0
  9
$UCSORGRIGHT
 10
0.0
 20
0.0
 30
0.0
  9
$UCSORGFRONT
 10
0.0
 20
0.0
 30
0.0
  9
$UCSORGBACK
 10
0.0
 20
0.0
 30
0.0
  9
$PUCSBASE
  2

  9
$PUCSNAME
  2

  9
$PUCSORG
 10
0.0
 20
0.0
 30
0.0
  9
$PUCSXDIR
 10
1.0
 20
0.0
 30
0.0
  9
$PUCSYDIR
 10
0.0
 20
1.0
 30
0.0
  9
$PUCSORTHOREF
  2

  9
$PUCSORTHOVIEW
 70
     0
  9
$PUCSORGTOP
 10
0.0
 20
0.0
 30
0.0
  9
$PUCSORGBOTTOM
 10
0.0
 20
0.0
 30
0.0
  9
$PUCSORGLEFT
 10
0.0
 20
0.0
 30
0.0
  9
$PUCSORGRIGHT
 10
0.0
 20
0.0
 30
0.0
  9
$PUCSORGFRONT
 10
0.0
 20
0.0
 30
0.0
  9
$PUCSORGBACK
 10
0.0
 20
0.0
 30
0.0
  9
$USERI1
 70
     0
  9
$USERI2
 70
     0
  9
$USERI3
 70
     0
  9
$USERI4
 70
     0
  9
$USERI5
 70
     0
  9
$USERR1
 40
0.0
  9
$USERR2
 40
0.0
  9
$USERR3
 40
0.0
  9
$USERR4
 40
0.0
  9
$USERR5
 40
0.0
  9
$WORLDVIEW
 70
     1
  9
$SHADEDGE
 70
     3
  9
$SHADEDIF
 70
    70
  9
$TILEMODE
 70
     1
  9
$MAXACTVP
 70
    64
  9
$PINSBASE
 10
0.0
 20
0.0
 30
0.0
  9
$PLIMCHECK
 70
     0
  9
$PEXTMIN
 10
1.000000000000000E+20
 20
1.000000000000000E+20
 30
1.000000000000000E+20
  9
$PEXTMAX
 10
-1.000000000000000E+20
 20
-1.000000000000000E+20
 30
-1.000000000000000E+20
  9
$PLIMMIN
 10
0.0
 20
0.0
  9
$PLIMMAX
 10
0.0
 20
0.0
  9
$UNITMODE
 70
     0
  9
$VISRETAIN
 70
     1
  9
$PLINEGEN
 70
     0
  9
$PSLTSCALE
 70
     1
  9
$TREEDEPTH
 70
  3020
  9
$CMLSTYLE
  2
Standard
  9
$CMLJUST
 70
     0
  9
$CMLSCALE
 40
20.0
  9
$PROXYGRAPHICS
 70
     1
  9
$MEASUREMENT
 70
     1
  9
$CELWEIGHT
370
    -1
  9
$ENDCAPS
280
     0
  9
$JOINSTYLE
280
     0
  9
$LWDISPLAY
290
     1
  9
$INSUNITS
 70
     4
  9
$HYPERLINKBASE
  1

  9
$STYLESHEET
  1

  9
$XEDIT
290
     1
  9
$CEPSNTYPE
380
     0
  9
$PSTYLEMODE
290
     1
  9
$FINGERPRINTGUID
  2
{8F57BDA3-0BFC-4408-A0C2-B3C79FDA0591}
  9
$VERSIONGUID
  2
{FAEB1C32-E019-11D5-929B-00C0DF256EC4}
  9
$EXTNAMES
290
     1
  9
$PSVPSCALE
 40
0.0
  9
$OLESTARTUP
290
     0
  0
ENDSEC
  0
SECTION
  2
CLASSES
  0
CLASS
  1
ACDBDICTIONARYWDFLT
  2
AcDbDictionaryWithDefault
  3
ObjectDBX Classes
 90
        0
280
     0
281
     0
  0
CLASS
  1
VISUALSTYLE
  2
AcDbVisualStyle
  3
ObjectDBX Classes
 90
     4095
280
     0
281
     0
  0
CLASS
  1
MATERIAL
  2
AcDbMaterial
  3
ObjectDBX Classes
 90
     1153
280
     0
281
     0
  0
CLASS
  1
SCALE
  2
AcDbScale
  3
ObjectDBX Classes
 90
     1153
280
     0
281
     0
  0
CLASS
  1
SUN
  2
AcDbSun
  3
SCENEOE
 90
     1153
280
     0
281
     0
  0
CLASS
  1
ACDBPLACEHOLDER
  2
AcDbPlaceHolder
  3
ObjectDBX Classes
 90
        0
280
     0
281
     0
  0
CLASS
  1
LAYOUT
  2
AcDbLayout
  3
ObjectDBX Classes
 90
        0
280
     0
281
     0
  0
CLASS
  1
TABLESTYLE
  2
AcDbTableStyle
  3
ObjectDBX Classes
 90
     4095
280
     0
281
     0
  0
CLASS
  1
MLEADERSTYLE
  2
AcDbMLeaderStyle
  3
ACDB_MLEADERSTYLE_CLASS
 90
     4095
280
     0
281
     0
  0
CLASS
  1
RASTERVARIABLES
  2
AcDbRasterVariables
  3
ISM
 90
        0
280
     0
281
     0
  0
CLASS
  1
DIMASSOC
  2
AcDbDimAssoc
  3
"AcDbDimAssoc|Product Desc:     AcDim ARX App For Dimension|Company:          Autodesk, Inc.|WEB Address:      www.autodesk.com"
 90
        0
280
     0
281
     0
  0
ENDSEC
  0
SECTION
  2
TABLES
  0
TABLE
  2
VPORT
  5
8
330
0
100
AcDbSymbolTable
 70
     1
  0
VPORT
  5
29
330
8
100
AcDbSymbolTableRecord
100
AcDbViewportTableRecord
  2
*Active
 70
     0
 10
0.0
 20
0.0
 11
1.0
 21
1.0
 12
52.07900685975443
 22
0.7419140226220087
 13
0.0
 23
0.0
 14
10.0
 24
10.0
 15
10.0
 25
10.0
 16
0.0
 26
0.0
 36
1.0
 17
0.0
 27
0.0
 37
0.0
 40
152.9809448748555
 41
1.970186335403727
 42
50.0
 43
0.0
 44
0.0
 50
0.0
 51
0.0
 71
    16
 72
  2000
 73
     1
 74
     3
 75
     0
 76
     0
 77
     0
 78
     0
281
     0
 65
     1
110
0.0
120
0.0
130
0.0
111
1.0
121
0.0
131
0.0
112
0.0
122
1.0
132
0.0
 79
     0
146
0.0
  0
ENDTAB
  0
TABLE
  2
LTYPE
  5
5
330
0
100
AcDbSymbolTable
 70
     6
  0
LTYPE
  5
14
330
5
100
AcDbSymbolTableRecord
100
AcDbLinetypeTableRecord
  2
ByBlock
 70
     0
  3

 72
    65
 73
     0
 40
0.0
  0
LTYPE
  5
15
330
5
100
AcDbSymbolTableRecord
100
AcDbLinetypeTableRecord
  2
ByLayer
 70
     0
  3

 72
    65
 73
     0
 40
0.0
  0
LTYPE
  5
16
330
5
100
AcDbSymbolTableRecord
100
AcDbLinetypeTableRecord
  2
Continuous
 70
     0
  3
Solid line
 72
    65
 73
     0
 40
0.0
  0
LTYPE
  5
6A
330
5
100
AcDbSymbolTableRecord
100
AcDbLinetypeTableRecord
  2
HIDDEN
 70
     0
  3
Hidden __ __ __ __ __ __ __ __ __ __ __ __ __ __
 72
    65
 73
     2
 40
1.905
 49
1.27
 74
     0
 49
-0.635
 74
     0
  0
LTYPE
  5
6B
330
5
100
AcDbSymbolTableRecord
100
AcDbLinetypeTableRecord
  2
PHANTOM
 70
     0
  3
Phantom ______  __  __  ______  __  __  ______
 72
    65
 73
     6
 40
12.7
 49
6.35
 74
     0
 49
-1.27
 74
     0
 49
1.27
 74
     0
 49
-1.27
 74
     0
 49
1.27
 74
     0
 49
-1.27
 74
     0
  0
LTYPE
  5
6C
330
5
100
AcDbSymbolTableRecord
100
AcDbLinetypeTableRecord
  2
CENTER
 70
     0
  3
Center ____ _ ____ _ ____ _ ____ _ ____ _ ____
 72
    65
 73
     4
 40
10.16
 49
6.35
 74
     0
 49
-1.27
 74
     0
 49
1.27
 74
     0
 49
-1.27
 74
     0
  0
LTYPE
  5
6D
330
5
100
AcDbSymbolTableRecord
100
AcDbLinetypeTableRecord
  2
CENTERX2
 70
     0
  3
Center (2x) ________  __  ________  __  _____
 72
    65
 73
     4
 40
20.32
 49
12.7
 74
     0
 49
-2.54
 74
     0
 49
2.54
 74
     0
 49
-2.54
 74
     0
  0
LTYPE
  5
6E
330
5
100
AcDbSymbolTableRecord
100
AcDbLinetypeTableRecord
  2
DOT2
 70
     0
  3
Dot (.5x) ........................................
 72
    65
 73
     2
 40
0.635
 49
0.0
 74
     0
 49
-0.635
 74
     0
  0
ENDTAB
  0
TABLE
  2
LAYER
  5
2
330
0
100
AcDbSymbolTable
 70
    17
  0
LAYER
  5
10
330
2
100
AcDbSymbolTableRecord
100
AcDbLayerTableRecord
  2
0
 70
     0
 62
     7
  6
Continuous
370
    -3
390
F
  0
LAYER
  5
6F
330
2
100
AcDbSymbolTableRecord
100
AcDbLayerTableRecord
  2
FORMAT
 70
     0
 62
     2
  6
Continuous
370
    -3
390
F
  0
LAYER
  5
70
330
2
100
AcDbSymbolTableRecord
100
AcDbLayerTableRecord
  2
외형선
 70
     0
 62
   100
  6
Continuous
370
    30
390
F
  0
LAYER
  5
71
330
2
100
AcDbSymbolTableRecord
100
AcDbLayerTableRecord
  2
숨은선
 70
     0
 62
     2
  6
HIDDEN
370
    15
390
F
  0
LAYER
  5
72
330
2
100
AcDbSymbolTableRecord
100
AcDbLayerTableRecord
  2
중심선
 70
     0
 62
     1
  6
CENTERX2
370
    -3
390
F
  0
LAYER
  5
73
330
2
100
AcDbSymbolTableRecord
100
AcDbLayerTableRecord
  2
파단선
 70
     0
 62
     4
  6
Continuous
370
    -3
390
F
  0
LAYER
  5
74
330
2
100
AcDbSymbolTableRecord
100
AcDbLayerTableRecord
  2
해칭선
 70
     0
 62
     4
  6
Continuous
370
    -3
390
F
  0
LAYER
  5
75
330
2
100
AcDbSymbolTableRecord
100
AcDbLayerTableRecord
  2
가는실선
 70
     0
 62
     4
  6
Continuous
370
    -3
390
F
  0
LAYER
  5
76
330
2
100
AcDbSymbolTableRecord
100
AcDbLayerTableRecord
  2
치수_보조선
 70
     0
 62
     4
  6
Continuous
370
    -3
390
F
  0
LAYER
  5
77
330
2
100
AcDbSymbolTableRecord
100
AcDbLayerTableRecord
  2
치수문자_일반주서
 70
     0
 62
     7
  6
Continuous
370
    15
390
F
  0
LAYER
  5
78
330
2
100
AcDbSymbolTableRecord
100
AcDbLayerTableRecord
  2
개별주서
 70
     0
 62
   100
  6
Continuous
370
    30
390
F
  0
LAYER
  5
79
330
2
100
AcDbSymbolTableRecord
100
AcDbLayerTableRecord
  2
중간선
 70
     0
 62
     2
  6
Continuous
370
    15
390
F
  0
LAYER
  5
7A
330
2
100
AcDbSymbolTableRecord
100
AcDbLayerTableRecord
  2
윤곽선
 70
     0
 62
     3
  6
Continuous
370
    40
390
F
  0
LAYER
  5
7B
330
2
100
AcDbSymbolTableRecord
100
AcDbLayerTableRecord
  2
중심마크
 70
     0
 62
   100
  6
Continuous
370
    30
390
F
  0
LAYER
  5
7C
330
2
100
AcDbSymbolTableRecord
100
AcDbLayerTableRecord
  2
가상선
 70
     0
 62
     4
  6
PHANTOM
370
    -3
390
F
  0
LAYER
  5
7D
330
2
100
AcDbSymbolTableRecord
100
AcDbLayerTableRecord
  2
특수지정선
 70
     0
 62
     5
  6
CENTERX2
370
    60
390
F
  0
LAYER
  5
139
330
2
100
AcDbSymbolTableRecord
100
AcDbLayerTableRecord
  2
Defpoints
 70
     0
 62
     7
  6
Continuous
290
     0
370
    -3
390
F
  0
ENDTAB
  0
TABLE
  2
STYLE
  5
3
330
0
100
AcDbSymbolTable
 70
     2
  0
STYLE
  5
11
330
3
100
AcDbSymbolTableRecord
100
AcDbTextStyleTableRecord
  2
Standard
 70
     0
 40
0.0
 41
1.0
 50
0.0
 71
     0
 42
3.5
  3
txt
  4

  0
STYLE
  5
93
330
3
100
AcDbSymbolTableRecord
100
AcDbTextStyleTableRecord
  2
SLDTEXTSTYLE0
 70
     0
 40
0.0
 41
0.75
 50
0.0
 71
     0
 42
3.5
  3
TXT
  4

  0
ENDTAB
  0
TABLE
  2
VIEW
  5
6
330
0
100
AcDbSymbolTable
 70
     0
  0
ENDTAB
  0
TABLE
  2
UCS
  5
7
330
0
100
AcDbSymbolTable
 70
     0
  0
ENDTAB
  0
TABLE
  2
APPID
  5
9
330
0
100
AcDbSymbolTable
 70
     3
  0
APPID
  5
12
330
9
100
AcDbSymbolTableRecord
100
AcDbRegAppTableRecord
  2
ACAD
 70
     0
  0
APPID
  5
162
330
9
100
AcDbSymbolTableRecord
100
AcDbRegAppTableRecord
  2
ACAD_DSTYLE_DIMRADIAL_EXTENSION
 70
     0
  0
APPID
  5
170
330
9
100
AcDbSymbolTableRecord
100
AcDbRegAppTableRecord
  2
PE_DIMMEASUREMENT
 70
     0
  0
ENDTAB
  0
TABLE
  2
DIMSTYLE
  5
A
330
0
100
AcDbSymbolTable
 70
     4
100
AcDbDimStyleTable
  0
DIMSTYLE
105
27
330
A
100
AcDbSymbolTableRecord
100
AcDbDimStyleTableRecord
  2
ISO-25
 70
     0
 41
2.5
 42
0.625
 43
3.75
 44
1.25
 73
     0
 74
     0
 77
     1
 78
     8
140
2.5
141
2.5
143
0.03937007874016
147
0.625
171
     3
172
     1
178
     0
271
     2
272
     2
274
     3
278
    44
283
     0
284
     8
340
11
  0
DIMSTYLE
105
D6
102
{ACAD_REACTORS
330
D5
330
14F
330
163
330
13A
102
}
330
A
100
AcDbSymbolTableRecord
100
AcDbDimStyleTableRecord
  2
SLDDIMSTYLE0
 70
     0
 41
3.302
 44
0.0
 45
0.000000001
 73
     0
 74
     0
 77
     1
 78
     4
 79
     1
140
3.5
143
0.0393700787401575
147
0.875
148
0.000000001
170
     1
173
     1
178
     0
271
     2
272
     2
276
     2
284
    12
340
93
  0
DIMSTYLE
105
EA
102
{ACAD_REACTORS
330
E9
102
}
330
A
100
AcDbSymbolTableRecord
100
AcDbDimStyleTableRecord
  2
SLDDIMSTYLE1
 70
     0
 41
3.302
 44
0.0
 45
0.000000001
 73
     0
 74
     0
 77
     1
 78
    12
 79
     3
140
3.5
143
0.0393700787401575
147
0.875
148
0.000000001
170
     1
173
     1
178
     0
271
     2
272
     2
276
     2
284
    12
340
93
  0
DIMSTYLE
105
FE
330
A
100
AcDbSymbolTableRecord
100
AcDbDimStyleTableRecord
  2
SLDDIMSTYLE2
 70
     0
 41
3.302
 44
0.0
 45
0.000000001
 73
     0
 74
     0
 77
     1
 78
     8
 79
     2
140
3.5
143
0.0393700787401575
147
0.875
148
0.000000001
170
     1
172
     1
173
     1
178
     0
271
     2
272
     2
276
     2
284
    12
289
     0
340
93
341
FF
343
FF
344
FF
  0
ENDTAB
  0
TABLE
  2
BLOCK_RECORD
  5
1
330
0
100
AcDbSymbolTable
 70
    10
  0
BLOCK_RECORD
  5
1F
330
1
100
AcDbSymbolTableRecord
100
AcDbBlockTableRecord
  2
*Model_Space
340
22
  0
BLOCK_RECORD
  5
1B
330
1
100
AcDbSymbolTableRecord
100
AcDbBlockTableRecord
  2
*Paper_Space
340
1E
  0
BLOCK_RECORD
  5
23
330
1
100
AcDbSymbolTableRecord
100
AcDbBlockTableRecord
  2
*Paper_Space0
340
26
  0
BLOCK_RECORD
  5
7E
330
1
100
AcDbSymbolTableRecord
100
AcDbBlockTableRecord
  2
블럭10
340
0
102
{BLKREFS
331
CD
102
}
  0
BLOCK_RECORD
  5
D7
330
1
100
AcDbSymbolTableRecord
100
AcDbBlockTableRecord
  2
_D
340
0
  0
BLOCK_RECORD
  5
EB
330
1
100
AcDbSymbolTableRecord
100
AcDbBlockTableRecord
  2
_D_1
340
0
  0
BLOCK_RECORD
  5
FF
330
1
100
AcDbSymbolTableRecord
100
AcDbBlockTableRecord
  2
_NONE
340
0
  0
BLOCK_RECORD
  5
102
330
1
100
AcDbSymbolTableRecord
100
AcDbBlockTableRecord
  2
_D_2
340
0
  0
BLOCK_RECORD
  5
10E
330
1
100
AcDbSymbolTableRecord
100
AcDbBlockTableRecord
  2
SW_DOWELSYMBOL_0
340
0
102
{BLKREFS
331
114
102
}
  0
BLOCK_RECORD
  5
13D
330
1
100
AcDbSymbolTableRecord
100
AcDbBlockTableRecord
  2
*D7
340
0
  0
BLOCK_RECORD
  5
152
330
1
100
AcDbSymbolTableRecord
100
AcDbBlockTableRecord
  2
*D8
340
0
  0
BLOCK_RECORD
  5
166
330
1
100
AcDbSymbolTableRecord
100
AcDbBlockTableRecord
  2
*D9
340
0
  0
ENDTAB
  0
ENDSEC
  0
SECTION
  2
BLOCKS
  0
BLOCK
  5
20
330
1F
100
AcDbEntity
  8
0
100
AcDbBlockBegin
  2
*Model_Space
 70
     0
 10
0.0
 20
0.0
 30
0.0
  3
*Model_Space
  1
*Model_Space
  0
ENDBLK
  5
21
330
1F
100
AcDbEntity
  8
0
100
AcDbBlockEnd
  0
BLOCK
  5
1C
330
1B
100
AcDbEntity
 67
     1
  8
0
100
AcDbBlockBegin
  2
*Paper_Space
 70
     0
 10
0.0
 20
0.0
 30
0.0
  3
*Paper_Space
  1
*Paper_Space
  0
ENDBLK
  5
1D
330
1B
100
AcDbEntity
 67
     1
  8
0
100
AcDbBlockEnd
  0
BLOCK
  5
24
330
23
100
AcDbEntity
  8
0
100
AcDbBlockBegin
  2
*Paper_Space0
 70
     0
 10
0.0
 20
0.0
 30
0.0
  3
*Paper_Space0
  1
*Paper_Space0
  0
ENDBLK
  5
25
330
23
100
AcDbEntity
  8
0
100
AcDbBlockEnd
  0
BLOCK
  5
7F
330
7E
100
AcDbEntity
  8
0
100
AcDbBlockBegin
  2
블럭10
 70
     2
 10
0.0
 20
0.0
 30
0.0
  3
블럭10
  1
블럭10
  0
ELLIPSE
  5
81
330
7E
100
AcDbEntity
  8
중심선
100
AcDbEllipse
 10
20.54032771741204
 20
12.0471743016438
 30
0.0
 11
6.600054785286829
 21
-1.261213355974178E-13
 31
0.0
210
0.0
220
0.0
230
1.0
 40
0.636358354079598
 41
0.9219305317359503
 42
6.513795318482858
  0
ELLIPSE
  5
82
330
7E
100
AcDbEntity
  8
중심선
100
AcDbEllipse
 10
20.54032771746488
 20
12.04717430159265
 30
0.0
 11
3.960054785062283
 21
1.540847449632565E-10
 31
0.0
210
0.0
220
0.0
230
1.0
 40
0.3939339440162632
 41
1.131841032648279
 42
5.62031148352944
  0
LINE
  5
83
330
7E
100
AcDbEntity
  8
중심선
100
AcDbLine
 10
2.268634060543552
 20
16.24717430164393
 30
0.0
 11
5.714909304380834
 21
16.24717430164393
 31
0.0
  0
LINE
  5
84
330
7E
100
AcDbEntity
  8
중심선
100
AcDbLine
 10
5.245725140726316
 20
7.84717430164391
 30
0.0
 11
8.692000384563599
 21
7.84717430164391
 31
0.0
  0
LINE
  5
85
330
7E
100
AcDbEntity
  8
중심선
100
AcDbLine
 10
15.74043728645272
 20
16.24717430164393
 30
0.0
 11
8.692000384563599
 21
7.84717430164391
 31
0.0
  0
LINE
  5
86
330
7E
100
AcDbEntity
  8
중심선
100
AcDbLine
 10
0.1404042013395286
 20
13.71084872107135
 30
0.0
 11
3.58671253028996
 21
13.71088815037384
 31
0.0
  0
LINE
  5
87
330
7E
100
AcDbEntity
  8
중심선
100
AcDbLine
 10
2.750260043222114
 20
10.84717430164391
 30
0.0
 11
6.196535287059397
 21
10.84717430164391
 31
0.0
  0
LINE
  5
88
330
7E
100
AcDbEntity
  8
중심선
100
AcDbLine
 10
12.29416204261559
 20
16.24717430164393
 30
0.0
 11
5.245725140726316
 21
7.84717430164391
 31
0.0
  0
LINE
  5
89
330
7E
100
AcDbEntity
  8
중심선
100
AcDbLine
 10
10.72767329541681
 20
16.24717430164393
 30
0.0
 11
6.196535287059397
 21
10.84717430164391
 31
0.0
  0
LINE
  5
8A
330
7E
100
AcDbEntity
  8
중심선
100
AcDbLine
 10
7.28139805157953
 20
16.24717430164393
 30
0.0
 11
2.750260043222114
 21
10.84717430164391
 31
0.0
  0
LINE
  5
8B
330
7E
100
AcDbEntity
  8
중심선
100
AcDbLine
 10
5.714909304380834
 20
16.24717430164393
 30
0.0
 11
3.58671253028996
 21
13.71088815037384
 31
0.0
  0
LINE
  5
8C
330
7E
100
AcDbEntity
  8
중심선
100
AcDbLine
 10
2.268634060543552
 20
16.24717430164393
 30
0.0
 11
0.1404042013395286
 21
13.71084872107135
 31
0.0
  0
LINE
  5
8D
330
7E
100
AcDbEntity
  8
중심선
100
AcDbLine
 10
7.28139805157953
 20
16.24717430164393
 30
0.0
 11
10.72767329541681
 21
16.24717430164393
 31
0.0
  0
LINE
  5
8E
330
7E
100
AcDbEntity
  8
중심선
100
AcDbLine
 10
12.29416204261559
 20
16.24717430164393
 30
0.0
 11
15.74043728645272
 21
16.24717430164393
 31
0.0
  0
LINE
  5
8F
330
7E
100
AcDbEntity
  8
중심선
100
AcDbLine
 10
19.22036997980202
 20
11.08717430171403
 30
0.0
 11
23.66174974927406
 21
11.08717430171406
 31
0.0
  0
LINE
  5
90
330
7E
100
AcDbEntity
  8
중심선
100
AcDbLine
 10
19.22039502424796
 20
13.00717430171391
 30
0.0
 11
19.22036997980202
 21
11.08717430171403
 31
0.0
  0
LINE
  5
91
330
7E
100
AcDbEntity
  8
중심선
100
AcDbLine
 10
19.22039502424796
 20
13.00717430171391
 30
0.0
 11
26.96566020931264
 21
13.00717430171391
 31
0.0
  0
LINE
  5
92
330
7E
100
AcDbEntity
  8
중심선
100
AcDbLine
 10
22.22332737316547
 20
13.45928029700563
 30
0.0
 11
24.52862924686651
 21
15.39360700705356
 31
0.0
  0
ATTDEF
  5
94
330
7E
100
AcDbEntity
  8
FORMAT
 62
     2
100
AcDbText
 10
-9.18129528874128
 20
2.075366912832191
 30
0.0
 40
4.233333333333333
  1
E5984040 [ 3 FLUTE ]
 41
0.75
  7
SLDTEXTSTYLE0
 11
-9.18129528874128
 21
-0.0412997538344756
 31
0.0
100
AcDbAttributeDefinition
  3

  2
AUTOATTR0
 70
     0
 74
     1
  0
ENDBLK
  5
80
330
7E
100
AcDbEntity
  8
0
100
AcDbBlockEnd
  0
BLOCK
  5
D8
330
D7
100
AcDbEntity
  8
0
100
AcDbBlockBegin
  2
_D
 70
     0
 10
0.0
 20
0.0
 30
0.0
  3
_D
  1
_D
  0
LINE
  5
DA
330
D7
100
AcDbEntity
  8
치수문자_일반주서
 62
     0
370
    -2
100
AcDbLine
 10
75.50000000000007
 20
7.999999999999998
 30
0.0
 11
75.50000000000007
 21
30.13579535053691
 31
0.0
  0
LINE
  5
DB
330
D7
100
AcDbEntity
  8
치수문자_일반주서
 62
     0
370
    -2
100
AcDbLine
 10
12.00000000000008
 20
7.603298216574096
 30
0.0
 11
12.00000000000008
 21
30.13579535053691
 31
0.0
  0
LINE
  5
DC
330
D7
100
AcDbEntity
  8
치수문자_일반주서
 62
     0
370
    -2
100
AcDbLine
 10
72.19800000000006
 20
30.13579535053691
 30
0.0
 11
15.30200000000008
 21
30.13579535053691
 31
0.0
  0
SOLID
  5
DD
330
D7
100
AcDbEntity
  8
치수문자_일반주서
 62
     0
100
AcDbTrace
 10
72.19800000000006
 20
29.58546201720357
 30
0.0
 11
72.19800000000006
 21
30.68612868387024
 31
0.0
 12
75.50000000000007
 22
30.13579535053691
 32
0.0
 13
75.50000000000007
 23
30.13579535053691
 33
0.0
  0
SOLID
  5
DE
330
D7
100
AcDbEntity
  8
치수문자_일반주서
 62
     0
100
AcDbTrace
 10
15.30200000000008
 20
30.68612868387024
 30
0.0
 11
15.30200000000008
 21
29.58546201720357
 31
0.0
 12
12.00000000000008
 22
30.13579535053691
 32
0.0
 13
12.00000000000008
 23
30.13579535053691
 33
0.0
  0
MTEXT
  5
DF
330
D7
100
AcDbEntity
  8
치수문자_일반주서
 62
     0
100
AcDbMText
 10
43.75000000000008
 20
34.51079535053691
 30
0.0
 40
3.5
 41
0.0
 71
     2
 72
     1
  1
\A1;63.50 [2 1/2]
  7
SLDTEXTSTYLE0
 73
     1
 44
1.0
  0
POINT
  5
E0
330
D7
100
AcDbEntity
  8
Defpoints
 62
     0
100
AcDbPoint
 10
75.50000000000007
 20
7.937499999999998
 30
0.0
  0
POINT
  5
E1
330
D7
100
AcDbEntity
  8
Defpoints
 62
     0
100
AcDbPoint
 10
12.00000000000008
 20
7.540798216574096
 30
0.0
  0
POINT
  5
E2
330
D7
100
AcDbEntity
  8
Defpoints
 62
     0
100
AcDbPoint
 10
12.00000000000008
 20
30.13579535053691
 30
0.0
  0
ENDBLK
  5
D9
330
D7
100
AcDbEntity
  8
0
100
AcDbBlockEnd
  0
BLOCK
  5
EC
330
EB
100
AcDbEntity
  8
0
100
AcDbBlockBegin
  2
_D_1
 70
     0
 10
0.0
 20
0.0
 30
0.0
  3
_D_1
  1
_D_1
  0
LINE
  5
EE
330
EB
100
AcDbEntity
  8
치수문자_일반주서
 62
     0
370
    -2
100
AcDbLine
 10
75.50000000000007
 20
7.999999999999998
 30
0.0
 11
75.50000000000006
 21
57.0850977822756
 31
0.0
  0
LINE
  5
EF
330
EB
100
AcDbEntity
  8
치수문자_일반주서
 62
     0
370
    -2
100
AcDbLine
 10
-51.49999999999991
 20
7.499999999999994
 30
0.0
 11
-51.49999999999991
 21
57.0850977822756
 31
0.0
  0
LINE
  5
F0
330
EB
100
AcDbEntity
  8
치수문자_일반주서
 62
     0
370
    -2
100
AcDbLine
 10
72.19800000000006
 20
57.0850977822756
 30
0.0
 11
-48.19799999999992
 21
57.0850977822756
 31
0.0
  0
SOLID
  5
F1
330
EB
100
AcDbEntity
  8
치수문자_일반주서
 62
     0
100
AcDbTrace
 10
72.19800000000006
 20
56.53476444894227
 30
0.0
 11
72.19800000000006
 21
57.63543111560894
 31
0.0
 12
75.50000000000006
 22
57.0850977822756
 32
0.0
 13
75.50000000000006
 23
57.0850977822756
 33
0.0
  0
SOLID
  5
F2
330
EB
100
AcDbEntity
  8
치수문자_일반주서
 62
     0
100
AcDbTrace
 10
-48.19799999999992
 20
57.63543111560894
 30
0.0
 11
-48.19799999999992
 21
56.53476444894227
 31
0.0
 12
-51.49999999999991
 22
57.0850977822756
 32
0.0
 13
-51.49999999999991
 23
57.0850977822756
 33
0.0
  0
MTEXT
  5
F3
330
EB
100
AcDbEntity
  8
치수문자_일반주서
 62
     0
100
AcDbMText
 10
11.49284543754366
 20
61.4600977822756
 30
0.0
 40
3.5
 41
0.0
 71
     2
 72
     1
  1
\A1;127 [5]
  7
SLDTEXTSTYLE0
 73
     1
 44
1.0
  0
POINT
  5
F4
330
EB
100
AcDbEntity
  8
Defpoints
 62
     0
100
AcDbPoint
 10
75.50000000000007
 20
7.937499999999998
 30
0.0
  0
POINT
  5
F5
330
EB
100
AcDbEntity
  8
Defpoints
 62
     0
100
AcDbPoint
 10
-51.49999999999991
 20
7.437499999999994
 30
0.0
  0
POINT
  5
F6
330
EB
100
AcDbEntity
  8
Defpoints
 62
     0
100
AcDbPoint
 10
-51.49999999999991
 20
57.0850977822756
 30
0.0
  0
ENDBLK
  5
ED
330
EB
100
AcDbEntity
  8
0
100
AcDbBlockEnd
  0
BLOCK
  5
100
330
FF
100
AcDbEntity
  8
0
100
AcDbBlockBegin
  2
_NONE
 70
     0
 10
0.0
 20
0.0
 30
0.0
  3
_NONE
  1
_NONE
  0
ENDBLK
  5
101
330
FF
100
AcDbEntity
  8
0
100
AcDbBlockEnd
  0
BLOCK
  5
103
330
102
100
AcDbEntity
  8
0
100
AcDbBlockBegin
  2
_D_2
 70
     0
 10
0.0
 20
0.0
 30
0.0
  3
_D_2
  1
_D_2
  0
LINE
  5
105
330
102
100
AcDbEntity
  8
치수문자_일반주서
100
AcDbLine
 10
-74.29288171604271
 20
-13.33219025233259
 30
0.0
 11
-74.29288171604271
 21
-14.04312773789709
 31
0.0
  0
LINE
  5
106
330
102
100
AcDbEntity
  8
치수문자_일반주서
100
AcDbLine
 10
-74.29288171604271
 20
-14.04312773789709
 30
0.0
 11
-68.73663172498341
 21
-14.04312773789705
 31
0.0
  0
LINE
  5
107
330
102
100
AcDbEntity
  8
치수문자_일반주서
100
AcDbLine
 10
-68.73663172498341
 20
-14.04312773789705
 30
0.0
 11
-68.73663172498341
 21
-13.33219025233255
 31
0.0
  0
LINE
  5
108
330
102
100
AcDbEntity
  8
치수문자_일반주서
100
AcDbLine
 10
-74.2928817160428
 20
-2.50345739019533
 30
0.0
 11
-74.2928817160428
 21
-1.79251990463083
 31
0.0
  0
LINE
  5
109
330
102
100
AcDbEntity
  8
치수문자_일반주서
100
AcDbLine
 10
-74.2928817160428
 20
-1.79251990463083
 30
0.0
 11
-68.7366317249835
 21
-1.792519904630791
 31
0.0
  0
LINE
  5
10A
330
102
100
AcDbEntity
  8
치수문자_일반주서
100
AcDbLine
 10
-68.7366317249835
 20
-1.792519904630791
 30
0.0
 11
-68.7366317249835
 21
-2.503457390195291
 31
0.0
  0
MTEXT
  5
10B
330
102
100
AcDbEntity
  8
치수문자_일반주서
100
AcDbMText
 10
-73.24836863956233
 20
-12.44351835172121
 30
0.0
 40
3.5
 41
0.0
 71
     1
 72
     1
  1
0.00
  7
SLDTEXTSTYLE0
 11
-7.044195017643634E-15
 21
1.0
 31
0.0
 73
     1
 44
1.0
  0
MTEXT
  5
10C
330
102
100
AcDbEntity
  8
치수문자_일반주서
100
AcDbMText
 10
-68.01173708920186
 20
-11.85009823362768
 30
0.0
 40
3.5
 41
0.0
 71
     1
 72
     1
  1
%%c
  7
SLDTEXTSTYLE0
 11
-7.044195017643634E-15
 21
1.0
 31
0.0
 73
     1
 44
1.0
  0
MTEXT
  5
10D
330
102
100
AcDbEntity
  8
치수문자_일반주서
100
AcDbMText
 10
-68.0117370892019
 20
-6.571660835253604
 30
0.0
 40
3.5
 41
0.0
 71
     1
 72
     1
  1
0
  7
SLDTEXTSTYLE0
 11
-7.044195017643634E-15
 21
1.0
 31
0.0
 73
     1
 44
1.0
  0
ENDBLK
  5
104
330
102
100
AcDbEntity
  8
0
100
AcDbBlockEnd
  0
BLOCK
  5
10F
330
10E
100
AcDbEntity
  8
0
100
AcDbBlockBegin
  2
SW_DOWELSYMBOL_0
 70
     0
 10
0.0
 20
0.0
 30
0.0
  3
SW_DOWELSYMBOL_0
  1
SW_DOWELSYMBOL_0
  0
CIRCLE
  5
111
330
10E
100
AcDbEntity
  8
외형선
 62
     0
100
AcDbCircle
 10
0.0
 20
0.0
 30
0.0
 40
3.000000000000008
  0
HATCH
  5
112
330
10E
100
AcDbEntity
  8
0
  6
Continuous
 62
     0
370
    30
100
AcDbHatch
 10
0.0
 20
0.0
 30
0.0
210
0.0
220
0.0
230
1.0
  2
SOLID
 70
     1
 71
     0
 91
        1
 92
        0
 93
        3
 72
     2
 10
0.0000000000000069
 20
0.0
 40
3.000000000000008
 50
0.0
 51
90.0
 73
     1
 72
     1
 10
0.0000000000000069
 20
3.000000000000008
 11
0.0000000000000069
 21
0.0
 72
     1
 10
0.0000000000000069
 20
0.0
 11
3.000000000000015
 21
0.0
 97
        0
 75
     0
 76
     1
 98
        1
 10
0.0
 20
0.0
  0
HATCH
  5
113
330
10E
100
AcDbEntity
  8
0
  6
Continuous
 62
     0
370
    30
100
AcDbHatch
 10
0.0
 20
0.0
 30
0.0
210
0.0
220
0.0
230
1.0
  2
SOLID
 70
     1
 71
     0
 91
        1
 92
        0
 93
        3
 72
     2
 10
0.0000000000000069
 20
0.0
 40
3.000000000000008
 50
180.0
 51
270.0000000000008
 73
     1
 72
     1
 10
0.0000000000000069
 20
-3.000000000000008
 11
0.0000000000000069
 21
0.0
 72
     1
 10
0.0000000000000069
 20
0.0
 11
-3.000000000000001
 21
0.0
 97
        0
 75
     0
 76
     1
 98
        1
 10
0.0
 20
0.0
  0
ENDBLK
  5
110
330
10E
100
AcDbEntity
  8
0
100
AcDbBlockEnd
  0
BLOCK
  5
13E
330
13D
100
AcDbEntity
  8
0
100
AcDbBlockBegin
  2
*D7
 70
     1
 10
0.0
 20
0.0
 30
0.0
  3
*D7
  1
*D7
  0
LINE
  5
140
330
13D
100
AcDbEntity
  8
치수문자_일반주서
 62
     0
370
    -2
100
AcDbLine
 10
-51.06249999999991
 20
-7.937500000000003
 30
0.0
 11
-65.90665667455187
 21
-7.937500000000001
 31
0.0
  0
LINE
  5
141
330
13D
100
AcDbEntity
  8
치수문자_일반주서
 62
     0
370
    -2
100
AcDbLine
 10
-51.06249999999991
 20
7.937499999999995
 30
0.0
 11
-65.90665667455187
 21
7.937499999999996
 31
0.0
  0
LINE
  5
142
330
13D
100
AcDbEntity
  8
치수문자_일반주서
 62
     0
370
    -2
100
AcDbLine
 10
-65.90665667455187
 20
7.937499999999996
 30
0.0
 11
-65.90665667455187
 21
39.23949999999999
 31
0.0
  0
LINE
  5
143
330
13D
100
AcDbEntity
  8
치수문자_일반주서
 62
     0
370
    -2
100
AcDbLine
 10
-65.90665667455187
 20
-4.635500000000001
 30
0.0
 11
-65.90665667455187
 21
4.635499999999996
 31
0.0
  0
SOLID
  5
144
330
13D
100
AcDbEntity
  8
치수문자_일반주서
 62
     0
100
AcDbTrace
 10
-66.4569900078852
 20
-4.635500000000001
 30
0.0
 11
-65.35632334121854
 21
-4.635500000000001
 31
0.0
 12
-65.90665667455187
 22
-7.937500000000001
 32
0.0
 13
-65.90665667455187
 23
-7.937500000000001
 33
0.0
  0
SOLID
  5
145
330
13D
100
AcDbEntity
  8
치수문자_일반주서
 62
     0
100
AcDbTrace
 10
-65.35632334121854
 20
4.635499999999996
 30
0.0
 11
-66.4569900078852
 21
4.635499999999996
 31
0.0
 12
-65.90665667455187
 22
7.937499999999996
 32
0.0
 13
-65.90665667455187
 23
7.937499999999996
 33
0.0
  0
MTEXT
  5
146
330
13D
100
AcDbEntity
  8
치수문자_일반주서
 62
     0
100
AcDbMText
 10
-68.53165667455187
 20
25.2395
 30
0.0
 40
3.5
 41
0.0
 71
     5
 72
     1
  1
\A1;{Ø15.88 [5/8]}
  7
SLDTEXTSTYLE0
 11
0.0
 21
1.0
 31
0.0
 73
     1
 44
1.0
  0
POINT
  5
147
330
13D
100
AcDbEntity
  8
Defpoints
 62
     0
100
AcDbPoint
 10
-50.99999999999991
 20
-7.937500000000003
 30
0.0
  0
POINT
  5
148
330
13D
100
AcDbEntity
  8
Defpoints
 62
     0
100
AcDbPoint
 10
-50.99999999999991
 20
7.937499999999995
 30
0.0
  0
POINT
  5
149
330
13D
100
AcDbEntity
  8
Defpoints
 62
     0
100
AcDbPoint
 10
-65.90665667455187
 20
7.937499999999996
 30
0.0
  0
ENDBLK
  5
13F
330
13D
100
AcDbEntity
  8
0
100
AcDbBlockEnd
  0
BLOCK
  5
153
330
152
100
AcDbEntity
  8
0
100
AcDbBlockBegin
  2
*D8
 70
     1
 10
0.0
 20
0.0
 30
0.0
  3
*D8
  1
*D8
  0
LINE
  5
155
330
152
100
AcDbEntity
  8
치수문자_일반주서
 62
     0
370
    -2
100
AcDbLine
 10
75.56250000000009
 20
-7.937500000000003
 30
0.0
 11
88.33576466175518
 21
-7.937500000000003
 31
0.0
  0
LINE
  5
156
330
152
100
AcDbEntity
  8
치수문자_일반주서
 62
     0
370
    -2
100
AcDbLine
 10
75.56250000000007
 20
7.937499999999998
 30
0.0
 11
88.33576466175518
 21
7.937499999999997
 31
0.0
  0
LINE
  5
157
330
152
100
AcDbEntity
  8
치수문자_일반주서
 62
     0
370
    -2
100
AcDbLine
 10
88.33576466175518
 20
7.937499999999997
 30
0.0
 11
88.33576466175518
 21
39.2395
 31
0.0
  0
LINE
  5
158
330
152
100
AcDbEntity
  8
치수문자_일반주서
 62
     0
370
    -2
100
AcDbLine
 10
88.33576466175518
 20
-4.635500000000003
 30
0.0
 11
88.33576466175518
 21
4.635499999999998
 31
0.0
  0
SOLID
  5
159
330
152
100
AcDbEntity
  8
치수문자_일반주서
 62
     0
100
AcDbTrace
 10
87.78543132842185
 20
-4.635500000000003
 30
0.0
 11
88.8860979950885
 21
-4.635500000000003
 31
0.0
 12
88.33576466175518
 22
-7.937500000000003
 32
0.0
 13
88.33576466175518
 23
-7.937500000000003
 33
0.0
  0
SOLID
  5
15A
330
152
100
AcDbEntity
  8
치수문자_일반주서
 62
     0
100
AcDbTrace
 10
88.8860979950885
 20
4.635499999999998
 30
0.0
 11
87.78543132842185
 21
4.635499999999998
 31
0.0
 12
88.33576466175518
 22
7.937499999999997
 32
0.0
 13
88.33576466175518
 23
7.937499999999997
 33
0.0
  0
MTEXT
  5
15B
330
152
100
AcDbEntity
  8
치수문자_일반주서
 62
     0
100
AcDbMText
 10
85.71076466175518
 20
25.2395
 30
0.0
 40
3.5
 41
0.0
 71
     5
 72
     1
  1
\A1;{Ø15.88 [5/8]}
  7
SLDTEXTSTYLE0
 11
0.0
 21
1.0
 31
0.0
 73
     1
 44
1.0
  0
POINT
  5
15C
330
152
100
AcDbEntity
  8
Defpoints
 62
     0
100
AcDbPoint
 10
75.50000000000009
 20
-7.937500000000003
 30
0.0
  0
POINT
  5
15D
330
152
100
AcDbEntity
  8
Defpoints
 62
     0
100
AcDbPoint
 10
75.50000000000007
 20
7.937499999999998
 30
0.0
  0
POINT
  5
15E
330
152
100
AcDbEntity
  8
Defpoints
 62
     0
100
AcDbPoint
 10
88.33576466175518
 20
7.937499999999997
 30
0.0
  0
ENDBLK
  5
154
330
152
100
AcDbEntity
  8
0
100
AcDbBlockEnd
  0
BLOCK
  5
167
330
166
100
AcDbEntity
  8
0
100
AcDbBlockBegin
  2
*D9
 70
     1
 10
0.0
 20
0.0
 30
0.0
  3
*D9
  1
*D9
  0
LINE
  5
169
330
166
100
AcDbEntity
  8
치수문자_일반주서
 62
     0
370
    -2
100
AcDbLine
 10
76.13374421090877
 20
-10.73025988680053
 30
0.0
 11
90.12912533189167
 21
-38.72926899923939
 31
0.0
  0
MTEXT
  5
16A
330
166
100
AcDbEntity
  8
치수문자_일반주서
 62
     0
100
AcDbMText
 10
86.21762009984232
 20
-25.03289167457246
 30
0.0
 40
3.5
 41
0.0
 71
     5
 72
     1
  1
\A1;R1.52 [R0.06]
  7
SLDTEXTSTYLE0
 11
0.4471082078136515
 21
-0.8944798770825785
 31
0.0
 73
     1
 44
1.0
  0
SOLID
  5
16B
330
166
100
AcDbEntity
  8
치수문자_일반주서
 62
     0
100
AcDbTrace
 10
76.62600630326322
 20
-10.48420133643375
 30
0.0
 11
75.64148211855432
 21
-10.97631843716731
 31
0.0
 12
74.65739290870809
 22
-7.776687332673854
 32
0.0
 13
74.65739290870809
 23
-7.776687332673854
 33
0.0
  0
LINE
  5
16C
330
166
100
AcDbEntity
  8
치수문자_일반주서
 62
     0
100
AcDbLine
 10
73.88600000000008
 20
-6.413500000000003
 30
0.0
 11
74.06600000000009
 21
-6.413500000000003
 31
0.0
  0
LINE
  5
16D
330
166
100
AcDbEntity
  8
치수문자_일반주서
 62
     0
100
AcDbLine
 10
73.97600000000008
 20
-6.503500000000003
 30
0.0
 11
73.97600000000008
 21
-6.323500000000003
 31
0.0
  0
POINT
  5
16E
330
166
100
AcDbEntity
  8
Defpoints
 62
     0
100
AcDbPoint
 10
74.65739290870809
 20
-7.776687332673854
 30
0.0
  0
POINT
  5
16F
330
166
100
AcDbEntity
  8
Defpoints
 62
     0
100
AcDbPoint
 10
73.97600000000008
 20
-6.413500000000003
 30
0.0
  0
ENDBLK
  5
168
330
166
100
AcDbEntity
  8
0
100
AcDbBlockEnd
  0
ENDSEC
  0
SECTION
  2
ENTITIES
  0
LINE
  5
95
330
1F
100
AcDbEntity
  8
0
  6
Continuous
 62
     4
370
    15
100
AcDbLine
 10
12.00000000000009
 20
7.937499999999998
 30
0.0
 11
-50.99999999999991
 21
7.937499999999998
 31
0.0
  0
LINE
  5
96
102
{ACAD_REACTORS
102
}
330
1F
100
AcDbEntity
  8
0
  6
Continuous
 62
     4
370
    15
100
AcDbLine
 10
-50.99999999999991
 20
-7.937500000000003
 30
0.0
 11
8.95029190152471
 21
-7.937500000000003
 31
0.0
  0
LINE
  5
97
102
{ACAD_REACTORS
102
}
330
1F
100
AcDbEntity
  8
0
  6
Continuous
 62
     4
370
    15
100
AcDbLine
 10
-50.99999999999991
 20
7.937499999999995
 30
0.0
 11
-51.49999999999991
 21
7.437499999999994
 31
0.0
  0
LINE
  5
98
330
1F
100
AcDbEntity
  8
0
  6
Continuous
 62
     4
370
    15
100
AcDbLine
 10
-51.49999999999991
 20
-7.437499999999998
 30
0.0
 11
-50.99999999999991
 21
-7.937499999999999
 31
0.0
  0
LINE
  5
99
330
1F
100
AcDbEntity
  8
0
  6
Continuous
 62
     1
370
    15
100
AcDbLine
 10
19.6880191258528
 20
-7.937500000000003
 30
0.0
 11
26.52189917110272
 21
-7.937500000000003
 31
0.0
  0
LINE
  5
9A
330
1F
100
AcDbEntity
  8
0
  6
Continuous
 62
     1
370
    15
100
AcDbLine
 10
59.61349318025322
 20
7.937499999999998
 30
0.0
 11
52.7790748169645
 21
7.937499999999998
 31
0.0
  0
LINE
  5
9B
330
1F
100
AcDbEntity
  8
0
  6
Continuous
 62
     1
370
    15
100
AcDbLine
 10
63.80835994762479
 20
-7.937500000000003
 30
0.0
 11
70.64404595025681
 21
-7.937500000000003
 31
0.0
  0
LINE
  5
9C
330
1F
100
AcDbEntity
  8
0
  6
Continuous
 62
     1
370
    15
100
AcDbLine
 10
37.55244603033716
 20
7.937499999999998
 30
0.0
 11
30.71842039467283
 21
7.937499999999998
 31
0.0
  0
LINE
  5
9D
330
1F
100
AcDbEntity
  8
0
  6
Continuous
 62
     1
370
    15
100
AcDbLine
 10
41.74889274549641
 20
-7.937500000000003
 30
0.0
 11
48.5830240347483
 21
-7.937500000000003
 31
0.0
  0
LINE
  5
9E
330
1F
100
AcDbEntity
  8
0
  6
Continuous
 62
     1
370
    15
100
AcDbLine
 10
15.49248663485843
 20
7.937499999999998
 30
0.0
 11
12.00000000000009
 21
7.937499999999998
 31
0.0
  0
SPLINE
  5
A1
330
1F
100
AcDbEntity
  8
0
  6
Continuous
 62
     4
370
    15
100
AcDbSpline
210
0.0
220
0.0
230
1.0
 70
    24
 71
     3
 72
    12
 73
     8
 74
     0
 42
0.000000001
 43
0.00000001
 40
0.0
 40
0.0
 40
0.0
 40
0.0
 40
0.5
 40
0.5
 40
0.75
 40
0.75
 40
1.0
 40
1.0
 40
1.0
 40
1.0
 10
12.00000000000008
 20
7.479413340668851
 30
0.0
 10
12.00000000000008
 20
6.896109948187775
 30
0.0
 10
12.00000000000008
 20
6.305548391713595
 30
0.0
 10
12.00000000000008
 20
5.407985676994883
 30
0.0
 10
12.00000000000008
 20
5.104867592135977
 30
0.0
 10
12.00000000000008
 20
4.505108988435519
 30
0.0
 10
12.00000000000008
 20
4.208912595828599
 30
0.0
 10
12.00000000000008
 20
3.916712877714193
 30
0.0
  0
SPLINE
  5
A2
330
1F
100
AcDbEntity
  8
0
  6
Continuous
 62
     4
370
    15
100
AcDbSpline
210
0.0
220
0.0
230
1.0
 70
     8
 71
     3
 72
    14
 73
    10
 74
     0
 42
0.000000001
 43
0.00000001
 40
0.0
 40
0.0
 40
0.0
 40
0.0
 40
0.25
 40
0.25
 40
0.5
 40
0.5
 40
0.75
 40
0.75
 40
1.0
 40
1.0
 40
1.0
 40
1.0
 10
9.906258208333835
 20
0.0524866661180345
 30
0.0
 10
9.751825976799498
 20
0.1687822835154479
 30
0.0
 10
9.61473591107179
 20
0.3014113761900082
 30
0.0
 10
9.37397400604704
 20
0.5979326954344427
 30
0.0
 10
9.270713399780394
 20
0.7627833744738186
 30
0.0
 10
9.108744267349355
 20
1.105532046102812
 30
0.0
 10
9.047803354973109
 20
1.287692548167995
 30
0.0
 10
8.968755209673443
 20
1.65673267058934
 30
0.0
 10
8.95029190152249
 20
1.842547974495782
 30
0.0
 10
8.95029190152244
 20
2.029206612347021
 30
0.0
  0
SPLINE
  5
A3
330
1F
100
AcDbEntity
  8
0
  6
Continuous
 62
     4
370
    15
100
AcDbSpline
210
0.0
220
0.0
230
1.0
 70
     8
 71
     3
 72
    22
 73
    18
 74
     0
 42
0.000000001
 43
0.00000001
 40
0.0
 40
0.0
 40
0.0
 40
0.0
 40
0.1250000000000002
 40
0.1250000000000002
 40
0.2500000000000004
 40
0.2500000000000004
 40
0.3750000000000004
 40
0.3750000000000004
 40
0.5000000000000003
 40
0.5000000000000003
 40
0.6250000000000002
 40
0.6250000000000002
 40
0.7500000000000001
 40
0.7500000000000001
 40
0.875
 40
0.875
 40
1.0
 40
1.0
 40
1.0
 40
1.0
 10
8.95029190152471
 20
6.361138029545246
 30
0.0
 10
8.95029190152471
 20
6.474290135552222
 30
0.0
 10
8.968029990644965
 20
6.580194963891127
 30
0.0
 10
9.043248133015695
 20
6.778185177364791
 30
0.0
 10
9.101882642380835
 20
6.870981508357664
 30
0.0
 10
9.2571115327847
 20
7.034834805608062
 30
0.0
 10
9.353712294295399
 20
7.107156964090177
 30
0.0
 10
9.587558048102274
 20
7.234999427060909
 30
0.0
 10
9.719847444019319
 20
7.287893463565341
 30
0.0
 10
10.01429323462881
 20
7.376595618112023
 30
0.0
 10
10.17762715490601
 20
7.412287423923553
 30
0.0
 10
10.5178348630003
 20
7.466318854479674
 30
0.0
 10
10.69872558854194
 20
7.485451785234685
 30
0.0
 10
11.06821653833823
 20
7.508753363911821
 30
0.0
 10
11.25455224632643
 20
7.512997224929645
 30
0.0
 10
11.6304020234459
 20
7.507313057937873
 30
0.0
 10
11.8181831380125
 20
7.497264121233208
 30
0.0
 10
12.0
 20
7.479413340668403
 30
0.0
  0
SPLINE
  5
A4
330
1F
100
AcDbEntity
  8
0
  6
Continuous
 62
     4
370
    15
100
AcDbSpline
210
0.0
220
0.0
230
1.0
 70
     8
 71
     3
 72
    10
 73
     6
 74
     0
 42
0.000000001
 43
0.00000001
 40
0.0
 40
0.0
 40
0.0
 40
0.0
 40
0.5
 40
0.5
 40
1.0
 40
1.0
 40
1.0
 40
1.0
 10
12.00000000000235
 20
-1.515921488226805
 30
0.0
 10
11.65099739842963
 20
-1.257787270620172
 30
0.0
 10
11.30463458946048
 20
-0.9978139291379244
 30
0.0
 10
10.60613638845351
 20
-0.4740067394642836
 30
0.0
 10
10.25556263576458
 20
-0.2105579952464348
 30
0.0
 10
9.906258208333831
 20
0.0524866661180387
 30
0.0
  0
SPLINE
  5
A5
330
1F
100
AcDbEntity
  8
0
  6
Continuous
 62
     4
370
    15
100
AcDbSpline
210
0.0
220
0.0
230
1.0
 70
    24
 71
     3
 72
    14
 73
    10
 74
     0
 42
0.000000001
 43
0.00000001
 40
0.0
 40
0.0
 40
0.0
 40
0.0
 40
0.2499999999999999
 40
0.2499999999999999
 40
0.4999999999999998
 40
0.4999999999999998
 40
0.7499999999999999
 40
0.7499999999999999
 40
1.0
 40
1.0
 40
1.0
 40
1.0
 10
12.00000000000008
 20
3.916712877714174
 30
0.0
 10
12.00000000000008
 20
3.394444007758676
 30
0.0
 10
12.00000000000008
 20
2.855154094285238
 30
0.0
 10
12.00000000000008
 20
1.785448140580803
 30
0.0
 10
12.00000000000008
 20
1.255266265476287
 30
0.0
 10
12.00000000000008
 20
0.2657738789450489
 30
0.0
 10
12.00000000000008
 20
-0.1928597226674126
 30
0.0
 10
12.00000000000008
 20
-0.9714980032791145
 30
0.0
 10
12.00000000000008
 20
-1.290658986319469
 30
0.0
 10
12.00000000000008
 20
-1.515921488225102
 30
0.0
  0
LINE
  5
A6
330
1F
100
AcDbEntity
  8
0
  6
Continuous
 62
     4
370
    15
100
AcDbLine
 10
8.95029190152471
 20
6.361138029545244
 30
0.0
 11
8.95029190152471
 21
2.029206612347625
 31
0.0
  0
LINE
  5
A7
330
1F
100
AcDbEntity
  8
0
  6
Continuous
 62
     4
370
    15
100
AcDbLine
 10
12.00000000000008
 20
-1.515921488225103
 30
0.0
 11
12.00000000000009
 21
-6.041165283273204
 31
0.0
  0
SPLINE
  5
A8
330
1F
100
AcDbEntity
  8
0
  6
Continuous
 62
     4
370
    15
100
AcDbSpline
210
0.0
220
0.0
230
1.0
 70
     8
 71
     3
 72
    22
 73
    18
 74
     0
 42
0.000000001
 43
0.00000001
 40
0.0
 40
0.0
 40
0.0
 40
0.0
 40
0.125
 40
0.125
 40
0.25
 40
0.25
 40
0.375
 40
0.375
 40
0.5
 40
0.5
 40
0.625
 40
0.625
 40
0.75
 40
0.75
 40
0.875
 40
0.875
 40
1.0
 40
1.0
 40
1.0
 40
1.0
 10
8.95029190152471
 20
-7.292122482052973
 30
0.0
 10
8.95029190152471
 20
-7.217402146044607
 30
0.0
 10
8.968029990644965
 20
-7.137678964790827
 30
0.0
 10
9.043248133015695
 20
-6.969631914714376
 30
0.0
 10
9.101882642380835
 20
-6.880308963910032
 30
0.0
 10
9.257111532784698
 20
-6.70456143902116
 30
0.0
 10
9.353712294295397
 20
-6.617210825106976
 30
0.0
 10
9.587558048102274
 20
-6.447816071367104
 30
0.0
 10
9.719847444019317
 20
-6.369372073346371
 30
0.0
 10
10.01429323462881
 20
-6.22844828880801
 30
0.0
 10
10.17762715490601
 20
-6.166007109364266
 30
0.0
 10
10.5178348630003
 20
-6.067253180166867
 30
0.0
 10
10.69872558854194
 20
-6.029619416639885
 30
0.0
 10
11.06821653833823
 20
-5.983241976669401
 30
0.0
 10
11.25455224632643
 20
-5.974412503697934
 30
0.0
 10
11.6304020234459
 20
-5.985959262215888
 30
0.0
 10
11.8181831380125
 20
-6.006581299040241
 30
0.0
 10
12.0
 20
-6.041165283273774
 30
0.0
  0
LINE
  5
A9
330
1F
100
AcDbEntity
  8
0
  6
Continuous
 62
     4
370
    15
100
AcDbLine
 10
8.95029190152471
 20
-7.292122482052971
 30
0.0
 11
8.95029190152471
 21
-7.937500000000003
 31
0.0
  0
SPLINE
  5
AA
330
1F
100
AcDbEntity
  8
0
  6
Continuous
 62
     4
370
    15
100
AcDbSpline
210
0.0
220
0.0
230
1.0
 70
     8
 71
     3
 72
    14
 73
    10
 74
     0
 42
0.000000001
 43
0.00000001
 40
0.0
 40
0.0
 40
0.0
 40
0.0
 40
0.25
 40
0.25
 40
0.5
 40
0.5
 40
0.75
 40
0.75
 40
1.0
 40
1.0
 40
1.0
 40
1.0
 10
9.906258208333835
 20
-6.900169689218947
 30
0.0
 10
9.751825976799498
 20
-6.957651506358565
 30
0.0
 10
9.61473591107179
 20
-7.021028247621122
 30
0.0
 10
9.37397400604704
 20
-7.154717659864121
 30
0.0
 10
9.270713399780394
 20
-7.225285832820209
 30
0.0
 10
9.108744267349355
 20
-7.36148213583724
 30
0.0
 10
9.047803354973109
 20
-7.42881208903819
 30
0.0
 10
8.968755209673443
 20
-7.553007799915963
 30
0.0
 10
8.95029190152249
 20
-7.609670711192321
 30
0.0
 10
8.95029190152244
 20
-7.660253769507047
 30
0.0
  0
LINE
  5
AB
330
1F
100
AcDbEntity
  8
0
  6
Continuous
 62
     4
370
    15
100
AcDbLine
 10
11.90803709391076
 20
-6.029583409066444
 30
0.0
 11
9.906258208333831
 21
-6.900169689218918
 31
0.0
  0
LINE
  5
AC
330
1F
100
AcDbEntity
  8
0
  6
Continuous
 62
     4
370
    15
100
AcDbLine
 10
12.00000000000009
 20
7.937499999999998
 30
0.0
 11
12.00000000000009
 21
7.479413340668697
 31
0.0
  0
LINE
  5
AD
330
1F
100
AcDbEntity
  8
0
  6
Continuous
 62
     4
370
    15
100
AcDbLine
 10
-50.99999999999991
 20
7.937499999999998
 30
0.0
 11
-50.99999999999991
 21
-7.937500000000003
 31
0.0
  0
LINE
  5
AE
330
1F
100
AcDbEntity
  8
0
  6
Continuous
 62
     4
370
    15
100
AcDbLine
 10
-51.49999999999991
 20
7.437499999999994
 30
0.0
 11
-51.49999999999991
 21
-7.437499999999998
 31
0.0
  0
SPLINE
  5
B0
330
1F
100
AcDbEntity
  8
0
  6
Continuous
 62
     1
370
    15
100
AcDbSpline
210
0.0
220
0.0
230
1.0
 70
     8
 71
     3
 72
    26
 73
    22
 74
     0
 42
0.000000001
 43
0.00000001
 40
0.0
 40
0.0
 40
0.0
 40
0.0
 40
0.059273998722533
 40
0.1185477658968762
 40
0.17782133056668
 40
0.2370947217943404
 40
0.2963679686583136
 40
0.3556411002504251
 40
0.4149141456731785
 40
0.466058398251064
 40
0.5172109740889028
 40
0.5683832051440054
 40
0.6195767636682427
 40
0.6707483331002757
 40
0.7209860926725171
 40
0.7712155227300237
 40
0.8214516403817353
 40
0.8717094239042676
 40
0.9229029477427033
 40
0.9740757612434163
 40
1.0
 40
1.0
 40
1.0
 40
1.0
 10
73.97600000000008
 20
-7.937500000000002
 30
0.0
 10
73.25627872074621
 20
-7.937500000000003
 30
0.0
 10
71.81683897375912
 20
-7.937500000000003
 30
0.0
 10
69.65768708970909
 20
-7.954444138258631
 30
0.0
 10
67.49854320921374
 20
-7.640487863977088
 30
0.0
 10
65.33941335999913
 20
-7.000528917920308
 30
0.0
 10
63.18026936018655
 20
-6.069071095662199
 30
0.0
 10
61.02120953070641
 20
-4.883048026531503
 30
0.0
 10
58.96057178722062
 20
-3.556250518097757
 30
0.0
 10
56.9994735300544
 20
-2.169104564648172
 30
0.0
 10
55.13639099542084
 20
-0.7839587048085227
 30
0.0
 10
53.27255457799942
 20
0.6258406599852725
 30
0.0
 10
51.40805152688287
 20
2.015715225557568
 30
0.0
 10
49.55531208430364
 20
3.335159575724217
 30
0.0
 10
47.71456206201695
 20
4.544266746802141
 30
0.0
 10
45.88526271388772
 20
5.60946903959966
 30
0.0
 10
44.05563993797204
 20
6.504933028821563
 30
0.0
 10
42.2140729883569
 20
7.212167910290676
 30
0.0
 10
40.36065524453721
 20
7.689102437682588
 30
0.0
 10
38.80306977066484
 20
7.929584375736794
 30
0.0
 10
37.86715251595613
 20
7.912294147458172
 30
0.0
 10
37.55244603033717
 20
7.906480228599708
 30
0.0
  0
LINE
  5
B1
330
1F
100
AcDbEntity
  8
0
  6
Continuous
 62
     1
370
    15
100
AcDbLine
 10
12.07628272087002
 20
-5.948100664869347
 30
0.0
 11
12.00000000000234
 21
-5.989588160388811
 31
0.0
  0
SPLINE
  5
B2
330
1F
100
AcDbEntity
  8
0
  6
Continuous
 62
     1
370
    15
100
AcDbSpline
210
0.0
220
0.0
230
1.0
 70
     8
 71
     3
 72
    11
 73
     7
 74
     0
 42
0.000000001
 43
0.00000001
 40
0.0
 40
0.0
 40
0.0
 40
0.0
 40
0.2524957179339763
 40
0.5050708910925599
 40
0.7576143249837252
 40
1.0
 40
1.0
 40
1.0
 40
1.0
 10
12.00000000000067
 20
-5.916372402724281
 30
0.0
 10
12.64702487069569
 20
-6.222302974790622
 30
0.0
 10
13.94127821754428
 20
-6.834260389000738
 30
0.0
 10
15.88300431045938
 20
-7.461600130344684
 30
0.0
 10
17.7986832762674
 20
-7.866425245398232
 30
0.0
 10
19.06691677551449
 20
-7.910675286628702
 30
0.0
 10
19.6880191258528
 20
-7.932346220748583
 30
0.0
  0
SPLINE
  5
B3
330
1F
100
AcDbEntity
  8
0
  6
Continuous
 62
     1
370
    15
100
AcDbSpline
210
0.0
220
0.0
230
1.0
 70
     8
 71
     3
 72
    22
 73
    18
 74
     0
 42
0.000000001
 43
0.00000001
 40
0.0
 40
0.0
 40
0.0
 40
0.0
 40
0.0272427945566162
 40
0.0919057768956262
 40
0.1565733219349477
 40
0.2212597865307952
 40
0.2848290896871392
 40
0.3483837623814141
 40
0.4119051916083842
 40
0.475412277227806
 40
0.5503528697439916
 40
0.6252935712065408
 40
0.7002344184105745
 40
0.7751754481377127
 40
0.8501166971526717
 40
0.9250582021998642
 40
1.0
 40
1.0
 40
1.0
 40
1.0
 10
45.16732263010222
 20
5.931032505032723
 30
0.0
 10
45.42889919292381
 20
6.066779369000683
 30
0.0
 10
46.31134894211695
 20
6.524732424007303
 30
0.0
 10
47.81458830444552
 20
7.102352746094558
 30
0.0
 10
49.67741003619125
 20
7.637667031208633
 30
0.0
 10
51.52984088614408
 20
7.921861537874657
 30
0.0
 10
53.3720844200235
 20
7.965030245960997
 30
0.0
 10
55.20289242821816
 20
7.767349582739297
 30
0.0
 10
57.03279249497982
 20
7.335933846587837
 30
0.0
 10
58.97165485563786
 20
6.644520799399846
 30
0.0
 10
61.02121537328555
 20
5.668363974350027
 30
0.0
 10
63.1802677946707
 20
4.402447683904545
 30
0.0
 10
65.3394137794689
 20
2.952400744013722
 30
0.0
 10
67.49854309685527
 20
1.37799172544977
 30
0.0
 10
69.6576871196715
 20
-0.2513852691133092
 30
0.0
 10
71.81683896626848
 20
-1.880438584599858
 30
0.0
 10
73.25627871824929
 20
-2.888603623127343
 30
0.0
 10
73.97600000000077
 20
-3.392687126968009
 30
0.0
  0
SPLINE
  5
B4
330
1F
100
AcDbEntity
  8
0
  6
Continuous
 62
     1
370
    15
100
AcDbSpline
210
0.0
220
0.0
230
1.0
 70
     8
 71
     3
 72
    18
 73
    14
 74
     0
 42
0.000000001
 43
0.00000001
 40
0.0
 40
0.0
 40
0.0
 40
0.0
 40
0.2500000000000001
 40
0.2500000000000001
 40
0.5000000000000001
 40
0.5000000000000001
 40
0.6250000000000001
 40
0.6250000000000001
 40
0.7500000000000002
 40
0.7500000000000002
 40
0.8750000000000002
 40
0.8750000000000002
 40
1.0
 40
1.0
 40
1.0
 40
1.0
 10
73.97600000000008
 20
-3.392687126967549
 30
0.0
 10
74.16614019197777
 20
-3.522086712794313
 30
0.0
 10
74.3488654035611
 20
-3.633687374135632
 30
0.0
 10
74.7031650748805
 20
-3.816934269478356
 30
0.0
 10
74.86809799416366
 20
-3.884651211299385
 30
0.0
 10
75.08581626793492
 20
-3.944456432217364
 30
0.0
 10
75.1532490134859
 20
-3.957274692845408
 30
0.0
 10
75.27145406147775
 20
-3.968168657818996
 30
0.0
 10
75.3230779474012
 20
-3.966495655825132
 30
0.0
 10
75.40919373619361
 20
-3.949346823303383
 30
0.0
 10
75.44287204976173
 20
-3.933842635745213
 30
0.0
 10
75.48802586636988
 20
-3.892092867901325
 30
0.0
 10
75.50000000000006
 20
-3.865767384965423
 30
0.0
 10
75.50000000000009
 20
-3.834806627881922
 30
0.0
  0
SPLINE
  5
B5
330
1F
100
AcDbEntity
  8
0
  6
Continuous
 62
     1
370
    15
100
AcDbSpline
210
0.0
220
0.0
230
1.0
 70
     8
 71
     3
 72
    11
 73
     7
 74
     0
 42
0.000000001
 43
0.00000001
 40
0.0
 40
0.0
 40
0.0
 40
0.0
 40
0.2121636631228413
 40
0.5722136425360904
 40
0.9411119038098048
 40
1.0
 40
1.0
 40
1.0
 40
1.0
 10
74.19695331650642
 20
-3.534424793032039
 30
0.0
 10
74.1107608922456
 20
-3.555032467540607
 30
0.0
 10
73.87829657522092
 20
-3.610612166350385
 30
0.0
 10
73.45095358686976
 20
-3.785214890739849
 30
0.0
 10
73.08462220793363
 20
-3.963004125358921
 30
0.0
 10
72.88316058449637
 20
-4.072968216122214
 30
0.0
 10
72.85542783600494
 20
-4.088105622543321
 30
0.0
  0
SPLINE
  5
B6
330
1F
100
AcDbEntity
  8
0
  6
Continuous
 62
     1
370
    15
100
AcDbSpline
210
0.0
220
0.0
230
1.0
 70
     8
 71
     3
 72
     8
 73
     4
 74
     0
 42
0.000000001
 43
0.00000001
 40
0.0
 40
0.0
 40
0.0
 40
0.0
 40
1.0
 40
1.0
 40
1.0
 40
1.0
 10
75.50000000000009
 20
-4.640327385311442
 30
0.0
 10
74.59069810576419
 20
-4.578115589207312
 30
0.0
 10
73.70858264874495
 20
-4.396636166221998
 30
0.0
 10
72.8554278360029
 20
-4.088105622548411
 30
0.0
  0
LINE
  5
B7
330
1F
100
AcDbEntity
  8
0
  6
Continuous
 62
     1
370
    15
100
AcDbLine
 10
75.50000000000009
 20
-6.413500000000003
 30
0.0
 11
75.50000000000009
 21
-4.64032738531145
 31
0.0
  0
SPLINE
  5
B8
330
1F
100
AcDbEntity
  8
0
  6
Continuous
 62
     1
370
    15
100
AcDbSpline
210
0.0
220
0.0
230
1.0
 70
     8
 71
     3
 72
    30
 73
    26
 74
     0
 42
0.000000001
 43
0.00000001
 40
0.0
 40
0.0
 40
0.0
 40
0.0
 40
0.026036023765888
 40
0.0718246962592349
 40
0.1176324524719975
 40
0.1634205329481231
 40
0.2083730447386657
 40
0.2533181033184658
 40
0.2982691459262144
 40
0.3432395750536211
 40
0.389047300229691
 40
0.4348364938926402
 40
0.4806078686632481
 40
0.5263715629232453
 40
0.572137752213311
 40
0.6171007349473916
 40
0.6620907054194818
 40
0.7070691785041406
 40
0.7520244275896618
 40
0.7996916931071064
 40
0.8473587759546034
 40
0.8950303976708622
 40
0.942711266543258
 40
0.9904060639052028
 40
1.0
 40
1.0
 40
1.0
 40
1.0
 10
56.19629037326409
 20
-5.930528132400926
 30
0.0
 10
55.84306706440996
 20
-6.109756729284102
 30
0.0
 10
54.86864189495036
 20
-6.604188584465034
 30
0.0
 10
53.27254766220362
 20
-7.196231347454371
 30
0.0
 10
51.40805337875231
 20
-7.695206732968441
 30
0.0
 10
49.55531160488664
 20
-7.943915458942614
 30
0.0
 10
47.71456216524462
 20
-7.950517345232398
 30
0.0
 10
45.88526277670009
 20
-7.717104879927938
 30
0.0
 10
44.055639583366
 20
-7.251475572012027
 30
0.0
 10
42.21407435522013
 20
-6.563223174155461
 30
0.0
 10
40.36065002946413
 20
-5.669047348842501
 30
0.0
 10
38.4967861552975
 20
-4.592306459193392
 30
0.0
 10
36.63373023246111
 20
-3.372326144449071
 30
0.0
 10
34.7710989284646
 20
-2.047182318961205
 30
0.0
 10
32.91937175963273
 20
-0.6663761851547306
 30
0.0
 10
31.07808728146607
 20
0.7265443781294048
 30
0.0
 10
29.2469148311326
 20
2.088762137819563
 30
0.0
 10
27.41610412370287
 20
3.388386199133617
 30
0.0
 10
25.54941306898803
 20
4.610050556799863
 30
0.0
 10
23.6460226506435
 20
5.708085842295516
 30
0.0
 10
21.70586117477394
 20
6.632492248774443
 30
0.0
 10
19.76543202934397
 20
7.338691682397851
 30
0.0
 10
17.82452253703404
 20
7.773131608603728
 30
0.0
 10
16.40010226560355
 20
7.962788621632908
 30
0.0
 10
15.62267890168023
 20
7.922604165040413
 30
0.0
 10
15.49248663485844
 20
7.915874620062016
 30
0.0
  0
SPLINE
  5
B9
330
1F
100
AcDbEntity
  8
0
  6
Continuous
 62
     1
370
    15
100
AcDbSpline
210
0.0
220
0.0
230
1.0
 70
     8
 71
     3
 72
    30
 73
    26
 74
     0
 42
0.000000001
 43
0.00000001
 40
0.0
 40
0.0
 40
0.0
 40
0.0
 40
0.0133189325160876
 40
0.0609856089064505
 40
0.1067570583232374
 40
0.1525468236072569
 40
0.198353818243671
 40
0.244139745553613
 40
0.2899090808823061
 40
0.3348536041952364
 40
0.3798038057413182
 40
0.4247730895036901
 40
0.4697654090376315
 40
0.515552413793301
 40
0.5613223288688486
 40
0.6070852968433708
 40
0.652851493909727
 40
0.6986310806316183
 40
0.7436200353515654
 40
0.788598635872821
 40
0.8335537094908223
 40
0.8784986319214032
 40
0.9315352196452725
 40
0.984571884472127
 40
1.0
 40
1.0
 40
1.0
 40
1.0
 10
23.10392590897963
 20
5.932806383047887
 30
0.0
 10
23.28462838653014
 20
6.028679193452986
 30
0.0
 10
24.11204083951845
 20
6.467667957234577
 30
0.0
 10
25.56047778091056
 20
7.034395360190203
 30
0.0
 10
27.44933789128708
 20
7.60057885715289
 30
0.0
 10
29.31326096895474
 20
7.90762459718546
 30
0.0
 10
31.1777575961437
 20
7.971598679897644
 30
0.0
 10
33.04151311320795
 20
7.785716949944273
 30
0.0
 10
34.89341066042489
 20
7.359640311806678
 30
0.0
 10
36.7337747978239
 20
6.711213818413905
 30
0.0
 10
38.56338981829754
 20
5.864613059525812
 30
0.0
 10
40.39387131272232
 20
4.841241274309179
 30
0.0
 10
42.23621752940676
 20
3.665420195873712
 30
0.0
 10
44.08895828852412
 20
2.369083843703624
 30
0.0
 10
45.95196870082346
 20
0.9912639457214159
 30
0.0
 10
47.81459361453516
 20
-0.4174234166337261
 30
0.0
 10
49.67740861257973
 20
-1.813093101774631
 30
0.0
 10
51.5298412582617
 20
-3.144516872619151
 30
0.0
 10
53.37208432860155
 20
-4.371093553759168
 30
0.0
 10
55.202892424573
 20
-5.459271341337104
 30
0.0
 10
57.03279260084694
 20
-6.381660116417693
 30
0.0
 10
58.97165440436529
 20
-7.161112338948562
 30
0.0
 10
61.02121740794703
 20
-7.699303526678901
 30
0.0
 10
62.66992977083731
 20
-7.95723022849335
 30
0.0
 10
63.5989997616029
 20
-7.91309268967581
 30
0.0
 10
63.80835994762477
 20
-7.903146567823599
 30
0.0
  0
SPLINE
  5
BA
330
1F
100
AcDbEntity
  8
0
  6
Continuous
 62
     1
370
    15
100
AcDbSpline
210
0.0
220
0.0
230
1.0
 70
     8
 71
     3
 72
    20
 73
    16
 74
     0
 42
0.000000001
 43
0.00000001
 40
0.0
 40
0.0
 40
0.0
 40
0.0
 40
0.125
 40
0.125
 40
0.25
 40
0.25
 40
0.375
 40
0.375
 40
0.5
 40
0.5
 40
0.625
 40
0.625
 40
0.75
 40
0.75
 40
1.0
 40
1.0
 40
1.0
 40
1.0
 10
75.50000000000009
 20
0.7506683715545465
 30
0.0
 10
75.50000000000009
 20
0.722124302136468
 30
0.0
 10
75.48973937327547
 20
0.7019439576471622
 30
0.0
 10
75.44543768364329
 20
0.6824278212407543
 30
0.0
 10
75.41146732511437
 20
0.6836343498811124
 30
0.0
 10
75.32217495442866
 20
0.7090611197217475
 30
0.0
 10
75.2660342580542
 20
0.7336347769015155
 30
0.0
 10
75.1396655268129
 20
0.8011100225617839
 30
0.0
 10
75.06798509574105
 20
0.8446893130231876
 30
0.0
 10
74.91706148733286
 20
0.9432837009681412
 30
0.0
 10
74.83620851542774
 20
0.9992919776058942
 30
0.0
 10
74.6712991183385
 20
1.117054561604518
 30
0.0
 10
74.58713282891436
 20
1.17883243534444
 30
0.0
 10
74.32900843188868
 20
1.37023586056141
 30
0.0
 10
74.1520762466068
 20
1.503850063479684
 30
0.0
 10
73.97600000000011
 20
1.633558807613856
 30
0.0
  0
SPLINE
  5
BB
330
1F
100
AcDbEntity
  8
0
  6
Continuous
 62
     1
370
    15
100
AcDbSpline
210
0.0
220
0.0
230
1.0
 70
     8
 71
     3
 72
    14
 73
    10
 74
     0
 42
0.000000001
 43
0.00000001
 40
0.0
 40
0.0
 40
0.0
 40
0.0
 40
0.1503328835538282
 40
0.3006651798466692
 40
0.4509969625400903
 40
0.6013283053432039
 40
0.7516592820058535
 40
0.9019899663117913
 40
1.0
 40
1.0
 40
1.0
 40
1.0
 10
73.97600000000077
 20
1.633558807613382
 30
0.0
 10
73.25627874167957
 20
2.157663716869161
 30
0.0
 10
71.81683903655922
 20
3.205871488015173
 30
0.0
 10
69.65768683851023
 20
4.625854978761749
 30
0.0
 10
67.49854415120495
 20
5.856103220722185
 30
0.0
 10
65.33940984324646
 20
6.843376751592626
 30
0.0
 10
63.18028248516483
 20
7.531191686698739
 30
0.0
 10
61.27164428334672
 20
7.904115886893821
 30
0.0
 10
60.08271533347489
 20
7.900951347743292
 30
0.0
 10
59.61349318025322
 20
7.899702432175772
 30
0.0
  0
SPLINE
  5
BC
330
1F
100
AcDbEntity
  8
0
  6
Continuous
 62
     1
370
    15
100
AcDbSpline
210
0.0
220
0.0
230
1.0
 70
     8
 71
     3
 72
    19
 73
    15
 74
     0
 42
0.000000001
 43
0.00000001
 40
0.0
 40
0.0
 40
0.0
 40
0.0
 40
0.0555003248510971
 40
0.1381774753811512
 40
0.2209042504944113
 40
0.3036098844116575
 40
0.3862728144432657
 40
0.4739225531149546
 40
0.5615719558963214
 40
0.6492297046706147
 40
0.7369044569547603
 40
0.8246048207032057
 40
0.9123162064974624
 40
1.0
 40
1.0
 40
1.0
 40
1.0
 10
34.1369035890397
 20
-5.931280907396234
 30
0.0
 10
33.72742649137079
 20
-6.1360661086574
 30
0.0
 10
32.70796378130391
 20
-6.645913612822587
 30
0.0
 10
31.07808584750946
 20
-7.238801260454296
 30
0.0
 10
29.2469152146834
 20
-7.713322608234943
 30
0.0
 10
27.41610402350537
 20
-7.948467710038123
 30
0.0
 10
25.54941308885534
 20
-7.946119732682037
 30
0.0
 10
23.64602268039839
 20
-7.686713053484403
 30
0.0
 10
21.70586103607359
 20
-7.162267578240392
 30
0.0
 10
19.76543255448865
 20
-6.395251242481867
 30
0.0
 10
17.82452057452189
 20
-5.41192707140441
 30
0.0
 10
15.88300582000662
 20
-4.244350845897679
 30
0.0
 10
13.94127784027796
 20
-2.936892779431232
 30
0.0
 10
12.64702474495456
 20
-1.989528907114061
 30
0.0
 10
12.00000000000234
 20
-1.5159214882268
 30
0.0
  0
SPLINE
  5
BD
330
1F
100
AcDbEntity
  8
0
  6
Continuous
 62
     4
370
    15
100
AcDbSpline
210
0.0
220
0.0
230
1.0
 70
    24
 71
     3
 72
    20
 73
    16
 74
     0
 42
0.000000001
 43
0.00000001
 40
0.0
 40
0.0
 40
0.0
 40
0.0
 40
0.2499999999999998
 40
0.2499999999999998
 40
0.3749999999999998
 40
0.3749999999999998
 40
0.4999999999999998
 40
0.4999999999999998
 40
0.6249999999999998
 40
0.6249999999999998
 40
0.7499999999999999
 40
0.7499999999999999
 40
0.875
 40
0.875
 40
1.0
 40
1.0
 40
1.0
 40
1.0
 10
12.00000000000008
 20
7.5407982165741
 30
0.0
 10
12.00000000000008
 20
6.914413742964407
 30
0.0
 10
12.00000000000008
 20
6.199436277593882
 30
0.0
 10
12.00000000000008
 20
5.007856543132711
 30
0.0
 10
12.00000000000008
 20
4.591357309825884
 30
0.0
 10
12.00000000000008
 20
3.731974653643391
 30
0.0
 10
12.00000000000008
 20
3.289039653790601
 30
0.0
 10
12.00000000000008
 20
2.398409849834596
 30
0.0
 10
12.00000000000008
 20
1.950754885366749
 30
0.0
 10
12.00000000000008
 20
1.082293061034387
 30
0.0
 10
12.00000000000008
 20
0.6616702615388838
 30
0.0
 10
12.00000000000008
 20
-0.1143258263417171
 30
0.0
 10
12.00000000000008
 20
-0.4693834512717323
 30
0.0
 10
12.00000000000008
 20
-1.076700212934142
 30
0.0
 10
12.00000000000008
 20
-1.328631885975701
 30
0.0
 10
12.00000000000008
 20
-1.515921488225102
 30
0.0
  0
SPLINE
  5
BE
330
1F
100
AcDbEntity
  8
0
  6
Continuous
 62
     1
370
    15
100
AcDbSpline
210
0.0
220
0.0
230
1.0
 70
     8
 71
     3
 72
    23
 73
    19
 74
     0
 42
0.000000001
 43
0.00000001
 40
0.0
 40
0.0
 40
0.0
 40
0.0
 40
0.0652470594494887
 40
0.1305146508105914
 40
0.1957740404727303
 40
0.2610143721919244
 40
0.326242051299115
 40
0.3914635200055588
 40
0.456685238653924
 40
0.5193137418778894
 40
0.5819673064744929
 40
0.6446444457790365
 40
0.7072927589235897
 40
0.7699183694671903
 40
0.8314154000194082
 40
0.8929202000272095
 40
0.9544511099935041
 40
1.0
 40
1.0
 40
1.0
 40
1.0
 10
12.00000000000067
 20
7.540798216546497
 30
0.0
 10
12.64702474297808
 20
7.363879608133585
 30
0.0
 10
13.94127783435124
 20
7.009986718649691
 30
0.0
 10
15.88300584371399
 20
6.173553157246128
 30
0.0
 10
17.82452048563817
 20
5.146369717561366
 30
0.0
 10
19.76543288618298
 20
3.940041084900412
 30
0.0
 10
21.70585979844456
 20
2.601760972032034
 30
0.0
 10
23.64602729884999
 20
1.175118917605701
 30
0.0
 10
25.56047768100454
 20
-0.2717280511272518
 30
0.0
 10
27.44933791664314
 20
-1.689850379242531
 30
0.0
 10
29.31326096577218
 20
-3.035956515407067
 30
0.0
 10
31.17775758349882
 20
-4.286927484173774
 30
0.0
 10
33.04151316693028
 20
-5.404581452367985
 30
0.0
 10
34.89341045978745
 20
-6.347102965533633
 30
0.0
 10
36.73377553210784
 20
-7.091983634386675
 30
0.0
 10
38.56338707524757
 20
-7.610797504362772
 30
0.0
 10
40.23508962263072
 20
-7.902904208199837
 30
0.0
 10
41.29712937162314
 20
-7.911006774315572
 30
0.0
 10
41.74889274549641
 20
-7.914453389763765
 30
0.0
  0
SPLINE
  5
BF
330
1F
100
AcDbEntity
  8
0
  6
Continuous
 62
     1
370
    15
100
AcDbSpline
210
0.0
220
0.0
230
1.0
 70
     8
 71
     3
 72
    11
 73
     7
 74
     0
 42
0.000000001
 43
0.00000001
 40
0.0
 40
0.0
 40
0.0
 40
0.0
 40
0.0404685844401467
 40
0.3603112446634572
 40
0.6801549976098208
 40
1.0
 40
1.0
 40
1.0
 40
1.0
 10
67.22535383767168
 20
5.939334533699415
 30
0.0
 10
67.3164166838548
 20
5.988979291276745
 30
0.0
 10
68.12719294165464
 20
6.430990412771724
 30
0.0
 10
69.65768695693642
 20
7.026584019178875
 30
0.0
 10
71.8168390069525
 20
7.685085766955862
 30
0.0
 10
73.25627873181065
 20
7.835600252286115
 30
0.0
 10
73.97600000000008
 20
7.9375
 30
0.0
  0
LINE
  5
C1
330
1F
100
AcDbEntity
  8
0
  6
Continuous
 62
     1
370
    15
100
AcDbLine
 10
75.50000000000009
 20
5.139562718986262
 30
0.0
 11
75.50000000000009
 21
6.369417496596345
 31
0.0
  0
SPLINE
  5
C2
330
1F
100
AcDbEntity
  8
0
  6
Continuous
 62
     1
370
    15
100
AcDbSpline
210
0.0
220
0.0
230
1.0
 70
     8
 71
     3
 72
    18
 73
    14
 74
     0
 42
0.000000001
 43
0.00000001
 40
0.0
 40
0.0
 40
0.0
 40
0.0
 40
0.2500000000000033
 40
0.2500000000000033
 40
0.3750000000000048
 40
0.3750000000000048
 40
0.5000000000000062
 40
0.5000000000000062
 40
0.6250000000000075
 40
0.6250000000000075
 40
0.7500000000000089
 40
0.7500000000000089
 40
1.0
 40
1.0
 40
1.0
 40
1.0
 10
75.50000000000009
 20
5.139562718986251
 30
0.0
 10
75.37616549347088
 20
4.828820125309776
 30
0.0
 10
75.22658115600353
 20
4.540150760878594
 30
0.0
 10
74.95742453926988
 20
4.145533049574764
 30
0.0
 10
74.85930997783693
 20
4.019503537416168
 30
0.0
 10
74.65175380288014
 20
3.787327777702259
 30
0.0
 10
74.54245677874714
 20
3.681004786313227
 30
0.0
 10
74.31302908228766
 20
3.48752723632007
 30
0.0
 10
74.19289986428588
 20
3.400370104517668
 30
0.0
 10
73.94173341302535
 20
3.245355854494478
 30
0.0
 10
73.81054899351383
 20
3.177666689881395
 30
0.0
 10
73.41278796598445
 20
3.008659445697869
 30
0.0
 10
73.1365981428283
 20
2.938379517084298
 30
0.0
 10
72.85542783600579
 20
2.906664270008223
 30
0.0
  0
SPLINE
  5
C3
330
1F
100
AcDbEntity
  8
0
  6
Continuous
 62
     1
370
    15
100
AcDbSpline
210
0.0
220
0.0
230
1.0
 70
     8
 71
     3
 72
     8
 73
     4
 74
     0
 42
0.000000001
 43
0.00000001
 40
0.0
 40
0.0
 40
0.0
 40
0.0
 40
1.0
 40
1.0
 40
1.0
 40
1.0
 10
75.50000000000009
 20
1.531147021911051
 30
0.0
 10
74.59069810576435
 20
2.058259412536289
 30
0.0
 10
73.70858264874525
 20
2.518225827299661
 30
0.0
 10
72.85542783600334
 20
2.906664270005221
 30
0.0
  0
LINE
  5
C4
330
1F
100
AcDbEntity
  8
0
  6
Continuous
 62
     1
370
    15
100
AcDbLine
 10
75.50000000000009
 20
0.7506683715545504
 30
0.0
 11
75.50000000000009
 21
1.531147021911051
 31
0.0
  0
LINE
  5
C5
330
1F
100
AcDbEntity
  8
0
  6
Continuous
 62
     4
370
    15
100
AcDbLine
 10
12.00000000000008
 20
-5.916372402742344
 30
0.0
 11
12.00000000000008
 21
-1.515921488225103
 31
0.0
  0
LINE
  5
C6
330
1F
100
AcDbEntity
  8
0
  6
Continuous
 62
     4
370
    15
100
AcDbLine
 10
12.00000000000008
 20
7.540798216574096
 30
0.0
 11
12.00000000000009
 21
7.937499999999998
 31
0.0
  0
LINE
  5
C7
330
1F
100
AcDbEntity
  8
0
  6
Continuous
 62
     1
370
    15
100
AcDbLine
 10
75.50000000000009
 20
-3.834806627881923
 30
0.0
 11
75.50000000000009
 21
0.7506683715545504
 31
0.0
  0
LINE
  5
C8
330
1F
100
AcDbEntity
  8
0
  6
Continuous
 62
     1
370
    15
100
AcDbLine
 10
75.50000000000009
 20
1.531147021911051
 30
0.0
 11
75.50000000000009
 21
5.139562718986262
 31
0.0
  0
LINE
  5
C9
330
1F
100
AcDbEntity
  8
0
  6
Continuous
 62
     1
370
    15
100
AcDbLine
 10
75.50000000000009
 20
-3.834806627881924
 30
0.0
 11
75.50000000000009
 21
-4.640327385311442
 31
0.0
  0
LINE
  5
CA
330
1F
100
AcDbEntity
  8
0
  6
Continuous
 62
     1
370
    15
100
AcDbLine
 10
75.50000000000009
 20
6.369417496596345
 30
0.0
 11
75.50000000000009
 21
6.413499999999998
 31
0.0
  0
LINE
  5
CB
330
1F
100
AcDbEntity
  8
중심선
100
AcDbLine
 10
-54.49999999999993
 20
-0.0000000000000018
 30
0.0
 11
78.50000000000007
 21
-0.0000000000000013
 31
0.0
  0
CIRCLE
  5
CC
330
1F
100
AcDbEntity
  8
외형선
100
AcDbCircle
 10
0.0
 20
0.0
 30
0.0
 40
3.000000000000008
  0
INSERT
  5
CD
330
1F
100
AcDbEntity
  8
0
  6
Continuous
 62
     7
100
AcDbBlockReference
 66
     1
  2
블럭10
 10
-3.470438338924186
 20
-38.36333163256027
 30
0.0
  0
ATTRIB
  5
CE
330
CD
100
AcDbEntity
  8
FORMAT
 62
     2
100
AcDbText
 10
-12.65173362766546
 20
-36.28796471972808
 30
0.0
 40
4.233333333333333
  1
E5984040 [ 3 FLUTE ]
 41
0.75
  7
SLDTEXTSTYLE0
 11
-12.65173362766546
 21
-38.40463138639475
 31
0.0
100
AcDbAttribute
  2
AUTOATTR0
 70
     0
 74
     1
  0
SEQEND
  5
CF
330
CD
100
AcDbEntity
  8
0
  6
Continuous
 62
     7
  0
HATCH
  5
D0
330
1F
100
AcDbEntity
  8
중심선
100
AcDbHatch
 10
0.0
 20
0.0
 30
0.0
210
0.0
220
0.0
230
1.0
  2
SOLID
 70
     1
 71
     0
 91
        1
 92
        0
 93
        4
 72
     1
 10
2.244470965456651
 20
-22.11615733091634
 11
-1.201804278380632
 21
-22.11615733091634
 72
     1
 10
-1.201804278380632
 20
-22.11615733091634
 11
-3.330034137584654
 21
-24.65248291148894
 72
     1
 10
-3.330034137584654
 20
-24.65248291148894
 11
0.116274191365779
 21
-24.65244348218645
 72
     1
 10
0.116274191365779
 20
-24.65244348218645
 11
2.244470965456651
 21
-22.11615733091634
 97
        0
 75
     0
 76
     1
 98
        1
 10
16.8754135464437
 20
13.68276774035976
  0
HATCH
  5
D1
330
1F
100
AcDbEntity
  8
중심선
100
AcDbHatch
 10
0.0
 20
0.0
 30
0.0
210
0.0
220
0.0
230
1.0
  2
SOLID
 70
     1
 71
     0
 91
        1
 92
        0
 93
        4
 72
     1
 10
7.257234956492603
 20
-22.11615733091637
 11
3.810959712655348
 21
-22.11615733091632
 72
     1
 10
3.810959712655348
 20
-22.11615733091632
 11
-0.7201782957020697
 21
-27.51615733091636
 72
     1
 10
-0.7201782957020697
 20
-27.51615733091636
 11
2.726096948135215
 21
-27.51615733091636
 72
     1
 10
2.726096948135215
 20
-27.51615733091636
 11
7.257234956492603
 21
-22.11615733091637
 97
        0
 75
     0
 76
     1
 98
        1
 10
16.8754135464437
 20
13.68276774035976
  0
HATCH
  5
D2
330
1F
100
AcDbEntity
  8
중심선
100
AcDbHatch
 10
0.0
 20
0.0
 30
0.0
210
0.0
220
0.0
230
1.0
  2
SOLID
 70
     1
 71
     0
 91
        1
 92
        0
 93
        4
 72
     1
 10
12.26999894752853
 20
-22.11615733091637
 11
8.82372370369141
 21
-22.11615733091634
 72
     1
 10
8.82372370369141
 20
-22.11615733091634
 11
1.775286801802133
 21
-30.51615733091636
 72
     1
 10
1.775286801802133
 20
-30.51615733091636
 11
5.221562045639416
 21
-30.51615733091636
 72
     1
 10
5.221562045639416
 20
-30.51615733091636
 11
12.26999894752853
 21
-22.11615733091637
 97
        0
 75
     0
 76
     1
 98
        1
 10
16.8754135464437
 20
13.68276774035976
  0
HATCH
  5
D3
330
1F
100
AcDbEntity
  8
중심선
100
AcDbHatch
 10
0.0
 20
0.0
 30
0.0
210
0.0
220
0.0
230
1.0
  2
SOLID
 70
     1
 71
     0
 91
        1
 92
        0
 93
        6
 72
     3
 10
17.0698893785407
 20
-26.31615733096761
 11
3.960054785062283
 21
1.540882976769353E-10
 40
0.3939339440162628
 50
17.09539180608437
 51
320.0019657685083
 73
     0
 72
     1
 10
18.75288903424126
 20
-24.90405133555467
 11
21.05819090794236
 21
-22.96972462550672
 72
     3
 10
17.06988937848785
 20
-26.31615733091649
 11
6.600054785286829
 21
-1.278976924368180E-13
 40
0.636358354079598
 50
39.99873849337386
 51
368.4976242363725
 73
     1
 72
     1
 10
23.49522187038846
 20
-25.35615733084637
 11
15.74995668532378
 21
-25.35615733084637
 72
     1
 10
15.74995668532377
 20
-25.35615733084637
 11
15.74993164087784
 21
-27.27615733084625
 72
     1
 10
15.74993164087784
 20
-27.27615733084625
 11
20.19131141034988
 21
-27.27615733084622
 97
        0
 75
     0
 76
     1
 98
        1
 10
16.8754135464437
 20
13.68276774035976
  0
POINT
  5
D4
330
1F
100
AcDbEntity
  8
치수문자_일반주서
100
AcDbPoint
 10
-51.49999999999993
 20
-0.1156937548689109
 30
0.0
  0
DIMENSION
  5
D5
102
{ACAD_REACTORS
102
}
330
1F
100
AcDbEntity
  8
치수문자_일반주서
100
AcDbDimension
  2
_D
 10
12.00000000000008
 20
30.13579535053691
 30
0.0
 11
43.75000000000008
 21
30.13579535053691
 31
0.0
 70
   160
  1
<>
 71
     2
 42
63.49999999999999
  3
SLDDIMSTYLE0
100
AcDbAlignedDimension
 13
75.50000000000007
 23
7.937499999999998
 33
0.0
 14
12.00000000000008
 24
7.540798216574096
 34
0.0
 50
0.0000000000000192
100
AcDbRotatedDimension
1001
ACAD
1000
DSTYLE
1002
{
1070
   171
1070
     6
1070
   273
1070
     5
1002
}
  0
DIMENSION
  5
E9
330
1F
100
AcDbEntity
  8
치수문자_일반주서
100
AcDbDimension
  2
_D_1
 10
-51.49999999999991
 20
57.0850977822756
 30
0.0
 11
11.49284543754366
 21
57.0850977822756
 31
0.0
 70
   160
  1
<>
 71
     2
 42
127.0
  3
SLDDIMSTYLE1
100
AcDbAlignedDimension
 13
75.50000000000007
 23
7.937499999999998
 33
0.0
 14
-51.49999999999991
 24
7.437499999999994
 34
0.0
 50
0.0000000000000064
100
AcDbRotatedDimension
1001
ACAD
1000
DSTYLE
1002
{
1070
   171
1070
     6
1070
   273
1070
     5
1002
}
  0
INSERT
  5
114
330
1F
100
AcDbEntity
  8
외형선
100
AcDbBlockReference
  2
SW_DOWELSYMBOL_0
 10
0.0
 20
0.0
 30
0.0
  0
DIMENSION
  5
13A
102
{ACAD_REACTORS
102
}
102
{ACAD_XDICTIONARY
360
13B
102
}
330
1F
100
AcDbEntity
  8
치수문자_일반주서
100
AcDbDimension
  2
*D7
 10
-65.90665667455187
 20
7.937499999999996
 30
0.0
 11
-68.53165667455187
 21
25.2395
 31
0.0
 70
    32
  1
{Ø<>[]}
 71
     5
 42
15.875
  3
SLDDIMSTYLE0
100
AcDbAlignedDimension
 13
-50.99999999999991
 23
-7.937500000000003
 33
0.0
 14
-50.99999999999991
 24
7.937499999999995
 34
0.0
 50
90.0
100
AcDbRotatedDimension
1001
ACAD
1000
DSTYLE
1002
{
1070
   283
1070
     1
1070
   170
1070
     1
1070
   171
1070
     6
1070
   273
1070
     5
1002
}
  0
ARC
  5
14D
102
{ACAD_REACTORS
102
}
330
1F
100
AcDbEntity
  8
0
  6
Continuous
 62
     1
370
    15
100
AcDbCircle
 10
73.97600000000008
 20
-6.413500000000003
 30
0.0
 40
1.524
100
AcDbArc
 50
270.0
 51
0.0
  0
ARC
  5
14E
330
1F
100
AcDbEntity
  8
0
  6
Continuous
 62
     1
370
    15
100
AcDbCircle
 10
73.97600000000008
 20
6.4135
 30
0.0
 40
1.524
100
AcDbArc
 50
0.0
 51
90.0
  0
DIMENSION
  5
14F
102
{ACAD_XDICTIONARY
360
150
102
}
330
1F
100
AcDbEntity
  8
치수문자_일반주서
100
AcDbDimension
  2
*D8
 10
88.33576466175518
 20
7.937499999999997
 30
0.0
 11
85.71076466175518
 21
25.2395
 31
0.0
 70
    32
  1
{Ø<>[]}
 71
     5
 42
15.875
  3
SLDDIMSTYLE0
100
AcDbAlignedDimension
 13
75.50000000000009
 23
-7.937500000000003
 33
0.0
 14
75.50000000000007
 24
7.937499999999998
 34
0.0
 50
90.0
100
AcDbRotatedDimension
1001
ACAD
1000
DSTYLE
1002
{
1070
   283
1070
     1
1070
   170
1070
     1
1070
   171
1070
     6
1070
   273
1070
     5
1002
}
  0
DIMENSION
  5
163
102
{ACAD_REACTORS
102
}
102
{ACAD_XDICTIONARY
360
164
102
}
330
1F
100
AcDbEntity
  8
치수문자_일반주서
100
AcDbDimension
  2
*D9
 10
73.97600000000008
 20
-6.413500000000003
 30
0.0
 11
83.86961042250056
 21
-26.2065507200833
 31
0.0
 70
   164
  1
<>
 71
     5
 42
1.524000000000002
  3
SLDDIMSTYLE0
100
AcDbRadialDimension
 15
74.65739290870809
 25
-7.776687332673854
 35
0.0
 40
0.0
1001
ACAD_DSTYLE_DIMRADIAL_EXTENSION
1070
   387
1070
     1
1070
   388
1040
4.71238898038469
1070
   390
1040
0.0
  0
ENDSEC
  0
SECTION
  2
OBJECTS
  0
DICTIONARY
  5
C
330
0
100
AcDbDictionary
281
     1
  3
ACAD_GROUP
350
D
  3
ACAD_IMAGE_VARS
350
138
  3
ACAD_LAYOUT
350
1A
  3
ACAD_MLINESTYLE
350
17
  3
ACAD_PLOTSETTINGS
350
19
  3
ACAD_PLOTSTYLENAME
350
E
  3
ACAD_SCALELIST
350
47
  3
APPDATA
350
136
  3
DWGPROPS
350
171
  0
DICTIONARY
  5
13B
330
13A
100
AcDbDictionary
280
     1
281
     1
  0
DICTIONARY
  5
150
330
14F
100
AcDbDictionary
280
     1
281
     1
  0
DICTIONARY
  5
164
330
163
100
AcDbDictionary
280
     1
281
     1
  0
DICTIONARY
  5
D
102
{ACAD_REACTORS
330
C
102
}
330
C
100
AcDbDictionary
281
     1
  0
RASTERVARIABLES
  5
138
102
{ACAD_REACTORS
330
C
102
}
330
C
100
AcDbRasterVariables
 90
        0
 70
     1
 71
     1
 72
     1
  0
DICTIONARY
  5
1A
102
{ACAD_REACTORS
330
C
102
}
330
C
100
AcDbDictionary
281
     1
  3
Layout1
350
1E
  3
Layout2
350
26
  3
Model
350
22
  0
DICTIONARY
  5
17
102
{ACAD_REACTORS
330
C
102
}
330
C
100
AcDbDictionary
281
     1
  3
Standard
350
18
  0
DICTIONARY
  5
19
102
{ACAD_REACTORS
330
C
102
}
330
C
100
AcDbDictionary
281
     1
  0
ACDBDICTIONARYWDFLT
  5
E
102
{ACAD_REACTORS
330
C
102
}
330
C
100
AcDbDictionary
281
     1
  3
Normal
350
F
100
AcDbDictionaryWithDefault
340
F
  0
DICTIONARY
  5
47
102
{ACAD_REACTORS
330
C
102
}
330
C
100
AcDbDictionary
281
     1
  3
A0
350
48
  3
A1
350
49
  3
A2
350
4A
  3
A3
350
4B
  3
A4
350
4C
  3
A5
350
4D
  3
A6
350
4E
  3
A7
350
4F
  3
A8
350
50
  3
A9
350
51
  3
B0
350
52
  3
B1
350
53
  3
B2
350
54
  3
B3
350
55
  3
B4
350
56
  3
B5
350
57
  3
B6
350
58
  3
B7
350
59
  3
B8
350
5A
  3
B9
350
5B
  3
C0
350
5C
  3
C1
350
5D
  3
C2
350
5E
  3
C3
350
5F
  3
C4
350
60
  3
C5
350
61
  3
C6
350
62
  3
C7
350
63
  3
C8
350
64
  3
C9
350
65
  3
D0
350
66
  3
D1
350
67
  3
D2
350
68
  0
DICTIONARY
  5
136
102
{ACAD_REACTORS
330
C
102
}
330
C
100
AcDbDictionary
281
     1
  0
XRECORD
  5
171
102
{ACAD_REACTORS
330
C
102
}
330
C
100
AcDbXrecord
280
     1
  1
DWGPROPS COOKIE
  2

  3

  4

  6

  7

  8
12014074
  9

300
=
301
=
302
=
303
=
304
=
305
=
306
=
307
=
308
=
309
=
 40
0.0
 41
2458269.058275602
 42
2458269.496770382
  1

 90
        0
  0
LAYOUT
  5
1E
102
{ACAD_REACTORS
330
1A
102
}
330
1A
100
AcDbPlotSettings
  1

  2
none_device
  4

  6

 40
0.0
 41
0.0
 42
0.0
 43
0.0
 44
0.0
 45
0.0
 46
0.0
 47
0.0
 48
0.0
 49
0.0
140
0.0
141
0.0
142
1.0
143
1.0
 70
   688
 72
     1
 73
     0
 74
     5
  7

 75
    16
147
1.0
148
0.0
149
0.0
100
AcDbLayout
  1
Layout1
 70
     1
 71
     1
 10
0.0
 20
0.0
 11
420.0
 21
297.0
 12
0.0
 22
0.0
 32
0.0
 14
1.000000000000000E+20
 24
1.000000000000000E+20
 34
1.000000000000000E+20
 15
-1.000000000000000E+20
 25
-1.000000000000000E+20
 35
-1.000000000000000E+20
146
0.0
 13
0.0
 23
0.0
 33
0.0
 16
1.0
 26
0.0
 36
0.0
 17
0.0
 27
1.0
 37
0.0
 76
     0
330
1B
  0
LAYOUT
  5
26
102
{ACAD_REACTORS
330
1A
102
}
330
1A
100
AcDbPlotSettings
  1

  2
none_device
  4

  6

 40
0.0
 41
0.0
 42
0.0
 43
0.0
 44
0.0
 45
0.0
 46
0.0
 47
0.0
 48
0.0
 49
0.0
140
0.0
141
0.0
142
1.0
143
1.0
 70
   688
 72
     1
 73
     0
 74
     5
  7

 75
    16
147
1.0
148
0.0
149
0.0
100
AcDbLayout
  1
Layout2
 70
     1
 71
     2
 10
0.0
 20
0.0
 11
0.0
 21
0.0
 12
0.0
 22
0.0
 32
0.0
 14
0.0
 24
0.0
 34
0.0
 15
0.0
 25
0.0
 35
0.0
146
0.0
 13
0.0
 23
0.0
 33
0.0
 16
1.0
 26
0.0
 36
0.0
 17
0.0
 27
1.0
 37
0.0
 76
     0
330
23
  0
LAYOUT
  5
22
102
{ACAD_REACTORS
330
1A
102
}
330
1A
100
AcDbPlotSettings
  1

  2
none_device
  4
ANSI_A_(11.00_x_8.50_Inches)
  6

 40
6.35
 41
19.05
 42
6.35000508
 43
19.05000254
 44
279.4
 45
215.9
 46
131.3613695737834
 47
73.41804261601585
 48
0.0
 49
0.0
140
0.0
141
0.0
142
0.0709453924914685
143
1.0
 70
  1696
 72
     0
 73
     0
 74
     0
  7

 75
     0
147
0.0235690232323232
148
0.0
149
0.0
100
AcDbLayout
  1
Model
 70
     1
 71
     0
 10
0.0
 20
0.0
 11
420.0
 21
297.0
 12
0.0
 22
0.0
 32
0.0
 14
-70.28165667455187
 24
-38.72926899923939
 34
0.0
 15
93.651255112291
 25
61.4600977822756
 35
0.0
146
0.0
 13
0.0
 23
0.0
 33
0.0
 16
1.0
 26
0.0
 36
0.0
 17
0.0
 27
1.0
 37
0.0
 76
     0
330
1F
331
29
  0
MLINESTYLE
  5
18
102
{ACAD_REACTORS
330
17
102
}
330
17
100
AcDbMlineStyle
  2
Standard
 70
     0
  3

 62
   256
 51
90.0
 52
90.0
 71
     2
 49
0.5
 62
   256
  6
BYLAYER
 49
-0.5
 62
   256
  6
BYLAYER
  0
ACDBPLACEHOLDER
  5
F
102
{ACAD_REACTORS
330
E
102
}
330
E
  0
SCALE
  5
48
102
{ACAD_REACTORS
330
47
102
}
330
47
100
AcDbScale
 70
     0
300
1:1
140
1.0
141
1.0
290
     1
  0
SCALE
  5
49
102
{ACAD_REACTORS
330
47
102
}
330
47
100
AcDbScale
 70
     0
300
1:2
140
1.0
141
2.0
290
     0
  0
SCALE
  5
4A
102
{ACAD_REACTORS
330
47
102
}
330
47
100
AcDbScale
 70
     0
300
1:4
140
1.0
141
4.0
290
     0
  0
SCALE
  5
4B
102
{ACAD_REACTORS
330
47
102
}
330
47
100
AcDbScale
 70
     0
300
1:5
140
1.0
141
5.0
290
     0
  0
SCALE
  5
4C
102
{ACAD_REACTORS
330
47
102
}
330
47
100
AcDbScale
 70
     0
300
1:8
140
1.0
141
8.0
290
     0
  0
SCALE
  5
4D
102
{ACAD_REACTORS
330
47
102
}
330
47
100
AcDbScale
 70
     0
300
1:10
140
1.0
141
10.0
290
     0
  0
SCALE
  5
4E
102
{ACAD_REACTORS
330
47
102
}
330
47
100
AcDbScale
 70
     0
300
1:16
140
1.0
141
16.0
290
     0
  0
SCALE
  5
4F
102
{ACAD_REACTORS
330
47
102
}
330
47
100
AcDbScale
 70
     0
300
1:20
140
1.0
141
20.0
290
     0
  0
SCALE
  5
50
102
{ACAD_REACTORS
330
47
102
}
330
47
100
AcDbScale
 70
     0
300
1:30
140
1.0
141
30.0
290
     0
  0
SCALE
  5
51
102
{ACAD_REACTORS
330
47
102
}
330
47
100
AcDbScale
 70
     0
300
1:40
140
1.0
141
40.0
290
     0
  0
SCALE
  5
52
102
{ACAD_REACTORS
330
47
102
}
330
47
100
AcDbScale
 70
     0
300
1:50
140
1.0
141
50.0
290
     0
  0
SCALE
  5
53
102
{ACAD_REACTORS
330
47
102
}
330
47
100
AcDbScale
 70
     0
300
1:100
140
1.0
141
100.0
290
     0
  0
SCALE
  5
54
102
{ACAD_REACTORS
330
47
102
}
330
47
100
AcDbScale
 70
     0
300
2:1
140
2.0
141
1.0
290
     0
  0
SCALE
  5
55
102
{ACAD_REACTORS
330
47
102
}
330
47
100
AcDbScale
 70
     0
300
4:1
140
4.0
141
1.0
290
     0
  0
SCALE
  5
56
102
{ACAD_REACTORS
330
47
102
}
330
47
100
AcDbScale
 70
     0
300
8:1
140
8.0
141
1.0
290
     0
  0
SCALE
  5
57
102
{ACAD_REACTORS
330
47
102
}
330
47
100
AcDbScale
 70
     0
300
10:1
140
10.0
141
1.0
290
     0
  0
SCALE
  5
58
102
{ACAD_REACTORS
330
47
102
}
330
47
100
AcDbScale
 70
     0
300
100:1
140
100.0
141
1.0
290
     0
  0
SCALE
  5
59
102
{ACAD_REACTORS
330
47
102
}
330
47
100
AcDbScale
 70
     0
300
1/128" = 1'-0"
140
0.0078125
141
12.0
290
     0
  0
SCALE
  5
5A
102
{ACAD_REACTORS
330
47
102
}
330
47
100
AcDbScale
 70
     0
300
1/64" = 1'-0"
140
0.015625
141
12.0
290
     0
  0
SCALE
  5
5B
102
{ACAD_REACTORS
330
47
102
}
330
47
100
AcDbScale
 70
     0
300
1/32" = 1'-0"
140
0.03125
141
12.0
290
     0
  0
SCALE
  5
5C
102
{ACAD_REACTORS
330
47
102
}
330
47
100
AcDbScale
 70
     0
300
1/16" = 1'-0"
140
0.0625
141
12.0
290
     0
  0
SCALE
  5
5D
102
{ACAD_REACTORS
330
47
102
}
330
47
100
AcDbScale
 70
     0
300
3/32" = 1'-0"
140
0.09375
141
12.0
290
     0
  0
SCALE
  5
5E
102
{ACAD_REACTORS
330
47
102
}
330
47
100
AcDbScale
 70
     0
300
1/8" = 1'-0"
140
0.125
141
12.0
290
     0
  0
SCALE
  5
5F
102
{ACAD_REACTORS
330
47
102
}
330
47
100
AcDbScale
 70
     0
300
3/16" = 1'-0"
140
0.1875
141
12.0
290
     0
  0
SCALE
  5
60
102
{ACAD_REACTORS
330
47
102
}
330
47
100
AcDbScale
 70
     0
300
1/4" = 1'-0"
140
0.25
141
12.0
290
     0
  0
SCALE
  5
61
102
{ACAD_REACTORS
330
47
102
}
330
47
100
AcDbScale
 70
     0
300
3/8" = 1'-0"
140
0.375
141
12.0
290
     0
  0
SCALE
  5
62
102
{ACAD_REACTORS
330
47
102
}
330
47
100
AcDbScale
 70
     0
300
1/2" = 1'-0"
140
0.5
141
12.0
290
     0
  0
SCALE
  5
63
102
{ACAD_REACTORS
330
47
102
}
330
47
100
AcDbScale
 70
     0
300
3/4" = 1'-0"
140
0.75
141
12.0
290
     0
  0
SCALE
  5
64
102
{ACAD_REACTORS
330
47
102
}
330
47
100
AcDbScale
 70
     0
300
1" = 1'-0"
140
1.0
141
12.0
290
     0
  0
SCALE
  5
65
102
{ACAD_REACTORS
330
47
102
}
330
47
100
AcDbScale
 70
     0
300
1-1/2" = 1'-0"
140
1.5
141
12.0
290
     0
  0
SCALE
  5
66
102
{ACAD_REACTORS
330
47
102
}
330
47
100
AcDbScale
 70
     0
300
3" = 1'-0"
140
3.0
141
12.0
290
     0
  0
SCALE
  5
67
102
{ACAD_REACTORS
330
47
102
}
330
47
100
AcDbScale
 70
     0
300
6" = 1'-0"
140
6.0
141
12.0
290
     0
  0
SCALE
  5
68
102
{ACAD_REACTORS
330
47
102
}
330
47
100
AcDbScale
 70
     0
300
1'-0" = 1'-0"
140
12.0
141
12.0
290
     0
  0
ENDSEC
  0
EOF
