  0
SECTION
  2
HEADER
  9
$ACADVER
  1
AC1015
  9
$ACADMAINTVER
 70
     6
  9
$DWGCODEPAGE
  3
ANSI_949
  9
$INSBASE
 10
0.0
 20
0.0
 30
0.0
  9
$EXTMIN
 10
-52.00000000000011
 20
-36.23977336930196
 30
0.0
  9
$EXTMAX
 10
80.49191825490136
 20
59.87259778227561
 30
0.0
  9
$LIMMIN
 10
0.0
 20
0.0
  9
$LIMMAX
 10
420.0
 20
297.0
  9
$ORTHOMODE
 70
     0
  9
$REGENMODE
 70
     1
  9
$FILLMODE
 70
     1
  9
$QTEXTMODE
 70
     0
  9
$MIRRTEXT
 70
     1
  9
$LTSCALE
 40
1.0
  9
$ATTMODE
 70
     1
  9
$TEXTSIZE
 40
3.5
  9
$TRACEWID
 40
1.0
  9
$TEXTSTYLE
  7
Standard
  9
$CLAYER
  8
0
  9
$CELTYPE
  6
ByLayer
  9
$CECOLOR
 62
   256
  9
$CELTSCALE
 40
1.0
  9
$DISPSILH
 70
     0
  9
$DIMSCALE
 40
1.0
  9
$DIMASZ
 40
3.302
  9
$DIMEXO
 40
1.0
  9
$DIMDLI
 40
3.75
  9
$DIMRND
 40
0.0
  9
$DIMDLE
 40
0.0
  9
$DIMEXE
 40
1.0
  9
$DIMTP
 40
0.0
  9
$DIMTM
 40
0.0
  9
$DIMTXT
 40
3.5
  9
$DIMCEN
 40
2.5
  9
$DIMTSZ
 40
0.0
  9
$DIMTOL
 70
     0
  9
$DIMLIM
 70
     0
  9
$DIMTIH
 70
     1
  9
$DIMTOH
 70
     1
  9
$DIMSE1
 70
     0
  9
$DIMSE2
 70
     0
  9
$DIMTAD
 70
     1
  9
$DIMZIN
 70
     0
  9
$DIMBLK
  1

  9
$DIMASO
 70
     1
  9
$DIMSHO
 70
     1
  9
$DIMPOST
  1

  9
$DIMAPOST
  1

  9
$DIMALT
 70
     0
  9
$DIMALTD
 70
     3
  9
$DIMALTF
 40
0.0393700787401575
  9
$DIMLFAC
 40
1.0
  9
$DIMTOFL
 70
     1
  9
$DIMTVP
 40
0.0
  9
$DIMTIX
 70
     0
  9
$DIMSOXD
 70
     0
  9
$DIMSAH
 70
     0
  9
$DIMBLK1
  1

  9
$DIMBLK2
  1

  9
$DIMSTYLE
  2
ISO-25
  9
$DIMCLRD
 70
     0
  9
$DIMCLRE
 70
     0
  9
$DIMCLRT
 70
     0
  9
$DIMTFAC
 40
1.0
  9
$DIMGAP
 40
1.524
  9
$DIMJUST
 70
     0
  9
$DIMSD1
 70
     0
  9
$DIMSD2
 70
     0
  9
$DIMTOLJ
 70
     0
  9
$DIMTZIN
 70
     0
  9
$DIMALTZ
 70
     0
  9
$DIMALTTZ
 70
     0
  9
$DIMUPT
 70
     0
  9
$DIMDEC
 70
     2
  9
$DIMTDEC
 70
     2
  9
$DIMALTU
 70
     2
  9
$DIMALTTD
 70
     3
  9
$DIMTXSTY
  7
Standard
  9
$DIMAUNIT
 70
     0
  9
$DIMADEC
 70
     2
  9
$DIMALTRND
 40
0.0
  9
$DIMAZIN
 70
     0
  9
$DIMDSEP
 70
    44
  9
$DIMATFIT
 70
     3
  9
$DIMFRAC
 70
     0
  9
$DIMLDRBLK
  1

  9
$DIMLUNIT
 70
     2
  9
$DIMLWD
 70
    -2
  9
$DIMLWE
 70
    -2
  9
$DIMTMOVE
 70
     0
  9
$LUNITS
 70
     2
  9
$LUPREC
 70
     2
  9
$SKETCHINC
 40
1.0
  9
$FILLETRAD
 40
10.0
  9
$AUNITS
 70
     0
  9
$AUPREC
 70
     2
  9
$MENU
  1
.
  9
$ELEVATION
 40
0.0
  9
$PELEVATION
 40
0.0
  9
$THICKNESS
 40
0.0
  9
$LIMCHECK
 70
     0
  9
$CHAMFERA
 40
0.0
  9
$CHAMFERB
 40
0.0
  9
$CHAMFERC
 40
0.0
  9
$CHAMFERD
 40
0.0
  9
$SKPOLY
 70
     0
  9
$TDCREATE
 40
2458269.433141053
  9
$TDUCREATE
 40
2458269.058141053
  9
$TDUPDATE
 40
2458269.868002326
  9
$TDUUPDATE
 40
2458269.493002326
  9
$TDINDWG
 40
0.0020554051
  9
$TDUSRTIMER
 40
2458269.49094706
  9
$USRTIMER
 70
     1
  9
$ANGBASE
 50
0.0
  9
$ANGDIR
 70
     0
  9
$PDMODE
 70
     0
  9
$PDSIZE
 40
-1.0
  9
$PLINEWID
 40
0.0
  9
$SPLFRAME
 70
     0
  9
$SPLINETYPE
 70
     6
  9
$SPLINESEGS
 70
     8
  9
$HANDSEED
  5
168
  9
$SURFTAB1
 70
     6
  9
$SURFTAB2
 70
     6
  9
$SURFTYPE
 70
     6
  9
$SURFU
 70
     6
  9
$SURFV
 70
     6
  9
$UCSBASE
  2

  9
$UCSNAME
  2

  9
$UCSORG
 10
0.0
 20
0.0
 30
0.0
  9
$UCSXDIR
 10
1.0
 20
0.0
 30
0.0
  9
$UCSYDIR
 10
0.0
 20
1.0
 30
0.0
  9
$UCSORTHOREF
  2

  9
$UCSORTHOVIEW
 70
     0
  9
$UCSORGTOP
 10
0.0
 20
0.0
 30
0.0
  9
$UCSORGBOTTOM
 10
0.0
 20
0.0
 30
0.0
  9
$UCSORGLEFT
 10
0.0
 20
0.0
 30
0.0
  9
$UCSORGRIGHT
 10
0.0
 20
0.0
 30
0.0
  9
$UCSORGFRONT
 10
0.0
 20
0.0
 30
0.0
  9
$UCSORGBACK
 10
0.0
 20
0.0
 30
0.0
  9
$PUCSBASE
  2

  9
$PUCSNAME
  2

  9
$PUCSORG
 10
0.0
 20
0.0
 30
0.0
  9
$PUCSXDIR
 10
1.0
 20
0.0
 30
0.0
  9
$PUCSYDIR
 10
0.0
 20
1.0
 30
0.0
  9
$PUCSORTHOREF
  2

  9
$PUCSORTHOVIEW
 70
     0
  9
$PUCSORGTOP
 10
0.0
 20
0.0
 30
0.0
  9
$PUCSORGBOTTOM
 10
0.0
 20
0.0
 30
0.0
  9
$PUCSORGLEFT
 10
0.0
 20
0.0
 30
0.0
  9
$PUCSORGRIGHT
 10
0.0
 20
0.0
 30
0.0
  9
$PUCSORGFRONT
 10
0.0
 20
0.0
 30
0.0
  9
$PUCSORGBACK
 10
0.0
 20
0.0
 30
0.0
  9
$USERI1
 70
     0
  9
$USERI2
 70
     0
  9
$USERI3
 70
     0
  9
$USERI4
 70
     0
  9
$USERI5
 70
     0
  9
$USERR1
 40
0.0
  9
$USERR2
 40
0.0
  9
$USERR3
 40
0.0
  9
$USERR4
 40
0.0
  9
$USERR5
 40
0.0
  9
$WORLDVIEW
 70
     1
  9
$SHADEDGE
 70
     3
  9
$SHADEDIF
 70
    70
  9
$TILEMODE
 70
     1
  9
$MAXACTVP
 70
    64
  9
$PINSBASE
 10
0.0
 20
0.0
 30
0.0
  9
$PLIMCHECK
 70
     0
  9
$PEXTMIN
 10
1.000000000000000E+20
 20
1.000000000000000E+20
 30
1.000000000000000E+20
  9
$PEXTMAX
 10
-1.000000000000000E+20
 20
-1.000000000000000E+20
 30
-1.000000000000000E+20
  9
$PLIMMIN
 10
0.0
 20
0.0
  9
$PLIMMAX
 10
0.0
 20
0.0
  9
$UNITMODE
 70
     0
  9
$VISRETAIN
 70
     1
  9
$PLINEGEN
 70
     0
  9
$PSLTSCALE
 70
     1
  9
$TREEDEPTH
 70
  3020
  9
$CMLSTYLE
  2
Standard
  9
$CMLJUST
 70
     0
  9
$CMLSCALE
 40
20.0
  9
$PROXYGRAPHICS
 70
     1
  9
$MEASUREMENT
 70
     1
  9
$CELWEIGHT
370
    -1
  9
$ENDCAPS
280
     0
  9
$JOINSTYLE
280
     0
  9
$LWDISPLAY
290
     1
  9
$INSUNITS
 70
     4
  9
$HYPERLINKBASE
  1

  9
$STYLESHEET
  1

  9
$XEDIT
290
     1
  9
$CEPSNTYPE
380
     0
  9
$PSTYLEMODE
290
     1
  9
$FINGERPRINTGUID
  2
{B8631790-2B4C-45DC-993A-DE0A93C58C6B}
  9
$VERSIONGUID
  2
{FAEB1C32-E019-11D5-929B-00C0DF256EC4}
  9
$EXTNAMES
290
     1
  9
$PSVPSCALE
 40
0.0
  9
$OLESTARTUP
290
     0
  0
ENDSEC
  0
SECTION
  2
CLASSES
  0
CLASS
  1
ACDBDICTIONARYWDFLT
  2
AcDbDictionaryWithDefault
  3
ObjectDBX Classes
 90
        0
280
     0
281
     0
  0
CLASS
  1
VISUALSTYLE
  2
AcDbVisualStyle
  3
ObjectDBX Classes
 90
     4095
280
     0
281
     0
  0
CLASS
  1
MATERIAL
  2
AcDbMaterial
  3
ObjectDBX Classes
 90
     1153
280
     0
281
     0
  0
CLASS
  1
SCALE
  2
AcDbScale
  3
ObjectDBX Classes
 90
     1153
280
     0
281
     0
  0
CLASS
  1
SUN
  2
AcDbSun
  3
SCENEOE
 90
     1153
280
     0
281
     0
  0
CLASS
  1
ACDBPLACEHOLDER
  2
AcDbPlaceHolder
  3
ObjectDBX Classes
 90
        0
280
     0
281
     0
  0
CLASS
  1
LAYOUT
  2
AcDbLayout
  3
ObjectDBX Classes
 90
        0
280
     0
281
     0
  0
CLASS
  1
TABLESTYLE
  2
AcDbTableStyle
  3
ObjectDBX Classes
 90
     4095
280
     0
281
     0
  0
CLASS
  1
MLEADERSTYLE
  2
AcDbMLeaderStyle
  3
ACDB_MLEADERSTYLE_CLASS
 90
     4095
280
     0
281
     0
  0
CLASS
  1
RASTERVARIABLES
  2
AcDbRasterVariables
  3
ISM
 90
        0
280
     0
281
     0
  0
CLASS
  1
DIMASSOC
  2
AcDbDimAssoc
  3
"AcDbDimAssoc|Product Desc:     AcDim ARX App For Dimension|Company:          Autodesk, Inc.|WEB Address:      www.autodesk.com"
 90
        0
280
     0
281
     0
  0
ENDSEC
  0
SECTION
  2
TABLES
  0
TABLE
  2
VPORT
  5
8
330
0
100
AcDbSymbolTable
 70
     1
  0
VPORT
  5
29
330
8
100
AcDbSymbolTableRecord
100
AcDbViewportTableRecord
  2
*Active
 70
     0
 10
0.0
 20
0.0
 11
1.0
 21
1.0
 12
39.71451359533512
 22
15.21081694216121
 13
0.0
 23
0.0
 14
10.0
 24
10.0
 15
10.0
 25
10.0
 16
0.0
 26
0.0
 36
1.0
 17
0.0
 27
0.0
 37
0.0
 40
120.7655058998848
 41
1.970186335403727
 42
50.0
 43
0.0
 44
0.0
 50
0.0
 51
0.0
 71
    16
 72
  2000
 73
     1
 74
     3
 75
     0
 76
     0
 77
     0
 78
     0
281
     0
 65
     1
110
0.0
120
0.0
130
0.0
111
1.0
121
0.0
131
0.0
112
0.0
122
1.0
132
0.0
 79
     0
146
0.0
  0
ENDTAB
  0
TABLE
  2
LTYPE
  5
5
330
0
100
AcDbSymbolTable
 70
     6
  0
LTYPE
  5
14
330
5
100
AcDbSymbolTableRecord
100
AcDbLinetypeTableRecord
  2
ByBlock
 70
     0
  3

 72
    65
 73
     0
 40
0.0
  0
LTYPE
  5
15
330
5
100
AcDbSymbolTableRecord
100
AcDbLinetypeTableRecord
  2
ByLayer
 70
     0
  3

 72
    65
 73
     0
 40
0.0
  0
LTYPE
  5
16
330
5
100
AcDbSymbolTableRecord
100
AcDbLinetypeTableRecord
  2
Continuous
 70
     0
  3
Solid line
 72
    65
 73
     0
 40
0.0
  0
LTYPE
  5
6A
330
5
100
AcDbSymbolTableRecord
100
AcDbLinetypeTableRecord
  2
HIDDEN
 70
     0
  3
Hidden __ __ __ __ __ __ __ __ __ __ __ __ __ __
 72
    65
 73
     2
 40
1.905
 49
1.27
 74
     0
 49
-0.635
 74
     0
  0
LTYPE
  5
6B
330
5
100
AcDbSymbolTableRecord
100
AcDbLinetypeTableRecord
  2
PHANTOM
 70
     0
  3
Phantom ______  __  __  ______  __  __  ______
 72
    65
 73
     6
 40
12.7
 49
6.35
 74
     0
 49
-1.27
 74
     0
 49
1.27
 74
     0
 49
-1.27
 74
     0
 49
1.27
 74
     0
 49
-1.27
 74
     0
  0
LTYPE
  5
6C
330
5
100
AcDbSymbolTableRecord
100
AcDbLinetypeTableRecord
  2
CENTER
 70
     0
  3
Center ____ _ ____ _ ____ _ ____ _ ____ _ ____
 72
    65
 73
     4
 40
10.16
 49
6.35
 74
     0
 49
-1.27
 74
     0
 49
1.27
 74
     0
 49
-1.27
 74
     0
  0
LTYPE
  5
6D
330
5
100
AcDbSymbolTableRecord
100
AcDbLinetypeTableRecord
  2
CENTERX2
 70
     0
  3
Center (2x) ________  __  ________  __  _____
 72
    65
 73
     4
 40
20.32
 49
12.7
 74
     0
 49
-2.54
 74
     0
 49
2.54
 74
     0
 49
-2.54
 74
     0
  0
LTYPE
  5
6E
330
5
100
AcDbSymbolTableRecord
100
AcDbLinetypeTableRecord
  2
DOT2
 70
     0
  3
Dot (.5x) ........................................
 72
    65
 73
     2
 40
0.635
 49
0.0
 74
     0
 49
-0.635
 74
     0
  0
ENDTAB
  0
TABLE
  2
LAYER
  5
2
330
0
100
AcDbSymbolTable
 70
    17
  0
LAYER
  5
10
330
2
100
AcDbSymbolTableRecord
100
AcDbLayerTableRecord
  2
0
 70
     0
 62
     7
  6
Continuous
370
    -3
390
F
  0
LAYER
  5
6F
330
2
100
AcDbSymbolTableRecord
100
AcDbLayerTableRecord
  2
FORMAT
 70
     0
 62
     2
  6
Continuous
370
    -3
390
F
  0
LAYER
  5
70
330
2
100
AcDbSymbolTableRecord
100
AcDbLayerTableRecord
  2
외형선
 70
     0
 62
   100
  6
Continuous
370
    30
390
F
  0
LAYER
  5
71
330
2
100
AcDbSymbolTableRecord
100
AcDbLayerTableRecord
  2
숨은선
 70
     0
 62
     2
  6
HIDDEN
370
    15
390
F
  0
LAYER
  5
72
330
2
100
AcDbSymbolTableRecord
100
AcDbLayerTableRecord
  2
중심선
 70
     0
 62
     1
  6
CENTERX2
370
    -3
390
F
  0
LAYER
  5
73
330
2
100
AcDbSymbolTableRecord
100
AcDbLayerTableRecord
  2
파단선
 70
     0
 62
     4
  6
Continuous
370
    -3
390
F
  0
LAYER
  5
74
330
2
100
AcDbSymbolTableRecord
100
AcDbLayerTableRecord
  2
해칭선
 70
     0
 62
     4
  6
Continuous
370
    -3
390
F
  0
LAYER
  5
75
330
2
100
AcDbSymbolTableRecord
100
AcDbLayerTableRecord
  2
가는실선
 70
     0
 62
     4
  6
Continuous
370
    -3
390
F
  0
LAYER
  5
76
330
2
100
AcDbSymbolTableRecord
100
AcDbLayerTableRecord
  2
치수_보조선
 70
     0
 62
     4
  6
Continuous
370
    -3
390
F
  0
LAYER
  5
77
330
2
100
AcDbSymbolTableRecord
100
AcDbLayerTableRecord
  2
치수문자_일반주서
 70
     0
 62
     7
  6
Continuous
370
    15
390
F
  0
LAYER
  5
78
330
2
100
AcDbSymbolTableRecord
100
AcDbLayerTableRecord
  2
개별주서
 70
     0
 62
   100
  6
Continuous
370
    30
390
F
  0
LAYER
  5
79
330
2
100
AcDbSymbolTableRecord
100
AcDbLayerTableRecord
  2
중간선
 70
     0
 62
     2
  6
Continuous
370
    15
390
F
  0
LAYER
  5
7A
330
2
100
AcDbSymbolTableRecord
100
AcDbLayerTableRecord
  2
윤곽선
 70
     0
 62
     3
  6
Continuous
370
    40
390
F
  0
LAYER
  5
7B
330
2
100
AcDbSymbolTableRecord
100
AcDbLayerTableRecord
  2
중심마크
 70
     0
 62
   100
  6
Continuous
370
    30
390
F
  0
LAYER
  5
7C
330
2
100
AcDbSymbolTableRecord
100
AcDbLayerTableRecord
  2
가상선
 70
     0
 62
     4
  6
PHANTOM
370
    -3
390
F
  0
LAYER
  5
7D
330
2
100
AcDbSymbolTableRecord
100
AcDbLayerTableRecord
  2
특수지정선
 70
     0
 62
     5
  6
CENTERX2
370
    60
390
F
  0
LAYER
  5
13C
330
2
100
AcDbSymbolTableRecord
100
AcDbLayerTableRecord
  2
Defpoints
 70
     0
 62
     7
  6
Continuous
290
     0
370
    -3
390
F
  0
ENDTAB
  0
TABLE
  2
STYLE
  5
3
330
0
100
AcDbSymbolTable
 70
     2
  0
STYLE
  5
11
330
3
100
AcDbSymbolTableRecord
100
AcDbTextStyleTableRecord
  2
Standard
 70
     0
 40
0.0
 41
1.0
 50
0.0
 71
     0
 42
3.5
  3
txt
  4

  0
STYLE
  5
93
330
3
100
AcDbSymbolTableRecord
100
AcDbTextStyleTableRecord
  2
SLDTEXTSTYLE0
 70
     0
 40
0.0
 41
0.75
 50
0.0
 71
     0
 42
3.5
  3
TXT
  4

  0
ENDTAB
  0
TABLE
  2
VIEW
  5
6
330
0
100
AcDbSymbolTable
 70
     0
  0
ENDTAB
  0
TABLE
  2
UCS
  5
7
330
0
100
AcDbSymbolTable
 70
     0
  0
ENDTAB
  0
TABLE
  2
APPID
  5
9
330
0
100
AcDbSymbolTable
 70
     3
  0
APPID
  5
12
330
9
100
AcDbSymbolTableRecord
100
AcDbRegAppTableRecord
  2
ACAD
 70
     0
  0
APPID
  5
153
330
9
100
AcDbSymbolTableRecord
100
AcDbRegAppTableRecord
  2
ACAD_DSTYLE_DIMRADIAL_EXTENSION
 70
     0
  0
APPID
  5
164
330
9
100
AcDbSymbolTableRecord
100
AcDbRegAppTableRecord
  2
PE_DIMMEASUREMENT
 70
     0
  0
ENDTAB
  0
TABLE
  2
DIMSTYLE
  5
A
330
0
100
AcDbSymbolTable
 70
     3
100
AcDbDimStyleTable
  0
DIMSTYLE
105
27
330
A
100
AcDbSymbolTableRecord
100
AcDbDimStyleTableRecord
  2
ISO-25
 70
     0
 41
2.5
 42
0.625
 43
3.75
 44
1.25
 73
     0
 74
     0
 77
     1
 78
     8
140
2.5
141
2.5
143
0.03937007874016
147
0.625
171
     3
172
     1
178
     0
271
     2
272
     2
274
     3
278
    44
283
     0
284
     8
340
11
  0
DIMSTYLE
105
D6
102
{ACAD_REACTORS
330
D5
330
E9
330
154
330
142
102
}
330
A
100
AcDbSymbolTableRecord
100
AcDbDimStyleTableRecord
  2
SLDDIMSTYLE0
 70
     0
 41
3.302
 44
0.0
 45
0.000000001
 73
     0
 74
     0
 77
     1
 78
     4
 79
     1
140
3.5
143
0.0393700787401575
147
0.875
148
0.000000001
170
     1
173
     1
178
     0
271
     2
272
     2
276
     2
284
    12
340
93
  0
DIMSTYLE
105
FD
102
{ACAD_REACTORS
330
FC
102
}
330
A
100
AcDbSymbolTableRecord
100
AcDbDimStyleTableRecord
  2
SLDDIMSTYLE1
 70
     0
 41
3.302
 44
0.0
 45
0.000000001
 73
     0
 74
     0
 77
     1
 78
    12
 79
     3
140
3.5
143
0.0393700787401575
147
0.875
148
0.000000001
170
     1
172
     1
173
     1
178
     0
271
     2
272
     2
276
     2
284
    12
289
     0
340
93
  0
ENDTAB
  0
TABLE
  2
BLOCK_RECORD
  5
1
330
0
100
AcDbSymbolTable
 70
     8
  0
BLOCK_RECORD
  5
1F
330
1
100
AcDbSymbolTableRecord
100
AcDbBlockTableRecord
  2
*Model_Space
340
22
  0
BLOCK_RECORD
  5
1B
330
1
100
AcDbSymbolTableRecord
100
AcDbBlockTableRecord
  2
*Paper_Space
340
1E
  0
BLOCK_RECORD
  5
23
330
1
100
AcDbSymbolTableRecord
100
AcDbBlockTableRecord
  2
*Paper_Space0
340
26
  0
BLOCK_RECORD
  5
7E
330
1
100
AcDbSymbolTableRecord
100
AcDbBlockTableRecord
  2
블럭10
340
0
102
{BLKREFS
331
CD
102
}
  0
BLOCK_RECORD
  5
D7
330
1
100
AcDbSymbolTableRecord
100
AcDbBlockTableRecord
  2
_D
340
0
  0
BLOCK_RECORD
  5
EA
330
1
100
AcDbSymbolTableRecord
100
AcDbBlockTableRecord
  2
_D_1
340
0
  0
BLOCK_RECORD
  5
FE
330
1
100
AcDbSymbolTableRecord
100
AcDbBlockTableRecord
  2
_D_2
340
0
  0
BLOCK_RECORD
  5
111
330
1
100
AcDbSymbolTableRecord
100
AcDbBlockTableRecord
  2
SW_DOWELSYMBOL_0
340
0
102
{BLKREFS
331
117
102
}
  0
BLOCK_RECORD
  5
145
330
1
100
AcDbSymbolTableRecord
100
AcDbBlockTableRecord
  2
*D6
340
0
  0
BLOCK_RECORD
  5
157
330
1
100
AcDbSymbolTableRecord
100
AcDbBlockTableRecord
  2
*D7
340
0
  0
ENDTAB
  0
ENDSEC
  0
SECTION
  2
BLOCKS
  0
BLOCK
  5
20
330
1F
100
AcDbEntity
  8
0
100
AcDbBlockBegin
  2
*Model_Space
 70
     0
 10
0.0
 20
0.0
 30
0.0
  3
*Model_Space
  1
*Model_Space
  0
ENDBLK
  5
21
330
1F
100
AcDbEntity
  8
0
100
AcDbBlockEnd
  0
BLOCK
  5
1C
330
1B
100
AcDbEntity
 67
     1
  8
0
100
AcDbBlockBegin
  2
*Paper_Space
 70
     0
 10
0.0
 20
0.0
 30
0.0
  3
*Paper_Space
  1
*Paper_Space
  0
ENDBLK
  5
1D
330
1B
100
AcDbEntity
 67
     1
  8
0
100
AcDbBlockEnd
  0
BLOCK
  5
24
330
23
100
AcDbEntity
  8
0
100
AcDbBlockBegin
  2
*Paper_Space0
 70
     0
 10
0.0
 20
0.0
 30
0.0
  3
*Paper_Space0
  1
*Paper_Space0
  0
ENDBLK
  5
25
330
23
100
AcDbEntity
  8
0
100
AcDbBlockEnd
  0
BLOCK
  5
7F
330
7E
100
AcDbEntity
  8
0
100
AcDbBlockBegin
  2
블럭10
 70
     2
 10
0.0
 20
0.0
 30
0.0
  3
블럭10
  1
블럭10
  0
ELLIPSE
  5
81
330
7E
100
AcDbEntity
  8
중심선
100
AcDbEllipse
 10
20.54032771741204
 20
12.0471743016438
 30
0.0
 11
6.600054785286829
 21
-1.261213355974178E-13
 31
0.0
210
0.0
220
0.0
230
1.0
 40
0.636358354079598
 41
0.9219305317359503
 42
6.513795318482858
  0
ELLIPSE
  5
82
330
7E
100
AcDbEntity
  8
중심선
100
AcDbEllipse
 10
20.54032771746488
 20
12.04717430159265
 30
0.0
 11
3.960054785062283
 21
1.540847449632565E-10
 31
0.0
210
0.0
220
0.0
230
1.0
 40
0.3939339440162632
 41
1.131841032648279
 42
5.62031148352944
  0
LINE
  5
83
330
7E
100
AcDbEntity
  8
중심선
100
AcDbLine
 10
2.268634060543552
 20
16.24717430164393
 30
0.0
 11
5.714909304380834
 21
16.24717430164393
 31
0.0
  0
LINE
  5
84
330
7E
100
AcDbEntity
  8
중심선
100
AcDbLine
 10
5.245725140726316
 20
7.84717430164391
 30
0.0
 11
8.692000384563599
 21
7.84717430164391
 31
0.0
  0
LINE
  5
85
330
7E
100
AcDbEntity
  8
중심선
100
AcDbLine
 10
15.74043728645272
 20
16.24717430164393
 30
0.0
 11
8.692000384563599
 21
7.84717430164391
 31
0.0
  0
LINE
  5
86
330
7E
100
AcDbEntity
  8
중심선
100
AcDbLine
 10
0.1404042013395286
 20
13.71084872107135
 30
0.0
 11
3.58671253028996
 21
13.71088815037384
 31
0.0
  0
LINE
  5
87
330
7E
100
AcDbEntity
  8
중심선
100
AcDbLine
 10
2.750260043222114
 20
10.84717430164391
 30
0.0
 11
6.196535287059397
 21
10.84717430164391
 31
0.0
  0
LINE
  5
88
330
7E
100
AcDbEntity
  8
중심선
100
AcDbLine
 10
12.29416204261559
 20
16.24717430164393
 30
0.0
 11
5.245725140726316
 21
7.84717430164391
 31
0.0
  0
LINE
  5
89
330
7E
100
AcDbEntity
  8
중심선
100
AcDbLine
 10
10.72767329541681
 20
16.24717430164393
 30
0.0
 11
6.196535287059397
 21
10.84717430164391
 31
0.0
  0
LINE
  5
8A
330
7E
100
AcDbEntity
  8
중심선
100
AcDbLine
 10
7.28139805157953
 20
16.24717430164393
 30
0.0
 11
2.750260043222114
 21
10.84717430164391
 31
0.0
  0
LINE
  5
8B
330
7E
100
AcDbEntity
  8
중심선
100
AcDbLine
 10
5.714909304380834
 20
16.24717430164393
 30
0.0
 11
3.58671253028996
 21
13.71088815037384
 31
0.0
  0
LINE
  5
8C
330
7E
100
AcDbEntity
  8
중심선
100
AcDbLine
 10
2.268634060543552
 20
16.24717430164393
 30
0.0
 11
0.1404042013395286
 21
13.71084872107135
 31
0.0
  0
LINE
  5
8D
330
7E
100
AcDbEntity
  8
중심선
100
AcDbLine
 10
7.28139805157953
 20
16.24717430164393
 30
0.0
 11
10.72767329541681
 21
16.24717430164393
 31
0.0
  0
LINE
  5
8E
330
7E
100
AcDbEntity
  8
중심선
100
AcDbLine
 10
12.29416204261559
 20
16.24717430164393
 30
0.0
 11
15.74043728645272
 21
16.24717430164393
 31
0.0
  0
LINE
  5
8F
330
7E
100
AcDbEntity
  8
중심선
100
AcDbLine
 10
19.22036997980202
 20
11.08717430171403
 30
0.0
 11
23.66174974927406
 21
11.08717430171406
 31
0.0
  0
LINE
  5
90
330
7E
100
AcDbEntity
  8
중심선
100
AcDbLine
 10
19.22039502424796
 20
13.00717430171391
 30
0.0
 11
19.22036997980202
 21
11.08717430171403
 31
0.0
  0
LINE
  5
91
330
7E
100
AcDbEntity
  8
중심선
100
AcDbLine
 10
19.22039502424796
 20
13.00717430171391
 30
0.0
 11
26.96566020931264
 21
13.00717430171391
 31
0.0
  0
LINE
  5
92
330
7E
100
AcDbEntity
  8
중심선
100
AcDbLine
 10
22.22332737316547
 20
13.45928029700563
 30
0.0
 11
24.52862924686651
 21
15.39360700705356
 31
0.0
  0
ATTDEF
  5
94
330
7E
100
AcDbEntity
  8
FORMAT
 62
     2
100
AcDbText
 10
-9.18129528874128
 20
2.075366912832191
 30
0.0
 40
4.233333333333333
  1
E5984032 [ 3 FLUTE ]
 41
0.75
  7
SLDTEXTSTYLE0
 11
-9.18129528874128
 21
-0.0412997538344756
 31
0.0
100
AcDbAttributeDefinition
  3

  2
AUTOATTR0
 70
     0
 74
     1
  0
ENDBLK
  5
80
330
7E
100
AcDbEntity
  8
0
100
AcDbBlockEnd
  0
BLOCK
  5
D8
330
D7
100
AcDbEntity
  8
0
100
AcDbBlockBegin
  2
_D
 70
     0
 10
0.0
 20
0.0
 30
0.0
  3
_D
  1
_D
  0
LINE
  5
DA
330
D7
100
AcDbEntity
  8
치수문자_일반주서
 62
     0
370
    -2
100
AcDbLine
 10
60.79999999999999
 20
6.412500000000005
 30
0.0
 11
60.79999999999999
 21
28.54205829614185
 31
0.0
  0
LINE
  5
DB
330
D7
100
AcDbEntity
  8
치수문자_일반주서
 62
     0
370
    -2
100
AcDbLine
 10
10.0
 20
6.412500000000005
 30
0.0
 11
10.0
 21
28.54205829614185
 31
0.0
  0
LINE
  5
DC
330
D7
100
AcDbEntity
  8
치수문자_일반주서
 62
     0
370
    -2
100
AcDbLine
 10
57.49799999999999
 20
28.54205829614185
 30
0.0
 11
13.302
 21
28.54205829614185
 31
0.0
  0
SOLID
  5
DD
330
D7
100
AcDbEntity
  8
치수문자_일반주서
 62
     0
100
AcDbTrace
 10
57.49799999999999
 20
27.99172496280852
 30
0.0
 11
57.49799999999999
 21
29.09239162947518
 31
0.0
 12
60.79999999999999
 22
28.54205829614185
 32
0.0
 13
60.79999999999999
 23
28.54205829614185
 33
0.0
  0
SOLID
  5
DE
330
D7
100
AcDbEntity
  8
치수문자_일반주서
 62
     0
100
AcDbTrace
 10
13.302
 20
29.09239162947518
 30
0.0
 11
13.302
 21
27.99172496280852
 31
0.0
 12
10.0
 22
28.54205829614185
 32
0.0
 13
10.0
 23
28.54205829614185
 33
0.0
  0
MTEXT
  5
DF
330
D7
100
AcDbEntity
  8
치수문자_일반주서
 62
     0
100
AcDbMText
 10
35.4
 20
32.91705829614185
 30
0.0
 40
3.5
 41
0.0
 71
     2
 72
     1
  1
\A1;50.80 [2]
  7
SLDTEXTSTYLE0
 73
     1
 44
1.0
  0
POINT
  5
E0
330
D7
100
AcDbEntity
  8
Defpoints
 62
     0
100
AcDbPoint
 10
60.79999999999999
 20
6.350000000000005
 30
0.0
  0
POINT
  5
E1
330
D7
100
AcDbEntity
  8
Defpoints
 62
     0
100
AcDbPoint
 10
10.0
 20
6.350000000000005
 30
0.0
  0
POINT
  5
E2
330
D7
100
AcDbEntity
  8
Defpoints
 62
     0
100
AcDbPoint
 10
10.0
 20
28.54205829614185
 30
0.0
  0
ENDBLK
  5
D9
330
D7
100
AcDbEntity
  8
0
100
AcDbBlockEnd
  0
BLOCK
  5
EB
330
EA
100
AcDbEntity
  8
0
100
AcDbBlockBegin
  2
_D_1
 70
     0
 10
0.0
 20
0.0
 30
0.0
  3
_D_1
  1
_D_1
  0
LINE
  5
ED
330
EA
100
AcDbEntity
  8
치수문자_일반주서
 62
     0
370
    -2
100
AcDbLine
 10
60.79999999999999
 20
6.412500000000005
 30
0.0
 11
60.8
 21
55.49759778227561
 31
0.0
  0
LINE
  5
EE
330
EA
100
AcDbEntity
  8
치수문자_일반주서
 62
     0
370
    -2
100
AcDbLine
 10
-40.8
 20
5.912500000000002
 30
0.0
 11
-40.79999999999999
 21
55.49759778227561
 31
0.0
  0
LINE
  5
EF
330
EA
100
AcDbEntity
  8
치수문자_일반주서
 62
     0
370
    -2
100
AcDbLine
 10
57.498
 20
55.49759778227561
 30
0.0
 11
-37.49799999999999
 21
55.49759778227561
 31
0.0
  0
SOLID
  5
F0
330
EA
100
AcDbEntity
  8
치수문자_일반주서
 62
     0
100
AcDbTrace
 10
57.498
 20
54.94726444894227
 30
0.0
 11
57.498
 21
56.04793111560894
 31
0.0
 12
60.8
 22
55.49759778227561
 32
0.0
 13
60.8
 23
55.49759778227561
 33
0.0
  0
SOLID
  5
F1
330
EA
100
AcDbEntity
  8
치수문자_일반주서
 62
     0
100
AcDbTrace
 10
-37.49799999999999
 20
56.04793111560894
 30
0.0
 11
-37.49799999999999
 21
54.94726444894227
 31
0.0
 12
-40.79999999999999
 22
55.49759778227561
 32
0.0
 13
-40.79999999999999
 23
55.49759778227561
 33
0.0
  0
MTEXT
  5
F2
330
EA
100
AcDbEntity
  8
치수문자_일반주서
 62
     0
100
AcDbMText
 10
9.594276350034855
 20
59.87259778227561
 30
0.0
 40
3.5
 41
0.0
 71
     2
 72
     1
  1
\A1;101.60 [4]
  7
SLDTEXTSTYLE0
 73
     1
 44
1.0
  0
POINT
  5
F3
330
EA
100
AcDbEntity
  8
Defpoints
 62
     0
100
AcDbPoint
 10
60.79999999999999
 20
6.350000000000005
 30
0.0
  0
POINT
  5
F4
330
EA
100
AcDbEntity
  8
Defpoints
 62
     0
100
AcDbPoint
 10
-40.8
 20
5.850000000000002
 30
0.0
  0
POINT
  5
F5
330
EA
100
AcDbEntity
  8
Defpoints
 62
     0
100
AcDbPoint
 10
-40.8
 20
55.49759778227561
 30
0.0
  0
ENDBLK
  5
EC
330
EA
100
AcDbEntity
  8
0
100
AcDbBlockEnd
  0
BLOCK
  5
FF
330
FE
100
AcDbEntity
  8
0
100
AcDbBlockBegin
  2
_D_2
 70
     0
 10
0.0
 20
0.0
 30
0.0
  3
_D_2
  1
_D_2
  0
LINE
  5
101
330
FE
100
AcDbEntity
  8
치수문자_일반주서
 62
     0
370
    -2
100
AcDbLine
 10
-40.3625
 20
6.350000000000002
 30
0.0
 11
-47.625
 21
6.349999999999973
 31
0.0
  0
LINE
  5
102
330
FE
100
AcDbEntity
  8
치수문자_일반주서
 62
     0
370
    -2
100
AcDbLine
 10
-40.3625
 20
-6.349999999999993
 30
0.0
 11
-47.62499999999996
 21
-6.350000000000019
 31
0.0
  0
LINE
  5
103
330
FE
100
AcDbEntity
  8
치수문자_일반주서
 62
     0
370
    -2
100
AcDbLine
 10
-47.625
 20
6.349999999999973
 30
0.0
 11
-47.62500000000011
 21
37.89149999999998
 31
0.0
  0
LINE
  5
104
330
FE
100
AcDbEntity
  8
치수문자_일반주서
 62
     0
370
    -2
100
AcDbLine
 10
-47.625
 20
6.349999999999973
 30
0.0
 11
-47.62499999999996
 21
-6.350000000000019
 31
0.0
  0
LINE
  5
105
330
FE
100
AcDbEntity
  8
치수문자_일반주서
 62
     0
370
    -2
100
AcDbLine
 10
-47.62500000000001
 20
9.651999999999973
 30
0.0
 11
-47.62500000000003
 21
12.95399999999997
 31
0.0
  0
LINE
  5
106
330
FE
100
AcDbEntity
  8
치수문자_일반주서
 62
     0
370
    -2
100
AcDbLine
 10
-47.62499999999994
 20
-9.652000000000019
 30
0.0
 11
-47.62499999999993
 21
-12.95400000000002
 31
0.0
  0
SOLID
  5
107
330
FE
100
AcDbEntity
  8
치수문자_일반주서
 62
     0
100
AcDbTrace
 10
-48.17533333333335
 20
9.65199999999997
 30
0.0
 11
-47.07466666666668
 21
9.651999999999974
 31
0.0
 12
-47.625
 22
6.349999999999973
 32
0.0
 13
-47.625
 23
6.349999999999973
 33
0.0
  0
SOLID
  5
108
330
FE
100
AcDbEntity
  8
치수문자_일반주서
 62
     0
100
AcDbTrace
 10
-47.07466666666661
 20
-9.652000000000017
 30
0.0
 11
-48.17533333333328
 21
-9.65200000000002
 31
0.0
 12
-47.62499999999996
 22
-6.350000000000019
 32
0.0
 13
-47.62499999999996
 23
-6.350000000000019
 33
0.0
  0
MTEXT
  5
109
330
FE
100
AcDbEntity
  8
치수문자_일반주서
 62
     0
100
AcDbMText
 10
-52.00000000000006
 20
25.64149999999996
 30
0.0
 40
3.5
 41
0.0
 71
     2
 72
     1
  1
\A1;%%c12.7 [1/2]
  7
SLDTEXTSTYLE0
 11
-3.356894814614648E-15
 21
1.0
 31
0.0
 73
     1
 44
1.0
  0
POINT
  5
161
330
FE
100
AcDbEntity
  8
Defpoints
 62
     0
100
AcDbPoint
 10
-40.3
 20
6.350000000000002
 30
0.0
  0
POINT
  5
162
330
FE
100
AcDbEntity
  8
Defpoints
 62
     0
100
AcDbPoint
 10
-40.3
 20
-6.349999999999993
 30
0.0
  0
POINT
  5
163
330
FE
100
AcDbEntity
  8
Defpoints
 62
     0
100
AcDbPoint
 10
-47.62499999999996
 20
-6.35000000000002
 30
0.0
  0
ENDBLK
  5
100
330
FE
100
AcDbEntity
  8
0
100
AcDbBlockEnd
  0
BLOCK
  5
112
330
111
100
AcDbEntity
  8
0
100
AcDbBlockBegin
  2
SW_DOWELSYMBOL_0
 70
     0
 10
0.0
 20
0.0
 30
0.0
  3
SW_DOWELSYMBOL_0
  1
SW_DOWELSYMBOL_0
  0
CIRCLE
  5
114
330
111
100
AcDbEntity
  8
외형선
 62
     0
100
AcDbCircle
 10
0.0
 20
0.0
 30
0.0
 40
3.000000000000008
  0
HATCH
  5
115
330
111
100
AcDbEntity
  8
0
  6
Continuous
 62
     0
370
    30
100
AcDbHatch
 10
0.0
 20
0.0
 30
0.0
210
0.0
220
0.0
230
1.0
  2
SOLID
 70
     1
 71
     0
 91
        1
 92
        0
 93
        3
 72
     2
 10
0.0000000000000069
 20
0.0
 40
3.000000000000008
 50
0.0
 51
90.0
 73
     1
 72
     1
 10
0.0000000000000069
 20
3.000000000000008
 11
0.0000000000000069
 21
0.0
 72
     1
 10
0.0000000000000069
 20
0.0
 11
3.000000000000015
 21
0.0
 97
        0
 75
     0
 76
     1
 98
        1
 10
0.0
 20
0.0
  0
HATCH
  5
116
330
111
100
AcDbEntity
  8
0
  6
Continuous
 62
     0
370
    30
100
AcDbHatch
 10
0.0
 20
0.0
 30
0.0
210
0.0
220
0.0
230
1.0
  2
SOLID
 70
     1
 71
     0
 91
        1
 92
        0
 93
        3
 72
     2
 10
0.0000000000000069
 20
0.0
 40
3.000000000000008
 50
180.0
 51
270.0000000000008
 73
     1
 72
     1
 10
0.0000000000000069
 20
-3.000000000000008
 11
0.0000000000000069
 21
0.0
 72
     1
 10
0.0000000000000069
 20
0.0
 11
-3.000000000000001
 21
0.0
 97
        0
 75
     0
 76
     1
 98
        1
 10
0.0
 20
0.0
  0
ENDBLK
  5
113
330
111
100
AcDbEntity
  8
0
100
AcDbBlockEnd
  0
BLOCK
  5
146
330
145
100
AcDbEntity
  8
0
100
AcDbBlockBegin
  2
*D6
 70
     1
 10
0.0
 20
0.0
 30
0.0
  3
*D6
  1
*D6
  0
LINE
  5
148
330
145
100
AcDbEntity
  8
치수문자_일반주서
 62
     0
370
    -2
100
AcDbLine
 10
60.8625
 20
-6.349999999999995
 30
0.0
 11
69.41689392039723
 21
-6.349999999999995
 31
0.0
  0
LINE
  5
149
330
145
100
AcDbEntity
  8
치수문자_일반주서
 62
     0
370
    -2
100
AcDbLine
 10
60.86249999999999
 20
6.350000000000005
 30
0.0
 11
69.41689392039723
 21
6.350000000000004
 31
0.0
  0
LINE
  5
14A
330
145
100
AcDbEntity
  8
치수문자_일반주서
 62
     0
370
    -2
100
AcDbLine
 10
69.41689392039723
 20
6.350000000000004
 30
0.0
 11
69.41689392039723
 21
36.3395
 31
0.0
  0
LINE
  5
14B
330
145
100
AcDbEntity
  8
치수문자_일반주서
 62
     0
370
    -2
100
AcDbLine
 10
69.41689392039723
 20
-3.047999999999996
 30
0.0
 11
69.41689392039723
 21
3.048000000000004
 31
0.0
  0
SOLID
  5
14C
330
145
100
AcDbEntity
  8
치수문자_일반주서
 62
     0
100
AcDbTrace
 10
68.8665605870639
 20
-3.047999999999996
 30
0.0
 11
69.96722725373056
 21
-3.047999999999996
 31
0.0
 12
69.41689392039723
 22
-6.349999999999995
 32
0.0
 13
69.41689392039723
 23
-6.349999999999995
 33
0.0
  0
SOLID
  5
14D
330
145
100
AcDbEntity
  8
치수문자_일반주서
 62
     0
100
AcDbTrace
 10
69.96722725373056
 20
3.048000000000004
 30
0.0
 11
68.8665605870639
 21
3.048000000000004
 31
0.0
 12
69.41689392039723
 22
6.350000000000004
 32
0.0
 13
69.41689392039723
 23
6.350000000000004
 33
0.0
  0
MTEXT
  5
14E
330
145
100
AcDbEntity
  8
치수문자_일반주서
 62
     0
100
AcDbMText
 10
66.79189392039723
 20
22.99575
 30
0.0
 40
3.5
 41
0.0
 71
     5
 72
     1
  1
\A1;{Ø12.70 [1/2]}
  7
SLDTEXTSTYLE0
 11
0.0
 21
1.0
 31
0.0
 73
     1
 44
1.0
  0
POINT
  5
14F
330
145
100
AcDbEntity
  8
Defpoints
 62
     0
100
AcDbPoint
 10
60.8
 20
-6.349999999999995
 30
0.0
  0
POINT
  5
150
330
145
100
AcDbEntity
  8
Defpoints
 62
     0
100
AcDbPoint
 10
60.79999999999999
 20
6.350000000000005
 30
0.0
  0
POINT
  5
151
330
145
100
AcDbEntity
  8
Defpoints
 62
     0
100
AcDbPoint
 10
69.41689392039723
 20
6.350000000000004
 30
0.0
  0
ENDBLK
  5
147
330
145
100
AcDbEntity
  8
0
100
AcDbBlockEnd
  0
BLOCK
  5
158
330
157
100
AcDbEntity
  8
0
100
AcDbBlockBegin
  2
*D7
 70
     1
 10
0.0
 20
0.0
 30
0.0
  3
*D7
  1
*D7
  0
LINE
  5
15A
330
157
100
AcDbEntity
  8
치수문자_일반주서
 62
     0
370
    -2
100
AcDbLine
 10
61.65960811537483
 20
-9.022270767278872
 30
0.0
 11
77.11996891675545
 21
-36.23977336930196
 31
0.0
  0
MTEXT
  5
15B
330
157
100
AcDbEntity
  8
치수문자_일반주서
 62
     0
100
AcDbMText
 10
72.48770558249508
 20
-22.77007547357812
 30
0.0
 40
3.5
 41
0.0
 71
     5
 72
     1
  1
\A1;R1.52 [R0.06]
  7
SLDTEXTSTYLE0
 11
0.4939096799367657
 21
-0.8695132132778443
 31
0.0
 73
     1
 44
1.0
  0
SOLID
  5
15C
330
157
100
AcDbEntity
  8
치수문자_일반주서
 62
     0
100
AcDbTrace
 10
62.13813022041541
 20
-8.750455806753672
 30
0.0
 11
61.18108601033425
 21
-9.294085727804072
 31
0.0
 12
60.02871835222363
 22
-6.151138137035431
 32
0.0
 13
60.02871835222363
 23
-6.151138137035431
 33
0.0
  0
LINE
  5
15D
330
157
100
AcDbEntity
  8
치수문자_일반주서
 62
     0
100
AcDbLine
 10
59.18599999999999
 20
-4.825999999999995
 30
0.0
 11
59.366
 21
-4.825999999999995
 31
0.0
  0
LINE
  5
15E
330
157
100
AcDbEntity
  8
치수문자_일반주서
 62
     0
100
AcDbLine
 10
59.276
 20
-4.915999999999995
 30
0.0
 11
59.276
 21
-4.735999999999995
 31
0.0
  0
POINT
  5
15F
330
157
100
AcDbEntity
  8
Defpoints
 62
     0
100
AcDbPoint
 10
60.02871835222363
 20
-6.151138137035431
 30
0.0
  0
POINT
  5
160
330
157
100
AcDbEntity
  8
Defpoints
 62
     0
100
AcDbPoint
 10
59.276
 20
-4.825999999999995
 30
0.0
  0
ENDBLK
  5
159
330
157
100
AcDbEntity
  8
0
100
AcDbBlockEnd
  0
ENDSEC
  0
SECTION
  2
ENTITIES
  0
LINE
  5
95
330
1F
100
AcDbEntity
  8
0
  6
Continuous
 62
     4
370
    15
100
AcDbLine
 10
10.0
 20
6.350000000000005
 30
0.0
 11
-40.3
 21
6.350000000000005
 31
0.0
  0
LINE
  5
96
330
1F
100
AcDbEntity
  8
0
  6
Continuous
 62
     4
370
    15
100
AcDbLine
 10
-40.3
 20
-6.349999999999995
 30
0.0
 11
7.9698419659217
 21
-6.349999999999995
 31
0.0
  0
LINE
  5
97
330
1F
100
AcDbEntity
  8
0
  6
Continuous
 62
     4
370
    15
100
AcDbLine
 10
-40.3
 20
6.350000000000002
 30
0.0
 11
-40.8
 21
5.850000000000002
 31
0.0
  0
LINE
  5
98
330
1F
100
AcDbEntity
  8
0
  6
Continuous
 62
     4
370
    15
100
AcDbLine
 10
-40.8
 20
-5.849999999999993
 30
0.0
 11
-40.3
 21
-6.349999999999993
 31
0.0
  0
LINE
  5
99
330
1F
100
AcDbEntity
  8
0
  6
Continuous
 62
     1
370
    15
100
AcDbLine
 10
51.44775396917961
 20
-6.349999999999995
 30
0.0
 11
56.91556072603741
 21
-6.349999999999995
 31
0.0
  0
LINE
  5
9A
330
1F
100
AcDbEntity
  8
0
  6
Continuous
 62
     1
370
    15
100
AcDbLine
 10
30.4425536513655
 20
6.350000000000005
 30
0.0
 11
24.97420075759418
 21
6.350000000000005
 31
0.0
  0
LINE
  5
9B
330
1F
100
AcDbEntity
  8
0
  6
Continuous
 62
     1
370
    15
100
AcDbLine
 10
16.15022777141688
 20
-6.349999999999995
 30
0.0
 11
21.61770702265584
 21
-6.349999999999995
 31
0.0
  0
LINE
  5
9C
330
1F
100
AcDbEntity
  8
0
  6
Continuous
 62
     1
370
    15
100
AcDbLine
 10
48.09099768712822
 20
6.350000000000005
 30
0.0
 11
42.62373445980618
 21
6.350000000000005
 31
0.0
  0
LINE
  5
9D
330
1F
100
AcDbEntity
  8
0
  6
Continuous
 62
     1
370
    15
100
AcDbLine
 10
33.79831936220737
 20
-6.349999999999995
 30
0.0
 11
39.26609701093774
 21
-6.349999999999995
 31
0.0
  0
LINE
  5
9E
330
1F
100
AcDbEntity
  8
0
  6
Continuous
 62
     1
370
    15
100
AcDbLine
 10
12.79458848600662
 20
6.350000000000005
 30
0.0
 11
10.0
 21
6.350000000000005
 31
0.0
  0
SPLINE
  5
A1
330
1F
100
AcDbEntity
  8
0
  6
Continuous
 62
     1
370
    15
100
AcDbSpline
210
0.0
220
0.0
230
1.0
 70
    24
 71
     3
 72
    14
 73
    10
 74
     0
 42
0.000000001
 43
0.00000001
 40
0.0
 40
0.0
 40
0.0
 40
0.0
 40
0.2499999999999998
 40
0.2499999999999998
 40
0.4999999999999997
 40
0.4999999999999997
 40
0.7499999999999998
 40
0.7499999999999998
 40
1.0
 40
1.0
 40
1.0
 40
1.0
 10
9.999999999999998
 20
5.900511224622469
 30
0.0
 10
9.999999999999998
 20
5.575304861357568
 30
0.0
 10
9.999999999999998
 20
5.245711795261874
 30
0.0
 10
9.999999999999998
 20
4.5775063738614
 30
0.0
 10
9.999999999999998
 20
4.237076124587892
 30
0.0
 10
9.999999999999998
 20
3.553757489440347
 30
0.0
 10
9.999999999999998
 20
3.218271027669819
 30
0.0
 10
9.999999999999998
 20
2.560560921893482
 30
0.0
 10
9.999999999999998
 20
2.236481735793475
 30
0.0
 10
9.999999999999998
 20
1.930696744499071
 30
0.0
  0
SPLINE
  5
A2
330
1F
100
AcDbEntity
  8
0
  6
Continuous
 62
     4
370
    15
100
AcDbSpline
210
0.0
220
0.0
230
1.0
 70
     8
 71
     3
 72
    14
 73
    10
 74
     0
 42
0.000000001
 43
0.00000001
 40
0.0
 40
0.0
 40
0.0
 40
0.0
 40
0.25
 40
0.25
 40
0.5
 40
0.5
 40
0.75
 40
0.75
 40
1.0
 40
1.0
 40
1.0
 40
1.0
 10
8.7356596236825
 20
-0.2670367433828008
 30
0.0
 10
8.611956382645548
 20
-0.1740948189883745
 30
0.0
 10
8.502138485613186
 20
-0.0679703997089924
 30
0.0
 10
8.309261417825136
 20
0.1697080414564394
 30
0.0
 10
8.226538669985459
 20
0.3020298720486719
 30
0.0
 10
8.09677989673845
 20
0.5776515909263387
 30
0.0
 10
8.047954392829885
 20
0.7243900177827545
 30
0.0
 10
7.984632427832685
 20
1.022178277199827
 30
0.0
 10
7.969841965919858
 20
1.172387489343361
 30
0.0
 10
7.969841965919816
 20
1.323568255186143
 30
0.0
  0
SPLINE
  5
A3
330
1F
100
AcDbEntity
  8
0
  6
Continuous
 62
     4
370
    15
100
AcDbSpline
210
0.0
220
0.0
230
1.0
 70
     8
 71
     3
 72
    20
 73
    16
 74
     0
 42
0.000000001
 43
0.00000001
 40
0.0
 40
0.0
 40
0.0
 40
0.0
 40
0.125
 40
0.125
 40
0.25
 40
0.25
 40
0.375
 40
0.375
 40
0.5
 40
0.5
 40
0.75
 40
0.75
 40
0.875
 40
0.875
 40
1.0
 40
1.0
 40
1.0
 40
1.0
 10
7.9698419659217
 20
4.898562504431299
 30
0.0
 10
7.9698419659217
 20
4.98376136539123
 30
0.0
 10
7.980964947876192
 20
5.064474302078757
 30
0.0
 10
8.027731336770495
 20
5.217278125385791
 30
0.0
 10
8.06401940706709
 20
5.290165330410382
 30
0.0
 10
8.161382234020992
 20
5.42287000756336
 30
0.0
 10
8.221970068189355
 20
5.482750250004677
 30
0.0
 10
8.36775997633256
 20
5.591174944098229
 30
0.0
 10
8.453630314711372
 20
5.639713657543933
 30
0.0
 10
8.73677207805369
 20
5.763974505475788
 30
0.0
 10
8.967224665771816
 20
5.822000678895452
 30
0.0
 10
9.33983971160305
 20
5.875236193193484
 30
0.0
 10
9.470836190777787
 20
5.887680257584924
 30
0.0
 10
9.733608579831365
 20
5.901835414045193
 30
0.0
 10
9.866189071028643
 20
5.903772931291373
 30
0.0
 10
10.0
 20
5.900511224622425
 30
0.0
  0
LINE
  5
A4
330
1F
100
AcDbEntity
  8
0
  6
Continuous
 62
     4
370
    15
100
AcDbLine
 10
7.9698419659217
 20
4.898562504431299
 30
0.0
 11
7.9698419659217
 21
1.323568255186651
 31
0.0
  0
SPLINE
  5
A5
330
1F
100
AcDbEntity
  8
0
  6
Continuous
 62
     4
370
    15
100
AcDbSpline
210
0.0
220
0.0
230
1.0
 70
     8
 71
     3
 72
     8
 73
     4
 74
     0
 42
0.000000001
 43
0.00000001
 40
0.0
 40
0.0
 40
0.0
 40
0.0
 40
1.0
 40
1.0
 40
1.0
 40
1.0
 10
9.999999999999996
 20
-1.212779733873008
 30
0.0
 10
9.579067423672182
 20
-0.9010344874051671
 30
0.0
 10
9.158692222726023
 20
-0.5848737176374722
 30
0.0
 10
8.7356596236825
 20
-0.267036743382799
 30
0.0
  0
LINE
  5
A6
330
1F
100
AcDbEntity
  8
0
  6
Continuous
 62
     4
370
    15
100
AcDbLine
 10
9.999999999999995
 20
-1.212779733872994
 30
0.0
 11
10.0
 21
-4.982458964852159
 31
0.0
  0
SPLINE
  5
A7
330
1F
100
AcDbEntity
  8
0
  6
Continuous
 62
     4
370
    15
100
AcDbSpline
210
0.0
220
0.0
230
1.0
 70
     8
 71
     3
 72
    20
 73
    16
 74
     0
 42
0.000000001
 43
0.00000001
 40
0.0
 40
0.0
 40
0.0
 40
0.0
 40
0.125
 40
0.125
 40
0.2499999999999999
 40
0.2499999999999999
 40
0.3749999999999999
 40
0.3749999999999999
 40
0.4999999999999999
 40
0.4999999999999999
 40
0.7499999999999998
 40
0.7499999999999998
 40
0.8749999999999999
 40
0.8749999999999999
 40
1.0
 40
1.0
 40
1.0
 40
1.0
 10
7.9698419659217
 20
-5.948558183616604
 30
0.0
 10
7.9698419659217
 20
-5.901706574517481
 30
0.0
 10
7.980964947876195
 20
-5.851560210996181
 30
0.0
 10
8.027731336770497
 20
-5.745450702790412
 30
0.0
 10
8.06401940706709
 20
-5.68875416192323
 30
0.0
 10
8.161382234020992
 20
-5.574594754484238
 30
0.0
 10
8.221970068189355
 20
-5.51728196712295
 30
0.0
 10
8.36775997633256
 20
-5.404254484613753
 30
0.0
 10
8.453630314711372
 20
-5.348402826456645
 30
0.0
 10
8.73677207805369
 20
-5.195018444066733
 30
0.0
 10
8.967224665771816
 20
-5.107916742660854
 30
0.0
 10
9.339839711603052
 20
-5.024399987096412
 30
0.0
 10
9.470836190777788
 20
-5.003831062812378
 30
0.0
 10
9.733608579831365
 20
-4.98030205185534
 30
0.0
 10
9.866189071028643
 20
-4.976987033620012
 30
0.0
 10
9.999999999999998
 20
-4.982458964852159
 30
0.0
  0
LINE
  5
A8
330
1F
100
AcDbEntity
  8
0
  6
Continuous
 62
     4
370
    15
100
AcDbLine
 10
7.9698419659217
 20
-5.948558183616603
 30
0.0
 11
7.9698419659217
 21
-6.349999999999995
 31
0.0
  0
SPLINE
  5
A9
330
1F
100
AcDbEntity
  8
0
  6
Continuous
 62
     4
370
    15
100
AcDbSpline
210
0.0
220
0.0
230
1.0
 70
     8
 71
     3
 72
    14
 73
    10
 74
     0
 42
0.000000001
 43
0.00000001
 40
0.0
 40
0.0
 40
0.0
 40
0.0
 40
0.25
 40
0.25
 40
0.5
 40
0.5
 40
0.75
 40
0.75
 40
1.0
 40
1.0
 40
1.0
 40
1.0
 10
8.7356596236825
 20
-5.360878186008306
 30
0.0
 10
8.611956382645548
 20
-5.410736996427802
 30
0.0
 10
8.502138485613186
 20
-5.465924141999054
 30
0.0
 10
8.309261417825136
 20
-5.583114394294951
 30
0.0
 10
8.226538669985459
 20
-5.645354842778765
 30
0.0
 10
8.09677989673845
 20
-5.76659235887994
 30
0.0
 10
8.047954392829885
 20
-5.827107355483312
 30
0.0
 10
7.984632427832685
 20
-5.940194618008657
 30
0.0
 10
7.969841965919856
 20
-5.992572010677241
 30
0.0
 10
7.969841965919812
 20
-6.040259776454694
 30
0.0
  0
LINE
  5
AA
330
1F
100
AcDbEntity
  8
0
  6
Continuous
 62
     4
370
    15
100
AcDbLine
 10
9.518796377849936
 20
-5.008291399725149
 30
0.0
 11
8.7356596236825
 21
-5.360878186008307
 31
0.0
  0
LINE
  5
AB
330
1F
100
AcDbEntity
  8
0
  6
Continuous
 62
     4
370
    15
100
AcDbLine
 10
10.0
 20
6.350000000000005
 30
0.0
 11
10.0
 21
5.900511224622425
 31
0.0
  0
LINE
  5
AC
330
1F
100
AcDbEntity
  8
0
  6
Continuous
 62
     4
370
    15
100
AcDbLine
 10
-40.3
 20
6.350000000000002
 30
0.0
 11
-40.3
 21
-6.349999999999995
 31
0.0
  0
LINE
  5
AD
330
1F
100
AcDbEntity
  8
0
  6
Continuous
 62
     4
370
    15
100
AcDbLine
 10
-40.8
 20
5.850000000000002
 30
0.0
 11
-40.8
 21
-5.849999999999993
 31
0.0
  0
SPLINE
  5
AE
330
1F
100
AcDbEntity
  8
0
  6
Continuous
 62
     4
370
    15
100
AcDbSpline
210
0.0
220
0.0
230
1.0
 70
    24
 71
     3
 72
    14
 73
    10
 74
     0
 42
0.000000001
 43
0.00000001
 40
0.0
 40
0.0
 40
0.0
 40
0.0
 40
0.2500000000000001
 40
0.2500000000000001
 40
0.5000000000000002
 40
0.5000000000000002
 40
0.7500000000000001
 40
0.7500000000000001
 40
1.0
 40
1.0
 40
1.0
 40
1.0
 10
9.999999999999996
 20
1.930696744498773
 30
0.0
 10
9.999999999999996
 20
1.603258574101552
 30
0.0
 10
9.999999999999996
 20
1.277393231511014
 30
0.0
 10
9.999999999999996
 20
0.6498934468139725
 30
0.0
 10
9.999999999999996
 20
0.3483752569196775
 30
0.0
 10
9.999999999999996
 20
-0.206203664142298
 30
0.0
 10
9.999999999999996
 20
-0.4590911899222558
 30
0.0
 10
9.999999999999996
 20
-0.8935774977141857
 30
0.0
 10
9.999999999999996
 20
-1.075006920570785
 30
0.0
 10
9.999999999999996
 20
-1.212779733872994
 30
0.0
  0
SPLINE
  5
B0
330
1F
100
AcDbEntity
  8
0
  6
Continuous
 62
     1
370
    15
100
AcDbSpline
210
0.0
220
0.0
230
1.0
 70
     8
 71
     3
 72
    26
 73
    22
 74
     0
 42
0.000000001
 43
0.00000001
 40
0.0
 40
0.0
 40
0.0
 40
0.0
 40
0.0578816637850778
 40
0.1157535783099843
 40
0.1736218176896167
 40
0.231492467762734
 40
0.2893716066769248
 40
0.3472652855258078
 40
0.405179060382801
 40
0.4565085725820466
 40
0.5077904987689603
 40
0.5590636550439538
 40
0.6103669519083487
 40
0.6617186864655806
 40
0.7121074191675615
 40
0.7624629464165869
 40
0.8128321570319245
 40
0.8632599782213165
 40
0.9145848303418845
 40
0.9658648463341396
 40
1.0
 40
1.0
 40
1.0
 40
1.0
 10
59.276
 20
-6.349999999999994
 30
0.0
 10
58.71964607301236
 20
-6.349999999999995
 30
0.0
 10
57.60703192814679
 20
-6.349999999999995
 30
0.0
 10
55.93832149661604
 20
-6.34585224100668
 30
0.0
 10
54.26973971351315
 20
-6.079841862544358
 30
0.0
 10
52.60107136677962
 20
-5.571498477092704
 30
0.0
 10
50.93207129336161
 20
-4.846460270087058
 30
0.0
 10
49.2625548003699
 20
-3.931463194754313
 30
0.0
 10
47.65570052123182
 20
-2.903192950635832
 30
0.0
 10
46.11260386448534
 20
-1.818450461000579
 30
0.0
 10
44.63394776580445
 20
-0.7218059423070513
 30
0.0
 10
43.15556721407048
 20
0.3968433790169258
 30
0.0
 10
41.67629964705529
 20
1.503501682801581
 30
0.0
 10
40.20471528181558
 20
2.556868515954692
 30
0.0
 10
38.74306383911374
 20
3.527471907347675
 30
0.0
 10
37.29111967523475
 20
4.387669190295214
 30
0.0
 10
35.83876267334233
 20
5.117351589119641
 30
0.0
 10
34.37621474314172
 20
5.700353473797698
 30
0.0
 10
32.90521542573326
 20
6.107078454913128
 30
0.0
 10
31.59132106535871
 20
6.329101909281216
 30
0.0
 10
30.7705607291609
 20
6.32849932057644
 30
0.0
 10
30.44255365136551
 20
6.328258503188648
 30
0.0
  0
LINE
  5
B1
330
1F
100
AcDbEntity
  8
0
  6
Continuous
 62
     1
370
    15
100
AcDbLine
 10
10.06097524739248
 20
-4.758412587612832
 30
0.0
 11
9.999999999999996
 21
-4.791642088121738
 31
0.0
  0
SPLINE
  5
B2
330
1F
100
AcDbEntity
  8
0
  6
Continuous
 62
     1
370
    15
100
AcDbSpline
210
0.0
220
0.0
230
1.0
 70
     8
 71
     3
 72
    11
 73
     7
 74
     0
 42
0.000000001
 43
0.00000001
 40
0.0
 40
0.0
 40
0.0
 40
0.0
 40
0.2597798461806727
 40
0.5195173639751555
 40
0.7791163499406288
 40
1.0
 40
1.0
 40
1.0
 40
1.0
 10
9.999999999998655
 20
-4.733126815454208
 30
0.0
 10
10.53264448651695
 20
-4.98447008358744
 30
0.0
 10
11.59784667075194
 20
-5.487115666119131
 30
0.0
 10
13.19528992872982
 20
-5.993406637132741
 30
0.0
 10
14.71263588651425
 20
-6.303965917306908
 30
0.0
 10
15.69748211036454
 20
-6.325627775594916
 30
0.0
 10
16.15022777141688
 20
-6.33558599253551
 30
0.0
  0
SPLINE
  5
B3
330
1F
100
AcDbEntity
  8
0
  6
Continuous
 62
     1
370
    15
100
AcDbSpline
210
0.0
220
0.0
230
1.0
 70
     8
 71
     3
 72
    22
 73
    18
 74
     0
 42
0.000000001
 43
0.00000001
 40
0.0
 40
0.0
 40
0.0
 40
0.0
 40
0.0356340974915227
 40
0.100639221691099
 40
0.1656720457216127
 40
0.2307737326619269
 40
0.2946748791833816
 40
0.3585220397387113
 40
0.4223746177515124
 40
0.4862919508359603
 40
0.5597181843471484
 40
0.6331189390462963
 40
0.70650125922546
 40
0.7798728167902298
 40
0.8532413179466887
 40
0.9266144786522064
 40
1.0
 40
1.0
 40
1.0
 40
1.0
 10
36.53394451367314
 20
4.744558863354683
 30
0.0
 10
36.80404494266861
 20
4.88204223526297
 30
0.0
 10
37.56687321295112
 20
5.270328189400283
 30
0.0
 10
38.82240087252296
 20
5.740207104598505
 30
0.0
 10
40.30142664789192
 20
6.143404022903583
 30
0.0
 10
41.77292379871287
 20
6.349305695072124
 30
0.0
 10
43.23487257391454
 20
6.364855856488719
 30
0.0
 10
44.68690065016737
 20
6.191059545595308
 30
0.0
 10
46.13905987775203
 20
5.833716888247642
 30
0.0
 10
47.66449974759928
 20
5.277387378168439
 30
0.0
 10
49.26255610748926
 20
4.508598765678631
 30
0.0
 10
50.93207094326818
 20
3.528709463574426
 30
0.0
 10
52.6010714605594
 20
2.411052733166128
 30
0.0
 10
54.26973968839634
 20
1.198679046886079
 30
0.0
 10
55.93832150331417
 20
-0.0586563655676564
 30
0.0
 10
57.60703192647188
 20
-1.320777175882934
 30
0.0
 10
58.71964607245403
 20
-2.110194743840591
 30
0.0
 10
59.27599999999999
 20
-2.504936771877036
 30
0.0
  0
SPLINE
  5
B4
330
1F
100
AcDbEntity
  8
0
  6
Continuous
 62
     1
370
    15
100
AcDbSpline
210
0.0
220
0.0
230
1.0
 70
     8
 71
     3
 72
    16
 73
    12
 74
     0
 42
0.000000001
 43
0.00000001
 40
0.0
 40
0.0
 40
0.0
 40
0.0
 40
0.2500000000000005
 40
0.2500000000000005
 40
0.500000000000001
 40
0.500000000000001
 40
0.6250000000000016
 40
0.6250000000000016
 40
0.7500000000000022
 40
0.7500000000000022
 40
1.0
 40
1.0
 40
1.0
 40
1.0
 10
59.276
 20
-2.504936771877045
 30
0.0
 10
59.46751367626921
 20
-2.63758301272671
 30
0.0
 10
59.65135028862005
 20
-2.752705286750682
 30
0.0
 10
60.00828303206898
 20
-2.94218668940033
 30
0.0
 10
60.17414405985831
 20
-3.012159900602097
 30
0.0
 10
60.3925435876927
 20
-3.074567782245892
 30
0.0
 10
60.45955836270196
 20
-3.088025952943124
 30
0.0
 10
60.57697540756863
 20
-3.100575913048491
 30
0.0
 10
60.62807664572711
 20
-3.099862434506031
 30
0.0
 10
60.75520563776654
 20
-3.078560373087558
 30
0.0
 10
60.8
 20
-3.039845152367664
 30
0.0
 10
60.8
 20
-2.989807193186491
 30
0.0
  0
SPLINE
  5
B5
330
1F
100
AcDbEntity
  8
0
  6
Continuous
 62
     1
370
    15
100
AcDbSpline
210
0.0
220
0.0
230
1.0
 70
     8
 71
     3
 72
    11
 73
     7
 74
     0
 42
0.000000001
 43
0.00000001
 40
0.0
 40
0.0
 40
0.0
 40
0.0
 40
0.2333946350969043
 40
0.5835397985359975
 40
0.942294945936094
 40
1.0
 40
1.0
 40
1.0
 40
1.0
 10
59.78557590264386
 20
-2.82019115614244
 30
0.0
 10
59.70766406375475
 20
-2.838675024666793
 30
0.0
 10
59.5128667036953
 20
-2.884888910047615
 30
0.0
 10
59.16140789563149
 20
-3.027694526957231
 30
0.0
 10
58.86804170533006
 20
-3.17020372666831
 30
0.0
 10
58.70669621028546
 20
-3.258282760984366
 30
0.0
 10
58.68434005120522
 20
-3.270487061465511
 30
0.0
  0
SPLINE
  5
B6
330
1F
100
AcDbEntity
  8
0
  6
Continuous
 62
     1
370
    15
100
AcDbSpline
210
0.0
220
0.0
230
1.0
 70
     8
 71
     3
 72
     8
 73
     4
 74
     0
 42
0.000000001
 43
0.00000001
 40
0.0
 40
0.0
 40
0.0
 40
0.0
 40
1.0
 40
1.0
 40
1.0
 40
1.0
 10
60.8
 20
-3.712261908249144
 30
0.0
 10
60.07252375386663
 20
-3.6626335920727
 30
0.0
 10
59.36690640307395
 20
-3.517118415131968
 30
0.0
 10
58.68434005120523
 20
-3.270487061465489
 30
0.0
  0
LINE
  5
B7
330
1F
100
AcDbEntity
  8
0
  6
Continuous
 62
     1
370
    15
100
AcDbLine
 10
60.8
 20
-4.825999999999995
 30
0.0
 11
60.8
 21
-3.712261908249151
 31
0.0
  0
SPLINE
  5
B8
330
1F
100
AcDbEntity
  8
0
  6
Continuous
 62
     1
370
    15
100
AcDbSpline
210
0.0
220
0.0
230
1.0
 70
     8
 71
     3
 72
    30
 73
    26
 74
     0
 42
0.000000001
 43
0.00000001
 40
0.0
 40
0.0
 40
0.0
 40
0.0
 40
0.0221840204773116
 40
0.0675852984640051
 40
0.1130132652948717
 40
0.1584841226617868
 40
0.2031022625814383
 40
0.2476909997861055
 40
0.2922918533175773
 40
0.3369446052527935
 40
0.3823916587997644
 40
0.427799010918673
 40
0.4732010506331114
 40
0.5186322241532644
 40
0.5641029587477107
 40
0.6087178419350147
 40
0.6533060929601513
 40
0.697909236773667
 40
0.7425650404272875
 40
0.7916129475327279
 40
0.8406368258850226
 40
0.8896491972913081
 40
0.9386626476801487
 40
0.9876897569624508
 40
1.0
 40
1.0
 40
1.0
 40
1.0
 10
45.35611152437728
 20
-4.744514560693731
 30
0.0
 10
45.11536010143705
 20
-4.868202895273813
 30
0.0
 10
44.3818926584327
 20
-5.245028773957976
 30
0.0
 10
43.15557759288095
 20
-5.710435268024747
 30
0.0
 10
41.67629686196316
 20
-6.12508838905757
 30
0.0
 10
40.20471600808899
 20
-6.342210697889362
 30
0.0
 10
38.74306366347079
 20
-6.369336045255019
 30
0.0
 10
37.29111965782543
 20
-6.206854237784231
 30
0.0
 10
35.83876291882324
 20
-5.860359275571239
 30
0.0
 10
34.37621377018055
 20
-5.33724695273872
 30
0.0
 10
32.90521914082839
 20
-4.649108759363587
 30
0.0
 10
31.42662496339859
 20
-3.813795392189701
 30
0.0
 10
29.94821855563526
 20
-2.861336766803036
 30
0.0
 10
28.46885927819959
 20
-1.820766247075369
 30
0.0
 10
26.99727844277027
 20
-0.7315293214366518
 30
0.0
 10
25.53571884292384
 20
0.3737893254903664
 30
0.0
 10
24.08379254551672
 20
1.461211791928168
 30
0.0
 10
22.63135517770311
 20
2.505562185930627
 30
0.0
 10
21.12961685497895
 20
3.506697896800803
 30
0.0
 10
19.5802222993319
 20
4.425714881487856
 30
0.0
 10
17.98378358915815
 20
5.213146946765774
 30
0.0
 10
16.38784496292768
 20
5.818820893956963
 30
0.0
 10
14.79183431272962
 20
6.19808710480571
 30
0.0
 10
13.59412902739522
 20
6.367049119665707
 30
0.0
 10
12.92823220288703
 20
6.335020481444129
 30
0.0
 10
12.79458848600662
 20
6.328592419166296
 30
0.0
  0
SPLINE
  5
B9
330
1F
100
AcDbEntity
  8
0
  6
Continuous
 62
     1
370
    15
100
AcDbSpline
210
0.0
220
0.0
230
1.0
 70
     8
 71
     3
 72
    30
 73
    26
 74
     0
 42
0.000000001
 43
0.00000001
 40
0.0
 40
0.0
 40
0.0
 40
0.0
 40
0.0214074064357413
 40
0.0704516236599824
 40
0.115914028186429
 40
0.1613281613282509
 40
0.206724723145437
 40
0.2521381794658009
 40
0.2975998659666161
 40
0.3422295152504737
 40
0.3868187001377307
 40
0.4314088903480979
 40
0.4760415433887662
 40
0.5215011228647103
 40
0.566912868728279
 40
0.6123094937480358
 40
0.6577254630710864
 40
0.7031895231213294
 40
0.7478151802935363
 40
0.792403136120031
 40
0.8369948752526637
 40
0.8816318363849754
 40
0.9329093815072141
 40
0.9841691333848376
 40
1.0
 40
1.0
 40
1.0
 40
1.0
 10
18.88287919059291
 20
4.741489121867971
 30
0.0
 10
19.11524946218643
 20
4.862143595297127
 30
0.0
 10
19.87997838781386
 20
5.259216616750686
 30
0.0
 10
21.13841787143392
 20
5.72976097648216
 30
0.0
 10
22.65778335699722
 20
6.144318927401909
 30
0.0
 10
24.13674512405721
 20
6.350779964930926
 30
0.0
 10
25.61508155360412
 20
6.364321615795118
 30
0.0
 10
27.09401024280746
 20
6.181552891336509
 30
0.0
 10
28.56545334176634
 20
5.811371458942006
 30
0.0
 10
30.02750560723535
 20
5.268456205737483
 30
0.0
 10
31.47957572147346
 20
4.572460356100716
 30
0.0
 10
32.93168050480512
 20
3.740829602772126
 30
0.0
 10
34.3938102485078
 20
2.792800840721853
 30
0.0
 10
35.86520163174009
 20
1.754607296837092
 30
0.0
 10
37.34407294935463
 20
0.6556362701412479
 30
0.0
 10
38.82241455095362
 20
-0.4632286482107922
 30
0.0
 10
40.30142297427789
 20
-1.568124497602031
 30
0.0
 10
41.77292476787839
 20
-2.617809399786633
 30
0.0
 10
43.23487229991716
 20
-3.582664431806855
 30
0.0
 10
44.68690078555588
 20
-4.43583720642355
 30
0.0
 10
46.13905960994437
 20
-5.156460821704989
 30
0.0
 10
47.66450074413208
 20
-5.75612550722464
 30
0.0
 10
49.26255179149203
 20
-6.16657795520047
 30
0.0
 10
50.54759826861832
 20
-6.362960139000038
 30
0.0
 10
51.2759017066458
 20
-6.330983188445711
 30
0.0
 10
51.4477539691796
 20
-6.323437828895337
 30
0.0
  0
SPLINE
  5
BA
330
1F
100
AcDbEntity
  8
0
  6
Continuous
 62
     1
370
    15
100
AcDbSpline
210
0.0
220
0.0
230
1.0
 70
     8
 71
     3
 72
    20
 73
    16
 74
     0
 42
0.000000001
 43
0.00000001
 40
0.0
 40
0.0
 40
0.0
 40
0.0
 40
0.1249999999999993
 40
0.1249999999999993
 40
0.2499999999999985
 40
0.2499999999999985
 40
0.3749999999999978
 40
0.3749999999999978
 40
0.499999999999997
 40
0.499999999999997
 40
0.6249999999999962
 40
0.6249999999999962
 40
0.7499999999999956
 40
0.7499999999999956
 40
1.0
 40
1.0
 40
1.0
 40
1.0
 10
60.8
 20
0.6950915867540733
 30
0.0
 10
60.79999999999998
 20
0.660926850650993
 30
0.0
 10
60.79041743816335
 20
0.6347485333699506
 30
0.0
 10
60.74772513682478
 20
0.603497908178302
 30
0.0
 10
60.71470646212124
 20
0.5991208163815313
 30
0.0
 10
60.6264735552958
 20
0.6154049396603918
 30
0.0
 10
60.57049374399576
 20
0.6364032121416883
 30
0.0
 10
60.443766028261
 20
0.6991038673995942
 30
0.0
 10
60.37164052426507
 20
0.7413539934406698
 30
0.0
 10
60.2197001983567
 20
0.8386778028214557
 30
0.0
 10
60.13820194998994
 20
0.8947599326690975
 30
0.0
 10
59.97275444938177
 20
1.012705950334389
 30
0.0
 10
59.88816198680486
 20
1.074960971681177
 30
0.0
 10
59.62796438865657
 20
1.268477939848268
 30
0.0
 10
59.45234000564896
 20
1.401541535959242
 30
0.0
 10
59.276
 20
1.53053827688503
 30
0.0
  0
SPLINE
  5
BB
330
1F
100
AcDbEntity
  8
0
  6
Continuous
 62
     1
370
    15
100
AcDbSpline
210
0.0
220
0.0
230
1.0
 70
     8
 71
     3
 72
    14
 73
    10
 74
     0
 42
0.000000001
 43
0.00000001
 40
0.0
 40
0.0
 40
0.0
 40
0.0
 40
0.1492210074404881
 40
0.2984168809382145
 40
0.4476032797794707
 40
0.5967958934750849
 40
0.7460103917077725
 40
0.8952623744141441
 40
1.0
 40
1.0
 40
1.0
 40
1.0
 10
59.276
 20
1.530538276885034
 30
0.0
 10
58.71964607387336
 20
1.931626475058279
 30
0.0
 10
57.6070319307296
 20
2.733735314376517
 30
0.0
 10
55.93832148628714
 20
3.814224096290455
 30
0.0
 10
54.26973975224463
 20
4.749173163707858
 30
0.0
 10
52.60107122216609
 20
5.499703892299633
 30
0.0
 10
50.93207183322476
 20
6.02647684083444
 30
0.0
 10
49.4287184876389
 20
6.318910279583099
 30
0.0
 10
48.48157216018291
 20
6.322467364273978
 30
0.0
 10
48.09099768712822
 20
6.32393419831902
 30
0.0
  0
SPLINE
  5
BC
330
1F
100
AcDbEntity
  8
0
  6
Continuous
 62
     1
370
    15
100
AcDbSpline
210
0.0
220
0.0
230
1.0
 70
     8
 71
     3
 72
    19
 73
    15
 74
     0
 42
0.000000001
 43
0.00000001
 40
0.0
 40
0.0
 40
0.0
 40
0.0
 40
0.0406297644453709
 40
0.1226732403195439
 40
0.2046677416139767
 40
0.2866896296465739
 40
0.3688083552367867
 40
0.4590038347674603
 40
0.5491551271953522
 40
0.6392852591991914
 40
0.7294173753722794
 40
0.8195746092418869
 40
0.9097799544184783
 40
1.0
 40
1.0
 40
1.0
 40
1.0
 10
27.70776596992711
 20
-4.74442833069649
 30
0.0
 10
27.46787585382091
 20
-4.867587880604581
 30
0.0
 10
26.74357685122775
 20
-5.239442880744597
 30
0.0
 10
25.53572112958009
 20
-5.699198098538256
 30
0.0
 10
24.08379193637969
 20
-6.111636374319159
 30
0.0
 10
22.63135532763741
 20
-6.335206198470199
 30
0.0
 10
21.1296168607382
 20
-6.374186244999299
 30
0.0
 10
19.58022208697589
 20
-6.202376917103605
 30
0.0
 10
17.98378442555767
 20
-5.803373633538372
 30
0.0
 10
16.38784183028512
 20
-5.196610406799249
 30
0.0
 10
14.79184600886717
 20
-4.404100331274779
 30
0.0
 10
13.19529060973649
 20
-3.452973826758099
 30
0.0
 10
11.59784650043146
 20
-2.381434716526251
 30
0.0
 10
10.53264442974127
 20
-1.60235255368489
 30
0.0
 10
10.0
 20
-1.212779733873012
 30
0.0
  0
SPLINE
  5
BD
330
1F
100
AcDbEntity
  8
0
  6
Continuous
 62
     4
370
    15
100
AcDbSpline
210
0.0
220
0.0
230
1.0
 70
    24
 71
     3
 72
    18
 73
    14
 74
     0
 42
0.000000001
 43
0.00000001
 40
0.0
 40
0.0
 40
0.0
 40
0.0
 40
0.2500000000000001
 40
0.2500000000000001
 40
0.5000000000000001
 40
0.5000000000000001
 40
0.6250000000000002
 40
0.6250000000000002
 40
0.7500000000000002
 40
0.7500000000000002
 40
0.8750000000000001
 40
0.8750000000000001
 40
1.0
 40
1.0
 40
1.0
 40
1.0
 10
10.0
 20
6.032625042749111
 30
0.0
 10
10.0
 20
5.531518129327375
 30
0.0
 10
10.0
 20
4.959536496755587
 30
0.0
 10
10.0
 20
3.688517433854857
 30
0.0
 10
10.0
 20
2.987469406261456
 30
0.0
 10
10.0
 20
1.918710450545038
 30
0.0
 10
10.0
 20
1.560585142314971
 30
0.0
 10
10.0
 20
0.865812410368637
 30
0.0
 10
10.0
 20
0.5293122339020891
 30
0.0
 10
10.0
 20
-0.0914890908854428
 30
0.0
 10
10.0
 20
-0.3755377087723772
 30
0.0
 10
10.0
 20
-0.8613966192384215
 30
0.0
 10
10.0
 20
-1.062944939978806
 30
0.0
 10
10.0
 20
-1.212779733872997
 30
0.0
  0
SPLINE
  5
BE
330
1F
100
AcDbEntity
  8
0
  6
Continuous
 62
     1
370
    15
100
AcDbSpline
210
0.0
220
0.0
230
1.0
 70
     8
 71
     3
 72
    23
 73
    19
 74
     0
 42
0.000000001
 43
0.00000001
 40
0.0
 40
0.0
 40
0.0
 40
0.0
 40
0.0671292849868705
 40
0.1342476319647255
 40
0.2013301811593187
 40
0.2683940412366873
 40
0.3354564249696127
 40
0.4025345533646864
 40
0.469645559692777
 40
0.5318552938988426
 40
0.5939989746253673
 40
0.6561186111455499
 40
0.7182613657247789
 40
0.7804701174006825
 40
0.8415403280192959
 40
0.902555168065597
 40
0.9635713837734832
 40
1.0
 40
1.0
 40
1.0
 40
1.0
 10
9.999999999998648
 20
6.032625042727434
 30
0.0
 10
10.5326444298972
 20
5.88647202680183
 30
0.0
 10
11.59784650090192
 20
5.594189809043176
 30
0.0
 10
13.19529060784973
 20
4.897702332152504
 30
0.0
 10
14.79184601593303
 20
4.041331440206352
 30
0.0
 10
16.3878418039103
 20
3.036286809409757
 30
0.0
 10
17.983784523998
 20
1.923686816299123
 30
0.0
 10
19.58022171941652
 20
0.741847274099467
 30
0.0
 10
21.13841146436376
 20
-0.4371207088912177
 30
0.0
 10
22.65778502077962
 20
-1.57034870081342
 30
0.0
 10
24.13674466255955
 20
-2.626913770532597
 30
0.0
 10
25.61508173731293
 20
-3.602404628816513
 30
0.0
 10
27.0940099693066
 20
-4.467542679670439
 30
0.0
 10
28.56545424567464
 20
-5.189925772938079
 30
0.0
 10
30.02750233228902
 20
-5.754201072314233
 30
0.0
 10
31.47958793128419
 20
-6.136220546191749
 30
0.0
 10
32.73619160492812
 20
-6.336175885491743
 30
0.0
 10
33.50930130085926
 20
-6.329710002499721
 30
0.0
 10
33.79831936220738
 20
-6.327292807401672
 30
0.0
  0
SPLINE
  5
BF
330
1F
100
AcDbEntity
  8
0
  6
Continuous
 62
     1
370
    15
100
AcDbSpline
210
0.0
220
0.0
230
1.0
 70
     8
 71
     3
 72
    11
 73
     7
 74
     0
 42
0.000000001
 43
0.00000001
 40
0.0
 40
0.0
 40
0.0
 40
0.0
 40
0.0173493187625016
 40
0.3448672862915957
 40
0.6724060541098242
 40
0.9999999999999999
 40
0.9999999999999999
 40
0.9999999999999999
 40
0.9999999999999999
 10
54.1813732979477
 20
4.757827007082071
 30
0.0
 10
54.21083555415431
 20
4.773979333711305
 30
0.0
 10
54.79648208501192
 20
5.095052980934791
 30
0.0
 10
55.93831860542331
 20
5.549494984456414
 30
0.0
 10
57.60703265110619
 20
6.089077685734493
 30
0.0
 10
58.71775068950981
 20
6.244312601530264
 30
0.0
 10
59.276
 20
6.350000000000001
 30
0.0
  0
LINE
  5
C1
330
1F
100
AcDbEntity
  8
0
  6
Continuous
 62
     1
370
    15
100
AcDbLine
 10
60.8
 20
4.111650175188995
 30
0.0
 11
60.8
 21
4.775680442201278
 31
0.0
  0
SPLINE
  5
C2
330
1F
100
AcDbEntity
  8
0
  6
Continuous
 62
     1
370
    15
100
AcDbSpline
210
0.0
220
0.0
230
1.0
 70
     8
 71
     3
 72
    18
 73
    14
 74
     0
 42
0.000000001
 43
0.00000001
 40
0.0
 40
0.0
 40
0.0
 40
0.0
 40
0.2500000000000022
 40
0.2500000000000022
 40
0.3750000000000018
 40
0.3750000000000018
 40
0.5000000000000014
 40
0.5000000000000014
 40
0.625000000000001
 40
0.625000000000001
 40
0.7500000000000006
 40
0.7500000000000006
 40
1.0
 40
1.0
 40
1.0
 40
1.0
 10
60.8
 20
4.111650175189
 30
0.0
 10
60.70094868701486
 20
3.863044933894341
 30
0.0
 10
60.58129111499026
 20
3.63210057419852
 30
0.0
 10
60.36596537198833
 20
3.316400679205895
 30
0.0
 10
60.28747083122001
 20
3.215576518462752
 30
0.0
 10
60.12142289088834
 20
3.0298436930979
 30
0.0
 10
60.03398217590569
 20
2.94478984669751
 30
0.0
 10
59.85043211726708
 20
2.790015671881371
 30
0.0
 10
59.75432392823427
 20
2.720293301108692
 30
0.0
 10
59.55338169964086
 20
2.596283294519036
 30
0.0
 10
59.44843751462545
 20
2.542133943291447
 30
0.0
 10
59.1302386736909
 20
2.406910785201109
 30
0.0
 10
58.9092837629896
 20
2.350650882553718
 30
0.0
 10
58.68434005120523
 20
2.325333853375562
 30
0.0
  0
SPLINE
  5
C3
330
1F
100
AcDbEntity
  8
0
  6
Continuous
 62
     1
370
    15
100
AcDbSpline
210
0.0
220
0.0
230
1.0
 70
     8
 71
     3
 72
     8
 73
     4
 74
     0
 42
0.000000001
 43
0.00000001
 40
0.0
 40
0.0
 40
0.0
 40
0.0
 40
1.0
 40
1.0
 40
1.0
 40
1.0
 10
60.8
 20
1.224917617528847
 30
0.0
 10
60.07252375386663
 20
1.646688539118272
 30
0.0
 10
59.36690640307395
 20
2.01447531648335
 30
0.0
 10
58.68434005120522
 20
2.325333853375569
 30
0.0
  0
LINE
  5
C4
330
1F
100
AcDbEntity
  8
0
  6
Continuous
 62
     1
370
    15
100
AcDbLine
 10
60.8
 20
0.6950915867540688
 30
0.0
 11
60.8
 21
1.224917617528847
 31
0.0
  0
LINE
  5
C5
330
1F
100
AcDbEntity
  8
0
  6
Continuous
 62
     4
370
    15
100
AcDbLine
 10
9.999999999999998
 20
-4.733126815469586
 30
0.0
 11
10.0
 21
-1.212779733872996
 31
0.0
  0
LINE
  5
C6
330
1F
100
AcDbEntity
  8
0
  6
Continuous
 62
     4
370
    15
100
AcDbLine
 10
9.999999999999998
 20
6.032625042749109
 30
0.0
 11
10.0
 21
6.350000000000005
 31
0.0
  0
LINE
  5
C7
330
1F
100
AcDbEntity
  8
0
  6
Continuous
 62
     1
370
    15
100
AcDbLine
 10
60.8
 20
-2.98980719318649
 30
0.0
 11
60.8
 21
0.6950915867540688
 31
0.0
  0
LINE
  5
C8
330
1F
100
AcDbEntity
  8
0
  6
Continuous
 62
     1
370
    15
100
AcDbLine
 10
60.8
 20
1.224917617528847
 30
0.0
 11
60.8
 21
4.111650175188995
 31
0.0
  0
LINE
  5
C9
330
1F
100
AcDbEntity
  8
0
  6
Continuous
 62
     1
370
    15
100
AcDbLine
 10
60.8
 20
4.775680442201278
 30
0.0
 11
60.8
 21
4.826000000000005
 31
0.0
  0
LINE
  5
CA
330
1F
100
AcDbEntity
  8
0
  6
Continuous
 62
     1
370
    15
100
AcDbLine
 10
60.8
 20
-2.98980719318649
 30
0.0
 11
60.8
 21
-3.712261908249145
 31
0.0
  0
LINE
  5
CB
330
1F
100
AcDbEntity
  8
중심선
100
AcDbLine
 10
-43.80000000000001
 20
0.0000000000000033
 30
0.0
 11
63.8
 21
0.0000000000000038
 31
0.0
  0
CIRCLE
  5
CC
330
1F
100
AcDbEntity
  8
외형선
100
AcDbCircle
 10
0.0
 20
0.0
 30
0.0
 40
3.000000000000008
  0
INSERT
  5
CD
330
1F
100
AcDbEntity
  8
0
  6
Continuous
 62
     7
100
AcDbBlockReference
 66
     1
  2
블럭10
 10
-0.2322120907327978
 20
-34.23515122710846
 30
0.0
  0
ATTRIB
  5
CE
330
CD
100
AcDbEntity
  8
FORMAT
 62
     2
100
AcDbText
 10
-9.413507379474076
 20
-32.15978431427627
 30
0.0
 40
4.233333333333333
  1
E5984032 [ 3 FLUTE ]
 41
0.75
  7
SLDTEXTSTYLE0
 11
-9.413507379474076
 21
-34.27645098094294
 31
0.0
100
AcDbAttribute
  2
AUTOATTR0
 70
     0
 74
     1
  0
SEQEND
  5
CF
330
CD
100
AcDbEntity
  8
0
  6
Continuous
 62
     7
  0
HATCH
  5
D0
330
1F
100
AcDbEntity
  8
중심선
100
AcDbHatch
 10
0.0
 20
0.0
 30
0.0
210
0.0
220
0.0
230
1.0
  2
SOLID
 70
     1
 71
     0
 91
        1
 92
        0
 93
        4
 72
     1
 10
5.48269721364804
 20
-17.98797692546453
 11
2.036421969810757
 21
-17.98797692546453
 72
     1
 10
2.036421969810757
 20
-17.98797692546453
 11
-0.0918078893932659
 21
-20.52430250603713
 72
     1
 10
-0.0918078893932659
 20
-20.52430250603713
 11
3.354500439557167
 21
-20.52426307673464
 72
     1
 10
3.354500439557167
 20
-20.52426307673464
 11
5.48269721364804
 21
-17.98797692546453
 97
        0
 75
     0
 76
     1
 98
        1
 10
20.11363979463508
 20
17.81094814581157
  0
HATCH
  5
D1
330
1F
100
AcDbEntity
  8
중심선
100
AcDbHatch
 10
0.0
 20
0.0
 30
0.0
210
0.0
220
0.0
230
1.0
  2
SOLID
 70
     1
 71
     0
 91
        1
 92
        0
 93
        4
 72
     1
 10
10.49546120468399
 20
-17.98797692546456
 11
7.049185960846737
 21
-17.98797692546451
 72
     1
 10
7.049185960846737
 20
-17.98797692546451
 11
2.518047952489319
 21
-23.38797692546455
 72
     1
 10
2.518047952489319
 20
-23.38797692546455
 11
5.964323196326603
 21
-23.38797692546455
 72
     1
 10
5.964323196326603
 20
-23.38797692546455
 11
10.49546120468399
 21
-17.98797692546456
 97
        0
 75
     0
 76
     1
 98
        1
 10
20.11363979463508
 20
17.81094814581157
  0
HATCH
  5
D2
330
1F
100
AcDbEntity
  8
중심선
100
AcDbHatch
 10
0.0
 20
0.0
 30
0.0
210
0.0
220
0.0
230
1.0
  2
SOLID
 70
     1
 71
     0
 91
        1
 92
        0
 93
        4
 72
     1
 10
15.50822519571991
 20
-17.98797692546456
 11
12.0619499518828
 21
-17.98797692546453
 72
     1
 10
12.0619499518828
 20
-17.98797692546453
 11
5.013513049993522
 21
-26.38797692546455
 72
     1
 10
5.013513049993522
 20
-26.38797692546455
 11
8.459788293830805
 21
-26.38797692546455
 72
     1
 10
8.459788293830805
 20
-26.38797692546455
 11
15.50822519571991
 21
-17.98797692546456
 97
        0
 75
     0
 76
     1
 98
        1
 10
20.11363979463508
 20
17.81094814581157
  0
HATCH
  5
D3
330
1F
100
AcDbEntity
  8
중심선
100
AcDbHatch
 10
0.0
 20
0.0
 30
0.0
210
0.0
220
0.0
230
1.0
  2
SOLID
 70
     1
 71
     0
 91
        1
 92
        0
 93
        6
 72
     3
 10
20.30811562673209
 20
-22.18797692551581
 11
3.960054785062283
 21
1.540882976769353E-10
 40
0.3939339440162628
 50
17.09539180608437
 51
320.0019657685083
 73
     0
 72
     1
 10
21.99111528243265
 20
-20.77587093010287
 11
24.29641715613375
 21
-18.84154422005492
 72
     3
 10
20.30811562667924
 20
-22.18797692546469
 11
6.600054785286829
 21
-1.278976924368180E-13
 40
0.636358354079598
 50
39.99873849337386
 51
368.4976242363725
 73
     1
 72
     1
 10
26.73344811857985
 20
-21.22797692539456
 11
18.98818293351516
 21
-21.22797692539456
 72
     1
 10
18.98818293351516
 20
-21.22797692539456
 11
18.98815788906923
 21
-23.14797692539445
 72
     1
 10
18.98815788906923
 20
-23.14797692539445
 11
23.42953765854126
 21
-23.14797692539442
 97
        0
 75
     0
 76
     1
 98
        1
 10
20.11363979463508
 20
17.81094814581157
  0
POINT
  5
D4
330
1F
100
AcDbEntity
  8
치수문자_일반주서
100
AcDbPoint
 10
-40.80000000000001
 20
-0.1156937548689038
 30
0.0
  0
DIMENSION
  5
D5
330
1F
100
AcDbEntity
  8
치수문자_일반주서
100
AcDbDimension
  2
_D
 10
10.0
 20
28.54205829614185
 30
0.0
 11
35.4
 21
28.54205829614185
 31
0.0
 70
   160
  1
<>
 71
     2
 42
50.79999999999999
  3
SLDDIMSTYLE0
100
AcDbAlignedDimension
 13
60.79999999999999
 23
6.350000000000005
 33
0.0
 14
10.0
 24
6.350000000000005
 34
0.0
100
AcDbRotatedDimension
1001
ACAD
1000
DSTYLE
1002
{
1070
   171
1070
     6
1070
   273
1070
     7
1002
}
  0
DIMENSION
  5
E9
330
1F
100
AcDbEntity
  8
치수문자_일반주서
100
AcDbDimension
  2
_D_1
 10
-40.79999999999999
 20
55.49759778227561
 30
0.0
 11
9.594276350034855
 21
55.49759778227561
 31
0.0
 70
   160
  1
<>
 71
     2
 42
101.6
  3
SLDDIMSTYLE0
100
AcDbAlignedDimension
 13
60.79999999999999
 23
6.350000000000005
 33
0.0
 14
-40.8
 24
5.850000000000002
 34
0.0
100
AcDbRotatedDimension
1001
ACAD
1000
DSTYLE
1002
{
1070
   171
1070
     6
1070
   273
1070
     7
1002
}
  0
DIMENSION
  5
FC
330
1F
100
AcDbEntity
  8
치수문자_일반주서
100
AcDbDimension
  2
_D_2
 10
-47.62499999999996
 20
-6.350000000000019
 30
0.0
 11
-47.62500000000006
 21
25.64149999999998
 31
0.0
 70
   160
  1
%%c<>
 71
     2
 42
12.7
 52
-270.0
  3
SLDDIMSTYLE1
100
AcDbAlignedDimension
 13
-40.3
 23
6.350000000000002
 33
0.0
 14
-40.3
 24
-6.349999999999993
 34
0.0
 50
90.0000000000002
100
AcDbRotatedDimension
1001
ACAD
1000
DSTYLE
1002
{
1070
   171
1070
     6
1070
   273
1070
     7
1002
}
  0
INSERT
  5
117
330
1F
100
AcDbEntity
  8
외형선
100
AcDbBlockReference
  2
SW_DOWELSYMBOL_0
 10
0.0
 20
0.0
 30
0.0
  0
ARC
  5
140
102
{ACAD_REACTORS
102
}
330
1F
100
AcDbEntity
  8
0
  6
Continuous
 62
     1
370
    15
100
AcDbCircle
 10
59.276
 20
-4.825999999999995
 30
0.0
 40
1.524
100
AcDbArc
 50
270.0
 51
0.0
  0
ARC
  5
141
330
1F
100
AcDbEntity
  8
0
  6
Continuous
 62
     1
370
    15
100
AcDbCircle
 10
59.276
 20
4.826000000000001
 30
0.0
 40
1.524
100
AcDbArc
 50
0.0
 51
90.0
  0
DIMENSION
  5
142
102
{ACAD_XDICTIONARY
360
143
102
}
330
1F
100
AcDbEntity
  8
치수문자_일반주서
100
AcDbDimension
  2
*D6
 10
69.41689392039723
 20
6.350000000000004
 30
0.0
 11
66.79189392039723
 21
22.99575
 31
0.0
 70
    32
  1
{Ø<>[]}
 71
     5
 42
12.7
  3
SLDDIMSTYLE0
100
AcDbAlignedDimension
 13
60.8
 23
-6.349999999999995
 33
0.0
 14
60.79999999999999
 24
6.350000000000005
 34
0.0
 50
90.0
100
AcDbRotatedDimension
1001
ACAD
1000
DSTYLE
1002
{
1070
   171
1070
     6
1070
   273
1070
     7
1070
   283
1070
     1
1070
   170
1070
     1
1002
}
  0
DIMENSION
  5
154
102
{ACAD_REACTORS
102
}
102
{ACAD_XDICTIONARY
360
155
102
}
330
1F
100
AcDbEntity
  8
치수문자_일반주서
100
AcDbDimension
  2
*D7
 10
59.276
 20
-4.825999999999995
 30
0.0
 11
70.20523339764074
 21
-24.06658838341214
 31
0.0
 70
   164
  1
<>
 71
     5
 42
1.524000000000001
  3
SLDDIMSTYLE0
100
AcDbRadialDimension
 15
60.02871835222363
 25
-6.151138137035431
 35
0.0
 40
0.0
1001
ACAD_DSTYLE_DIMRADIAL_EXTENSION
1070
   387
1070
     1
1070
   388
1040
4.71238898038469
1070
   390
1040
0.0
  0
ENDSEC
  0
SECTION
  2
OBJECTS
  0
DICTIONARY
  5
C
330
0
100
AcDbDictionary
281
     1
  3
ACAD_GROUP
350
D
  3
ACAD_IMAGE_VARS
350
13B
  3
ACAD_LAYOUT
350
1A
  3
ACAD_MLINESTYLE
350
17
  3
ACAD_PLOTSETTINGS
350
19
  3
ACAD_PLOTSTYLENAME
350
E
  3
ACAD_SCALELIST
350
47
  3
APPDATA
350
139
  3
DWGPROPS
350
167
  0
DICTIONARY
  5
143
330
142
100
AcDbDictionary
280
     1
281
     1
  0
DICTIONARY
  5
155
330
154
100
AcDbDictionary
280
     1
281
     1
  0
DICTIONARY
  5
D
102
{ACAD_REACTORS
330
C
102
}
330
C
100
AcDbDictionary
281
     1
  0
RASTERVARIABLES
  5
13B
102
{ACAD_REACTORS
330
C
102
}
330
C
100
AcDbRasterVariables
 90
        0
 70
     1
 71
     1
 72
     1
  0
DICTIONARY
  5
1A
102
{ACAD_REACTORS
330
C
102
}
330
C
100
AcDbDictionary
281
     1
  3
Layout1
350
1E
  3
Layout2
350
26
  3
Model
350
22
  0
DICTIONARY
  5
17
102
{ACAD_REACTORS
330
C
102
}
330
C
100
AcDbDictionary
281
     1
  3
Standard
350
18
  0
DICTIONARY
  5
19
102
{ACAD_REACTORS
330
C
102
}
330
C
100
AcDbDictionary
281
     1
  0
ACDBDICTIONARYWDFLT
  5
E
102
{ACAD_REACTORS
330
C
102
}
330
C
100
AcDbDictionary
281
     1
  3
Normal
350
F
100
AcDbDictionaryWithDefault
340
F
  0
DICTIONARY
  5
47
102
{ACAD_REACTORS
330
C
102
}
330
C
100
AcDbDictionary
281
     1
  3
A0
350
48
  3
A1
350
49
  3
A2
350
4A
  3
A3
350
4B
  3
A4
350
4C
  3
A5
350
4D
  3
A6
350
4E
  3
A7
350
4F
  3
A8
350
50
  3
A9
350
51
  3
B0
350
52
  3
B1
350
53
  3
B2
350
54
  3
B3
350
55
  3
B4
350
56
  3
B5
350
57
  3
B6
350
58
  3
B7
350
59
  3
B8
350
5A
  3
B9
350
5B
  3
C0
350
5C
  3
C1
350
5D
  3
C2
350
5E
  3
C3
350
5F
  3
C4
350
60
  3
C5
350
61
  3
C6
350
62
  3
C7
350
63
  3
C8
350
64
  3
C9
350
65
  3
D0
350
66
  3
D1
350
67
  3
D2
350
68
  0
DICTIONARY
  5
139
102
{ACAD_REACTORS
330
C
102
}
330
C
100
AcDbDictionary
281
     1
  0
XRECORD
  5
167
102
{ACAD_REACTORS
330
C
102
}
330
C
100
AcDbXrecord
280
     1
  1
DWGPROPS COOKIE
  2

  3

  4

  6

  7

  8
12014074
  9

300
=
301
=
302
=
303
=
304
=
305
=
306
=
307
=
308
=
309
=
 40
0.0
 41
2458269.058141053
 42
2458269.493002326
  1

 90
        0
  0
LAYOUT
  5
1E
102
{ACAD_REACTORS
330
1A
102
}
330
1A
100
AcDbPlotSettings
  1

  2
none_device
  4

  6

 40
0.0
 41
0.0
 42
0.0
 43
0.0
 44
0.0
 45
0.0
 46
0.0
 47
0.0
 48
0.0
 49
0.0
140
0.0
141
0.0
142
1.0
143
1.0
 70
   688
 72
     1
 73
     0
 74
     5
  7

 75
    16
147
1.0
148
0.0
149
0.0
100
AcDbLayout
  1
Layout1
 70
     1
 71
     1
 10
0.0
 20
0.0
 11
420.0
 21
297.0
 12
0.0
 22
0.0
 32
0.0
 14
1.000000000000000E+20
 24
1.000000000000000E+20
 34
1.000000000000000E+20
 15
-1.000000000000000E+20
 25
-1.000000000000000E+20
 35
-1.000000000000000E+20
146
0.0
 13
0.0
 23
0.0
 33
0.0
 16
1.0
 26
0.0
 36
0.0
 17
0.0
 27
1.0
 37
0.0
 76
     0
330
1B
  0
LAYOUT
  5
26
102
{ACAD_REACTORS
330
1A
102
}
330
1A
100
AcDbPlotSettings
  1

  2
none_device
  4

  6

 40
0.0
 41
0.0
 42
0.0
 43
0.0
 44
0.0
 45
0.0
 46
0.0
 47
0.0
 48
0.0
 49
0.0
140
0.0
141
0.0
142
1.0
143
1.0
 70
   688
 72
     1
 73
     0
 74
     5
  7

 75
    16
147
1.0
148
0.0
149
0.0
100
AcDbLayout
  1
Layout2
 70
     1
 71
     2
 10
0.0
 20
0.0
 11
0.0
 21
0.0
 12
0.0
 22
0.0
 32
0.0
 14
0.0
 24
0.0
 34
0.0
 15
0.0
 25
0.0
 35
0.0
146
0.0
 13
0.0
 23
0.0
 33
0.0
 16
1.0
 26
0.0
 36
0.0
 17
0.0
 27
1.0
 37
0.0
 76
     0
330
23
  0
LAYOUT
  5
22
102
{ACAD_REACTORS
330
1A
102
}
330
1A
100
AcDbPlotSettings
  1

  2
none_device
  4
ANSI_A_(11.00_x_8.50_Inches)
  6

 40
6.35
 41
19.05
 42
6.35000508
 43
19.05000254
 44
279.4
 45
215.9
 46
128.4348905145988
 47
74.65777339640205
 48
0.0
 49
0.0
140
0.0
141
0.0
142
0.0719078018160766
143
1.0
 70
  1696
 72
     0
 73
     0
 74
     0
  7

 75
     0
147
0.0235690232323232
148
0.0
149
0.0
100
AcDbLayout
  1
Model
 70
     1
 71
     0
 10
0.0
 20
0.0
 11
420.0
 21
297.0
 12
0.0
 22
0.0
 32
0.0
 14
-52.00000000000011
 24
-36.23977336930196
 34
0.0
 15
80.49191825490136
 25
59.87259778227561
 35
0.0
146
0.0
 13
0.0
 23
0.0
 33
0.0
 16
1.0
 26
0.0
 36
0.0
 17
0.0
 27
1.0
 37
0.0
 76
     0
330
1F
331
29
  0
MLINESTYLE
  5
18
102
{ACAD_REACTORS
330
17
102
}
330
17
100
AcDbMlineStyle
  2
Standard
 70
     0
  3

 62
   256
 51
90.0
 52
90.0
 71
     2
 49
0.5
 62
   256
  6
BYLAYER
 49
-0.5
 62
   256
  6
BYLAYER
  0
ACDBPLACEHOLDER
  5
F
102
{ACAD_REACTORS
330
E
102
}
330
E
  0
SCALE
  5
48
102
{ACAD_REACTORS
330
47
102
}
330
47
100
AcDbScale
 70
     0
300
1:1
140
1.0
141
1.0
290
     1
  0
SCALE
  5
49
102
{ACAD_REACTORS
330
47
102
}
330
47
100
AcDbScale
 70
     0
300
1:2
140
1.0
141
2.0
290
     0
  0
SCALE
  5
4A
102
{ACAD_REACTORS
330
47
102
}
330
47
100
AcDbScale
 70
     0
300
1:4
140
1.0
141
4.0
290
     0
  0
SCALE
  5
4B
102
{ACAD_REACTORS
330
47
102
}
330
47
100
AcDbScale
 70
     0
300
1:5
140
1.0
141
5.0
290
     0
  0
SCALE
  5
4C
102
{ACAD_REACTORS
330
47
102
}
330
47
100
AcDbScale
 70
     0
300
1:8
140
1.0
141
8.0
290
     0
  0
SCALE
  5
4D
102
{ACAD_REACTORS
330
47
102
}
330
47
100
AcDbScale
 70
     0
300
1:10
140
1.0
141
10.0
290
     0
  0
SCALE
  5
4E
102
{ACAD_REACTORS
330
47
102
}
330
47
100
AcDbScale
 70
     0
300
1:16
140
1.0
141
16.0
290
     0
  0
SCALE
  5
4F
102
{ACAD_REACTORS
330
47
102
}
330
47
100
AcDbScale
 70
     0
300
1:20
140
1.0
141
20.0
290
     0
  0
SCALE
  5
50
102
{ACAD_REACTORS
330
47
102
}
330
47
100
AcDbScale
 70
     0
300
1:30
140
1.0
141
30.0
290
     0
  0
SCALE
  5
51
102
{ACAD_REACTORS
330
47
102
}
330
47
100
AcDbScale
 70
     0
300
1:40
140
1.0
141
40.0
290
     0
  0
SCALE
  5
52
102
{ACAD_REACTORS
330
47
102
}
330
47
100
AcDbScale
 70
     0
300
1:50
140
1.0
141
50.0
290
     0
  0
SCALE
  5
53
102
{ACAD_REACTORS
330
47
102
}
330
47
100
AcDbScale
 70
     0
300
1:100
140
1.0
141
100.0
290
     0
  0
SCALE
  5
54
102
{ACAD_REACTORS
330
47
102
}
330
47
100
AcDbScale
 70
     0
300
2:1
140
2.0
141
1.0
290
     0
  0
SCALE
  5
55
102
{ACAD_REACTORS
330
47
102
}
330
47
100
AcDbScale
 70
     0
300
4:1
140
4.0
141
1.0
290
     0
  0
SCALE
  5
56
102
{ACAD_REACTORS
330
47
102
}
330
47
100
AcDbScale
 70
     0
300
8:1
140
8.0
141
1.0
290
     0
  0
SCALE
  5
57
102
{ACAD_REACTORS
330
47
102
}
330
47
100
AcDbScale
 70
     0
300
10:1
140
10.0
141
1.0
290
     0
  0
SCALE
  5
58
102
{ACAD_REACTORS
330
47
102
}
330
47
100
AcDbScale
 70
     0
300
100:1
140
100.0
141
1.0
290
     0
  0
SCALE
  5
59
102
{ACAD_REACTORS
330
47
102
}
330
47
100
AcDbScale
 70
     0
300
1/128" = 1'-0"
140
0.0078125
141
12.0
290
     0
  0
SCALE
  5
5A
102
{ACAD_REACTORS
330
47
102
}
330
47
100
AcDbScale
 70
     0
300
1/64" = 1'-0"
140
0.015625
141
12.0
290
     0
  0
SCALE
  5
5B
102
{ACAD_REACTORS
330
47
102
}
330
47
100
AcDbScale
 70
     0
300
1/32" = 1'-0"
140
0.03125
141
12.0
290
     0
  0
SCALE
  5
5C
102
{ACAD_REACTORS
330
47
102
}
330
47
100
AcDbScale
 70
     0
300
1/16" = 1'-0"
140
0.0625
141
12.0
290
     0
  0
SCALE
  5
5D
102
{ACAD_REACTORS
330
47
102
}
330
47
100
AcDbScale
 70
     0
300
3/32" = 1'-0"
140
0.09375
141
12.0
290
     0
  0
SCALE
  5
5E
102
{ACAD_REACTORS
330
47
102
}
330
47
100
AcDbScale
 70
     0
300
1/8" = 1'-0"
140
0.125
141
12.0
290
     0
  0
SCALE
  5
5F
102
{ACAD_REACTORS
330
47
102
}
330
47
100
AcDbScale
 70
     0
300
3/16" = 1'-0"
140
0.1875
141
12.0
290
     0
  0
SCALE
  5
60
102
{ACAD_REACTORS
330
47
102
}
330
47
100
AcDbScale
 70
     0
300
1/4" = 1'-0"
140
0.25
141
12.0
290
     0
  0
SCALE
  5
61
102
{ACAD_REACTORS
330
47
102
}
330
47
100
AcDbScale
 70
     0
300
3/8" = 1'-0"
140
0.375
141
12.0
290
     0
  0
SCALE
  5
62
102
{ACAD_REACTORS
330
47
102
}
330
47
100
AcDbScale
 70
     0
300
1/2" = 1'-0"
140
0.5
141
12.0
290
     0
  0
SCALE
  5
63
102
{ACAD_REACTORS
330
47
102
}
330
47
100
AcDbScale
 70
     0
300
3/4" = 1'-0"
140
0.75
141
12.0
290
     0
  0
SCALE
  5
64
102
{ACAD_REACTORS
330
47
102
}
330
47
100
AcDbScale
 70
     0
300
1" = 1'-0"
140
1.0
141
12.0
290
     0
  0
SCALE
  5
65
102
{ACAD_REACTORS
330
47
102
}
330
47
100
AcDbScale
 70
     0
300
1-1/2" = 1'-0"
140
1.5
141
12.0
290
     0
  0
SCALE
  5
66
102
{ACAD_REACTORS
330
47
102
}
330
47
100
AcDbScale
 70
     0
300
3" = 1'-0"
140
3.0
141
12.0
290
     0
  0
SCALE
  5
67
102
{ACAD_REACTORS
330
47
102
}
330
47
100
AcDbScale
 70
     0
300
6" = 1'-0"
140
6.0
141
12.0
290
     0
  0
SCALE
  5
68
102
{ACAD_REACTORS
330
47
102
}
330
47
100
AcDbScale
 70
     0
300
1'-0" = 1'-0"
140
12.0
141
12.0
290
     0
  0
ENDSEC
  0
EOF
