  0
SECTION
  2
HEADER
  9
$ACADVER
  1
AC1015
  9
$ACADMAINTVER
 70
     6
  9
$DWGCODEPAGE
  3
ANSI_949
  9
$INSBASE
 10
0.0
 20
0.0
 30
0.0
  9
$EXTMIN
 10
-68.25971530538676
 20
-38.34906447910937
 30
0.0
  9
$EXTMAX
 10
73.5106046124036
 20
61.52359778227562
 30
0.0
  9
$LIMMIN
 10
0.0
 20
0.0
  9
$LIMMAX
 10
420.0
 20
297.0
  9
$ORTHOMODE
 70
     0
  9
$REGENMODE
 70
     1
  9
$FILLMODE
 70
     1
  9
$QTEXTMODE
 70
     0
  9
$MIRRTEXT
 70
     1
  9
$LTSCALE
 40
1.0
  9
$ATTMODE
 70
     1
  9
$TEXTSIZE
 40
3.5
  9
$TRACEWID
 40
1.0
  9
$TEXTSTYLE
  7
Standard
  9
$CLAYER
  8
0
  9
$CELTYPE
  6
ByLayer
  9
$CECOLOR
 62
   256
  9
$CELTSCALE
 40
1.0
  9
$DISPSILH
 70
     0
  9
$DIMSCALE
 40
1.0
  9
$DIMASZ
 40
3.302
  9
$DIMEXO
 40
1.0
  9
$DIMDLI
 40
3.75
  9
$DIMRND
 40
0.0
  9
$DIMDLE
 40
0.0
  9
$DIMEXE
 40
1.0
  9
$DIMTP
 40
0.0
  9
$DIMTM
 40
0.0
  9
$DIMTXT
 40
3.5
  9
$DIMCEN
 40
2.5
  9
$DIMTSZ
 40
0.0
  9
$DIMTOL
 70
     0
  9
$DIMLIM
 70
     0
  9
$DIMTIH
 70
     1
  9
$DIMTOH
 70
     1
  9
$DIMSE1
 70
     0
  9
$DIMSE2
 70
     0
  9
$DIMTAD
 70
     1
  9
$DIMZIN
 70
     0
  9
$DIMBLK
  1

  9
$DIMASO
 70
     1
  9
$DIMSHO
 70
     1
  9
$DIMPOST
  1

  9
$DIMAPOST
  1

  9
$DIMALT
 70
     0
  9
$DIMALTD
 70
     3
  9
$DIMALTF
 40
0.0393700787401575
  9
$DIMLFAC
 40
1.0
  9
$DIMTOFL
 70
     1
  9
$DIMTVP
 40
0.0
  9
$DIMTIX
 70
     0
  9
$DIMSOXD
 70
     0
  9
$DIMSAH
 70
     0
  9
$DIMBLK1
  1

  9
$DIMBLK2
  1

  9
$DIMSTYLE
  2
ISO-25
  9
$DIMCLRD
 70
     0
  9
$DIMCLRE
 70
     0
  9
$DIMCLRT
 70
     0
  9
$DIMTFAC
 40
1.0
  9
$DIMGAP
 40
1.524
  9
$DIMJUST
 70
     0
  9
$DIMSD1
 70
     0
  9
$DIMSD2
 70
     0
  9
$DIMTOLJ
 70
     0
  9
$DIMTZIN
 70
     0
  9
$DIMALTZ
 70
     0
  9
$DIMALTTZ
 70
     0
  9
$DIMUPT
 70
     0
  9
$DIMDEC
 70
     2
  9
$DIMTDEC
 70
     2
  9
$DIMALTU
 70
     2
  9
$DIMALTTD
 70
     3
  9
$DIMTXSTY
  7
Standard
  9
$DIMAUNIT
 70
     0
  9
$DIMADEC
 70
     2
  9
$DIMALTRND
 40
0.0
  9
$DIMAZIN
 70
     0
  9
$DIMDSEP
 70
    44
  9
$DIMATFIT
 70
     3
  9
$DIMFRAC
 70
     0
  9
$DIMLDRBLK
  1

  9
$DIMLUNIT
 70
     2
  9
$DIMLWD
 70
    -2
  9
$DIMLWE
 70
    -2
  9
$DIMTMOVE
 70
     0
  9
$LUNITS
 70
     2
  9
$LUPREC
 70
     2
  9
$SKETCHINC
 40
1.0
  9
$FILLETRAD
 40
10.0
  9
$AUNITS
 70
     0
  9
$AUPREC
 70
     2
  9
$MENU
  1
.
  9
$ELEVATION
 40
0.0
  9
$PELEVATION
 40
0.0
  9
$THICKNESS
 40
0.0
  9
$LIMCHECK
 70
     0
  9
$CHAMFERA
 40
0.0
  9
$CHAMFERB
 40
0.0
  9
$CHAMFERC
 40
0.0
  9
$CHAMFERD
 40
0.0
  9
$SKPOLY
 70
     0
  9
$TDCREATE
 40
2458269.432611123
  9
$TDUCREATE
 40
2458269.057611123
  9
$TDUPDATE
 40
2458269.860807488
  9
$TDUUPDATE
 40
2458269.485807488
  9
$TDINDWG
 40
0.0013800694
  9
$TDUSRTIMER
 40
2458269.4833289
  9
$USRTIMER
 70
     1
  9
$ANGBASE
 50
0.0
  9
$ANGDIR
 70
     0
  9
$PDMODE
 70
     0
  9
$PDSIZE
 40
-1.0
  9
$PLINEWID
 40
0.0
  9
$SPLFRAME
 70
     0
  9
$SPLINETYPE
 70
     6
  9
$SPLINESEGS
 70
     8
  9
$HANDSEED
  5
162
  9
$SURFTAB1
 70
     6
  9
$SURFTAB2
 70
     6
  9
$SURFTYPE
 70
     6
  9
$SURFU
 70
     6
  9
$SURFV
 70
     6
  9
$UCSBASE
  2

  9
$UCSNAME
  2

  9
$UCSORG
 10
0.0
 20
0.0
 30
0.0
  9
$UCSXDIR
 10
1.0
 20
0.0
 30
0.0
  9
$UCSYDIR
 10
0.0
 20
1.0
 30
0.0
  9
$UCSORTHOREF
  2

  9
$UCSORTHOVIEW
 70
     0
  9
$UCSORGTOP
 10
0.0
 20
0.0
 30
0.0
  9
$UCSORGBOTTOM
 10
0.0
 20
0.0
 30
0.0
  9
$UCSORGLEFT
 10
0.0
 20
0.0
 30
0.0
  9
$UCSORGRIGHT
 10
0.0
 20
0.0
 30
0.0
  9
$UCSORGFRONT
 10
0.0
 20
0.0
 30
0.0
  9
$UCSORGBACK
 10
0.0
 20
0.0
 30
0.0
  9
$PUCSBASE
  2

  9
$PUCSNAME
  2

  9
$PUCSORG
 10
0.0
 20
0.0
 30
0.0
  9
$PUCSXDIR
 10
1.0
 20
0.0
 30
0.0
  9
$PUCSYDIR
 10
0.0
 20
1.0
 30
0.0
  9
$PUCSORTHOREF
  2

  9
$PUCSORTHOVIEW
 70
     0
  9
$PUCSORGTOP
 10
0.0
 20
0.0
 30
0.0
  9
$PUCSORGBOTTOM
 10
0.0
 20
0.0
 30
0.0
  9
$PUCSORGLEFT
 10
0.0
 20
0.0
 30
0.0
  9
$PUCSORGRIGHT
 10
0.0
 20
0.0
 30
0.0
  9
$PUCSORGFRONT
 10
0.0
 20
0.0
 30
0.0
  9
$PUCSORGBACK
 10
0.0
 20
0.0
 30
0.0
  9
$USERI1
 70
     0
  9
$USERI2
 70
     0
  9
$USERI3
 70
     0
  9
$USERI4
 70
     0
  9
$USERI5
 70
     0
  9
$USERR1
 40
0.0
  9
$USERR2
 40
0.0
  9
$USERR3
 40
0.0
  9
$USERR4
 40
0.0
  9
$USERR5
 40
0.0
  9
$WORLDVIEW
 70
     1
  9
$SHADEDGE
 70
     3
  9
$SHADEDIF
 70
    70
  9
$TILEMODE
 70
     1
  9
$MAXACTVP
 70
    64
  9
$PINSBASE
 10
0.0
 20
0.0
 30
0.0
  9
$PLIMCHECK
 70
     0
  9
$PEXTMIN
 10
1.000000000000000E+20
 20
1.000000000000000E+20
 30
1.000000000000000E+20
  9
$PEXTMAX
 10
-1.000000000000000E+20
 20
-1.000000000000000E+20
 30
-1.000000000000000E+20
  9
$PLIMMIN
 10
0.0
 20
0.0
  9
$PLIMMAX
 10
0.0
 20
0.0
  9
$UNITMODE
 70
     0
  9
$VISRETAIN
 70
     1
  9
$PLINEGEN
 70
     0
  9
$PSLTSCALE
 70
     1
  9
$TREEDEPTH
 70
  3020
  9
$CMLSTYLE
  2
Standard
  9
$CMLJUST
 70
     0
  9
$CMLSCALE
 40
20.0
  9
$PROXYGRAPHICS
 70
     1
  9
$MEASUREMENT
 70
     1
  9
$CELWEIGHT
370
    -1
  9
$ENDCAPS
280
     0
  9
$JOINSTYLE
280
     0
  9
$LWDISPLAY
290
     1
  9
$INSUNITS
 70
     4
  9
$HYPERLINKBASE
  1

  9
$STYLESHEET
  1

  9
$XEDIT
290
     1
  9
$CEPSNTYPE
380
     0
  9
$PSTYLEMODE
290
     1
  9
$FINGERPRINTGUID
  2
{50270604-9C4F-4FE1-866F-B2964773FC2F}
  9
$VERSIONGUID
  2
{FAEB1C32-E019-11D5-929B-00C0DF256EC4}
  9
$EXTNAMES
290
     1
  9
$PSVPSCALE
 40
0.0
  9
$OLESTARTUP
290
     0
  0
ENDSEC
  0
SECTION
  2
CLASSES
  0
CLASS
  1
ACDBDICTIONARYWDFLT
  2
AcDbDictionaryWithDefault
  3
ObjectDBX Classes
 90
        0
280
     0
281
     0
  0
CLASS
  1
VISUALSTYLE
  2
AcDbVisualStyle
  3
ObjectDBX Classes
 90
     4095
280
     0
281
     0
  0
CLASS
  1
MATERIAL
  2
AcDbMaterial
  3
ObjectDBX Classes
 90
     1153
280
     0
281
     0
  0
CLASS
  1
SCALE
  2
AcDbScale
  3
ObjectDBX Classes
 90
     1153
280
     0
281
     0
  0
CLASS
  1
SUN
  2
AcDbSun
  3
SCENEOE
 90
     1153
280
     0
281
     0
  0
CLASS
  1
ACDBPLACEHOLDER
  2
AcDbPlaceHolder
  3
ObjectDBX Classes
 90
        0
280
     0
281
     0
  0
CLASS
  1
LAYOUT
  2
AcDbLayout
  3
ObjectDBX Classes
 90
        0
280
     0
281
     0
  0
CLASS
  1
TABLESTYLE
  2
AcDbTableStyle
  3
ObjectDBX Classes
 90
     4095
280
     0
281
     0
  0
CLASS
  1
MLEADERSTYLE
  2
AcDbMLeaderStyle
  3
ACDB_MLEADERSTYLE_CLASS
 90
     4095
280
     0
281
     0
  0
CLASS
  1
RASTERVARIABLES
  2
AcDbRasterVariables
  3
ISM
 90
        0
280
     0
281
     0
  0
CLASS
  1
DIMASSOC
  2
AcDbDimAssoc
  3
"AcDbDimAssoc|Product Desc:     AcDim ARX App For Dimension|Company:          Autodesk, Inc.|WEB Address:      www.autodesk.com"
 90
        0
280
     0
281
     0
  0
ENDSEC
  0
SECTION
  2
TABLES
  0
TABLE
  2
VPORT
  5
8
330
0
100
AcDbSymbolTable
 70
     1
  0
VPORT
  5
29
330
8
100
AcDbSymbolTableRecord
100
AcDbViewportTableRecord
  2
*Active
 70
     0
 10
0.0
 20
0.0
 11
1.0
 21
1.0
 12
34.26473808647182
 22
13.85913047691415
 13
0.0
 23
0.0
 14
10.0
 24
10.0
 15
10.0
 25
10.0
 16
0.0
 26
0.0
 36
1.0
 17
0.0
 27
0.0
 37
0.0
 40
153.061907374856
 41
1.970186335403727
 42
50.0
 43
0.0
 44
0.0
 50
0.0
 51
0.0
 71
    16
 72
  2000
 73
     1
 74
     3
 75
     0
 76
     0
 77
     0
 78
     0
281
     0
 65
     1
110
0.0
120
0.0
130
0.0
111
1.0
121
0.0
131
0.0
112
0.0
122
1.0
132
0.0
 79
     0
146
0.0
  0
ENDTAB
  0
TABLE
  2
LTYPE
  5
5
330
0
100
AcDbSymbolTable
 70
     6
  0
LTYPE
  5
14
330
5
100
AcDbSymbolTableRecord
100
AcDbLinetypeTableRecord
  2
ByBlock
 70
     0
  3

 72
    65
 73
     0
 40
0.0
  0
LTYPE
  5
15
330
5
100
AcDbSymbolTableRecord
100
AcDbLinetypeTableRecord
  2
ByLayer
 70
     0
  3

 72
    65
 73
     0
 40
0.0
  0
LTYPE
  5
16
330
5
100
AcDbSymbolTableRecord
100
AcDbLinetypeTableRecord
  2
Continuous
 70
     0
  3
Solid line
 72
    65
 73
     0
 40
0.0
  0
LTYPE
  5
6A
330
5
100
AcDbSymbolTableRecord
100
AcDbLinetypeTableRecord
  2
HIDDEN
 70
     0
  3
Hidden __ __ __ __ __ __ __ __ __ __ __ __ __ __
 72
    65
 73
     2
 40
1.905
 49
1.27
 74
     0
 49
-0.635
 74
     0
  0
LTYPE
  5
6B
330
5
100
AcDbSymbolTableRecord
100
AcDbLinetypeTableRecord
  2
PHANTOM
 70
     0
  3
Phantom ______  __  __  ______  __  __  ______
 72
    65
 73
     6
 40
12.7
 49
6.35
 74
     0
 49
-1.27
 74
     0
 49
1.27
 74
     0
 49
-1.27
 74
     0
 49
1.27
 74
     0
 49
-1.27
 74
     0
  0
LTYPE
  5
6C
330
5
100
AcDbSymbolTableRecord
100
AcDbLinetypeTableRecord
  2
CENTER
 70
     0
  3
Center ____ _ ____ _ ____ _ ____ _ ____ _ ____
 72
    65
 73
     4
 40
10.16
 49
6.35
 74
     0
 49
-1.27
 74
     0
 49
1.27
 74
     0
 49
-1.27
 74
     0
  0
LTYPE
  5
6D
330
5
100
AcDbSymbolTableRecord
100
AcDbLinetypeTableRecord
  2
CENTERX2
 70
     0
  3
Center (2x) ________  __  ________  __  _____
 72
    65
 73
     4
 40
20.32
 49
12.7
 74
     0
 49
-2.54
 74
     0
 49
2.54
 74
     0
 49
-2.54
 74
     0
  0
LTYPE
  5
6E
330
5
100
AcDbSymbolTableRecord
100
AcDbLinetypeTableRecord
  2
DOT2
 70
     0
  3
Dot (.5x) ........................................
 72
    65
 73
     2
 40
0.635
 49
0.0
 74
     0
 49
-0.635
 74
     0
  0
ENDTAB
  0
TABLE
  2
LAYER
  5
2
330
0
100
AcDbSymbolTable
 70
    17
  0
LAYER
  5
10
330
2
100
AcDbSymbolTableRecord
100
AcDbLayerTableRecord
  2
0
 70
     0
 62
     7
  6
Continuous
370
    -3
390
F
  0
LAYER
  5
6F
330
2
100
AcDbSymbolTableRecord
100
AcDbLayerTableRecord
  2
FORMAT
 70
     0
 62
     2
  6
Continuous
370
    -3
390
F
  0
LAYER
  5
70
330
2
100
AcDbSymbolTableRecord
100
AcDbLayerTableRecord
  2
외형선
 70
     0
 62
   100
  6
Continuous
370
    30
390
F
  0
LAYER
  5
71
330
2
100
AcDbSymbolTableRecord
100
AcDbLayerTableRecord
  2
숨은선
 70
     0
 62
     2
  6
HIDDEN
370
    15
390
F
  0
LAYER
  5
72
330
2
100
AcDbSymbolTableRecord
100
AcDbLayerTableRecord
  2
중심선
 70
     0
 62
     1
  6
CENTERX2
370
    -3
390
F
  0
LAYER
  5
73
330
2
100
AcDbSymbolTableRecord
100
AcDbLayerTableRecord
  2
파단선
 70
     0
 62
     4
  6
Continuous
370
    -3
390
F
  0
LAYER
  5
74
330
2
100
AcDbSymbolTableRecord
100
AcDbLayerTableRecord
  2
해칭선
 70
     0
 62
     4
  6
Continuous
370
    -3
390
F
  0
LAYER
  5
75
330
2
100
AcDbSymbolTableRecord
100
AcDbLayerTableRecord
  2
가는실선
 70
     0
 62
     4
  6
Continuous
370
    -3
390
F
  0
LAYER
  5
76
330
2
100
AcDbSymbolTableRecord
100
AcDbLayerTableRecord
  2
치수_보조선
 70
     0
 62
     4
  6
Continuous
370
    -3
390
F
  0
LAYER
  5
77
330
2
100
AcDbSymbolTableRecord
100
AcDbLayerTableRecord
  2
치수문자_일반주서
 70
     0
 62
     7
  6
Continuous
370
    15
390
F
  0
LAYER
  5
78
330
2
100
AcDbSymbolTableRecord
100
AcDbLayerTableRecord
  2
개별주서
 70
     0
 62
   100
  6
Continuous
370
    30
390
F
  0
LAYER
  5
79
330
2
100
AcDbSymbolTableRecord
100
AcDbLayerTableRecord
  2
중간선
 70
     0
 62
     2
  6
Continuous
370
    15
390
F
  0
LAYER
  5
7A
330
2
100
AcDbSymbolTableRecord
100
AcDbLayerTableRecord
  2
윤곽선
 70
     0
 62
     3
  6
Continuous
370
    40
390
F
  0
LAYER
  5
7B
330
2
100
AcDbSymbolTableRecord
100
AcDbLayerTableRecord
  2
중심마크
 70
     0
 62
   100
  6
Continuous
370
    30
390
F
  0
LAYER
  5
7C
330
2
100
AcDbSymbolTableRecord
100
AcDbLayerTableRecord
  2
가상선
 70
     0
 62
     4
  6
PHANTOM
370
    -3
390
F
  0
LAYER
  5
7D
330
2
100
AcDbSymbolTableRecord
100
AcDbLayerTableRecord
  2
특수지정선
 70
     0
 62
     5
  6
CENTERX2
370
    60
390
F
  0
LAYER
  5
136
330
2
100
AcDbSymbolTableRecord
100
AcDbLayerTableRecord
  2
Defpoints
 70
     0
 62
     7
  6
Continuous
290
     0
370
    -3
390
F
  0
ENDTAB
  0
TABLE
  2
STYLE
  5
3
330
0
100
AcDbSymbolTable
 70
     2
  0
STYLE
  5
11
330
3
100
AcDbSymbolTableRecord
100
AcDbTextStyleTableRecord
  2
Standard
 70
     0
 40
0.0
 41
1.0
 50
0.0
 71
     0
 42
3.5
  3
txt
  4

  0
STYLE
  5
93
330
3
100
AcDbSymbolTableRecord
100
AcDbTextStyleTableRecord
  2
SLDTEXTSTYLE0
 70
     0
 40
0.0
 41
0.75
 50
0.0
 71
     0
 42
3.5
  3
TXT
  4

  0
ENDTAB
  0
TABLE
  2
VIEW
  5
6
330
0
100
AcDbSymbolTable
 70
     0
  0
ENDTAB
  0
TABLE
  2
UCS
  5
7
330
0
100
AcDbSymbolTable
 70
     0
  0
ENDTAB
  0
TABLE
  2
APPID
  5
9
330
0
100
AcDbSymbolTable
 70
     3
  0
APPID
  5
12
330
9
100
AcDbSymbolTableRecord
100
AcDbRegAppTableRecord
  2
ACAD
 70
     0
  0
APPID
  5
14D
330
9
100
AcDbSymbolTableRecord
100
AcDbRegAppTableRecord
  2
ACAD_DSTYLE_DIMRADIAL_EXTENSION
 70
     0
  0
APPID
  5
160
330
9
100
AcDbSymbolTableRecord
100
AcDbRegAppTableRecord
  2
PE_DIMMEASUREMENT
 70
     0
  0
ENDTAB
  0
TABLE
  2
DIMSTYLE
  5
A
330
0
100
AcDbSymbolTable
 70
     4
100
AcDbDimStyleTable
  0
DIMSTYLE
105
27
330
A
100
AcDbSymbolTableRecord
100
AcDbDimStyleTableRecord
  2
ISO-25
 70
     0
 41
2.5
 42
0.625
 43
3.75
 44
1.25
 73
     0
 74
     0
 77
     1
 78
     8
140
2.5
141
2.5
143
0.03937007874016
147
0.625
171
     3
172
     1
178
     0
271
     2
272
     2
274
     3
278
    44
283
     0
284
     8
340
11
  0
DIMSTYLE
105
CF
102
{ACAD_REACTORS
330
CE
330
14E
330
13D
102
}
330
A
100
AcDbSymbolTableRecord
100
AcDbDimStyleTableRecord
  2
SLDDIMSTYLE0
 70
     0
 41
3.302
 44
0.0
 45
0.000000001
 73
     0
 74
     0
 77
     1
 78
    12
 79
     3
140
3.5
143
0.0393700787401575
147
0.875
148
0.000000001
170
     1
173
     1
178
     0
271
     2
272
     2
276
     2
284
    12
340
93
  0
DIMSTYLE
105
E3
102
{ACAD_REACTORS
330
E2
102
}
330
A
100
AcDbSymbolTableRecord
100
AcDbDimStyleTableRecord
  2
SLDDIMSTYLE1
 70
     0
 41
3.302
 44
0.0
 45
0.000000001
 73
     0
 74
     0
 77
     1
 78
     4
 79
     1
140
3.5
143
0.0393700787401575
147
0.875
148
0.000000001
170
     1
173
     1
178
     0
271
     2
272
     2
276
     2
284
    12
340
93
  0
DIMSTYLE
105
F7
102
{ACAD_REACTORS
330
F6
102
}
330
A
100
AcDbSymbolTableRecord
100
AcDbDimStyleTableRecord
  2
SLDDIMSTYLE2
 70
     0
 41
3.302
 44
0.0
 45
0.000000001
 73
     0
 74
     0
 77
     1
 78
    12
 79
     3
140
3.5
143
0.0393700787401575
147
0.875
148
0.000000001
170
     1
172
     1
173
     1
178
     0
271
     2
272
     2
276
     2
284
    12
289
     0
340
93
  0
ENDTAB
  0
TABLE
  2
BLOCK_RECORD
  5
1
330
0
100
AcDbSymbolTable
 70
     8
  0
BLOCK_RECORD
  5
1F
330
1
100
AcDbSymbolTableRecord
100
AcDbBlockTableRecord
  2
*Model_Space
340
22
  0
BLOCK_RECORD
  5
1B
330
1
100
AcDbSymbolTableRecord
100
AcDbBlockTableRecord
  2
*Paper_Space
340
1E
  0
BLOCK_RECORD
  5
23
330
1
100
AcDbSymbolTableRecord
100
AcDbBlockTableRecord
  2
*Paper_Space0
340
26
  0
BLOCK_RECORD
  5
7E
330
1
100
AcDbSymbolTableRecord
100
AcDbBlockTableRecord
  2
블럭10
340
0
102
{BLKREFS
331
C6
102
}
  0
BLOCK_RECORD
  5
D0
330
1
100
AcDbSymbolTableRecord
100
AcDbBlockTableRecord
  2
_D
340
0
  0
BLOCK_RECORD
  5
E4
330
1
100
AcDbSymbolTableRecord
100
AcDbBlockTableRecord
  2
_D_1
340
0
  0
BLOCK_RECORD
  5
F8
330
1
100
AcDbSymbolTableRecord
100
AcDbBlockTableRecord
  2
_D_2
340
0
  0
BLOCK_RECORD
  5
10B
330
1
100
AcDbSymbolTableRecord
100
AcDbBlockTableRecord
  2
SW_DOWELSYMBOL_0
340
0
102
{BLKREFS
331
111
102
}
  0
BLOCK_RECORD
  5
140
330
1
100
AcDbSymbolTableRecord
100
AcDbBlockTableRecord
  2
*D6
340
0
  0
BLOCK_RECORD
  5
151
330
1
100
AcDbSymbolTableRecord
100
AcDbBlockTableRecord
  2
*D7
340
0
  0
ENDTAB
  0
ENDSEC
  0
SECTION
  2
BLOCKS
  0
BLOCK
  5
20
330
1F
100
AcDbEntity
  8
0
100
AcDbBlockBegin
  2
*Model_Space
 70
     0
 10
0.0
 20
0.0
 30
0.0
  3
*Model_Space
  1
*Model_Space
  0
ENDBLK
  5
21
330
1F
100
AcDbEntity
  8
0
100
AcDbBlockEnd
  0
BLOCK
  5
1C
330
1B
100
AcDbEntity
 67
     1
  8
0
100
AcDbBlockBegin
  2
*Paper_Space
 70
     0
 10
0.0
 20
0.0
 30
0.0
  3
*Paper_Space
  1
*Paper_Space
  0
ENDBLK
  5
1D
330
1B
100
AcDbEntity
 67
     1
  8
0
100
AcDbBlockEnd
  0
BLOCK
  5
24
330
23
100
AcDbEntity
  8
0
100
AcDbBlockBegin
  2
*Paper_Space0
 70
     0
 10
0.0
 20
0.0
 30
0.0
  3
*Paper_Space0
  1
*Paper_Space0
  0
ENDBLK
  5
25
330
23
100
AcDbEntity
  8
0
100
AcDbBlockEnd
  0
BLOCK
  5
7F
330
7E
100
AcDbEntity
  8
0
100
AcDbBlockBegin
  2
블럭10
 70
     2
 10
0.0
 20
0.0
 30
0.0
  3
블럭10
  1
블럭10
  0
ELLIPSE
  5
81
330
7E
100
AcDbEntity
  8
중심선
100
AcDbEllipse
 10
20.54032771741204
 20
12.0471743016438
 30
0.0
 11
6.600054785286829
 21
-1.261213355974178E-13
 31
0.0
210
0.0
220
0.0
230
1.0
 40
0.636358354079598
 41
0.9219305317359503
 42
6.513795318482858
  0
ELLIPSE
  5
82
330
7E
100
AcDbEntity
  8
중심선
100
AcDbEllipse
 10
20.54032771746488
 20
12.04717430159265
 30
0.0
 11
3.960054785062283
 21
1.540847449632565E-10
 31
0.0
210
0.0
220
0.0
230
1.0
 40
0.3939339440162632
 41
1.131841032648279
 42
5.62031148352944
  0
LINE
  5
83
330
7E
100
AcDbEntity
  8
중심선
100
AcDbLine
 10
2.268634060543552
 20
16.24717430164393
 30
0.0
 11
5.714909304380834
 21
16.24717430164393
 31
0.0
  0
LINE
  5
84
330
7E
100
AcDbEntity
  8
중심선
100
AcDbLine
 10
5.245725140726316
 20
7.84717430164391
 30
0.0
 11
8.692000384563599
 21
7.84717430164391
 31
0.0
  0
LINE
  5
85
330
7E
100
AcDbEntity
  8
중심선
100
AcDbLine
 10
15.74043728645272
 20
16.24717430164393
 30
0.0
 11
8.692000384563599
 21
7.84717430164391
 31
0.0
  0
LINE
  5
86
330
7E
100
AcDbEntity
  8
중심선
100
AcDbLine
 10
0.1404042013395286
 20
13.71084872107135
 30
0.0
 11
3.58671253028996
 21
13.71088815037384
 31
0.0
  0
LINE
  5
87
330
7E
100
AcDbEntity
  8
중심선
100
AcDbLine
 10
2.750260043222114
 20
10.84717430164391
 30
0.0
 11
6.196535287059397
 21
10.84717430164391
 31
0.0
  0
LINE
  5
88
330
7E
100
AcDbEntity
  8
중심선
100
AcDbLine
 10
12.29416204261559
 20
16.24717430164393
 30
0.0
 11
5.245725140726316
 21
7.84717430164391
 31
0.0
  0
LINE
  5
89
330
7E
100
AcDbEntity
  8
중심선
100
AcDbLine
 10
10.72767329541681
 20
16.24717430164393
 30
0.0
 11
6.196535287059397
 21
10.84717430164391
 31
0.0
  0
LINE
  5
8A
330
7E
100
AcDbEntity
  8
중심선
100
AcDbLine
 10
7.28139805157953
 20
16.24717430164393
 30
0.0
 11
2.750260043222114
 21
10.84717430164391
 31
0.0
  0
LINE
  5
8B
330
7E
100
AcDbEntity
  8
중심선
100
AcDbLine
 10
5.714909304380834
 20
16.24717430164393
 30
0.0
 11
3.58671253028996
 21
13.71088815037384
 31
0.0
  0
LINE
  5
8C
330
7E
100
AcDbEntity
  8
중심선
100
AcDbLine
 10
2.268634060543552
 20
16.24717430164393
 30
0.0
 11
0.1404042013395286
 21
13.71084872107135
 31
0.0
  0
LINE
  5
8D
330
7E
100
AcDbEntity
  8
중심선
100
AcDbLine
 10
7.28139805157953
 20
16.24717430164393
 30
0.0
 11
10.72767329541681
 21
16.24717430164393
 31
0.0
  0
LINE
  5
8E
330
7E
100
AcDbEntity
  8
중심선
100
AcDbLine
 10
12.29416204261559
 20
16.24717430164393
 30
0.0
 11
15.74043728645272
 21
16.24717430164393
 31
0.0
  0
LINE
  5
8F
330
7E
100
AcDbEntity
  8
중심선
100
AcDbLine
 10
19.22036997980202
 20
11.08717430171403
 30
0.0
 11
23.66174974927406
 21
11.08717430171406
 31
0.0
  0
LINE
  5
90
330
7E
100
AcDbEntity
  8
중심선
100
AcDbLine
 10
19.22039502424796
 20
13.00717430171391
 30
0.0
 11
19.22036997980202
 21
11.08717430171403
 31
0.0
  0
LINE
  5
91
330
7E
100
AcDbEntity
  8
중심선
100
AcDbLine
 10
19.22039502424796
 20
13.00717430171391
 30
0.0
 11
26.96566020931264
 21
13.00717430171391
 31
0.0
  0
LINE
  5
92
330
7E
100
AcDbEntity
  8
중심선
100
AcDbLine
 10
22.22332737316547
 20
13.45928029700563
 30
0.0
 11
24.52862924686651
 21
15.39360700705356
 31
0.0
  0
ATTDEF
  5
94
330
7E
100
AcDbEntity
  8
FORMAT
 62
     2
100
AcDbText
 10
-9.18129528874128
 20
2.075366912832191
 30
0.0
 40
4.233333333333333
  1
E5983903 [ 3 FLUTE ]
 41
0.75
  7
SLDTEXTSTYLE0
 11
-9.18129528874128
 21
-0.0412997538344756
 31
0.0
100
AcDbAttributeDefinition
  3

  2
AUTOATTR0
 70
     0
 74
     1
  0
ENDBLK
  5
80
330
7E
100
AcDbEntity
  8
0
100
AcDbBlockEnd
  0
BLOCK
  5
D1
330
D0
100
AcDbEntity
  8
0
100
AcDbBlockBegin
  2
_D
 70
     0
 10
0.0
 20
0.0
 30
0.0
  3
_D
  1
_D
  0
LINE
  5
D3
330
D0
100
AcDbEntity
  8
치수문자_일반주서
 62
     0
370
    -2
100
AcDbLine
 10
53.27500000000001
 20
9.65000000000001
 30
0.0
 11
53.27500000000001
 21
30.09999941887651
 31
0.0
  0
LINE
  5
D4
330
D0
100
AcDbEntity
  8
치수문자_일반주서
 62
     0
370
    -2
100
AcDbLine
 10
12.0
 20
9.051207391423985
 30
0.0
 11
12.0
 21
30.09999941887651
 31
0.0
  0
LINE
  5
D5
330
D0
100
AcDbEntity
  8
치수문자_일반주서
 62
     0
370
    -2
100
AcDbLine
 10
49.97300000000001
 20
30.09999941887651
 30
0.0
 11
15.302
 21
30.09999941887651
 31
0.0
  0
SOLID
  5
D6
330
D0
100
AcDbEntity
  8
치수문자_일반주서
 62
     0
100
AcDbTrace
 10
49.97300000000001
 20
29.54966608554317
 30
0.0
 11
49.97300000000001
 21
30.65033275220984
 31
0.0
 12
53.27500000000001
 22
30.09999941887651
 32
0.0
 13
53.27500000000001
 23
30.09999941887651
 33
0.0
  0
SOLID
  5
D7
330
D0
100
AcDbEntity
  8
치수문자_일반주서
 62
     0
100
AcDbTrace
 10
15.302
 20
30.65033275220984
 30
0.0
 11
15.302
 21
29.54966608554317
 31
0.0
 12
12.0
 22
30.09999941887651
 32
0.0
 13
12.0
 23
30.09999941887651
 33
0.0
  0
MTEXT
  5
D8
330
D0
100
AcDbEntity
  8
치수문자_일반주서
 62
     0
100
AcDbMText
 10
32.6375
 20
34.47499941887651
 30
0.0
 40
3.5
 41
0.0
 71
     2
 72
     1
  1
\A1;41.28 [1 5/8]
  7
SLDTEXTSTYLE0
 73
     1
 44
1.0
  0
POINT
  5
D9
330
D0
100
AcDbEntity
  8
Defpoints
 62
     0
100
AcDbPoint
 10
53.27500000000001
 20
9.58750000000001
 30
0.0
  0
POINT
  5
DA
330
D0
100
AcDbEntity
  8
Defpoints
 62
     0
100
AcDbPoint
 10
12.0
 20
8.988707391423985
 30
0.0
  0
POINT
  5
DB
330
D0
100
AcDbEntity
  8
Defpoints
 62
     0
100
AcDbPoint
 10
12.0
 20
30.09999941887651
 30
0.0
  0
ENDBLK
  5
D2
330
D0
100
AcDbEntity
  8
0
100
AcDbBlockEnd
  0
BLOCK
  5
E5
330
E4
100
AcDbEntity
  8
0
100
AcDbBlockBegin
  2
_D_1
 70
     0
 10
0.0
 20
0.0
 30
0.0
  3
_D_1
  1
_D_1
  0
LINE
  5
E7
330
E4
100
AcDbEntity
  8
치수문자_일반주서
 62
     0
370
    -2
100
AcDbLine
 10
53.27500000000001
 20
9.58750000000001
 30
0.0
 11
53.27500000000001
 21
57.14859778227562
 31
0.0
  0
LINE
  5
E8
330
E4
100
AcDbEntity
  8
치수문자_일반주서
 62
     0
370
    -2
100
AcDbLine
 10
-48.32499999999999
 20
9.087500000000006
 30
0.0
 11
-48.32499999999999
 21
57.14859778227562
 31
0.0
  0
LINE
  5
E9
330
E4
100
AcDbEntity
  8
치수문자_일반주서
 62
     0
370
    -2
100
AcDbLine
 10
49.97300000000001
 20
57.14859778227562
 30
0.0
 11
-45.02299999999999
 21
57.14859778227562
 31
0.0
  0
SOLID
  5
EA
330
E4
100
AcDbEntity
  8
치수문자_일반주서
 62
     0
100
AcDbTrace
 10
49.97300000000001
 20
56.59826444894228
 30
0.0
 11
49.97300000000001
 21
57.69893111560895
 31
0.0
 12
53.27500000000001
 22
57.14859778227562
 32
0.0
 13
53.27500000000001
 23
57.14859778227562
 33
0.0
  0
SOLID
  5
EB
330
E4
100
AcDbEntity
  8
치수문자_일반주서
 62
     0
100
AcDbTrace
 10
-45.02299999999999
 20
57.69893111560895
 30
0.0
 11
-45.02299999999999
 21
56.59826444894228
 31
0.0
 12
-48.32499999999999
 22
57.14859778227562
 32
0.0
 13
-48.32499999999999
 23
57.14859778227562
 33
0.0
  0
MTEXT
  5
EC
330
E4
100
AcDbEntity
  8
치수문자_일반주서
 62
     0
100
AcDbMText
 10
2.069276350034864
 20
61.52359778227562
 30
0.0
 40
3.5
 41
0.0
 71
     2
 72
     1
  1
\A1;101.60 [4]
  7
SLDTEXTSTYLE0
 73
     1
 44
1.0
  0
POINT
  5
ED
330
E4
100
AcDbEntity
  8
Defpoints
 62
     0
100
AcDbPoint
 10
53.27500000000001
 20
9.52500000000001
 30
0.0
  0
POINT
  5
EE
330
E4
100
AcDbEntity
  8
Defpoints
 62
     0
100
AcDbPoint
 10
-48.32499999999999
 20
9.025000000000006
 30
0.0
  0
POINT
  5
EF
330
E4
100
AcDbEntity
  8
Defpoints
 62
     0
100
AcDbPoint
 10
-48.32499999999999
 20
57.14859778227562
 30
0.0
  0
ENDBLK
  5
E6
330
E4
100
AcDbEntity
  8
0
100
AcDbBlockEnd
  0
BLOCK
  5
F9
330
F8
100
AcDbEntity
  8
0
100
AcDbBlockBegin
  2
_D_2
 70
     0
 10
0.0
 20
0.0
 30
0.0
  3
_D_2
  1
_D_2
  0
LINE
  5
FB
330
F8
100
AcDbEntity
  8
치수문자_일반주서
 62
     0
370
    -2
100
AcDbLine
 10
-47.88749999999999
 20
9.52500000000001
 30
0.0
 11
-63.88471530538664
 21
9.524999999999949
 31
0.0
  0
LINE
  5
FC
330
F8
100
AcDbEntity
  8
치수문자_일반주서
 62
     0
370
    -2
100
AcDbLine
 10
-47.88749999999999
 20
-9.524999999999997
 30
0.0
 11
-63.88471530538658
 21
-9.525000000000055
 31
0.0
  0
LINE
  5
FD
330
F8
100
AcDbEntity
  8
치수문자_일반주서
 62
     0
370
    -2
100
AcDbLine
 10
-63.88471530538664
 20
9.524999999999949
 30
0.0
 11
-63.88471530538676
 21
43.69149999999996
 31
0.0
  0
LINE
  5
FE
330
F8
100
AcDbEntity
  8
치수문자_일반주서
 62
     0
370
    -2
100
AcDbLine
 10
-63.88471530538664
 20
9.524999999999949
 30
0.0
 11
-63.88471530538658
 21
-9.525000000000055
 31
0.0
  0
LINE
  5
FF
330
F8
100
AcDbEntity
  8
치수문자_일반주서
 62
     0
370
    -2
100
AcDbLine
 10
-63.88471530538666
 20
12.82699999999995
 30
0.0
 11
-63.88471530538667
 21
16.12899999999995
 31
0.0
  0
LINE
  5
100
330
F8
100
AcDbEntity
  8
치수문자_일반주서
 62
     0
370
    -2
100
AcDbLine
 10
-63.88471530538656
 20
-12.82700000000006
 30
0.0
 11
-63.88471530538655
 21
-16.12900000000005
 31
0.0
  0
SOLID
  5
101
330
F8
100
AcDbEntity
  8
치수문자_일반주서
 62
     0
100
AcDbTrace
 10
-64.43504863871999
 20
12.82699999999995
 30
0.0
 11
-63.33438197205332
 21
12.82699999999995
 31
0.0
 12
-63.88471530538664
 22
9.524999999999949
 32
0.0
 13
-63.88471530538664
 23
9.524999999999949
 33
0.0
  0
SOLID
  5
102
330
F8
100
AcDbEntity
  8
치수문자_일반주서
 62
     0
100
AcDbTrace
 10
-63.33438197205323
 20
-12.82700000000005
 30
0.0
 11
-64.43504863871989
 21
-12.82700000000006
 31
0.0
 12
-63.88471530538658
 22
-9.525000000000055
 32
0.0
 13
-63.88471530538658
 23
-9.525000000000055
 33
0.0
  0
MTEXT
  5
103
330
F8
100
AcDbEntity
  8
치수문자_일반주서
 62
     0
100
AcDbMText
 10
-68.25971530538672
 20
29.91024999999994
 30
0.0
 40
3.5
 41
0.0
 71
     2
 72
     1
  1
\A1;%%c19.05 [3/4]
  7
SLDTEXTSTYLE0
 11
-3.356894814614645E-15
 21
1.0
 31
0.0
 73
     1
 44
1.0
  0
POINT
  5
15D
330
F8
100
AcDbEntity
  8
Defpoints
 62
     0
100
AcDbPoint
 10
-47.82499999999999
 20
9.52500000000001
 30
0.0
  0
POINT
  5
15E
330
F8
100
AcDbEntity
  8
Defpoints
 62
     0
100
AcDbPoint
 10
-47.82499999999999
 20
-9.524999999999997
 30
0.0
  0
POINT
  5
15F
330
F8
100
AcDbEntity
  8
Defpoints
 62
     0
100
AcDbPoint
 10
-63.88471530538658
 20
-9.525000000000057
 30
0.0
  0
ENDBLK
  5
FA
330
F8
100
AcDbEntity
  8
0
100
AcDbBlockEnd
  0
BLOCK
  5
10C
330
10B
100
AcDbEntity
  8
0
100
AcDbBlockBegin
  2
SW_DOWELSYMBOL_0
 70
     0
 10
0.0
 20
0.0
 30
0.0
  3
SW_DOWELSYMBOL_0
  1
SW_DOWELSYMBOL_0
  0
CIRCLE
  5
10E
330
10B
100
AcDbEntity
  8
외형선
 62
     0
100
AcDbCircle
 10
0.0
 20
0.0
 30
0.0
 40
3.000000000000008
  0
HATCH
  5
10F
330
10B
100
AcDbEntity
  8
0
  6
Continuous
 62
     0
370
    30
100
AcDbHatch
 10
0.0
 20
0.0
 30
0.0
210
0.0
220
0.0
230
1.0
  2
SOLID
 70
     1
 71
     0
 91
        1
 92
        0
 93
        3
 72
     2
 10
0.0000000000000069
 20
0.0
 40
3.000000000000008
 50
0.0
 51
90.0
 73
     1
 72
     1
 10
0.0000000000000069
 20
3.000000000000008
 11
0.0000000000000069
 21
0.0
 72
     1
 10
0.0000000000000069
 20
0.0
 11
3.000000000000015
 21
0.0
 97
        0
 75
     0
 76
     1
 98
        1
 10
0.0
 20
0.0
  0
HATCH
  5
110
330
10B
100
AcDbEntity
  8
0
  6
Continuous
 62
     0
370
    30
100
AcDbHatch
 10
0.0
 20
0.0
 30
0.0
210
0.0
220
0.0
230
1.0
  2
SOLID
 70
     1
 71
     0
 91
        1
 92
        0
 93
        3
 72
     2
 10
0.0000000000000069
 20
0.0
 40
3.000000000000008
 50
180.0
 51
270.0000000000008
 73
     1
 72
     1
 10
0.0000000000000069
 20
-3.000000000000008
 11
0.0000000000000069
 21
0.0
 72
     1
 10
0.0000000000000069
 20
0.0
 11
-3.000000000000001
 21
0.0
 97
        0
 75
     0
 76
     1
 98
        1
 10
0.0
 20
0.0
  0
ENDBLK
  5
10D
330
10B
100
AcDbEntity
  8
0
100
AcDbBlockEnd
  0
BLOCK
  5
141
330
140
100
AcDbEntity
  8
0
100
AcDbBlockBegin
  2
*D6
 70
     1
 10
0.0
 20
0.0
 30
0.0
  3
*D6
  1
*D6
  0
LINE
  5
143
330
140
100
AcDbEntity
  8
치수문자_일반주서
 62
     0
370
    -2
100
AcDbLine
 10
53.33750000000001
 20
-9.524999429498529
 30
0.0
 11
70.52214096852668
 21
-9.524999429498527
 31
0.0
  0
LINE
  5
144
330
140
100
AcDbEntity
  8
치수문자_일반주서
 62
     0
370
    -2
100
AcDbLine
 10
53.33750000000001
 20
9.52500000000001
 30
0.0
 11
70.52214096852668
 21
9.525000000000007
 31
0.0
  0
LINE
  5
145
330
140
100
AcDbEntity
  8
치수문자_일반주서
 62
     0
370
    -2
100
AcDbLine
 10
70.52214096852668
 20
9.525000000000007
 30
0.0
 11
70.52214096852668
 21
40.38950000000001
 31
0.0
  0
LINE
  5
146
330
140
100
AcDbEntity
  8
치수문자_일반주서
 62
     0
370
    -2
100
AcDbLine
 10
70.52214096852668
 20
-6.222999429498527
 30
0.0
 11
70.52214096852668
 21
6.223000000000008
 31
0.0
  0
SOLID
  5
147
330
140
100
AcDbEntity
  8
치수문자_일반주서
 62
     0
100
AcDbTrace
 10
69.97180763519336
 20
-6.222999429498527
 30
0.0
 11
71.07247430186001
 21
-6.222999429498527
 31
0.0
 12
70.52214096852668
 22
-9.524999429498527
 32
0.0
 13
70.52214096852668
 23
-9.524999429498527
 33
0.0
  0
SOLID
  5
148
330
140
100
AcDbEntity
  8
치수문자_일반주서
 62
     0
100
AcDbTrace
 10
71.07247430186001
 20
6.223000000000008
 30
0.0
 11
69.97180763519336
 21
6.223000000000008
 31
0.0
 12
70.52214096852668
 22
9.525000000000007
 32
0.0
 13
70.52214096852668
 23
9.525000000000007
 33
0.0
  0
MTEXT
  5
149
330
140
100
AcDbEntity
  8
치수문자_일반주서
 62
     0
100
AcDbMText
 10
67.89714096852668
 20
26.60825000000001
 30
0.0
 40
3.5
 41
0.0
 71
     5
 72
     1
  1
\A1;{Ø19.05 [3/4]}
  7
SLDTEXTSTYLE0
 11
0.0
 21
1.0
 31
0.0
 73
     1
 44
1.0
  0
POINT
  5
14A
330
140
100
AcDbEntity
  8
Defpoints
 62
     0
100
AcDbPoint
 10
53.27500000000001
 20
-9.524999429498529
 30
0.0
  0
POINT
  5
14B
330
140
100
AcDbEntity
  8
Defpoints
 62
     0
100
AcDbPoint
 10
53.27500000000001
 20
9.52500000000001
 30
0.0
  0
POINT
  5
14C
330
140
100
AcDbEntity
  8
Defpoints
 62
     0
100
AcDbPoint
 10
70.52214096852668
 20
9.525000000000007
 30
0.0
  0
ENDBLK
  5
142
330
140
100
AcDbEntity
  8
0
100
AcDbBlockEnd
  0
BLOCK
  5
152
330
151
100
AcDbEntity
  8
0
100
AcDbBlockBegin
  2
*D7
 70
     1
 10
0.0
 20
0.0
 30
0.0
  3
*D7
  1
*D7
  0
LINE
  5
154
330
151
100
AcDbEntity
  8
치수문자_일반주서
 62
     0
370
    -2
100
AcDbLine
 10
53.60776301997443
 20
-11.85221490450726
 30
0.0
 11
70.27306129576021
 21
-38.34906447910937
 31
0.0
  0
MTEXT
  5
155
330
151
100
AcDbEntity
  8
치수문자_일반주서
 62
     0
100
AcDbMText
 10
65.04144843627294
 20
-25.10063619917942
 30
0.0
 40
3.5
 41
0.0
 71
     5
 72
     1
  1
\A1;R3.05 [R0.12]
  7
SLDTEXTSTYLE0
 11
0.532403625192824
 21
-0.8464906259856272
 31
0.0
 73
     1
 44
1.0
  0
SOLID
  5
156
330
151
100
AcDbEntity
  8
치수문자_일반주서
 62
     0
100
AcDbTrace
 10
54.07361502780852
 20
-11.55921544277614
 30
0.0
 11
53.14191101214035
 21
-12.14521436623838
 31
0.0
 12
51.84976624958773
 22
-9.05710285750272
 32
0.0
 13
51.84976624958773
 23
-9.05710285750272
 33
0.0
  0
LINE
  5
157
330
151
100
AcDbEntity
  8
치수문자_일반주서
 62
     0
100
AcDbLine
 10
50.137
 20
-6.476999429498529
 30
0.0
 11
50.31700000000001
 21
-6.476999429498529
 31
0.0
  0
LINE
  5
158
330
151
100
AcDbEntity
  8
치수문자_일반주서
 62
     0
100
AcDbLine
 10
50.227
 20
-6.566999429498529
 30
0.0
 11
50.227
 21
-6.38699942949853
 31
0.0
  0
POINT
  5
159
330
151
100
AcDbEntity
  8
Defpoints
 62
     0
100
AcDbPoint
 10
51.84976624958773
 20
-9.05710285750272
 30
0.0
  0
POINT
  5
15A
330
151
100
AcDbEntity
  8
Defpoints
 62
     0
100
AcDbPoint
 10
50.227
 20
-6.476999429498529
 30
0.0
  0
ENDBLK
  5
153
330
151
100
AcDbEntity
  8
0
100
AcDbBlockEnd
  0
ENDSEC
  0
SECTION
  2
ENTITIES
  0
LINE
  5
95
330
1F
100
AcDbEntity
  8
0
  6
Continuous
 62
     4
370
    15
100
AcDbLine
 10
9.008886914030375
 20
9.52500000000001
 30
0.0
 11
-47.82499999999999
 21
9.52500000000001
 31
0.0
  0
LINE
  5
96
330
1F
100
AcDbEntity
  8
0
  6
Continuous
 62
     4
370
    15
100
AcDbLine
 10
-47.82499999999999
 20
-9.524999999999991
 30
0.0
 11
11.67264752766616
 21
-9.524999999999991
 31
0.0
  0
LINE
  5
97
330
1F
100
AcDbEntity
  8
0
  6
Continuous
 62
     4
370
    15
100
AcDbLine
 10
-47.82499999999999
 20
9.525000000000006
 30
0.0
 11
-48.32499999999999
 21
9.025000000000006
 31
0.0
  0
LINE
  5
98
330
1F
100
AcDbEntity
  8
0
  6
Continuous
 62
     4
370
    15
100
AcDbLine
 10
-48.32499999999999
 20
-9.024999999999988
 30
0.0
 11
-47.82499999999999
 21
-9.524999999999988
 31
0.0
  0
LINE
  5
99
330
1F
100
AcDbEntity
  8
0
  6
Continuous
 62
     1
370
    15
100
AcDbLine
 10
34.21270885009222
 20
9.525000000000007
 30
0.0
 11
26.00951044770432
 21
9.525000000000007
 31
0.0
  0
LINE
  5
9A
330
1F
100
AcDbEntity
  8
0
  6
Continuous
 62
     1
370
    15
100
AcDbLine
 10
39.24620309059019
 20
-9.52499999999999
 30
0.0
 11
47.4488599075175
 21
-9.52499999999999
 31
0.0
  0
LINE
  5
9B
330
1F
100
AcDbEntity
  8
0
  6
Continuous
 62
     1
370
    15
100
AcDbLine
 10
12.77195688848785
 20
-9.52499999999999
 30
0.0
 11
20.97557527154754
 21
-9.52499999999999
 31
0.0
  0
LINE
  5
9C
330
1F
100
AcDbEntity
  8
0
  6
Continuous
 62
     1
370
    15
100
AcDbLine
 10
53.27500000000001
 20
6.47700000000001
 30
0.0
 11
53.27462517478403
 21
6.52479951906243
 31
0.0
  0
SPLINE
  5
9E
330
1F
100
AcDbEntity
  8
0
  6
Continuous
 62
     4
370
    15
100
AcDbSpline
210
0.0
220
0.0
230
1.0
 70
    24
 71
     3
 72
    16
 73
    12
 74
     0
 42
0.000000001
 43
0.00000001
 40
0.0
 40
0.0
 40
0.0
 40
0.0
 40
0.2499999999999999
 40
0.2499999999999999
 40
0.3749999999999998
 40
0.3749999999999998
 40
0.4999999999999997
 40
0.4999999999999997
 40
0.7499999999999998
 40
0.7499999999999998
 40
1.0
 40
1.0
 40
1.0
 40
1.0
 10
12.0
 20
4.765354717275384
 30
0.0
 10
12.0
 20
4.482940999569482
 30
0.0
 10
12.0
 20
4.168851690155657
 30
0.0
 10
12.0
 20
3.648858894258081
 30
0.0
 10
12.0
 20
3.467334232577218
 30
0.0
 10
12.0
 20
3.086949627716808
 30
0.0
 10
12.0
 20
2.887186547305862
 30
0.0
 10
12.0
 20
2.265937228598991
 30
0.0
 10
12.0
 20
1.828324630814588
 30
0.0
 10
12.0
 20
0.9027953964302766
 30
0.0
 10
12.0
 20
0.4112482141347883
 30
0.0
 10
12.0
 20
-0.0925524098397244
 30
0.0
  0
SPLINE
  5
9F
330
1F
100
AcDbEntity
  8
0
  6
Continuous
 62
     4
370
    15
100
AcDbSpline
210
0.0
220
0.0
230
1.0
 70
     8
 71
     3
 72
    14
 73
    10
 74
     0
 42
0.000000001
 43
0.00000001
 40
0.0
 40
0.0
 40
0.0
 40
0.0
 40
0.2500000000000001
 40
0.2500000000000001
 40
0.5000000000000001
 40
0.5000000000000001
 40
0.75
 40
0.75
 40
1.0
 40
1.0
 40
1.0
 40
1.0
 10
10.09772221790577
 20
-6.210153021162318
 30
0.0
 10
9.912279217025446
 20
-6.104345204983038
 30
0.0
 10
9.747655780955911
 20
-5.981675640656209
 30
0.0
 10
9.458529389004166
 20
-5.700099009532174
 30
0.0
 10
9.334525691131091
 20
-5.540126073642522
 30
0.0
 10
9.140015907695823
 20
-5.197910629409731
 30
0.0
 10
9.066828081195638
 20
-5.011411735489732
 30
0.0
 10
8.971901886336385
 20
-4.62248624739073
 30
0.0
 10
8.949729024857099
 20
-4.421306250416818
 30
0.0
 10
8.949729024857037
 20
-4.213436160610426
 30
0.0
  0
SPLINE
  5
A0
330
1F
100
AcDbEntity
  8
0
  6
Continuous
 62
     4
370
    15
100
AcDbSpline
210
0.0
220
0.0
230
1.0
 70
     8
 71
     3
 72
    22
 73
    18
 74
     0
 42
0.000000001
 43
0.00000001
 40
0.0
 40
0.0
 40
0.0
 40
0.0
 40
0.125
 40
0.125
 40
0.25
 40
0.25
 40
0.375
 40
0.375
 40
0.5
 40
0.5
 40
0.625
 40
0.625
 40
0.75
 40
0.75
 40
0.875
 40
0.875
 40
1.0
 40
1.0
 40
1.0
 40
1.0
 10
8.949729024859852
 20
2.011843237856964
 30
0.0
 10
8.949729024859852
 20
2.208349099048697
 30
0.0
 10
8.966456238212928
 20
2.400692258480726
 30
0.0
 10
9.036781556731544
 20
2.776823579655027
 30
0.0
 10
9.091352624530959
 20
2.962768855751584
 30
0.0
 10
9.237733732863536
 20
3.312977849140464
 30
0.0
 10
9.328820927974526
 20
3.477219018909351
 30
0.0
 10
9.54800247569868
 20
3.784513261532372
 30
0.0
 10
9.677068446453884
 20
3.927661401040188
 30
0.0
 10
9.960758414303584
 20
4.179357280904409
 30
0.0
 10
10.11704272224352
 20
4.290261176396707
 30
0.0
 10
10.45703543839763
 20
4.48102514177605
 30
0.0
 10
10.6354879687974
 20
4.558082413071723
 30
0.0
 10
11.00869391448829
 20
4.678335605322486
 30
0.0
 10
11.20547816104219
 20
4.721526294682578
 30
0.0
 10
11.60004641517741
 20
4.77053661209245
 30
0.0
 10
11.79910737858379
 20
4.77713706435826
 30
0.0
 10
12.0
 20
4.765354717275348
 30
0.0
  0
LINE
  5
A1
330
1F
100
AcDbEntity
  8
0
  6
Continuous
 62
     4
370
    15
100
AcDbLine
 10
11.67264752766618
 20
-9.524999798772132
 30
0.0
 11
12.0
 21
-9.524999429498529
 31
0.0
  0
SPLINE
  5
A2
330
1F
100
AcDbEntity
  8
0
  6
Continuous
 62
     4
370
    15
100
AcDbSpline
210
0.0
220
0.0
230
1.0
 70
     8
 71
     3
 72
    17
 73
    13
 74
     0
 42
0.000000001
 43
0.00000001
 40
0.0
 40
0.0
 40
0.0
 40
0.0
 40
0.1084592047262647
 40
0.2176687418794222
 40
0.3292562699570794
 40
0.4416724472024955
 40
0.5501332566063734
 40
0.6593510742208597
 40
0.7709174019253386
 40
0.8832755976259244
 40
0.9845466760186765
 40
1.0
 40
1.0
 40
1.0
 40
1.0
 10
10.09772221790577
 20
9.359652302776144
 30
0.0
 10
10.03717716611029
 20
9.368336602109895
 30
0.0
 10
9.915668205348432
 20
9.385765279692889
 30
0.0
 10
9.747789421156178
 20
9.4123205901687
 30
0.0
 10
9.591398175431099
 20
9.438197093102408
 30
0.0
 10
9.451226406512252
 20
9.462140626679224
 30
0.0
 10
9.328146156318173
 20
9.483199078640439
 30
0.0
 10
9.222249425542019
 20
9.500667103000637
 30
0.0
 10
9.131742748298047
 20
9.514383122502036
 30
0.0
 10
9.064289945165147
 20
9.521854133385895
 30
0.0
 10
9.020412041916181
 20
9.526316383483936
 30
0.0
 10
9.010234353875624
 20
9.52454598766862
 30
0.0
 10
9.008886914030375
 20
9.524311602231188
 30
0.0
  0
SPLINE
  5
A3
330
1F
100
AcDbEntity
  8
0
  6
Continuous
 62
     4
370
    15
100
AcDbSpline
210
0.0
220
0.0
230
1.0
 70
     8
 71
     3
 72
     8
 73
     4
 74
     0
 42
0.000000001
 43
0.00000001
 40
0.0
 40
0.0
 40
0.0
 40
0.0
 40
1.0
 40
1.0
 40
1.0
 40
1.0
 10
12.00000000000127
 20
8.988707391411193
 30
0.0
 10
11.36424961810931
 20
9.146988127447493
 30
0.0
 10
10.73359063353087
 20
9.270883389740508
 30
0.0
 10
10.09772221790577
 20
9.359652302776144
 30
0.0
  0
LINE
  5
A4
330
1F
100
AcDbEntity
  8
0
  6
Continuous
 62
     4
370
    15
100
AcDbLine
 10
12.0
 20
8.988707391423985
 30
0.0
 11
12.0
 21
4.765354717275351
 31
0.0
  0
SPLINE
  5
A5
330
1F
100
AcDbEntity
  8
0
  6
Continuous
 62
     4
370
    15
100
AcDbSpline
210
0.0
220
0.0
230
1.0
 70
     8
 71
     3
 72
     8
 73
     4
 74
     0
 42
0.000000001
 43
0.00000001
 40
0.0
 40
0.0
 40
0.0
 40
0.0
 40
1.0
 40
1.0
 40
1.0
 40
1.0
 10
12.00000000000127
 20
-7.223194717768339
 30
0.0
 10
11.36424961810931
 20
-6.911306657300384
 30
0.0
 10
10.73359063353087
 20
-6.572959102358594
 30
0.0
 10
10.09772221790577
 20
-6.210153021162319
 30
0.0
  0
LINE
  5
A6
330
1F
100
AcDbEntity
  8
0
  6
Continuous
 62
     4
370
    15
100
AcDbLine
 10
12.0
 20
-7.223194717779339
 30
0.0
 11
12.0
 21
-9.524999429498529
 31
0.0
  0
LINE
  5
A7
330
1F
100
AcDbEntity
  8
0
  6
Continuous
 62
     4
370
    15
100
AcDbLine
 10
-47.82499999999999
 20
9.525000000000006
 30
0.0
 11
-47.82499999999999
 21
-9.524999999999997
 31
0.0
  0
LINE
  5
A8
330
1F
100
AcDbEntity
  8
0
  6
Continuous
 62
     4
370
    15
100
AcDbLine
 10
8.949729024859852
 20
2.011843237856965
 30
0.0
 11
8.949729024859852
 21
-4.213436160609731
 31
0.0
  0
LINE
  5
A9
330
1F
100
AcDbEntity
  8
0
  6
Continuous
 62
     4
370
    15
100
AcDbLine
 10
-48.32499999999999
 20
9.025000000000006
 30
0.0
 11
-48.32499999999999
 21
-9.024999999999972
 31
0.0
  0
SPLINE
  5
AA
330
1F
100
AcDbEntity
  8
0
  6
Continuous
 62
     1
370
    15
100
AcDbSpline
210
0.0
220
0.0
230
1.0
 70
    24
 71
     3
 72
    14
 73
    10
 74
     0
 42
0.000000001
 43
0.00000001
 40
0.0
 40
0.0
 40
0.0
 40
0.0
 40
0.25
 40
0.25
 40
0.5
 40
0.5
 40
0.75
 40
0.75
 40
1.0
 40
1.0
 40
1.0
 40
1.0
 10
12.0
 20
-0.0925524098400767
 30
0.0
 10
12.0
 20
-0.6342538192692353
 30
0.0
 10
12.0
 20
-1.207102296231676
 30
0.0
 10
12.0
 20
-2.394011892798688
 30
0.0
 10
12.0
 20
-3.008020755833486
 30
0.0
 10
12.0
 20
-4.244634267332471
 30
0.0
 10
12.0
 20
-4.867047609941515
 30
0.0
 10
12.0
 20
-6.079791043625752
 30
0.0
 10
12.0
 20
-6.669829783139628
 30
0.0
 10
12.0
 20
-7.223194717779339
 30
0.0
  0
SPLINE
  5
AC
330
1F
100
AcDbEntity
  8
0
  6
Continuous
 62
     1
370
    15
100
AcDbSpline
210
0.0
220
0.0
230
1.0
 70
     8
 71
     3
 72
    62
 73
    58
 74
     0
 42
0.000000001
 43
0.00000001
 40
0.0
 40
0.0
 40
0.0
 40
0.0
 40
0.03125
 40
0.03125
 40
0.0625
 40
0.0625
 40
0.09375
 40
0.09375
 40
0.125
 40
0.125
 40
0.15625
 40
0.15625
 40
0.1875
 40
0.1875
 40
0.21875
 40
0.21875
 40
0.25
 40
0.25
 40
0.3125000000000001
 40
0.3125000000000001
 40
0.3750000000000001
 40
0.3750000000000001
 40
0.4375000000000001
 40
0.4375000000000001
 40
0.5000000000000001
 40
0.5000000000000001
 40
0.5312500000000001
 40
0.5312500000000001
 40
0.5625000000000001
 40
0.5625000000000001
 40
0.5937500000000001
 40
0.5937500000000001
 40
0.6250000000000001
 40
0.6250000000000001
 40
0.6562500000000001
 40
0.6562500000000001
 40
0.6875000000000001
 40
0.6875000000000001
 40
0.7187500000000001
 40
0.7187500000000001
 40
0.7500000000000001
 40
0.7500000000000001
 40
0.7812500000000001
 40
0.7812500000000001
 40
0.8125000000000001
 40
0.8125000000000001
 40
0.8437500000000001
 40
0.8437500000000001
 40
0.8750000000000001
 40
0.8750000000000001
 40
0.9062500000000001
 40
0.9062500000000001
 40
0.9375000000000001
 40
0.9375000000000001
 40
0.9687500000000001
 40
0.9687500000000001
 40
1.0
 40
1.0
 40
1.0
 40
1.0
 10
50.227
 20
-9.524999429498529
 30
0.0
 10
49.82871128797047
 20
-9.524999429498529
 30
0.0
 10
49.42891433419914
 20
-9.524999429498529
 30
0.0
 10
48.63165310189974
 20
-9.524999429498529
 30
0.0
 10
48.23596531217881
 20
-9.524999429498529
 30
0.0
 10
47.43988818079586
 20
-9.529720944790176
 30
0.0
 10
47.04013423985609
 20
-9.524752540454212
 30
0.0
 10
46.24254285773413
 20
-9.486455782446102
 30
0.0
 10
45.84654784294693
 20
-9.453214182901396
 30
0.0
 10
45.05103506579859
 20
-9.35866070145575
 30
0.0
 10
44.65135663072204
 20
-9.297285905381969
 30
0.0
 10
43.85349956823385
 20
-9.147079680848675
 30
0.0
 10
43.45702892313937
 20
-9.058402853880844
 30
0.0
 10
42.66214441000507
 20
-8.854284894250323
 30
0.0
 10
42.26257395332102
 20
-8.738699268062833
 30
0.0
 10
41.46451575158772
 20
-8.481916377081268
 30
0.0
 10
41.06740119876019
 20
-8.34090042815229
 30
0.0
 10
39.87611243653026
 20
-7.881376840474977
 30
0.0
 10
39.07437581892178
 20
-7.525052665727111
 30
0.0
 10
37.48750192301011
 20
-6.729848056508958
 30
0.0
 10
36.6840990854343
 20
-6.287901242954081
 30
0.0
 10
35.09886301518187
 20
-5.338646107944997
 30
0.0
 10
34.29526142282486
 20
-4.827042363977267
 30
0.0
 10
32.70874432031379
 20
-3.756989232913677
 30
0.0
 10
31.90664519400816
 20
-3.194317129509838
 30
0.0
 10
30.71560265859098
 20
-2.329679382293692
 30
0.0
 10
30.31832037997443
 20
-2.037512260166111
 30
0.0
 10
29.52022588835704
 20
-1.447110431240413
 30
0.0
 10
29.12068414289008
 20
-1.149186215108326
 30
0.0
 10
28.32594949143943
 20
-0.5518911883325425
 30
0.0
 10
27.92934888885045
 20
-0.2521714267460656
 30
0.0
 10
27.13144103423787
 20
0.3483082552683766
 30
0.0
 10
26.73178402166011
 20
0.6486511775872228
 30
0.0
 10
25.93640677642737
 20
1.245530638939527
 30
0.0
 10
25.54031960735719
 20
1.542164864967962
 30
0.0
 10
24.74266294457458
 20
2.131320071531068
 30
0.0
 10
24.34292313159924
 20
2.423377698412012
 30
0.0
 10
23.54696716593303
 20
2.998560202727228
 30
0.0
 10
23.15122504990791
 20
3.281588649189416
 30
0.0
 10
22.35388406601776
 20
3.838425470005038
 30
0.0
 10
21.95409394183989
 20
4.11178812960786
 30
0.0
 10
21.15762328470102
 20
4.644757259870735
 30
0.0
 10
20.76205774850447
 20
4.904144748724028
 30
0.0
 10
19.96509684544729
 20
5.40882795884298
 30
0.0
 10
19.56528891292519
 20
5.653752408577516
 30
0.0
 10
18.76836773178618
 20
6.12549059438442
 30
0.0
 10
18.37281025473379
 20
6.352037123255784
 30
0.0
 10
17.57629373201696
 20
6.786598808268034
 30
0.0
 10
17.17650049884568
 20
6.994356509419695
 30
0.0
 10
16.37919308251216
 20
7.388025513221993
 30
0.0
 10
15.98347514175293
 20
7.573687339040225
 30
0.0
 10
15.18746717919745
 20
7.922668493939348
 30
0.0
 10
14.78772114907968
 20
8.085857579098555
 30
0.0
 10
13.99009189044316
 20
8.387401184699696
 30
0.0
 10
13.59404500626218
 20
8.525571871079366
 30
0.0
 10
12.79860964681707
 20
8.77657399991067
 30
0.0
 10
12.39894331063615
 20
8.889383753325232
 30
0.0
 10
12.0000000000021
 20
8.988707391411001
 30
0.0
  0
SPLINE
  5
AD
330
1F
100
AcDbEntity
  8
0
  6
Continuous
 62
     1
370
    15
100
AcDbSpline
210
0.0
220
0.0
230
1.0
 70
     8
 71
     3
 72
    24
 73
    20
 74
     0
 42
0.000000001
 43
0.00000001
 40
0.0
 40
0.0
 40
0.0
 40
0.0
 40
0.0464352249488684
 40
0.1106267200293278
 40
0.1747984721790414
 40
0.2378118544851844
 40
0.3008230001214957
 40
0.3638436186544082
 40
0.4268853805949914
 40
0.482302685812362
 40
0.5376608356728766
 40
0.5930064092443001
 40
0.6483941935922191
 40
0.7038075514185775
 40
0.7591622640273126
 40
0.8193424501901537
 40
0.8795412173552984
 40
0.9397789307652952
 40
1.0
 40
1.0
 40
1.0
 40
1.0
 10
16.87380994065932
 20
7.122805773846288
 30
0.0
 10
17.39016548166013
 20
7.378069681833406
 30
0.0
 10
18.62032469662653
 20
7.986207338398607
 30
0.0
 10
20.56392087169332
 20
8.691308922894144
 30
0.0
 10
22.69163775719458
 20
9.243080456988253
 30
0.0
 10
24.80602412053939
 20
9.525341376718035
 30
0.0
 10
26.90760097706848
 20
9.544919832624887
 30
0.0
 10
29.00960506934451
 20
9.300612796386826
 30
0.0
 10
31.02734824705244
 20
8.819783323039688
 30
0.0
 10
32.96037856081701
 20
8.150214805402362
 30
0.0
 10
34.80679092627596
 20
7.335931800943263
 30
0.0
 10
36.65279361051059
 20
6.365322502526422
 30
0.0
 10
38.49996185509279
 20
5.259253156168197
 30
0.0
 10
40.34779616023759
 20
4.041679422326642
 30
0.0
 10
42.24771012696928
 20
2.699118315643701
 30
0.0
 10
44.20128726860764
 20
1.254335194912189
 30
0.0
 10
46.20913155560249
 20
-0.26051683945119
 30
0.0
 10
48.2181661178701
 20
-1.774049273734896
 30
0.0
 10
49.55745039035391
 20
-2.739331226700574
 30
0.0
 10
50.22699999999996
 20
-3.221905515135939
 30
0.0
  0
SPLINE
  5
AE
330
1F
100
AcDbEntity
  8
0
  6
Continuous
 62
     1
370
    15
100
AcDbSpline
210
0.0
220
0.0
230
1.0
 70
     8
 71
     3
 72
    20
 73
    16
 74
     0
 42
0.000000001
 43
0.00000001
 40
0.0
 40
0.0
 40
0.0
 40
0.0
 40
0.249999999999998
 40
0.249999999999998
 40
0.3749999999999983
 40
0.3749999999999983
 40
0.4999999999999987
 40
0.4999999999999987
 40
0.624999999999999
 40
0.624999999999999
 40
0.7499999999999993
 40
0.7499999999999993
 40
0.8749999999999997
 40
0.8749999999999997
 40
1.0
 40
1.0
 40
1.0
 40
1.0
 10
50.227
 20
-3.221905515135949
 30
0.0
 10
50.61630736330736
 20
-3.497925969738754
 30
0.0
 10
50.98798606595582
 20
-3.741545219402451
 30
0.0
 10
51.53134550459274
 20
-4.042609529394755
 30
0.0
 10
51.70707934903516
 20
-4.130468013976903
 30
0.0
 10
52.03783426306919
 20
-4.276141637014236
 30
0.0
 10
52.19444463084356
 20
-4.334827210492122
 30
0.0
 10
52.48752519555438
 20
-4.423562516793832
 30
0.0
 10
52.61973240362884
 20
-4.452248864951028
 30
0.0
 10
52.85152028628709
 20
-4.48250678062317
 30
0.0
 10
52.95216278982586
 20
-4.48405437687104
 30
0.0
 10
53.11408820824533
 20
-4.466080954315302
 30
0.0
 10
53.17461660822313
 20
-4.446917984098927
 30
0.0
 10
53.25518673579361
 20
-4.398415499425442
 30
0.0
 10
53.27500000000001
 20
-4.368892543930531
 30
0.0
 10
53.27500000000001
 20
-4.340512258199293
 30
0.0
  0
SPLINE
  5
AF
330
1F
100
AcDbEntity
  8
0
  6
Continuous
 62
     1
370
    15
100
AcDbSpline
210
0.0
220
0.0
230
1.0
 70
     8
 71
     3
 72
    11
 73
     7
 74
     0
 42
0.000000001
 43
0.00000001
 40
0.0
 40
0.0
 40
0.0
 40
0.0
 40
0.2885614302454393
 40
0.6138623557460529
 40
0.9471477007364529
 40
1.0
 40
1.0
 40
1.0
 40
1.0
 10
51.8697971812791
 20
-4.199758899348701
 30
0.0
 10
51.71465490607888
 20
-4.23595926535672
 30
0.0
 10
51.38461771971895
 20
-4.31296900965155
 30
0.0
 10
50.81610118059312
 20
-4.541416676551095
 30
0.0
 10
50.37609484754054
 20
-4.755875289791256
 30
0.0
 10
50.13459967011176
 20
-4.887653015117765
 30
0.0
 10
50.10154519956712
 20
-4.905689992032261
 30
0.0
  0
SPLINE
  5
B0
330
1F
100
AcDbEntity
  8
0
  6
Continuous
 62
     1
370
    15
100
AcDbSpline
210
0.0
220
0.0
230
1.0
 70
     8
 71
     3
 72
     8
 73
     4
 74
     0
 42
0.000000001
 43
0.00000001
 40
0.0
 40
0.0
 40
0.0
 40
0.0
 40
1.0
 40
1.0
 40
1.0
 40
1.0
 10
53.27500000000001
 20
-5.568392862373722
 30
0.0
 10
52.18388231960768
 20
-5.493565819759727
 30
0.0
 10
51.12528603980414
 20
-5.276077758008839
 30
0.0
 10
50.10154519956715
 20
-4.905689992032237
 30
0.0
  0
LINE
  5
B1
330
1F
100
AcDbEntity
  8
0
  6
Continuous
 62
     1
370
    15
100
AcDbLine
 10
53.27500000000001
 20
-6.476999429498529
 30
0.0
 11
53.27500000000001
 21
-4.340512258199293
 31
0.0
  0
SPLINE
  5
B2
330
1F
100
AcDbEntity
  8
0
  6
Continuous
 62
     1
370
    15
100
AcDbSpline
210
0.0
220
0.0
230
1.0
 70
     8
 71
     3
 72
    16
 73
    12
 74
     0
 42
0.000000001
 43
0.00000001
 40
0.0
 40
0.0
 40
0.0
 40
0.0
 40
0.0628389168309366
 40
0.1810275809567023
 40
0.299198625409634
 40
0.4173677297048785
 40
0.5355505798493747
 40
0.6516575216718119
 40
0.7678099299247293
 40
0.8839248939979385
 40
1.0
 40
1.0
 40
1.0
 40
1.0
 10
30.1092063846557
 20
-7.118670672327666
 30
0.0
 10
29.72985576268296
 20
-7.31202423937693
 30
0.0
 10
28.63701506947201
 20
-7.869040978008009
 30
0.0
 10
26.83102125975248
 20
-8.555354046279932
 30
0.0
 10
24.69110492241661
 20
-9.161743245833987
 30
0.0
 10
22.55125189854318
 20
-9.495983570196659
 30
0.0
 10
20.42375620379867
 20
-9.560633355034
 30
0.0
 10
18.30833916321011
 20
-9.357297088619035
 30
0.0
 10
16.20494126065288
 20
-8.893367339604795
 30
0.0
 10
14.10211207354165
 20
-8.198140520368547
 30
0.0
 10
12.70062383070672
 20
-7.548139458605864
 30
0.0
 10
12.00000000000211
 20
-7.223194717768767
 30
0.0
  0
SPLINE
  5
B3
330
1F
100
AcDbEntity
  8
0
  6
Continuous
 62
     4
370
    15
100
AcDbSpline
210
0.0
220
0.0
230
1.0
 70
    24
 71
     3
 72
    16
 73
    12
 74
     0
 42
0.000000001
 43
0.00000001
 40
0.0
 40
0.0
 40
0.0
 40
0.0
 40
0.0574869014071307
 40
0.1761556465635856
 40
0.2999845523248439
 40
0.4238134580861022
 40
0.5476423638473605
 40
0.6714712696086187
 40
0.795300175369877
 40
0.9191290811311352
 40
1.0
 40
1.0
 40
1.0
 40
1.0
 10
12.0
 20
4.693366359162424
 30
0.0
 10
12.0
 20
4.520485818695696
 30
0.0
 10
12.0
 20
3.990732385500547
 30
0.0
 10
11.99999999999999
 20
2.90813177485077
 30
0.0
 10
11.99999999999999
 20
1.485231494963114
 30
0.0
 10
11.99999999999999
 20
-0.0636998874091036
 30
0.0
 10
11.99999999999999
 20
-1.664895567288677
 30
0.0
 10
11.99999999999999
 20
-3.275795900711677
 30
0.0
 10
11.99999999999999
 20
-4.846238798285916
 30
0.0
 10
11.99999999999999
 20
-6.171940655949976
 30
0.0
 10
12.0
 20
-6.925489564572465
 30
0.0
 10
12.0
 20
-7.223194717779339
 30
0.0
  0
SPLINE
  5
B4
330
1F
100
AcDbEntity
  8
0
  6
Continuous
 62
     1
370
    15
100
AcDbSpline
210
0.0
220
0.0
230
1.0
 70
     8
 71
     3
 72
    21
 73
    17
 74
     0
 42
0.000000001
 43
0.00000001
 40
0.0
 40
0.0
 40
0.0
 40
0.0
 40
0.0785497503634141
 40
0.1571197656178339
 40
0.235716718267969
 40
0.3142970624834957
 40
0.3928532382902342
 40
0.4699913897789136
 40
0.5471268032368763
 40
0.6242738129892503
 40
0.7014467055513418
 40
0.7692860807523644
 40
0.837053040623317
 40
0.9048046051662049
 40
0.9726078422451888
 40
0.9999999999999999
 40
0.9999999999999999
 40
0.9999999999999999
 40
0.9999999999999999
 10
12.00000000000061
 20
5.257354096319736
 30
0.0
 10
12.71337241153202
 20
4.794477441468918
 30
0.0
 10
14.14030127609847
 20
3.868604715156581
 30
0.0
 10
16.28120184072226
 20
2.328762277261054
 30
0.0
 10
18.42275263801106
 20
0.7333649514502055
 30
0.0
 10
20.5639176609526
 20
-0.8861464143617624
 30
0.0
 10
22.69163860115203
 20
-2.469950986643759
 30
0.0
 10
24.80602389242346
 20
-3.97489173609706
 30
0.0
 10
26.90760105215086
 20
-5.361047531069762
 30
0.0
 10
29.00960499713819
 20
-6.599242020506507
 30
0.0
 10
31.02734844931117
 20
-7.613074131871621
 30
0.0
 10
32.96037791833093
 20
-8.400109154927565
 30
0.0
 10
34.80679332799665
 20
-8.977453411676873
 30
0.0
 10
36.6527846443471
 20
-9.350768878106871
 30
0.0
 10
38.13269190742928
 20
-9.527655875805566
 30
0.0
 10
38.99738929712741
 20
-9.506584145951622
 30
0.0
 10
39.24620309059019
 20
-9.500520825878905
 30
0.0
  0
SPLINE
  5
B5
330
1F
100
AcDbEntity
  8
0
  6
Continuous
 62
     1
370
    15
100
AcDbSpline
210
0.0
220
0.0
230
1.0
 70
     8
 71
     3
 72
    16
 73
    12
 74
     0
 42
0.000000001
 43
0.00000001
 40
0.0
 40
0.0
 40
0.0
 40
0.0
 40
0.1254193098952703
 40
0.2508732837545882
 40
0.3762461462817021
 40
0.5015803111152072
 40
0.6168647114598894
 40
0.7322712491697241
 40
0.84762452631713
 40
0.9628898932609231
 40
1.0
 40
1.0
 40
1.0
 40
1.0
 10
50.22699999999997
 20
2.849948372461932
 30
0.0
 10
49.55745038757698
 20
3.324361992418995
 30
0.0
 10
48.21816610953854
 20
4.273320352945084
 30
0.0
 10
46.20913158893052
 20
5.569171442459212
 30
0.0
 10
44.20128714373507
 20
6.730337852492589
 30
0.0
 10
42.24771057721745
 20
7.694196452938431
 30
0.0
 10
40.34779462842027
 20
8.454520510332394
 30
0.0
 10
38.49996759354279
 20
9.016449956282345
 30
0.0
 10
36.65277220869568
 20
9.372170544450768
 30
0.0
 10
35.22407513708311
 20
9.534531863464254
 30
0.0
 10
34.41078149909781
 20
9.509037116872742
 30
0.0
 10
34.21270885009223
 20
9.502828028596065
 30
0.0
  0
LINE
  5
B6
330
1F
100
AcDbEntity
  8
0
  6
Continuous
 62
     4
370
    15
100
AcDbLine
 10
12.0
 20
5.257354096327322
 30
0.0
 11
12.0
 21
8.988707391423985
 31
0.0
  0
SPLINE
  5
B7
330
1F
100
AcDbEntity
  8
0
  6
Continuous
 62
     1
370
    15
100
AcDbSpline
210
0.0
220
0.0
230
1.0
 70
     8
 71
     3
 72
    24
 73
    20
 74
     0
 42
0.000000001
 43
0.00000001
 40
0.0
 40
0.0
 40
0.0
 40
0.0
 40
0.1249999999999993
 40
0.1249999999999993
 40
0.2499999999999985
 40
0.2499999999999985
 40
0.3124999999999979
 40
0.3124999999999979
 40
0.3749999999999978
 40
0.3749999999999978
 40
0.4999999999999982
 40
0.4999999999999982
 40
0.6249999999999987
 40
0.6249999999999987
 40
0.7499999999999991
 40
0.7499999999999991
 40
0.8749999999999997
 40
0.8749999999999997
 40
1.0
 40
1.0
 40
1.0
 40
1.0
 10
53.27500000000001
 20
1.355273725923499
 30
0.0
 10
53.27499999999999
 20
1.266997130960601
 30
0.0
 10
53.25894185226959
 20
1.193111912212385
 30
0.0
 10
53.18175529130641
 20
1.087093939839131
 30
0.0
 10
53.12064739943113
 20
1.056830468256914
 30
0.0
 10
52.99349209105252
 20
1.053911107938537
 30
0.0
 10
52.94443029337868
 20
1.060033135414606
 30
0.0
 10
52.83623826438409
 20
1.086423153339378
 30
0.0
 10
52.77743219290412
 20
1.106453581417402
 30
0.0
 10
52.58740158271314
 20
1.185476268595323
 30
0.0
 10
52.44163001158117
 20
1.264329409861729
 30
0.0
 10
52.13351544333933
 20
1.453760684946666
 30
0.0
 10
51.96833314212673
 20
1.565826932116118
 30
0.0
 10
51.63359105520367
 20
1.803487863042541
 30
0.0
 10
51.46071324479188
 20
1.93133324654566
 30
0.0
 10
51.10986391048311
 20
2.193874495260446
 30
0.0
 10
50.93481665288573
 20
2.326413136762507
 30
0.0
 10
50.58284496323315
 20
2.590309368325726
 30
0.0
 10
50.40489807365758
 20
2.722057480991031
 30
0.0
 10
50.22699999999999
 20
2.849948372461918
 30
0.0
  0
LINE
  5
B8
330
1F
100
AcDbEntity
  8
0
  6
Continuous
 62
     1
370
    15
100
AcDbLine
 10
53.27500000000001
 20
-4.340512258199292
 30
0.0
 11
53.27500000000001
 21
1.355273725923495
 31
0.0
  0
LINE
  5
B9
330
1F
100
AcDbEntity
  8
0
  6
Continuous
 62
     1
370
    15
100
AcDbLine
 10
12.00000000000061
 20
-9.507222656021488
 30
0.0
 11
12.77195688848785
 21
-9.493532241421581
 31
0.0
  0
SPLINE
  5
BA
330
1F
100
AcDbEntity
  8
0
  6
Continuous
 62
     1
370
    15
100
AcDbSpline
210
0.0
220
0.0
230
1.0
 70
     8
 71
     3
 72
    11
 73
     7
 74
     0
 42
0.000000001
 43
0.00000001
 40
0.0
 40
0.0
 40
0.0
 40
0.0
 40
0.1241723272669909
 40
0.4160159075831207
 40
0.7080482992665372
 40
1.0
 40
1.0
 40
1.0
 40
1.0
 10
43.34691639018952
 20
7.121734132231668
 30
0.0
 10
43.63163519471957
 20
7.268923781734078
 30
0.0
 10
44.58553172287168
 20
7.762054876015053
 30
0.0
 10
46.2091400579821
 20
8.401777052112136
 30
0.0
 10
48.2181639923878
 20
9.038008280203659
 30
0.0
 10
49.55744968192507
 20
9.427327822740171
 30
0.0
 10
50.227
 20
9.524999429498536
 30
0.0
  0
LINE
  5
BC
330
1F
100
AcDbEntity
  8
0
  6
Continuous
 62
     1
370
    15
100
AcDbLine
 10
53.27500000000001
 20
6.167475262783499
 30
0.0
 11
53.27500000000001
 21
6.333621564935944
 31
0.0
  0
SPLINE
  5
BD
330
1F
100
AcDbEntity
  8
0
  6
Continuous
 62
     1
370
    15
100
AcDbSpline
210
0.0
220
0.0
230
1.0
 70
     8
 71
     3
 72
    18
 73
    14
 74
     0
 42
0.000000001
 43
0.00000001
 40
0.0
 40
0.0
 40
0.0
 40
0.0
 40
0.2499999999999972
 40
0.2499999999999972
 40
0.3749999999999972
 40
0.3749999999999972
 40
0.4999999999999971
 40
0.4999999999999971
 40
0.624999999999997
 40
0.624999999999997
 40
0.749999999999997
 40
0.749999999999997
 40
1.0
 40
1.0
 40
1.0
 40
1.0
 10
53.27500000000001
 20
6.167475262783508
 30
0.0
 10
53.1263796212405
 20
5.794600386384988
 30
0.0
 10
52.94686809478635
 20
5.448209991890968
 30
0.0
 10
52.62388471461785
 20
4.97467781456344
 30
0.0
 10
52.50615234346575
 20
4.823443571571224
 30
0.0
 10
52.2570911183733
 20
4.544823148091175
 30
0.0
 10
52.12593987808987
 20
4.417230060198692
 30
0.0
 10
51.85063926191287
 20
4.18504786089033
 30
0.0
 10
51.70649164311023
 20
4.080455639791814
 30
0.0
 10
51.40510603171712
 20
3.894438416319185
 30
0.0
 10
51.24768105620714
 20
3.813209580290878
 30
0.0
 10
50.77035535194846
 20
3.610426227940132
 30
0.0
 10
50.43894241105551
 20
3.526080230646898
 30
0.0
 10
50.10154519956712
 20
3.48796217643932
 30
0.0
  0
SPLINE
  5
BE
330
1F
100
AcDbEntity
  8
0
  6
Continuous
 62
     1
370
    15
100
AcDbSpline
210
0.0
220
0.0
230
1.0
 70
     8
 71
     3
 72
     8
 73
     4
 74
     0
 42
0.000000001
 43
0.00000001
 40
0.0
 40
0.0
 40
0.0
 40
0.0
 40
1.0
 40
1.0
 40
1.0
 40
1.0
 10
53.27500000000001
 20
1.837376426293273
 30
0.0
 10
52.18388231960768
 20
2.469810806431694
 30
0.0
 10
51.12528603980414
 20
3.021927505083467
 30
0.0
 10
50.10154519956714
 20
3.487962176439335
 30
0.0
  0
LINE
  5
BF
330
1F
100
AcDbEntity
  8
0
  6
Continuous
 62
     1
370
    15
100
AcDbLine
 10
53.27500000000001
 20
1.355273725923495
 30
0.0
 11
53.27500000000001
 21
1.837376426293273
 31
0.0
  0
LINE
  5
C0
330
1F
100
AcDbEntity
  8
0
  6
Continuous
 62
     4
370
    15
100
AcDbLine
 10
12.0
 20
-9.50722265603232
 30
0.0
 11
12.0
 21
-7.223194717779339
 31
0.0
  0
LINE
  5
C1
330
1F
100
AcDbEntity
  8
0
  6
Continuous
 62
     1
370
    15
100
AcDbLine
 10
53.27500000000001
 20
1.837376426293273
 30
0.0
 11
53.27500000000001
 21
6.167475262783499
 31
0.0
  0
LINE
  5
C2
330
1F
100
AcDbEntity
  8
0
  6
Continuous
 62
     1
370
    15
100
AcDbLine
 10
53.27500000000001
 20
6.333621564935944
 30
0.0
 11
53.27500000000001
 21
6.477000000000011
 31
0.0
  0
LINE
  5
C3
330
1F
100
AcDbEntity
  8
0
  6
Continuous
 62
     1
370
    15
100
AcDbLine
 10
53.27500000000001
 20
-4.340512258199292
 30
0.0
 11
53.27500000000001
 21
-5.568392862373723
 31
0.0
  0
LINE
  5
C4
330
1F
100
AcDbEntity
  8
중심선
100
AcDbLine
 10
-51.325
 20
0.0000000000000033
 30
0.0
 11
56.275
 21
0.0000000000000038
 31
0.0
  0
CIRCLE
  5
C5
330
1F
100
AcDbEntity
  8
외형선
100
AcDbCircle
 10
0.0
 20
0.0
 30
0.0
 40
3.000000000000008
  0
INSERT
  5
C6
330
1F
100
AcDbEntity
  8
0
  6
Continuous
 62
     7
100
AcDbBlockReference
 66
     1
  2
블럭10
 10
-9.317788993763333
 20
-39.11664632759058
 30
0.0
  0
ATTRIB
  5
C7
330
C6
100
AcDbEntity
  8
FORMAT
 62
     2
100
AcDbText
 10
-18.49908428250461
 20
-37.04127941475839
 30
0.0
 40
4.233333333333333
  1
E5983903 [ 3 FLUTE ]
 41
0.75
  7
SLDTEXTSTYLE0
 11
-18.49908428250461
 21
-39.15794608142506
 31
0.0
100
AcDbAttribute
  2
AUTOATTR0
 70
     0
 74
     1
  0
SEQEND
  5
C8
330
C6
100
AcDbEntity
  8
0
  6
Continuous
 62
     7
  0
HATCH
  5
C9
330
1F
100
AcDbEntity
  8
중심선
100
AcDbHatch
 10
0.0
 20
0.0
 30
0.0
210
0.0
220
0.0
230
1.0
  2
SOLID
 70
     1
 71
     0
 91
        1
 92
        0
 93
        4
 72
     1
 10
-3.602879689382496
 20
-22.86947202594665
 11
-7.049154933219778
 21
-22.86947202594665
 72
     1
 10
-7.049154933219778
 20
-22.86947202594665
 11
-9.177384792423801
 21
-25.40579760651925
 72
     1
 10
-9.177384792423801
 20
-25.40579760651925
 11
-5.731076463473368
 21
-25.40575817721676
 72
     1
 10
-5.731076463473368
 20
-25.40575817721676
 11
-3.602879689382496
 21
-22.86947202594665
 97
        0
 75
     0
 76
     1
 98
        1
 10
11.02806289160455
 20
12.92945304532945
  0
HATCH
  5
CA
330
1F
100
AcDbEntity
  8
중심선
100
AcDbHatch
 10
0.0
 20
0.0
 30
0.0
210
0.0
220
0.0
230
1.0
  2
SOLID
 70
     1
 71
     0
 91
        1
 92
        0
 93
        4
 72
     1
 10
1.409884301653456
 20
-22.86947202594668
 11
-2.036390942183798
 21
-22.86947202594663
 72
     1
 10
-2.036390942183798
 20
-22.86947202594663
 11
-6.567528950541217
 21
-28.26947202594667
 72
     1
 10
-6.567528950541217
 20
-28.26947202594667
 11
-3.121253706703932
 21
-28.26947202594667
 72
     1
 10
-3.121253706703932
 20
-28.26947202594667
 11
1.409884301653456
 21
-22.86947202594668
 97
        0
 75
     0
 76
     1
 98
        1
 10
11.02806289160455
 20
12.92945304532945
  0
HATCH
  5
CB
330
1F
100
AcDbEntity
  8
중심선
100
AcDbHatch
 10
0.0
 20
0.0
 30
0.0
210
0.0
220
0.0
230
1.0
  2
SOLID
 70
     1
 71
     0
 91
        1
 92
        0
 93
        4
 72
     1
 10
6.422648292689379
 20
-22.86947202594668
 11
2.976373048852263
 21
-22.86947202594665
 72
     1
 10
2.976373048852263
 20
-22.86947202594665
 11
-4.072063853037013
 21
-31.26947202594667
 72
     1
 10
-4.072063853037013
 20
-31.26947202594667
 11
-0.6257886091997307
 21
-31.26947202594667
 72
     1
 10
-0.6257886091997307
 20
-31.26947202594667
 11
6.422648292689379
 21
-22.86947202594668
 97
        0
 75
     0
 76
     1
 98
        1
 10
11.02806289160455
 20
12.92945304532945
  0
HATCH
  5
CC
330
1F
100
AcDbEntity
  8
중심선
100
AcDbHatch
 10
0.0
 20
0.0
 30
0.0
210
0.0
220
0.0
230
1.0
  2
SOLID
 70
     1
 71
     0
 91
        1
 92
        0
 93
        6
 72
     3
 10
11.22253872370155
 20
-27.06947202599792
 11
3.960054785062283
 21
1.540882976769353E-10
 40
0.3939339440162628
 50
17.09539180608437
 51
320.0019657685082
 73
     0
 72
     1
 10
12.90553837940212
 20
-25.65736603058498
 11
15.21084025310321
 21
-23.72303932053703
 72
     3
 10
11.2225387236487
 20
-27.0694720259468
 11
6.600054785286829
 21
-1.278976924368180E-13
 40
0.636358354079598
 50
39.99873849337386
 51
368.4976242363725
 73
     1
 72
     1
 10
17.64787121554932
 20
-26.10947202587668
 11
9.902606030484629
 21
-26.10947202587668
 72
     1
 10
9.902606030484627
 20
-26.10947202587668
 11
9.902580986038693
 21
-28.02947202587657
 72
     1
 10
9.902580986038693
 20
-28.02947202587657
 11
14.34396075551073
 21
-28.02947202587654
 97
        0
 75
     0
 76
     1
 98
        1
 10
11.02806289160455
 20
12.92945304532945
  0
POINT
  5
CD
330
1F
100
AcDbEntity
  8
치수문자_일반주서
100
AcDbPoint
 10
-48.325
 20
-0.1156937548689003
 30
0.0
  0
DIMENSION
  5
CE
102
{ACAD_REACTORS
102
}
330
1F
100
AcDbEntity
  8
치수문자_일반주서
100
AcDbDimension
  2
_D
 10
12.0
 20
30.09999941887651
 30
0.0
 11
32.6375
 21
30.09999941887651
 31
0.0
 70
   160
  1
<>
 71
     2
 42
41.27500000000001
  3
SLDDIMSTYLE0
100
AcDbAlignedDimension
 13
53.27500000000001
 23
9.58750000000001
 33
0.0
 14
12.0
 24
8.988707391423985
 34
0.0
 50
0.0000000000000099
100
AcDbRotatedDimension
1001
ACAD
1000
DSTYLE
1002
{
1070
   171
1070
     6
1070
   273
1070
     5
1002
}
  0
DIMENSION
  5
E2
330
1F
100
AcDbEntity
  8
치수문자_일반주서
100
AcDbDimension
  2
_D_1
 10
-48.32499999999999
 20
57.14859778227562
 30
0.0
 11
2.069276350034864
 21
57.14859778227562
 31
0.0
 70
   160
  1
<>
 71
     2
 42
101.6
  3
SLDDIMSTYLE1
100
AcDbAlignedDimension
 13
53.27500000000001
 23
9.52500000000001
 33
0.0
 14
-48.32499999999999
 24
9.025000000000006
 34
0.0
100
AcDbRotatedDimension
1001
ACAD
1000
DSTYLE
1002
{
1070
   171
1070
     6
1070
   273
1070
     5
1002
}
  0
DIMENSION
  5
F6
330
1F
100
AcDbEntity
  8
치수문자_일반주서
100
AcDbDimension
  2
_D_2
 10
-63.88471530538658
 20
-9.525000000000055
 30
0.0
 11
-63.88471530538671
 21
29.91024999999995
 31
0.0
 70
   160
  1
%%c<>
 71
     2
 42
19.05
 52
-270.0
  3
SLDDIMSTYLE2
100
AcDbAlignedDimension
 13
-47.82499999999999
 23
9.52500000000001
 33
0.0
 14
-47.82499999999999
 24
-9.524999999999997
 34
0.0
 50
90.0000000000002
100
AcDbRotatedDimension
1001
ACAD
1000
DSTYLE
1002
{
1070
   171
1070
     6
1070
   273
1070
     5
1002
}
  0
INSERT
  5
111
330
1F
100
AcDbEntity
  8
외형선
100
AcDbBlockReference
  2
SW_DOWELSYMBOL_0
 10
0.0
 20
0.0
 30
0.0
  0
ARC
  5
13B
102
{ACAD_REACTORS
102
}
330
1F
100
AcDbEntity
  8
0
  6
Continuous
 62
     1
370
    15
100
AcDbCircle
 10
50.227
 20
-6.476999429498529
 30
0.0
 40
3.047999999999999
100
AcDbArc
 50
270.0
 51
0.0
  0
ARC
  5
13C
330
1F
100
AcDbEntity
  8
0
  6
Continuous
 62
     1
370
    15
100
AcDbCircle
 10
50.227
 20
6.476999429498537
 30
0.0
 40
3.047999999999999
100
AcDbArc
 50
0.0
 51
90.0
  0
DIMENSION
  5
13D
102
{ACAD_XDICTIONARY
360
13E
102
}
330
1F
100
AcDbEntity
  8
치수문자_일반주서
100
AcDbDimension
  2
*D6
 10
70.52214096852668
 20
9.525000000000007
 30
0.0
 11
67.89714096852668
 21
26.60825000000001
 31
0.0
 70
    32
  1
{Ø<>[]}
 71
     5
 42
19.04999942949854
  3
SLDDIMSTYLE0
100
AcDbAlignedDimension
 13
53.27500000000001
 23
-9.524999429498529
 33
0.0
 14
53.27500000000001
 24
9.52500000000001
 34
0.0
 50
90.0
100
AcDbRotatedDimension
1001
ACAD
1000
DSTYLE
1002
{
1070
   283
1070
     1
1070
   170
1070
     1
1070
   171
1070
     6
1070
   273
1070
     5
1002
}
  0
DIMENSION
  5
14E
102
{ACAD_REACTORS
102
}
102
{ACAD_XDICTIONARY
360
14F
102
}
330
1F
100
AcDbEntity
  8
치수문자_일반주서
100
AcDbDimension
  2
*D7
 10
50.227
 20
-6.476999429498529
 30
0.0
 11
62.81941054306068
 21
-26.49819571531058
 31
0.0
 70
   164
  1
<>
 71
     5
 42
3.047999999999999
  3
SLDDIMSTYLE0
100
AcDbRadialDimension
 15
51.84976624958773
 25
-9.05710285750272
 35
0.0
 40
0.0
1001
ACAD_DSTYLE_DIMRADIAL_EXTENSION
1070
   387
1070
     1
1070
   388
1040
4.71238898038469
1070
   390
1040
0.0
  0
ENDSEC
  0
SECTION
  2
OBJECTS
  0
DICTIONARY
  5
C
330
0
100
AcDbDictionary
281
     1
  3
ACAD_GROUP
350
D
  3
ACAD_IMAGE_VARS
350
135
  3
ACAD_LAYOUT
350
1A
  3
ACAD_MLINESTYLE
350
17
  3
ACAD_PLOTSETTINGS
350
19
  3
ACAD_PLOTSTYLENAME
350
E
  3
ACAD_SCALELIST
350
47
  3
APPDATA
350
133
  3
DWGPROPS
350
161
  0
DICTIONARY
  5
13E
330
13D
100
AcDbDictionary
280
     1
281
     1
  0
DICTIONARY
  5
14F
330
14E
100
AcDbDictionary
280
     1
281
     1
  0
DICTIONARY
  5
D
102
{ACAD_REACTORS
330
C
102
}
330
C
100
AcDbDictionary
281
     1
  0
RASTERVARIABLES
  5
135
102
{ACAD_REACTORS
330
C
102
}
330
C
100
AcDbRasterVariables
 90
        0
 70
     1
 71
     1
 72
     1
  0
DICTIONARY
  5
1A
102
{ACAD_REACTORS
330
C
102
}
330
C
100
AcDbDictionary
281
     1
  3
Layout1
350
1E
  3
Layout2
350
26
  3
Model
350
22
  0
DICTIONARY
  5
17
102
{ACAD_REACTORS
330
C
102
}
330
C
100
AcDbDictionary
281
     1
  3
Standard
350
18
  0
DICTIONARY
  5
19
102
{ACAD_REACTORS
330
C
102
}
330
C
100
AcDbDictionary
281
     1
  0
ACDBDICTIONARYWDFLT
  5
E
102
{ACAD_REACTORS
330
C
102
}
330
C
100
AcDbDictionary
281
     1
  3
Normal
350
F
100
AcDbDictionaryWithDefault
340
F
  0
DICTIONARY
  5
47
102
{ACAD_REACTORS
330
C
102
}
330
C
100
AcDbDictionary
281
     1
  3
A0
350
48
  3
A1
350
49
  3
A2
350
4A
  3
A3
350
4B
  3
A4
350
4C
  3
A5
350
4D
  3
A6
350
4E
  3
A7
350
4F
  3
A8
350
50
  3
A9
350
51
  3
B0
350
52
  3
B1
350
53
  3
B2
350
54
  3
B3
350
55
  3
B4
350
56
  3
B5
350
57
  3
B6
350
58
  3
B7
350
59
  3
B8
350
5A
  3
B9
350
5B
  3
C0
350
5C
  3
C1
350
5D
  3
C2
350
5E
  3
C3
350
5F
  3
C4
350
60
  3
C5
350
61
  3
C6
350
62
  3
C7
350
63
  3
C8
350
64
  3
C9
350
65
  3
D0
350
66
  3
D1
350
67
  3
D2
350
68
  0
DICTIONARY
  5
133
102
{ACAD_REACTORS
330
C
102
}
330
C
100
AcDbDictionary
281
     1
  0
XRECORD
  5
161
102
{ACAD_REACTORS
330
C
102
}
330
C
100
AcDbXrecord
280
     1
  1
DWGPROPS COOKIE
  2

  3

  4

  6

  7

  8
12014074
  9

300
=
301
=
302
=
303
=
304
=
305
=
306
=
307
=
308
=
309
=
 40
0.0
 41
2458269.057611123
 42
2458269.485807488
  1

 90
        0
  0
LAYOUT
  5
1E
102
{ACAD_REACTORS
330
1A
102
}
330
1A
100
AcDbPlotSettings
  1

  2
none_device
  4

  6

 40
0.0
 41
0.0
 42
0.0
 43
0.0
 44
0.0
 45
0.0
 46
0.0
 47
0.0
 48
0.0
 49
0.0
140
0.0
141
0.0
142
1.0
143
1.0
 70
   688
 72
     1
 73
     0
 74
     5
  7

 75
    16
147
1.0
148
0.0
149
0.0
100
AcDbLayout
  1
Layout1
 70
     1
 71
     1
 10
0.0
 20
0.0
 11
420.0
 21
297.0
 12
0.0
 22
0.0
 32
0.0
 14
1.000000000000000E+20
 24
1.000000000000000E+20
 34
1.000000000000000E+20
 15
-1.000000000000000E+20
 25
-1.000000000000000E+20
 35
-1.000000000000000E+20
146
0.0
 13
0.0
 23
0.0
 33
0.0
 16
1.0
 26
0.0
 36
0.0
 17
0.0
 27
1.0
 37
0.0
 76
     0
330
1B
  0
LAYOUT
  5
26
102
{ACAD_REACTORS
330
1A
102
}
330
1A
100
AcDbPlotSettings
  1

  2
none_device
  4

  6

 40
0.0
 41
0.0
 42
0.0
 43
0.0
 44
0.0
 45
0.0
 46
0.0
 47
0.0
 48
0.0
 49
0.0
140
0.0
141
0.0
142
1.0
143
1.0
 70
   688
 72
     1
 73
     0
 74
     5
  7

 75
    16
147
1.0
148
0.0
149
0.0
100
AcDbLayout
  1
Layout2
 70
     1
 71
     2
 10
0.0
 20
0.0
 11
0.0
 21
0.0
 12
0.0
 22
0.0
 32
0.0
 14
0.0
 24
0.0
 34
0.0
 15
0.0
 25
0.0
 35
0.0
146
0.0
 13
0.0
 23
0.0
 33
0.0
 16
1.0
 26
0.0
 36
0.0
 17
0.0
 27
1.0
 37
0.0
 76
     0
330
23
  0
LAYOUT
  5
22
102
{ACAD_REACTORS
330
1A
102
}
330
1A
100
AcDbPlotSettings
  1

  2
none_device
  4
ANSI_A_(11.00_x_8.50_Inches)
  6

 40
6.35
 41
19.05
 42
6.35000508
 43
19.05000254
 44
279.4
 45
215.9
 46
137.0807634581165
 47
73.36914326246351
 48
0.0
 49
0.0
140
0.0
141
0.0
142
0.0709074316740309
143
1.0
 70
  1696
 72
     0
 73
     0
 74
     0
  7

 75
     0
147
0.0235690232323232
148
0.0
149
0.0
100
AcDbLayout
  1
Model
 70
     1
 71
     0
 10
0.0
 20
0.0
 11
420.0
 21
297.0
 12
0.0
 22
0.0
 32
0.0
 14
-68.25971530538676
 24
-38.34906447910937
 34
0.0
 15
73.5106046124036
 25
61.52359778227562
 35
0.0
146
0.0
 13
0.0
 23
0.0
 33
0.0
 16
1.0
 26
0.0
 36
0.0
 17
0.0
 27
1.0
 37
0.0
 76
     0
330
1F
331
29
  0
MLINESTYLE
  5
18
102
{ACAD_REACTORS
330
17
102
}
330
17
100
AcDbMlineStyle
  2
Standard
 70
     0
  3

 62
   256
 51
90.0
 52
90.0
 71
     2
 49
0.5
 62
   256
  6
BYLAYER
 49
-0.5
 62
   256
  6
BYLAYER
  0
ACDBPLACEHOLDER
  5
F
102
{ACAD_REACTORS
330
E
102
}
330
E
  0
SCALE
  5
48
102
{ACAD_REACTORS
330
47
102
}
330
47
100
AcDbScale
 70
     0
300
1:1
140
1.0
141
1.0
290
     1
  0
SCALE
  5
49
102
{ACAD_REACTORS
330
47
102
}
330
47
100
AcDbScale
 70
     0
300
1:2
140
1.0
141
2.0
290
     0
  0
SCALE
  5
4A
102
{ACAD_REACTORS
330
47
102
}
330
47
100
AcDbScale
 70
     0
300
1:4
140
1.0
141
4.0
290
     0
  0
SCALE
  5
4B
102
{ACAD_REACTORS
330
47
102
}
330
47
100
AcDbScale
 70
     0
300
1:5
140
1.0
141
5.0
290
     0
  0
SCALE
  5
4C
102
{ACAD_REACTORS
330
47
102
}
330
47
100
AcDbScale
 70
     0
300
1:8
140
1.0
141
8.0
290
     0
  0
SCALE
  5
4D
102
{ACAD_REACTORS
330
47
102
}
330
47
100
AcDbScale
 70
     0
300
1:10
140
1.0
141
10.0
290
     0
  0
SCALE
  5
4E
102
{ACAD_REACTORS
330
47
102
}
330
47
100
AcDbScale
 70
     0
300
1:16
140
1.0
141
16.0
290
     0
  0
SCALE
  5
4F
102
{ACAD_REACTORS
330
47
102
}
330
47
100
AcDbScale
 70
     0
300
1:20
140
1.0
141
20.0
290
     0
  0
SCALE
  5
50
102
{ACAD_REACTORS
330
47
102
}
330
47
100
AcDbScale
 70
     0
300
1:30
140
1.0
141
30.0
290
     0
  0
SCALE
  5
51
102
{ACAD_REACTORS
330
47
102
}
330
47
100
AcDbScale
 70
     0
300
1:40
140
1.0
141
40.0
290
     0
  0
SCALE
  5
52
102
{ACAD_REACTORS
330
47
102
}
330
47
100
AcDbScale
 70
     0
300
1:50
140
1.0
141
50.0
290
     0
  0
SCALE
  5
53
102
{ACAD_REACTORS
330
47
102
}
330
47
100
AcDbScale
 70
     0
300
1:100
140
1.0
141
100.0
290
     0
  0
SCALE
  5
54
102
{ACAD_REACTORS
330
47
102
}
330
47
100
AcDbScale
 70
     0
300
2:1
140
2.0
141
1.0
290
     0
  0
SCALE
  5
55
102
{ACAD_REACTORS
330
47
102
}
330
47
100
AcDbScale
 70
     0
300
4:1
140
4.0
141
1.0
290
     0
  0
SCALE
  5
56
102
{ACAD_REACTORS
330
47
102
}
330
47
100
AcDbScale
 70
     0
300
8:1
140
8.0
141
1.0
290
     0
  0
SCALE
  5
57
102
{ACAD_REACTORS
330
47
102
}
330
47
100
AcDbScale
 70
     0
300
10:1
140
10.0
141
1.0
290
     0
  0
SCALE
  5
58
102
{ACAD_REACTORS
330
47
102
}
330
47
100
AcDbScale
 70
     0
300
100:1
140
100.0
141
1.0
290
     0
  0
SCALE
  5
59
102
{ACAD_REACTORS
330
47
102
}
330
47
100
AcDbScale
 70
     0
300
1/128" = 1'-0"
140
0.0078125
141
12.0
290
     0
  0
SCALE
  5
5A
102
{ACAD_REACTORS
330
47
102
}
330
47
100
AcDbScale
 70
     0
300
1/64" = 1'-0"
140
0.015625
141
12.0
290
     0
  0
SCALE
  5
5B
102
{ACAD_REACTORS
330
47
102
}
330
47
100
AcDbScale
 70
     0
300
1/32" = 1'-0"
140
0.03125
141
12.0
290
     0
  0
SCALE
  5
5C
102
{ACAD_REACTORS
330
47
102
}
330
47
100
AcDbScale
 70
     0
300
1/16" = 1'-0"
140
0.0625
141
12.0
290
     0
  0
SCALE
  5
5D
102
{ACAD_REACTORS
330
47
102
}
330
47
100
AcDbScale
 70
     0
300
3/32" = 1'-0"
140
0.09375
141
12.0
290
     0
  0
SCALE
  5
5E
102
{ACAD_REACTORS
330
47
102
}
330
47
100
AcDbScale
 70
     0
300
1/8" = 1'-0"
140
0.125
141
12.0
290
     0
  0
SCALE
  5
5F
102
{ACAD_REACTORS
330
47
102
}
330
47
100
AcDbScale
 70
     0
300
3/16" = 1'-0"
140
0.1875
141
12.0
290
     0
  0
SCALE
  5
60
102
{ACAD_REACTORS
330
47
102
}
330
47
100
AcDbScale
 70
     0
300
1/4" = 1'-0"
140
0.25
141
12.0
290
     0
  0
SCALE
  5
61
102
{ACAD_REACTORS
330
47
102
}
330
47
100
AcDbScale
 70
     0
300
3/8" = 1'-0"
140
0.375
141
12.0
290
     0
  0
SCALE
  5
62
102
{ACAD_REACTORS
330
47
102
}
330
47
100
AcDbScale
 70
     0
300
1/2" = 1'-0"
140
0.5
141
12.0
290
     0
  0
SCALE
  5
63
102
{ACAD_REACTORS
330
47
102
}
330
47
100
AcDbScale
 70
     0
300
3/4" = 1'-0"
140
0.75
141
12.0
290
     0
  0
SCALE
  5
64
102
{ACAD_REACTORS
330
47
102
}
330
47
100
AcDbScale
 70
     0
300
1" = 1'-0"
140
1.0
141
12.0
290
     0
  0
SCALE
  5
65
102
{ACAD_REACTORS
330
47
102
}
330
47
100
AcDbScale
 70
     0
300
1-1/2" = 1'-0"
140
1.5
141
12.0
290
     0
  0
SCALE
  5
66
102
{ACAD_REACTORS
330
47
102
}
330
47
100
AcDbScale
 70
     0
300
3" = 1'-0"
140
3.0
141
12.0
290
     0
  0
SCALE
  5
67
102
{ACAD_REACTORS
330
47
102
}
330
47
100
AcDbScale
 70
     0
300
6" = 1'-0"
140
6.0
141
12.0
290
     0
  0
SCALE
  5
68
102
{ACAD_REACTORS
330
47
102
}
330
47
100
AcDbScale
 70
     0
300
1'-0" = 1'-0"
140
12.0
141
12.0
290
     0
  0
ENDSEC
  0
EOF
