  0
SECTION
  2
HEADER
  9
$ACADVER
  1
AC1015
  9
$ACADMAINTVER
 70
     6
  9
$DWGCODEPAGE
  3
ANSI_949
  9
$INSBASE
 10
0.0
 20
0.0
 30
0.0
  9
$EXTMIN
 10
-50.00000000000002
 20
-35.68402299379932
 30
0.0
  9
$EXTMAX
 10
74.96667499669128
 20
59.93609778227561
 30
0.0
  9
$LIMMIN
 10
0.0
 20
0.0
  9
$LIMMAX
 10
420.0
 20
297.0
  9
$ORTHOMODE
 70
     0
  9
$REGENMODE
 70
     1
  9
$FILLMODE
 70
     1
  9
$QTEXTMODE
 70
     0
  9
$MIRRTEXT
 70
     1
  9
$LTSCALE
 40
1.0
  9
$ATTMODE
 70
     1
  9
$TEXTSIZE
 40
3.5
  9
$TRACEWID
 40
1.0
  9
$TEXTSTYLE
  7
Standard
  9
$CLAYER
  8
0
  9
$CELTYPE
  6
ByLayer
  9
$CECOLOR
 62
   256
  9
$CELTSCALE
 40
1.0
  9
$DISPSILH
 70
     0
  9
$DIMSCALE
 40
1.0
  9
$DIMASZ
 40
3.302
  9
$DIMEXO
 40
1.0
  9
$DIMDLI
 40
3.75
  9
$DIMRND
 40
0.0
  9
$DIMDLE
 40
0.0
  9
$DIMEXE
 40
1.0
  9
$DIMTP
 40
0.0
  9
$DIMTM
 40
0.0
  9
$DIMTXT
 40
3.5
  9
$DIMCEN
 40
2.5
  9
$DIMTSZ
 40
0.0
  9
$DIMTOL
 70
     0
  9
$DIMLIM
 70
     0
  9
$DIMTIH
 70
     1
  9
$DIMTOH
 70
     1
  9
$DIMSE1
 70
     0
  9
$DIMSE2
 70
     0
  9
$DIMTAD
 70
     1
  9
$DIMZIN
 70
     0
  9
$DIMBLK
  1

  9
$DIMASO
 70
     1
  9
$DIMSHO
 70
     1
  9
$DIMPOST
  1

  9
$DIMAPOST
  1

  9
$DIMALT
 70
     0
  9
$DIMALTD
 70
     3
  9
$DIMALTF
 40
0.0393700787401575
  9
$DIMLFAC
 40
1.0
  9
$DIMTOFL
 70
     1
  9
$DIMTVP
 40
0.0
  9
$DIMTIX
 70
     0
  9
$DIMSOXD
 70
     0
  9
$DIMSAH
 70
     0
  9
$DIMBLK1
  1

  9
$DIMBLK2
  1

  9
$DIMSTYLE
  2
ISO-25
  9
$DIMCLRD
 70
     0
  9
$DIMCLRE
 70
     0
  9
$DIMCLRT
 70
     0
  9
$DIMTFAC
 40
1.0
  9
$DIMGAP
 40
1.524
  9
$DIMJUST
 70
     0
  9
$DIMSD1
 70
     0
  9
$DIMSD2
 70
     0
  9
$DIMTOLJ
 70
     0
  9
$DIMTZIN
 70
     0
  9
$DIMALTZ
 70
     0
  9
$DIMALTTZ
 70
     0
  9
$DIMUPT
 70
     0
  9
$DIMDEC
 70
     2
  9
$DIMTDEC
 70
     2
  9
$DIMALTU
 70
     2
  9
$DIMALTTD
 70
     3
  9
$DIMTXSTY
  7
Standard
  9
$DIMAUNIT
 70
     0
  9
$DIMADEC
 70
     2
  9
$DIMALTRND
 40
0.0
  9
$DIMAZIN
 70
     0
  9
$DIMDSEP
 70
    44
  9
$DIMATFIT
 70
     3
  9
$DIMFRAC
 70
     0
  9
$DIMLDRBLK
  1

  9
$DIMLUNIT
 70
     2
  9
$DIMLWD
 70
    -2
  9
$DIMLWE
 70
    -2
  9
$DIMTMOVE
 70
     0
  9
$LUNITS
 70
     2
  9
$LUPREC
 70
     2
  9
$SKETCHINC
 40
1.0
  9
$FILLETRAD
 40
10.0
  9
$AUNITS
 70
     0
  9
$AUPREC
 70
     2
  9
$MENU
  1
.
  9
$ELEVATION
 40
0.0
  9
$PELEVATION
 40
0.0
  9
$THICKNESS
 40
0.0
  9
$LIMCHECK
 70
     0
  9
$CHAMFERA
 40
0.0
  9
$CHAMFERB
 40
0.0
  9
$CHAMFERC
 40
0.0
  9
$CHAMFERD
 40
0.0
  9
$SKPOLY
 70
     0
  9
$TDCREATE
 40
2458269.432506042
  9
$TDUCREATE
 40
2458269.057506042
  9
$TDUPDATE
 40
2458269.858262928
  9
$TDUUPDATE
 40
2458269.483262928
  9
$TDINDWG
 40
0.0023773032
  9
$TDUSRTIMER
 40
2458269.480885729
  9
$USRTIMER
 70
     1
  9
$ANGBASE
 50
0.0
  9
$ANGDIR
 70
     0
  9
$PDMODE
 70
     0
  9
$PDSIZE
 40
-1.0
  9
$PLINEWID
 40
0.0
  9
$SPLFRAME
 70
     0
  9
$SPLINETYPE
 70
     6
  9
$SPLINESEGS
 70
     8
  9
$HANDSEED
  5
163
  9
$SURFTAB1
 70
     6
  9
$SURFTAB2
 70
     6
  9
$SURFTYPE
 70
     6
  9
$SURFU
 70
     6
  9
$SURFV
 70
     6
  9
$UCSBASE
  2

  9
$UCSNAME
  2

  9
$UCSORG
 10
0.0
 20
0.0
 30
0.0
  9
$UCSXDIR
 10
1.0
 20
0.0
 30
0.0
  9
$UCSYDIR
 10
0.0
 20
1.0
 30
0.0
  9
$UCSORTHOREF
  2

  9
$UCSORTHOVIEW
 70
     0
  9
$UCSORGTOP
 10
0.0
 20
0.0
 30
0.0
  9
$UCSORGBOTTOM
 10
0.0
 20
0.0
 30
0.0
  9
$UCSORGLEFT
 10
0.0
 20
0.0
 30
0.0
  9
$UCSORGRIGHT
 10
0.0
 20
0.0
 30
0.0
  9
$UCSORGFRONT
 10
0.0
 20
0.0
 30
0.0
  9
$UCSORGBACK
 10
0.0
 20
0.0
 30
0.0
  9
$PUCSBASE
  2

  9
$PUCSNAME
  2

  9
$PUCSORG
 10
0.0
 20
0.0
 30
0.0
  9
$PUCSXDIR
 10
1.0
 20
0.0
 30
0.0
  9
$PUCSYDIR
 10
0.0
 20
1.0
 30
0.0
  9
$PUCSORTHOREF
  2

  9
$PUCSORTHOVIEW
 70
     0
  9
$PUCSORGTOP
 10
0.0
 20
0.0
 30
0.0
  9
$PUCSORGBOTTOM
 10
0.0
 20
0.0
 30
0.0
  9
$PUCSORGLEFT
 10
0.0
 20
0.0
 30
0.0
  9
$PUCSORGRIGHT
 10
0.0
 20
0.0
 30
0.0
  9
$PUCSORGFRONT
 10
0.0
 20
0.0
 30
0.0
  9
$PUCSORGBACK
 10
0.0
 20
0.0
 30
0.0
  9
$USERI1
 70
     0
  9
$USERI2
 70
     0
  9
$USERI3
 70
     0
  9
$USERI4
 70
     0
  9
$USERI5
 70
     0
  9
$USERR1
 40
0.0
  9
$USERR2
 40
0.0
  9
$USERR3
 40
0.0
  9
$USERR4
 40
0.0
  9
$USERR5
 40
0.0
  9
$WORLDVIEW
 70
     1
  9
$SHADEDGE
 70
     3
  9
$SHADEDIF
 70
    70
  9
$TILEMODE
 70
     1
  9
$MAXACTVP
 70
    64
  9
$PINSBASE
 10
0.0
 20
0.0
 30
0.0
  9
$PLIMCHECK
 70
     0
  9
$PEXTMIN
 10
1.000000000000000E+20
 20
1.000000000000000E+20
 30
1.000000000000000E+20
  9
$PEXTMAX
 10
-1.000000000000000E+20
 20
-1.000000000000000E+20
 30
-1.000000000000000E+20
  9
$PLIMMIN
 10
0.0
 20
0.0
  9
$PLIMMAX
 10
0.0
 20
0.0
  9
$UNITMODE
 70
     0
  9
$VISRETAIN
 70
     1
  9
$PLINEGEN
 70
     0
  9
$PSLTSCALE
 70
     1
  9
$TREEDEPTH
 70
  3020
  9
$CMLSTYLE
  2
Standard
  9
$CMLJUST
 70
     0
  9
$CMLSCALE
 40
20.0
  9
$PROXYGRAPHICS
 70
     1
  9
$MEASUREMENT
 70
     1
  9
$CELWEIGHT
370
    -1
  9
$ENDCAPS
280
     0
  9
$JOINSTYLE
280
     0
  9
$LWDISPLAY
290
     1
  9
$INSUNITS
 70
     4
  9
$HYPERLINKBASE
  1

  9
$STYLESHEET
  1

  9
$XEDIT
290
     1
  9
$CEPSNTYPE
380
     0
  9
$PSTYLEMODE
290
     1
  9
$FINGERPRINTGUID
  2
{48DEE8A3-FF1C-4B53-8ECF-61250EE9CE7D}
  9
$VERSIONGUID
  2
{FAEB1C32-E019-11D5-929B-00C0DF256EC4}
  9
$EXTNAMES
290
     1
  9
$PSVPSCALE
 40
0.0
  9
$OLESTARTUP
290
     0
  0
ENDSEC
  0
SECTION
  2
CLASSES
  0
CLASS
  1
ACDBDICTIONARYWDFLT
  2
AcDbDictionaryWithDefault
  3
ObjectDBX Classes
 90
        0
280
     0
281
     0
  0
CLASS
  1
VISUALSTYLE
  2
AcDbVisualStyle
  3
ObjectDBX Classes
 90
     4095
280
     0
281
     0
  0
CLASS
  1
MATERIAL
  2
AcDbMaterial
  3
ObjectDBX Classes
 90
     1153
280
     0
281
     0
  0
CLASS
  1
SCALE
  2
AcDbScale
  3
ObjectDBX Classes
 90
     1153
280
     0
281
     0
  0
CLASS
  1
SUN
  2
AcDbSun
  3
SCENEOE
 90
     1153
280
     0
281
     0
  0
CLASS
  1
ACDBPLACEHOLDER
  2
AcDbPlaceHolder
  3
ObjectDBX Classes
 90
        0
280
     0
281
     0
  0
CLASS
  1
LAYOUT
  2
AcDbLayout
  3
ObjectDBX Classes
 90
        0
280
     0
281
     0
  0
CLASS
  1
TABLESTYLE
  2
AcDbTableStyle
  3
ObjectDBX Classes
 90
     4095
280
     0
281
     0
  0
CLASS
  1
MLEADERSTYLE
  2
AcDbMLeaderStyle
  3
ACDB_MLEADERSTYLE_CLASS
 90
     4095
280
     0
281
     0
  0
CLASS
  1
RASTERVARIABLES
  2
AcDbRasterVariables
  3
ISM
 90
        0
280
     0
281
     0
  0
CLASS
  1
DIMASSOC
  2
AcDbDimAssoc
  3
"AcDbDimAssoc|Product Desc:     AcDim ARX App For Dimension|Company:          Autodesk, Inc.|WEB Address:      www.autodesk.com"
 90
        0
280
     0
281
     0
  0
ENDSEC
  0
SECTION
  2
TABLES
  0
TABLE
  2
VPORT
  5
8
330
0
100
AcDbSymbolTable
 70
     1
  0
VPORT
  5
29
330
8
100
AcDbSymbolTableRecord
100
AcDbViewportTableRecord
  2
*Active
 70
     0
 10
0.0
 20
0.0
 11
1.0
 21
1.0
 12
35.8737177437156
 22
3.990591990042091
 13
0.0
 23
0.0
 14
10.0
 24
10.0
 15
10.0
 25
10.0
 16
0.0
 26
0.0
 36
1.0
 17
0.0
 27
0.0
 37
0.0
 40
120.8302758998847
 41
1.970186335403727
 42
50.0
 43
0.0
 44
0.0
 50
0.0
 51
0.0
 71
    16
 72
  2000
 73
     1
 74
     3
 75
     0
 76
     0
 77
     0
 78
     0
281
     0
 65
     1
110
0.0
120
0.0
130
0.0
111
1.0
121
0.0
131
0.0
112
0.0
122
1.0
132
0.0
 79
     0
146
0.0
  0
ENDTAB
  0
TABLE
  2
LTYPE
  5
5
330
0
100
AcDbSymbolTable
 70
     6
  0
LTYPE
  5
14
330
5
100
AcDbSymbolTableRecord
100
AcDbLinetypeTableRecord
  2
ByBlock
 70
     0
  3

 72
    65
 73
     0
 40
0.0
  0
LTYPE
  5
15
330
5
100
AcDbSymbolTableRecord
100
AcDbLinetypeTableRecord
  2
ByLayer
 70
     0
  3

 72
    65
 73
     0
 40
0.0
  0
LTYPE
  5
16
330
5
100
AcDbSymbolTableRecord
100
AcDbLinetypeTableRecord
  2
Continuous
 70
     0
  3
Solid line
 72
    65
 73
     0
 40
0.0
  0
LTYPE
  5
6A
330
5
100
AcDbSymbolTableRecord
100
AcDbLinetypeTableRecord
  2
HIDDEN
 70
     0
  3
Hidden __ __ __ __ __ __ __ __ __ __ __ __ __ __
 72
    65
 73
     2
 40
1.905
 49
1.27
 74
     0
 49
-0.635
 74
     0
  0
LTYPE
  5
6B
330
5
100
AcDbSymbolTableRecord
100
AcDbLinetypeTableRecord
  2
PHANTOM
 70
     0
  3
Phantom ______  __  __  ______  __  __  ______
 72
    65
 73
     6
 40
12.7
 49
6.35
 74
     0
 49
-1.27
 74
     0
 49
1.27
 74
     0
 49
-1.27
 74
     0
 49
1.27
 74
     0
 49
-1.27
 74
     0
  0
LTYPE
  5
6C
330
5
100
AcDbSymbolTableRecord
100
AcDbLinetypeTableRecord
  2
CENTER
 70
     0
  3
Center ____ _ ____ _ ____ _ ____ _ ____ _ ____
 72
    65
 73
     4
 40
10.16
 49
6.35
 74
     0
 49
-1.27
 74
     0
 49
1.27
 74
     0
 49
-1.27
 74
     0
  0
LTYPE
  5
6D
330
5
100
AcDbSymbolTableRecord
100
AcDbLinetypeTableRecord
  2
CENTERX2
 70
     0
  3
Center (2x) ________  __  ________  __  _____
 72
    65
 73
     4
 40
20.32
 49
12.7
 74
     0
 49
-2.54
 74
     0
 49
2.54
 74
     0
 49
-2.54
 74
     0
  0
LTYPE
  5
6E
330
5
100
AcDbSymbolTableRecord
100
AcDbLinetypeTableRecord
  2
DOT2
 70
     0
  3
Dot (.5x) ........................................
 72
    65
 73
     2
 40
0.635
 49
0.0
 74
     0
 49
-0.635
 74
     0
  0
ENDTAB
  0
TABLE
  2
LAYER
  5
2
330
0
100
AcDbSymbolTable
 70
    17
  0
LAYER
  5
10
330
2
100
AcDbSymbolTableRecord
100
AcDbLayerTableRecord
  2
0
 70
     0
 62
     7
  6
Continuous
370
    -3
390
F
  0
LAYER
  5
6F
330
2
100
AcDbSymbolTableRecord
100
AcDbLayerTableRecord
  2
FORMAT
 70
     0
 62
     2
  6
Continuous
370
    -3
390
F
  0
LAYER
  5
70
330
2
100
AcDbSymbolTableRecord
100
AcDbLayerTableRecord
  2
외형선
 70
     0
 62
   100
  6
Continuous
370
    30
390
F
  0
LAYER
  5
71
330
2
100
AcDbSymbolTableRecord
100
AcDbLayerTableRecord
  2
숨은선
 70
     0
 62
     2
  6
HIDDEN
370
    15
390
F
  0
LAYER
  5
72
330
2
100
AcDbSymbolTableRecord
100
AcDbLayerTableRecord
  2
중심선
 70
     0
 62
     1
  6
CENTERX2
370
    -3
390
F
  0
LAYER
  5
73
330
2
100
AcDbSymbolTableRecord
100
AcDbLayerTableRecord
  2
파단선
 70
     0
 62
     4
  6
Continuous
370
    -3
390
F
  0
LAYER
  5
74
330
2
100
AcDbSymbolTableRecord
100
AcDbLayerTableRecord
  2
해칭선
 70
     0
 62
     4
  6
Continuous
370
    -3
390
F
  0
LAYER
  5
75
330
2
100
AcDbSymbolTableRecord
100
AcDbLayerTableRecord
  2
가는실선
 70
     0
 62
     4
  6
Continuous
370
    -3
390
F
  0
LAYER
  5
76
330
2
100
AcDbSymbolTableRecord
100
AcDbLayerTableRecord
  2
치수_보조선
 70
     0
 62
     4
  6
Continuous
370
    -3
390
F
  0
LAYER
  5
77
330
2
100
AcDbSymbolTableRecord
100
AcDbLayerTableRecord
  2
치수문자_일반주서
 70
     0
 62
     7
  6
Continuous
370
    15
390
F
  0
LAYER
  5
78
330
2
100
AcDbSymbolTableRecord
100
AcDbLayerTableRecord
  2
개별주서
 70
     0
 62
   100
  6
Continuous
370
    30
390
F
  0
LAYER
  5
79
330
2
100
AcDbSymbolTableRecord
100
AcDbLayerTableRecord
  2
중간선
 70
     0
 62
     2
  6
Continuous
370
    15
390
F
  0
LAYER
  5
7A
330
2
100
AcDbSymbolTableRecord
100
AcDbLayerTableRecord
  2
윤곽선
 70
     0
 62
     3
  6
Continuous
370
    40
390
F
  0
LAYER
  5
7B
330
2
100
AcDbSymbolTableRecord
100
AcDbLayerTableRecord
  2
중심마크
 70
     0
 62
   100
  6
Continuous
370
    30
390
F
  0
LAYER
  5
7C
330
2
100
AcDbSymbolTableRecord
100
AcDbLayerTableRecord
  2
가상선
 70
     0
 62
     4
  6
PHANTOM
370
    -3
390
F
  0
LAYER
  5
7D
330
2
100
AcDbSymbolTableRecord
100
AcDbLayerTableRecord
  2
특수지정선
 70
     0
 62
     5
  6
CENTERX2
370
    60
390
F
  0
LAYER
  5
139
330
2
100
AcDbSymbolTableRecord
100
AcDbLayerTableRecord
  2
Defpoints
 70
     0
 62
     7
  6
Continuous
290
     0
370
    -3
390
F
  0
ENDTAB
  0
TABLE
  2
STYLE
  5
3
330
0
100
AcDbSymbolTable
 70
     2
  0
STYLE
  5
11
330
3
100
AcDbSymbolTableRecord
100
AcDbTextStyleTableRecord
  2
Standard
 70
     0
 40
0.0
 41
1.0
 50
0.0
 71
     0
 42
3.5
  3
txt
  4

  0
STYLE
  5
93
330
3
100
AcDbSymbolTableRecord
100
AcDbTextStyleTableRecord
  2
SLDTEXTSTYLE0
 70
     0
 40
0.0
 41
0.75
 50
0.0
 71
     0
 42
3.5
  3
TXT
  4

  0
ENDTAB
  0
TABLE
  2
VIEW
  5
6
330
0
100
AcDbSymbolTable
 70
     0
  0
ENDTAB
  0
TABLE
  2
UCS
  5
7
330
0
100
AcDbSymbolTable
 70
     0
  0
ENDTAB
  0
TABLE
  2
APPID
  5
9
330
0
100
AcDbSymbolTable
 70
     3
  0
APPID
  5
12
330
9
100
AcDbSymbolTableRecord
100
AcDbRegAppTableRecord
  2
ACAD
 70
     0
  0
APPID
  5
151
330
9
100
AcDbSymbolTableRecord
100
AcDbRegAppTableRecord
  2
ACAD_DSTYLE_DIMRADIAL_EXTENSION
 70
     0
  0
APPID
  5
15F
330
9
100
AcDbSymbolTableRecord
100
AcDbRegAppTableRecord
  2
PE_DIMMEASUREMENT
 70
     0
  0
ENDTAB
  0
TABLE
  2
DIMSTYLE
  5
A
330
0
100
AcDbSymbolTable
 70
     4
100
AcDbDimStyleTable
  0
DIMSTYLE
105
27
330
A
100
AcDbSymbolTableRecord
100
AcDbDimStyleTableRecord
  2
ISO-25
 70
     0
 41
2.5
 42
0.625
 43
3.75
 44
1.25
 73
     0
 74
     0
 77
     1
 78
     8
140
2.5
141
2.5
143
0.03937007874016
147
0.625
171
     3
172
     1
178
     0
271
     2
272
     2
274
     3
278
    44
283
     0
284
     8
340
11
  0
DIMSTYLE
105
D2
330
A
100
AcDbSymbolTableRecord
100
AcDbDimStyleTableRecord
  2
SLDDIMSTYLE0
 70
     0
 41
3.302
 44
0.0
 45
0.000000001
 73
     0
 74
     0
 77
     1
 78
    12
 79
     3
140
3.5
143
0.0393700787401575
147
0.875
148
0.000000001
170
     1
173
     1
178
     0
271
     2
272
     2
276
     2
284
    12
340
93
  0
DIMSTYLE
105
E6
102
{ACAD_REACTORS
330
E5
330
D1
102
}
330
A
100
AcDbSymbolTableRecord
100
AcDbDimStyleTableRecord
  2
SLDDIMSTYLE1
 70
     0
 41
3.302
 44
0.0
 45
0.000000001
 73
     0
 74
     0
 77
     1
 78
     4
 79
     1
140
3.5
143
0.0393700787401575
147
0.875
148
0.000000001
170
     1
173
     1
178
     0
271
     2
272
     2
276
     2
284
    12
340
93
  0
DIMSTYLE
105
FA
102
{ACAD_REACTORS
330
F9
330
152
330
140
102
}
330
A
100
AcDbSymbolTableRecord
100
AcDbDimStyleTableRecord
  2
SLDDIMSTYLE2
 70
     0
 41
3.302
 44
0.0
 45
0.000000001
 73
     0
 74
     0
 77
     1
 78
    12
 79
     3
140
3.5
143
0.0393700787401575
147
0.875
148
0.000000001
170
     1
172
     1
173
     1
178
     0
271
     2
272
     2
276
     2
284
    12
289
     0
340
93
  0
ENDTAB
  0
TABLE
  2
BLOCK_RECORD
  5
1
330
0
100
AcDbSymbolTable
 70
     8
  0
BLOCK_RECORD
  5
1F
330
1
100
AcDbSymbolTableRecord
100
AcDbBlockTableRecord
  2
*Model_Space
340
22
  0
BLOCK_RECORD
  5
1B
330
1
100
AcDbSymbolTableRecord
100
AcDbBlockTableRecord
  2
*Paper_Space
340
1E
  0
BLOCK_RECORD
  5
23
330
1
100
AcDbSymbolTableRecord
100
AcDbBlockTableRecord
  2
*Paper_Space0
340
26
  0
BLOCK_RECORD
  5
7E
330
1
100
AcDbSymbolTableRecord
100
AcDbBlockTableRecord
  2
블럭10
340
0
102
{BLKREFS
331
C9
102
}
  0
BLOCK_RECORD
  5
D3
330
1
100
AcDbSymbolTableRecord
100
AcDbBlockTableRecord
  2
_D
340
0
  0
BLOCK_RECORD
  5
E7
330
1
100
AcDbSymbolTableRecord
100
AcDbBlockTableRecord
  2
_D_1
340
0
  0
BLOCK_RECORD
  5
FB
330
1
100
AcDbSymbolTableRecord
100
AcDbBlockTableRecord
  2
_D_2
340
0
  0
BLOCK_RECORD
  5
10E
330
1
100
AcDbSymbolTableRecord
100
AcDbBlockTableRecord
  2
SW_DOWELSYMBOL_0
340
0
102
{BLKREFS
331
114
102
}
  0
BLOCK_RECORD
  5
143
330
1
100
AcDbSymbolTableRecord
100
AcDbBlockTableRecord
  2
*D6
340
0
  0
BLOCK_RECORD
  5
155
330
1
100
AcDbSymbolTableRecord
100
AcDbBlockTableRecord
  2
*D7
340
0
  0
ENDTAB
  0
ENDSEC
  0
SECTION
  2
BLOCKS
  0
BLOCK
  5
20
330
1F
100
AcDbEntity
  8
0
100
AcDbBlockBegin
  2
*Model_Space
 70
     0
 10
0.0
 20
0.0
 30
0.0
  3
*Model_Space
  1
*Model_Space
  0
ENDBLK
  5
21
330
1F
100
AcDbEntity
  8
0
100
AcDbBlockEnd
  0
BLOCK
  5
1C
330
1B
100
AcDbEntity
 67
     1
  8
0
100
AcDbBlockBegin
  2
*Paper_Space
 70
     0
 10
0.0
 20
0.0
 30
0.0
  3
*Paper_Space
  1
*Paper_Space
  0
ENDBLK
  5
1D
330
1B
100
AcDbEntity
 67
     1
  8
0
100
AcDbBlockEnd
  0
BLOCK
  5
24
330
23
100
AcDbEntity
  8
0
100
AcDbBlockBegin
  2
*Paper_Space0
 70
     0
 10
0.0
 20
0.0
 30
0.0
  3
*Paper_Space0
  1
*Paper_Space0
  0
ENDBLK
  5
25
330
23
100
AcDbEntity
  8
0
100
AcDbBlockEnd
  0
BLOCK
  5
7F
330
7E
100
AcDbEntity
  8
0
100
AcDbBlockBegin
  2
블럭10
 70
     2
 10
0.0
 20
0.0
 30
0.0
  3
블럭10
  1
블럭10
  0
ELLIPSE
  5
81
330
7E
100
AcDbEntity
  8
중심선
100
AcDbEllipse
 10
20.54032771741204
 20
12.0471743016438
 30
0.0
 11
6.600054785286829
 21
-1.261213355974178E-13
 31
0.0
210
0.0
220
0.0
230
1.0
 40
0.636358354079598
 41
0.9219305317359503
 42
6.513795318482858
  0
ELLIPSE
  5
82
330
7E
100
AcDbEntity
  8
중심선
100
AcDbEllipse
 10
20.54032771746488
 20
12.04717430159265
 30
0.0
 11
3.960054785062283
 21
1.540847449632565E-10
 31
0.0
210
0.0
220
0.0
230
1.0
 40
0.3939339440162632
 41
1.131841032648279
 42
5.62031148352944
  0
LINE
  5
83
330
7E
100
AcDbEntity
  8
중심선
100
AcDbLine
 10
2.268634060543552
 20
16.24717430164393
 30
0.0
 11
5.714909304380834
 21
16.24717430164393
 31
0.0
  0
LINE
  5
84
330
7E
100
AcDbEntity
  8
중심선
100
AcDbLine
 10
5.245725140726316
 20
7.84717430164391
 30
0.0
 11
8.692000384563599
 21
7.84717430164391
 31
0.0
  0
LINE
  5
85
330
7E
100
AcDbEntity
  8
중심선
100
AcDbLine
 10
15.74043728645272
 20
16.24717430164393
 30
0.0
 11
8.692000384563599
 21
7.84717430164391
 31
0.0
  0
LINE
  5
86
330
7E
100
AcDbEntity
  8
중심선
100
AcDbLine
 10
0.1404042013395286
 20
13.71084872107135
 30
0.0
 11
3.58671253028996
 21
13.71088815037384
 31
0.0
  0
LINE
  5
87
330
7E
100
AcDbEntity
  8
중심선
100
AcDbLine
 10
2.750260043222114
 20
10.84717430164391
 30
0.0
 11
6.196535287059397
 21
10.84717430164391
 31
0.0
  0
LINE
  5
88
330
7E
100
AcDbEntity
  8
중심선
100
AcDbLine
 10
12.29416204261559
 20
16.24717430164393
 30
0.0
 11
5.245725140726316
 21
7.84717430164391
 31
0.0
  0
LINE
  5
89
330
7E
100
AcDbEntity
  8
중심선
100
AcDbLine
 10
10.72767329541681
 20
16.24717430164393
 30
0.0
 11
6.196535287059397
 21
10.84717430164391
 31
0.0
  0
LINE
  5
8A
330
7E
100
AcDbEntity
  8
중심선
100
AcDbLine
 10
7.28139805157953
 20
16.24717430164393
 30
0.0
 11
2.750260043222114
 21
10.84717430164391
 31
0.0
  0
LINE
  5
8B
330
7E
100
AcDbEntity
  8
중심선
100
AcDbLine
 10
5.714909304380834
 20
16.24717430164393
 30
0.0
 11
3.58671253028996
 21
13.71088815037384
 31
0.0
  0
LINE
  5
8C
330
7E
100
AcDbEntity
  8
중심선
100
AcDbLine
 10
2.268634060543552
 20
16.24717430164393
 30
0.0
 11
0.1404042013395286
 21
13.71084872107135
 31
0.0
  0
LINE
  5
8D
330
7E
100
AcDbEntity
  8
중심선
100
AcDbLine
 10
7.28139805157953
 20
16.24717430164393
 30
0.0
 11
10.72767329541681
 21
16.24717430164393
 31
0.0
  0
LINE
  5
8E
330
7E
100
AcDbEntity
  8
중심선
100
AcDbLine
 10
12.29416204261559
 20
16.24717430164393
 30
0.0
 11
15.74043728645272
 21
16.24717430164393
 31
0.0
  0
LINE
  5
8F
330
7E
100
AcDbEntity
  8
중심선
100
AcDbLine
 10
19.22036997980202
 20
11.08717430171403
 30
0.0
 11
23.66174974927406
 21
11.08717430171406
 31
0.0
  0
LINE
  5
90
330
7E
100
AcDbEntity
  8
중심선
100
AcDbLine
 10
19.22039502424796
 20
13.00717430171391
 30
0.0
 11
19.22036997980202
 21
11.08717430171403
 31
0.0
  0
LINE
  5
91
330
7E
100
AcDbEntity
  8
중심선
100
AcDbLine
 10
19.22039502424796
 20
13.00717430171391
 30
0.0
 11
26.96566020931264
 21
13.00717430171391
 31
0.0
  0
LINE
  5
92
330
7E
100
AcDbEntity
  8
중심선
100
AcDbLine
 10
22.22332737316547
 20
13.45928029700563
 30
0.0
 11
24.52862924686651
 21
15.39360700705356
 31
0.0
  0
ATTDEF
  5
94
330
7E
100
AcDbEntity
  8
FORMAT
 62
     2
100
AcDbText
 10
-9.18129528874128
 20
2.075366912832191
 30
0.0
 40
4.233333333333333
  1
E5983902 [ 3 FLUTE ]
 41
0.75
  7
SLDTEXTSTYLE0
 11
-9.18129528874128
 21
-0.0412997538344756
 31
0.0
100
AcDbAttributeDefinition
  3

  2
AUTOATTR0
 70
     0
 74
     1
  0
ENDBLK
  5
80
330
7E
100
AcDbEntity
  8
0
100
AcDbBlockEnd
  0
BLOCK
  5
D4
330
D3
100
AcDbEntity
  8
0
100
AcDbBlockBegin
  2
_D
 70
     0
 10
0.0
 20
0.0
 30
0.0
  3
_D
  1
_D
  0
LINE
  5
D6
330
D3
100
AcDbEntity
  8
치수문자_일반주서
 62
     0
370
    -2
100
AcDbLine
 10
53.27500000000009
 20
8.000000000000002
 30
0.0
 11
53.27500000000009
 21
25.18392871963103
 31
0.0
  0
LINE
  5
D7
330
D3
100
AcDbEntity
  8
치수문자_일반주서
 62
     0
370
    -2
100
AcDbLine
 10
12.00000000000009
 20
8.000000000000002
 30
0.0
 11
12.00000000000009
 21
25.18392871963103
 31
0.0
  0
LINE
  5
D8
330
D3
100
AcDbEntity
  8
치수문자_일반주서
 62
     0
370
    -2
100
AcDbLine
 10
49.97300000000009
 20
25.18392871963103
 30
0.0
 11
15.30200000000008
 21
25.18392871963103
 31
0.0
  0
SOLID
  5
D9
330
D3
100
AcDbEntity
  8
치수문자_일반주서
 62
     0
100
AcDbTrace
 10
49.97300000000009
 20
24.63359538629769
 30
0.0
 11
49.97300000000009
 21
25.73426205296436
 31
0.0
 12
53.27500000000009
 22
25.18392871963103
 32
0.0
 13
53.27500000000009
 23
25.18392871963103
 33
0.0
  0
SOLID
  5
DA
330
D3
100
AcDbEntity
  8
치수문자_일반주서
 62
     0
100
AcDbTrace
 10
15.30200000000008
 20
25.73426205296436
 30
0.0
 11
15.30200000000008
 21
24.63359538629769
 31
0.0
 12
12.00000000000009
 22
25.18392871963103
 32
0.0
 13
12.00000000000009
 23
25.18392871963103
 33
0.0
  0
MTEXT
  5
DB
330
D3
100
AcDbEntity
  8
치수문자_일반주서
 62
     0
100
AcDbMText
 10
32.63750000000009
 20
29.55892871963103
 30
0.0
 40
3.5
 41
0.0
 71
     2
 72
     1
  1
\A1;41.28 [1 5/8]
  7
SLDTEXTSTYLE0
 73
     1
 44
1.0
  0
POINT
  5
DC
330
D3
100
AcDbEntity
  8
Defpoints
 62
     0
100
AcDbPoint
 10
53.27500000000009
 20
7.937500000000002
 30
0.0
  0
POINT
  5
DD
330
D3
100
AcDbEntity
  8
Defpoints
 62
     0
100
AcDbPoint
 10
12.00000000000009
 20
7.937500000000002
 30
0.0
  0
POINT
  5
DE
330
D3
100
AcDbEntity
  8
Defpoints
 62
     0
100
AcDbPoint
 10
12.00000000000009
 20
25.18392871963103
 30
0.0
  0
ENDBLK
  5
D5
330
D3
100
AcDbEntity
  8
0
100
AcDbBlockEnd
  0
BLOCK
  5
E8
330
E7
100
AcDbEntity
  8
0
100
AcDbBlockBegin
  2
_D_1
 70
     0
 10
0.0
 20
0.0
 30
0.0
  3
_D_1
  1
_D_1
  0
LINE
  5
EA
330
E7
100
AcDbEntity
  8
치수문자_일반주서
 62
     0
370
    -2
100
AcDbLine
 10
53.27500000000009
 20
8.000000000000002
 30
0.0
 11
53.27500000000009
 21
55.56109778227561
 31
0.0
  0
LINE
  5
EB
330
E7
100
AcDbEntity
  8
치수문자_일반주서
 62
     0
370
    -2
100
AcDbLine
 10
-35.62499999999991
 20
7.499999999999999
 30
0.0
 11
-35.62499999999991
 21
55.56109778227561
 31
0.0
  0
LINE
  5
EC
330
E7
100
AcDbEntity
  8
치수문자_일반주서
 62
     0
370
    -2
100
AcDbLine
 10
49.97300000000009
 20
55.56109778227561
 30
0.0
 11
-32.32299999999992
 21
55.56109778227561
 31
0.0
  0
SOLID
  5
ED
330
E7
100
AcDbEntity
  8
치수문자_일반주서
 62
     0
100
AcDbTrace
 10
49.97300000000009
 20
55.01076444894228
 30
0.0
 11
49.97300000000009
 21
56.11143111560894
 31
0.0
 12
53.27500000000009
 22
55.56109778227561
 32
0.0
 13
53.27500000000009
 23
55.56109778227561
 33
0.0
  0
SOLID
  5
EE
330
E7
100
AcDbEntity
  8
치수문자_일반주서
 62
     0
100
AcDbTrace
 10
-32.32299999999992
 20
56.11143111560894
 30
0.0
 11
-32.32299999999992
 21
55.01076444894228
 31
0.0
 12
-35.62499999999991
 22
55.56109778227561
 32
0.0
 13
-35.62499999999991
 23
55.56109778227561
 33
0.0
  0
MTEXT
  5
EF
330
E7
100
AcDbEntity
  8
치수문자_일반주서
 62
     0
100
AcDbMText
 10
8.46999180628059
 20
59.93609778227561
 30
0.0
 40
3.5
 41
0.0
 71
     2
 72
     1
  1
\A1;88.90 [3 1/2]
  7
SLDTEXTSTYLE0
 73
     1
 44
1.0
  0
POINT
  5
F0
330
E7
100
AcDbEntity
  8
Defpoints
 62
     0
100
AcDbPoint
 10
53.27500000000009
 20
7.937500000000002
 30
0.0
  0
POINT
  5
F1
330
E7
100
AcDbEntity
  8
Defpoints
 62
     0
100
AcDbPoint
 10
-35.62499999999991
 20
7.437499999999999
 30
0.0
  0
POINT
  5
F2
330
E7
100
AcDbEntity
  8
Defpoints
 62
     0
100
AcDbPoint
 10
-35.62499999999991
 20
55.56109778227561
 30
0.0
  0
ENDBLK
  5
E9
330
E7
100
AcDbEntity
  8
0
100
AcDbBlockEnd
  0
BLOCK
  5
FC
330
FB
100
AcDbEntity
  8
0
100
AcDbBlockBegin
  2
_D_2
 70
     0
 10
0.0
 20
0.0
 30
0.0
  3
_D_2
  1
_D_2
  0
LINE
  5
FE
330
FB
100
AcDbEntity
  8
치수문자_일반주서
 62
     0
370
    -2
100
AcDbLine
 10
-35.18749999999991
 20
7.937500000000002
 30
0.0
 11
-45.62499999999991
 21
7.937499999999961
 31
0.0
  0
LINE
  5
FF
330
FB
100
AcDbEntity
  8
치수문자_일반주서
 62
     0
370
    -2
100
AcDbLine
 10
-35.18749999999991
 20
-7.937499999999999
 30
0.0
 11
-45.62499999999985
 21
-7.937500000000043
 31
0.0
  0
LINE
  5
100
330
FB
100
AcDbEntity
  8
치수문자_일반주서
 62
     0
370
    -2
100
AcDbLine
 10
-45.62499999999991
 20
7.937499999999961
 30
0.0
 11
-45.62500000000003
 21
42.76024999999996
 31
0.0
  0
LINE
  5
101
330
FB
100
AcDbEntity
  8
치수문자_일반주서
 62
     0
370
    -2
100
AcDbLine
 10
-45.62499999999991
 20
7.937499999999961
 30
0.0
 11
-45.62499999999985
 21
-7.937500000000043
 31
0.0
  0
LINE
  5
102
330
FB
100
AcDbEntity
  8
치수문자_일반주서
 62
     0
370
    -2
100
AcDbLine
 10
-45.62499999999992
 20
11.23949999999996
 30
0.0
 11
-45.62499999999994
 21
14.54149999999996
 31
0.0
  0
LINE
  5
103
330
FB
100
AcDbEntity
  8
치수문자_일반주서
 62
     0
370
    -2
100
AcDbLine
 10
-45.62499999999984
 20
-11.23950000000004
 30
0.0
 11
-45.62499999999982
 21
-14.54150000000004
 31
0.0
  0
SOLID
  5
104
330
FB
100
AcDbEntity
  8
치수문자_일반주서
 62
     0
100
AcDbTrace
 10
-46.17533333333326
 20
11.23949999999996
 30
0.0
 11
-45.07466666666659
 21
11.23949999999996
 31
0.0
 12
-45.62499999999991
 22
7.937499999999961
 32
0.0
 13
-45.62499999999991
 23
7.937499999999961
 33
0.0
  0
SOLID
  5
105
330
FB
100
AcDbEntity
  8
치수문자_일반주서
 62
     0
100
AcDbTrace
 10
-45.0746666666665
 20
-11.23950000000004
 30
0.0
 11
-46.17533333333317
 21
-11.23950000000004
 31
0.0
 12
-45.62499999999985
 22
-7.937500000000043
 32
0.0
 13
-45.62499999999985
 23
-7.937500000000043
 33
0.0
  0
MTEXT
  5
106
330
FB
100
AcDbEntity
  8
치수문자_일반주서
 62
     0
100
AcDbMText
 10
-49.99999999999998
 20
28.76024999999995
 30
0.0
 40
3.5
 41
0.0
 71
     2
 72
     1
  1
\A1;%%c15.88 [5/8]
  7
SLDTEXTSTYLE0
 11
-3.580687802255623E-15
 21
1.0
 31
0.0
 73
     1
 44
1.0
  0
POINT
  5
107
330
FB
100
AcDbEntity
  8
Defpoints
 62
     0
100
AcDbPoint
 10
-35.12499999999991
 20
7.937500000000002
 30
0.0
  0
POINT
  5
108
330
FB
100
AcDbEntity
  8
Defpoints
 62
     0
100
AcDbPoint
 10
-35.12499999999991
 20
-7.937499999999999
 30
0.0
  0
POINT
  5
109
330
FB
100
AcDbEntity
  8
Defpoints
 62
     0
100
AcDbPoint
 10
-45.62499999999985
 20
-7.937500000000038
 30
0.0
  0
ENDBLK
  5
FD
330
FB
100
AcDbEntity
  8
0
100
AcDbBlockEnd
  0
BLOCK
  5
10F
330
10E
100
AcDbEntity
  8
0
100
AcDbBlockBegin
  2
SW_DOWELSYMBOL_0
 70
     0
 10
0.0
 20
0.0
 30
0.0
  3
SW_DOWELSYMBOL_0
  1
SW_DOWELSYMBOL_0
  0
CIRCLE
  5
111
330
10E
100
AcDbEntity
  8
외형선
 62
     0
100
AcDbCircle
 10
0.0
 20
0.0
 30
0.0
 40
3.000000000000008
  0
HATCH
  5
112
330
10E
100
AcDbEntity
  8
0
  6
Continuous
 62
     0
370
    30
100
AcDbHatch
 10
0.0
 20
0.0
 30
0.0
210
0.0
220
0.0
230
1.0
  2
SOLID
 70
     1
 71
     0
 91
        1
 92
        0
 93
        3
 72
     2
 10
0.0000000000000069
 20
0.0
 40
3.000000000000008
 50
0.0
 51
90.0
 73
     1
 72
     1
 10
0.0000000000000069
 20
3.000000000000008
 11
0.0000000000000069
 21
0.0
 72
     1
 10
0.0000000000000069
 20
0.0
 11
3.000000000000015
 21
0.0
 97
        0
 75
     0
 76
     1
 98
        1
 10
0.0
 20
0.0
  0
HATCH
  5
113
330
10E
100
AcDbEntity
  8
0
  6
Continuous
 62
     0
370
    30
100
AcDbHatch
 10
0.0
 20
0.0
 30
0.0
210
0.0
220
0.0
230
1.0
  2
SOLID
 70
     1
 71
     0
 91
        1
 92
        0
 93
        3
 72
     2
 10
0.0000000000000069
 20
0.0
 40
3.000000000000008
 50
180.0
 51
270.0000000000008
 73
     1
 72
     1
 10
0.0000000000000069
 20
-3.000000000000008
 11
0.0000000000000069
 21
0.0
 72
     1
 10
0.0000000000000069
 20
0.0
 11
-3.000000000000001
 21
0.0
 97
        0
 75
     0
 76
     1
 98
        1
 10
0.0
 20
0.0
  0
ENDBLK
  5
110
330
10E
100
AcDbEntity
  8
0
100
AcDbBlockEnd
  0
BLOCK
  5
144
330
143
100
AcDbEntity
  8
0
100
AcDbBlockBegin
  2
*D6
 70
     1
 10
0.0
 20
0.0
 30
0.0
  3
*D6
  1
*D6
  0
LINE
  5
146
330
143
100
AcDbEntity
  8
치수문자_일반주서
 62
     0
370
    -2
100
AcDbLine
 10
53.33750000000009
 20
-7.937499999999999
 30
0.0
 11
62.91021257176804
 21
-7.937499999999999
 31
0.0
  0
LINE
  5
147
330
143
100
AcDbEntity
  8
치수문자_일반주서
 62
     0
370
    -2
100
AcDbLine
 10
53.33750000000009
 20
7.937500000000002
 30
0.0
 11
62.91021257176804
 21
7.937500000000001
 31
0.0
  0
LINE
  5
148
330
143
100
AcDbEntity
  8
치수문자_일반주서
 62
     0
370
    -2
100
AcDbLine
 10
62.91021257176804
 20
11.2395
 30
0.0
 11
62.91021257176804
 21
42.54149999999999
 31
0.0
  0
LINE
  5
149
330
143
100
AcDbEntity
  8
치수문자_일반주서
 62
     0
370
    -2
100
AcDbLine
 10
62.91021257176804
 20
-7.937499999999999
 30
0.0
 11
62.91021257176804
 21
7.937500000000001
 31
0.0
  0
LINE
  5
14A
330
143
100
AcDbEntity
  8
치수문자_일반주서
 62
     0
370
    -2
100
AcDbLine
 10
62.91021257176804
 20
-11.2395
 30
0.0
 11
62.91021257176804
 21
-14.5415
 31
0.0
  0
SOLID
  5
14B
330
143
100
AcDbEntity
  8
치수문자_일반주서
 62
     0
100
AcDbTrace
 10
63.46054590510137
 20
-11.2395
 30
0.0
 11
62.3598792384347
 21
-11.2395
 31
0.0
 12
62.91021257176804
 22
-7.937499999999999
 32
0.0
 13
62.91021257176804
 23
-7.937499999999999
 33
0.0
  0
SOLID
  5
14C
330
143
100
AcDbEntity
  8
치수문자_일반주서
 62
     0
100
AcDbTrace
 10
62.3598792384347
 20
11.2395
 30
0.0
 11
63.46054590510137
 21
11.2395
 31
0.0
 12
62.91021257176804
 22
7.937500000000001
 32
0.0
 13
62.91021257176804
 23
7.937500000000001
 33
0.0
  0
MTEXT
  5
14D
330
143
100
AcDbEntity
  8
치수문자_일반주서
 62
     0
100
AcDbMText
 10
60.28521257176804
 20
28.5415
 30
0.0
 40
3.5
 41
0.0
 71
     5
 72
     1
  1
\A1;{Ø15.88 [5/8]}
  7
SLDTEXTSTYLE0
 11
0.0
 21
1.0
 31
0.0
 73
     1
 44
1.0
  0
POINT
  5
14E
330
143
100
AcDbEntity
  8
Defpoints
 62
     0
100
AcDbPoint
 10
53.27500000000009
 20
-7.937499999999999
 30
0.0
  0
POINT
  5
14F
330
143
100
AcDbEntity
  8
Defpoints
 62
     0
100
AcDbPoint
 10
53.27500000000009
 20
7.937500000000002
 30
0.0
  0
POINT
  5
150
330
143
100
AcDbEntity
  8
Defpoints
 62
     0
100
AcDbPoint
 10
62.91021257176804
 20
7.937500000000001
 30
0.0
  0
ENDBLK
  5
145
330
143
100
AcDbEntity
  8
0
100
AcDbBlockEnd
  0
BLOCK
  5
156
330
155
100
AcDbEntity
  8
0
100
AcDbBlockBegin
  2
*D7
 70
     1
 10
0.0
 20
0.0
 30
0.0
  3
*D7
  1
*D7
  0
LINE
  5
158
330
155
100
AcDbEntity
  8
치수문자_일반주서
 62
     0
370
    -2
100
AcDbLine
 10
53.88078973189916
 20
-10.08298828775697
 30
0.0
 11
71.89195921030937
 21
-35.68402299379932
 31
0.0
  0
MTEXT
  5
159
330
155
100
AcDbEntity
  8
치수문자_일반주서
 62
     0
100
AcDbMText
 10
65.98327425106135
 20
-22.72338770642408
 30
0.0
 40
3.5
 41
0.0
 71
     5
 72
     1
  1
\A1;R3.05 [R0.12]
  7
SLDTEXTSTYLE0
 11
0.5753999577793817
 21
-0.8178721713003112
 31
0.0
 73
     1
 44
1.0
  0
LINE
  5
15A
330
155
100
AcDbEntity
  8
치수문자_일반주서
 62
     0
370
    -2
100
AcDbLine
 10
50.22700000000009
 20
-4.8895
 30
0.0
 11
51.98081907131164
 21
-7.382374378123346
 31
0.0
  0
SOLID
  5
15B
330
155
100
AcDbEntity
  8
치수문자_일반주서
 62
     0
100
AcDbTrace
 10
54.33089205017144
 20
-9.766326510992387
 30
0.0
 11
53.43068741362689
 21
-10.39965006452156
 31
0.0
 12
51.98081907131164
 22
-7.382374378123346
 32
0.0
 13
51.98081907131164
 23
-7.382374378123346
 33
0.0
  0
POINT
  5
15C
330
155
100
AcDbEntity
  8
Defpoints
 62
     0
100
AcDbPoint
 10
51.98081907131164
 20
-7.382374378123346
 30
0.0
  0
POINT
  5
15D
330
155
100
AcDbEntity
  8
Defpoints
 62
     0
100
AcDbPoint
 10
50.22700000000009
 20
-4.8895
 30
0.0
  0
ENDBLK
  5
157
330
155
100
AcDbEntity
  8
0
100
AcDbBlockEnd
  0
ENDSEC
  0
SECTION
  2
ENTITIES
  0
LINE
  5
95
330
1F
100
AcDbEntity
  8
0
  6
Continuous
 62
     4
370
    15
100
AcDbLine
 10
12.00000000000009
 20
7.937500000000002
 30
0.0
 11
-35.12499999999991
 21
7.937500000000002
 31
0.0
  0
LINE
  5
96
330
1F
100
AcDbEntity
  8
0
  6
Continuous
 62
     4
370
    15
100
AcDbLine
 10
-35.12499999999991
 20
-7.937499999999999
 30
0.0
 11
8.950215207092679
 21
-7.937499999999999
 31
0.0
  0
LINE
  5
97
330
1F
100
AcDbEntity
  8
0
  6
Continuous
 62
     4
370
    15
100
AcDbLine
 10
-35.12499999999991
 20
7.9375
 30
0.0
 11
-35.62499999999991
 21
7.437499999999999
 31
0.0
  0
LINE
  5
98
330
1F
100
AcDbEntity
  8
0
  6
Continuous
 62
     4
370
    15
100
AcDbLine
 10
-35.62499999999991
 20
-7.437499999999996
 30
0.0
 11
-35.12499999999991
 21
-7.937499999999997
 31
0.0
  0
LINE
  5
99
330
1F
100
AcDbEntity
  8
0
  6
Continuous
 62
     1
370
    15
100
AcDbLine
 10
41.58434699377053
 20
-7.937499999999999
 30
0.0
 11
48.42048341912633
 21
-7.937499999999999
 31
0.0
  0
LINE
  5
9A
330
1F
100
AcDbEntity
  8
0
  6
Continuous
 62
     1
370
    15
100
AcDbLine
 10
15.32858693381845
 20
7.937500000000002
 30
0.0
 11
12.00000000000009
 21
7.937500000000002
 31
0.0
  0
LINE
  5
9B
330
1F
100
AcDbEntity
  8
0
  6
Continuous
 62
     1
370
    15
100
AcDbLine
 10
37.39001496473468
 20
7.937500000000002
 30
0.0
 11
30.5539331442964
 21
7.937500000000002
 31
0.0
  0
LINE
  5
9C
330
1F
100
AcDbEntity
  8
0
  6
Continuous
 62
     1
370
    15
100
AcDbLine
 10
19.5235338580068
 20
-7.937499999999999
 30
0.0
 11
26.35942025437902
 21
-7.937499999999999
 31
0.0
  0
LWPOLYLINE
  5
9E
330
1F
100
AcDbEntity
  8
0
  6
Continuous
 62
     1
370
    15
100
AcDbPolyline
 90
        3
 70
   128
 43
0.0
 10
52.70370739078703
 20
6.666076623853119
 10
52.57888612761904
 20
6.828297473361659
 10
52.37684839424161
 20
7.050160982610916
  0
SPLINE
  5
9F
330
1F
100
AcDbEntity
  8
0
  6
Continuous
 62
     1
370
    15
100
AcDbSpline
210
0.0
220
0.0
230
1.0
 70
    24
 71
     3
 72
    12
 73
     8
 74
     0
 42
0.000000001
 43
0.00000001
 40
0.0
 40
0.0
 40
0.0
 40
0.0
 40
0.5000000000000003
 40
0.5000000000000003
 40
0.7500000000000001
 40
0.7500000000000001
 40
1.0
 40
1.0
 40
1.0
 40
1.0
 10
12.00000000000008
 20
7.437250978351742
 30
0.0
 10
12.00000000000008
 20
6.856823062751641
 30
0.0
 10
12.00000000000008
 20
6.268024400421162
 30
0.0
 10
12.00000000000008
 20
5.371309778232198
 30
0.0
 10
12.00000000000009
 20
5.068171306854785
 30
0.0
 10
12.00000000000008
 20
4.467652992326029
 30
0.0
 10
12.00000000000008
 20
4.170741138267823
 30
0.0
 10
12.00000000000008
 20
3.877460497346395
 30
0.0
  0
SPLINE
  5
A0
330
1F
100
AcDbEntity
  8
0
  6
Continuous
 62
     4
370
    15
100
AcDbSpline
210
0.0
220
0.0
230
1.0
 70
     8
 71
     3
 72
    14
 73
    10
 74
     0
 42
0.000000001
 43
0.00000001
 40
0.0
 40
0.0
 40
0.0
 40
0.0
 40
0.25
 40
0.25
 40
0.5
 40
0.5
 40
0.75
 40
0.75
 40
1.0
 40
1.0
 40
1.0
 40
1.0
 10
9.90676467513715
 20
-0.0712496289775629
 30
0.0
 10
9.752244472282925
 20
0.0450359298351033
 30
0.0
 10
9.615072935899136
 20
0.1777101434998676
 30
0.0
 10
9.374161607639632
 20
0.4745066370173612
 30
0.0
 10
9.27083720194663
 20
0.6395867561376727
 30
0.0
 10
9.108765674776578
 20
0.9830196028554223
 30
0.0
 10
9.047784165664535
 20
1.165649447317873
 30
0.0
 10
8.968689524005166
 20
1.535838215716409
 30
0.0
 10
8.950215207090423
 20
1.722340758258549
 30
0.0
 10
8.95021520709037
 20
1.909806400614706
 30
0.0
  0
SPLINE
  5
A1
330
1F
100
AcDbEntity
  8
0
  6
Continuous
 62
     4
370
    15
100
AcDbSpline
210
0.0
220
0.0
230
1.0
 70
     8
 71
     3
 72
    22
 73
    18
 74
     0
 42
0.000000001
 43
0.00000001
 40
0.0
 40
0.0
 40
0.0
 40
0.0
 40
0.125
 40
0.125
 40
0.25
 40
0.25
 40
0.375
 40
0.375
 40
0.5
 40
0.5
 40
0.625
 40
0.625
 40
0.75
 40
0.75
 40
0.875
 40
0.875
 40
1.0
 40
1.0
 40
1.0
 40
1.0
 10
8.950215207092679
 20
6.286684290315731
 30
0.0
 10
8.950215207092679
 20
6.402177489431112
 30
0.0
 10
8.967954260668915
 20
6.510448748960683
 30
0.0
 10
9.043176378234936
 20
6.713203346454136
 30
0.0
 10
9.101813887499304
 20
6.808421638840358
 30
0.0
 10
9.25704985176278
 20
6.976873889528989
 30
0.0
 10
9.353655758497695
 20
7.051401543924963
 30
0.0
 10
9.58750969960797
 20
7.183408883756886
 30
0.0
 10
9.719803517375212
 20
7.238175773604703
 30
0.0
 10
10.01425918518405
 20
7.330186287454005
 30
0.0
 10
10.17759737596968
 20
7.367311550813562
 30
0.0
 10
10.5178133886514
 20
7.423588127696513
 30
0.0
 10
10.69870942944921
 20
7.443563439003871
 30
0.0
 10
11.06820597322237
 20
7.467899007707863
 30
0.0
 10
11.25454462075654
 20
7.472336981617887
 30
0.0
 10
11.6304006417748
 20
7.466391611288271
 30
0.0
 10
11.81818239515123
 20
7.455882008176184
 30
0.0
 10
12.0
 20
7.437250978351279
 30
0.0
  0
SPLINE
  5
A2
330
1F
100
AcDbEntity
  8
0
  6
Continuous
 62
     4
370
    15
100
AcDbSpline
210
0.0
220
0.0
230
1.0
 70
     8
 71
     3
 72
    22
 73
    18
 74
     0
 42
0.000000001
 43
0.00000001
 40
0.0
 40
0.0
 40
0.0
 40
0.0
 40
0.125
 40
0.125
 40
0.25
 40
0.25
 40
0.375
 40
0.375
 40
0.5
 40
0.5
 40
0.625
 40
0.625
 40
0.75
 40
0.75
 40
0.875
 40
0.875
 40
1.0
 40
1.0
 40
1.0
 40
1.0
 10
8.950215207092679
 20
-7.339903852427619
 30
0.0
 10
8.950215207092679
 20
-7.267888995256484
 30
0.0
 10
8.967954260668904
 20
-7.190786728761066
 30
0.0
 10
9.043176378234929
 20
-7.027811807628551
 30
0.0
 10
9.101813887499302
 20
-6.940962018093771
 30
0.0
 10
9.25704985176278
 20
-6.769745524843144
 30
0.0
 10
9.353655758497695
 20
-6.684483011351277
 30
0.0
 10
9.587509699607972
 20
-6.518918243892331
 30
0.0
 10
9.71980351737521
 20
-6.442134998842195
 30
0.0
 10
10.01425918518405
 20
-6.304082180727916
 30
0.0
 10
10.17759737596968
 20
-6.242849318207496
 30
0.0
 10
10.5178133886514
 20
-6.145964494881919
 30
0.0
 10
10.69870942944921
 20
-6.109017685498708
 30
0.0
 10
11.06820597322237
 20
-6.063485158917369
 30
0.0
 10
11.25454462075654
 20
-6.054815209758108
 30
0.0
 10
11.6304006417748
 20
-6.066162760531747
 30
0.0
 10
11.81818239515123
 20
-6.086421424046113
 30
0.0
 10
12.0
 20
-6.120375497244648
 30
0.0
  0
LINE
  5
A3
330
1F
100
AcDbEntity
  8
0
  6
Continuous
 62
     4
370
    15
100
AcDbLine
 10
8.950215207092679
 20
-7.339903852427619
 30
0.0
 11
8.950215207092679
 21
-7.937499999999999
 31
0.0
  0
SPLINE
  5
A4
330
1F
100
AcDbEntity
  8
0
  6
Continuous
 62
     4
370
    15
100
AcDbSpline
210
0.0
220
0.0
230
1.0
 70
     8
 71
     3
 72
    14
 73
    10
 74
     0
 42
0.000000001
 43
0.00000001
 40
0.0
 40
0.0
 40
0.0
 40
0.0
 40
0.25
 40
0.25
 40
0.5
 40
0.5
 40
0.75
 40
0.75
 40
1.0
 40
1.0
 40
1.0
 40
1.0
 10
9.90676467513715
 20
-6.838174884751692
 30
0.0
 10
9.752244472282925
 20
-6.897221673215973
 30
0.0
 10
9.615072935899132
 20
-6.962412263766184
 30
0.0
 10
9.37416160763963
 20
-7.10024149654128
 30
0.0
 10
9.270837201946629
 20
-7.173148370221062
 30
0.0
 10
9.108765674776576
 20
-7.314304859739906
 30
0.0
 10
9.047784165664535
 20
-7.384319922666506
 30
0.0
 10
8.968689524005166
 20
-7.514050714120131
 30
0.0
 10
8.950215207090423
 20
-7.573551742921623
 30
0.0
 10
8.95021520709037
 20
-7.627039988595538
 30
0.0
  0
SPLINE
  5
A5
330
1F
100
AcDbEntity
  8
0
  6
Continuous
 62
     4
370
    15
100
AcDbSpline
210
0.0
220
0.0
230
1.0
 70
     8
 71
     3
 72
     9
 73
     5
 74
     0
 42
0.000000001
 43
0.00000001
 40
0.0
 40
0.0
 40
0.0
 40
0.0
 40
0.3969831460123615
 40
1.0
 40
1.0
 40
1.0
 40
1.0
 10
11.64521478581683
 20
-6.076500860545988
 30
0.0
 10
11.41534836403425
 20
-6.188561653933494
 30
0.0
 10
10.83631516302419
 20
-6.470842638688493
 30
0.0
 10
10.25643948325532
 20
-6.699993221322377
 30
0.0
 10
9.90676467513715
 20
-6.838174884751693
 30
0.0
  0
LINE
  5
A6
330
1F
100
AcDbEntity
  8
0
  6
Continuous
 62
     4
370
    15
100
AcDbLine
 10
12.00000000000009
 20
7.937500000000002
 30
0.0
 11
12.00000000000009
 21
7.437250978351585
 31
0.0
  0
LINE
  5
A7
330
1F
100
AcDbEntity
  8
0
  6
Continuous
 62
     4
370
    15
100
AcDbLine
 10
8.950215207092679
 20
6.286684290315728
 30
0.0
 11
8.950215207092679
 21
1.909806400615324
 31
0.0
  0
SPLINE
  5
A8
330
1F
100
AcDbEntity
  8
0
  6
Continuous
 62
     4
370
    15
100
AcDbSpline
210
0.0
220
0.0
230
1.0
 70
     8
 71
     3
 72
    10
 73
     6
 74
     0
 42
0.000000001
 43
0.00000001
 40
0.0
 40
0.0
 40
0.0
 40
0.0
 40
0.5
 40
0.5
 40
1.0
 40
1.0
 40
1.0
 40
1.0
 10
12.00000000000009
 20
-1.6368790084049
 30
0.0
 10
11.65064134256936
 20
-1.37950094658459
 30
0.0
 10
11.30419015175018
 20
-1.12014762631422
 30
0.0
 10
10.60677534726633
 20
-0.5974973319660292
 30
0.0
 10
10.25633906785816
 20
-0.3343249605735932
 30
0.0
 10
9.90676467513715
 20
-0.0712496289775623
 30
0.0
  0
LINE
  5
A9
330
1F
100
AcDbEntity
  8
0
  6
Continuous
 62
     4
370
    15
100
AcDbLine
 10
12.00000000000008
 20
-1.636879008404425
 30
0.0
 11
12.00000000000009
 21
-6.12037549724409
 31
0.0
  0
LINE
  5
AA
330
1F
100
AcDbEntity
  8
0
  6
Continuous
 62
     4
370
    15
100
AcDbLine
 10
-35.12499999999991
 20
7.937500000000002
 30
0.0
 11
-35.12499999999991
 21
-7.937499999999999
 31
0.0
  0
LINE
  5
AB
330
1F
100
AcDbEntity
  8
0
  6
Continuous
 62
     4
370
    15
100
AcDbLine
 10
-35.62499999999991
 20
7.437499999999992
 30
0.0
 11
-35.62499999999991
 21
-7.437499999999985
 31
0.0
  0
SPLINE
  5
AC
330
1F
100
AcDbEntity
  8
0
  6
Continuous
 62
     1
370
    15
100
AcDbSpline
210
0.0
220
0.0
230
1.0
 70
    24
 71
     3
 72
    14
 73
    10
 74
     0
 42
0.000000001
 43
0.00000001
 40
0.0
 40
0.0
 40
0.0
 40
0.0
 40
0.25
 40
0.25
 40
0.5
 40
0.5
 40
0.75
 40
0.75
 40
1.0
 40
1.0
 40
1.0
 40
1.0
 10
12.00000000000009
 20
3.877460497346397
 30
0.0
 10
12.00000000000009
 20
3.35290014567041
 30
0.0
 10
12.00000000000009
 20
2.810319277450696
 30
0.0
 10
12.00000000000009
 20
1.731623524306702
 30
0.0
 10
12.00000000000009
 20
1.195734544186513
 30
0.0
 10
12.00000000000009
 20
0.1923397725377105
 30
0.0
 10
12.00000000000008
 20
-0.2744933444935445
 30
0.0
 10
12.00000000000009
 20
-1.071544865409191
 30
0.0
 10
12.00000000000009
 20
-1.400913883197338
 30
0.0
 10
12.00000000000009
 20
-1.63687900840443
 30
0.0
  0
SPLINE
  5
AE
330
1F
100
AcDbEntity
  8
0
  6
Continuous
 62
     1
370
    15
100
AcDbSpline
210
0.0
220
0.0
230
1.0
 70
     8
 71
     3
 72
    29
 73
    25
 74
     0
 42
0.000000001
 43
0.00000001
 40
0.0
 40
0.0
 40
0.0
 40
0.0
 40
0.04602908048038
 40
0.0921078043825137
 40
0.1381267903818147
 40
0.184130213004949
 40
0.2301815294039108
 40
0.2755734379105096
 40
0.3209055650254198
 40
0.3662482422693962
 40
0.4116546036653732
 40
0.4570107091231198
 40
0.5023388285749305
 40
0.547710189858449
 40
0.5931076601924927
 40
0.6384420720475221
 40
0.6837812190873797
 40
0.7291851763261004
 40
0.7745467021796139
 40
0.8198744350571705
 40
0.8652396087948706
 40
0.9112969146702565
 40
0.9572923497784244
 40
1.0
 40
1.0
 40
1.0
 40
1.0
 10
50.22700000000009
 20
-7.937499999999999
 30
0.0
 10
49.69163102853907
 20
-7.937499999999999
 30
0.0
 10
48.62031567787032
 20
-7.937499999999999
 30
0.0
 10
47.0126114309639
 20
-7.895272546954804
 30
0.0
 10
45.40644978827658
 20
-7.645165519158344
 30
0.0
 10
43.80074579281161
 20
-7.213915819302029
 30
0.0
 10
42.20157788772216
 20
-6.619254160536197
 30
0.0
 10
40.60993257115887
 20
-5.876610814097309
 30
0.0
 10
39.02763237449153
 20
-5.004446370485678
 30
0.0
 10
37.44503709756063
 20
-4.019342799021786
 30
0.0
 10
35.86086720954925
 20
-2.944977347042813
 30
0.0
 10
34.27793507443472
 20
-1.803081611132038
 30
0.0
 10
32.695777782596
 20
-0.620321221327326
 30
0.0
 10
31.11246832871404
 20
0.5758994797420702
 30
0.0
 10
29.52851725835276
 20
1.758458051983686
 30
0.0
 10
27.94614785453786
 20
2.902663579350337
 30
0.0
 10
26.36364536520474
 20
3.981333674432868
 30
0.0
 10
24.77953477598137
 20
4.969000987830952
 30
0.0
 10
23.19646837560052
 20
5.845671911317215
 30
0.0
 10
21.61432464146191
 20
6.590373496702656
 30
0.0
 10
20.02354495478302
 20
7.190177653882226
 30
0.0
 10
18.42418311073086
 20
7.623636697228676
 30
0.0
 10
16.85701534883234
 20
7.891903056610147
 30
0.0
 10
15.82531641229882
 20
7.91856317756601
 30
0.0
 10
15.32858693381843
 20
7.931399158596605
 30
0.0
  0
SPLINE
  5
AF
330
1F
100
AcDbEntity
  8
0
  6
Continuous
 62
     1
370
    15
100
AcDbSpline
210
0.0
220
0.0
230
1.0
 70
     8
 71
     3
 72
    25
 73
    21
 74
     0
 42
0.000000001
 43
0.00000001
 40
0.0
 40
0.0
 40
0.0
 40
0.0
 40
0.0093878234085178
 40
0.0674032790715636
 40
0.1254730026654363
 40
0.1834598367808818
 40
0.2414406147970163
 40
0.2995020419166504
 40
0.3575300766749238
 40
0.4155028069758843
 40
0.4735113301840715
 40
0.5315841285924723
 40
0.5895754776883265
 40
0.6475533336193546
 40
0.7056076473990497
 40
0.7645053157313849
 40
0.8233417299684092
 40
0.8821980490993487
 40
0.9411307704585644
 40
1.0
 40
1.0
 40
1.0
 40
1.0
 10
22.94005384686671
 20
5.944017080701272
 30
0.0
 10
23.0254196769242
 20
5.989399043570924
 30
0.0
 10
23.63833457914955
 20
6.315235286436665
 30
0.0
 10
24.77954017355935
 20
6.792737690321419
 30
0.0
 10
26.36364392065509
 20
7.346940706297968
 30
0.0
 10
27.94614824130776
 20
7.72399574095185
 30
0.0
 10
29.52851715455995
 20
7.929960325619921
 30
0.0
 10
31.11246835652459
 20
7.956203837896495
 30
0.0
 10
32.69577777515404
 20
7.803427008531198
 30
0.0
 10
34.27793507642928
 20
7.474488050635998
 30
0.0
 10
35.86086720901397
 20
6.976985472977705
 30
0.0
 10
37.4450370977039
 20
6.322924144243539
 30
0.0
 10
39.02763237445318
 20
5.525492230039672
 30
0.0
 10
40.60993257116915
 20
4.603310421929911
 30
0.0
 10
42.20157788771934
 20
3.573223619507707
 30
0.0
 10
43.80074579281238
 20
2.455755584782719
 30
0.0
 10
45.40644978827637
 20
1.27494833110494
 30
0.0
 10
47.01261143096396
 20
0.0655000806083184
 30
0.0
 10
48.62031567787029
 20
-1.147933244174535
 30
0.0
 10
49.69163102853905
 20
-1.930673635767728
 30
0.0
 10
50.22700000000007
 20
-2.321832894436662
 30
0.0
  0
SPLINE
  5
B0
330
1F
100
AcDbEntity
  8
0
  6
Continuous
 62
     1
370
    15
100
AcDbSpline
210
0.0
220
0.0
230
1.0
 70
     8
 71
     3
 72
    20
 73
    16
 74
     0
 42
0.000000001
 43
0.00000001
 40
0.0
 40
0.0
 40
0.0
 40
0.0
 40
0.249999999999998
 40
0.249999999999998
 40
0.3749999999999983
 40
0.3749999999999983
 40
0.4999999999999987
 40
0.4999999999999987
 40
0.624999999999999
 40
0.624999999999999
 40
0.7499999999999993
 40
0.7499999999999993
 40
0.8749999999999997
 40
0.8749999999999997
 40
1.0
 40
1.0
 40
1.0
 40
1.0
 10
50.22700000000008
 20
-2.321832894436671
 30
0.0
 10
50.59321187993681
 20
-2.585321800024365
 30
0.0
 10
50.94630955095992
 20
-2.824431851727676
 30
0.0
 10
51.46222551184572
 20
-3.126531559554379
 30
0.0
 10
51.6272330811079
 20
-3.214939694983722
 30
0.0
 10
51.94364260266862
 20
-3.367266043441873
 30
0.0
 10
52.09599756420526
 20
-3.431493664130258
 30
0.0
 10
52.38073270002395
 20
-3.533366140764564
 30
0.0
 10
52.51067035316381
 20
-3.570265138930576
 30
0.0
 10
52.74436138797844
 20
-3.620236767421533
 30
0.0
 10
52.84884819083354
 20
-3.633240120757305
 30
0.0
 10
53.02356603916116
 20
-3.640490427593772
 30
0.0
 10
53.0937094796242
 20
-3.634973439836025
 30
0.0
 10
53.19999201636004
 20
-3.615380345071637
 30
0.0
 10
53.23600694350746
 20
-3.601216862466028
 30
0.0
 10
53.25567219638967
 20
-3.588710960334538
 30
0.0
  0
SPLINE
  5
B1
330
1F
100
AcDbEntity
  8
0
  6
Continuous
 62
     1
370
    15
100
AcDbSpline
210
0.0
220
0.0
230
1.0
 70
     8
 71
     3
 72
    12
 73
     8
 74
     0
 42
0.000000001
 43
0.00000001
 40
0.0
 40
0.0
 40
0.0
 40
0.0
 40
0.0039598469644416
 40
0.3413475381090448
 40
0.6423590480433264
 40
0.9507679606589976
 40
1.0
 40
1.0
 40
1.0
 40
1.0
 10
52.21376848452289
 20
-3.471891208159994
 30
0.0
 10
52.21205205569208
 20
-3.472052221567118
 30
0.0
 10
52.06409210648253
 20
-3.48593193222717
 30
0.0
 10
51.73035867558926
 20
-3.590370203506446
 30
0.0
 10
51.22864797824695
 20
-3.781037747435882
 30
0.0
 10
50.85953971057602
 20
-3.963132021880777
 30
0.0
 10
50.658150602234
 20
-4.072983691729151
 30
0.0
 10
50.63042783600575
 20
-4.088105622542894
 30
0.0
  0
SPLINE
  5
B2
330
1F
100
AcDbEntity
  8
0
  6
Continuous
 62
     1
370
    15
100
AcDbSpline
210
0.0
220
0.0
230
1.0
 70
     8
 71
     3
 72
     8
 73
     4
 74
     0
 42
0.000000001
 43
0.00000001
 40
0.0
 40
0.0
 40
0.0
 40
0.0
 40
1.0
 40
1.0
 40
1.0
 40
1.0
 10
53.27500000000009
 20
-4.640327385311441
 30
0.0
 10
52.36569810576439
 20
-4.578115589207335
 30
0.0
 10
51.48358264874528
 20
-4.396636166222078
 30
0.0
 10
50.63042783600341
 20
-4.088105622548603
 30
0.0
  0
LINE
  5
B3
330
1F
100
AcDbEntity
  8
0
  6
Continuous
 62
     1
370
    15
100
AcDbLine
 10
53.27500000000009
 20
-4.8895
 30
0.0
 11
53.27500000000009
 21
-4.640327385311447
 31
0.0
  0
SPLINE
  5
B4
330
1F
100
AcDbEntity
  8
0
  6
Continuous
 62
     1
370
    15
100
AcDbSpline
210
0.0
220
0.0
230
1.0
 70
     8
 71
     3
 72
    21
 73
    17
 74
     0
 42
0.000000001
 43
0.00000001
 40
0.0
 40
0.0
 40
0.0
 40
0.0
 40
0.0580252615390237
 40
0.1300941604631818
 40
0.20220453159514
 40
0.274214739209367
 40
0.3462324682985315
 40
0.4183531433769498
 40
0.4904064194810988
 40
0.5624060180560818
 40
0.6344650885421778
 40
0.7076235574078231
 40
0.7806837493440821
 40
0.8537346286272467
 40
0.9268763118123059
 40
1.0
 40
1.0
 40
1.0
 40
1.0
 10
33.97070771661172
 20
-5.942625919075221
 30
0.0
 10
33.54588447928733
 20
-6.15044663386968
 30
0.0
 10
32.59341962279031
 20
-6.616386135061946
 30
0.0
 10
31.11246976431434
 20
-7.167369772738938
 30
0.0
 10
29.5285168729842
 20
-7.609749694172514
 30
0.0
 10
27.94614796223167
 20
-7.876976460629495
 30
0.0
 10
26.36364531953792
 20
-7.967474822690618
 30
0.0
 10
24.77953485085706
 20
-7.878152445749814
 30
0.0
 10
23.19646812213039
 20
-7.611279609339235
 30
0.0
 10
21.61432558014593
 20
-7.172587070065641
 30
0.0
 10
20.02354142748693
 20
-6.569407491061987
 30
0.0
 10
18.4241964900981
 20
-5.813214110316022
 30
0.0
 10
16.81879909346026
 20
-4.917900279684486
 30
0.0
 10
15.21358972833765
 20
-3.907636577376584
 30
0.0
 10
13.60683172572758
 20
-2.810412243411912
 30
0.0
 10
12.53556664273783
 20
-2.02802466774848
 30
0.0
 10
11.99999999999999
 20
-1.636879008404835
 30
0.0
  0
SPLINE
  5
B5
330
1F
100
AcDbEntity
  8
0
  6
Continuous
 62
     4
370
    15
100
AcDbSpline
210
0.0
220
0.0
230
1.0
 70
    24
 71
     3
 72
    20
 73
    16
 74
     0
 42
0.000000001
 43
0.00000001
 40
0.0
 40
0.0
 40
0.0
 40
0.0
 40
0.25
 40
0.25
 40
0.375
 40
0.375
 40
0.5
 40
0.5
 40
0.625
 40
0.625
 40
0.75
 40
0.75
 40
0.875
 40
0.875
 40
1.0
 40
1.0
 40
1.0
 40
1.0
 10
12.00000000000009
 20
7.501359402895712
 30
0.0
 10
12.00000000000009
 20
6.876945505370398
 30
0.0
 10
12.00000000000009
 20
6.163021782005959
 30
0.0
 10
12.00000000000009
 20
4.970134930986179
 30
0.0
 10
12.00000000000009
 20
4.552711693334377
 30
0.0
 10
12.00000000000009
 20
3.690206303909937
 30
0.0
 10
12.00000000000009
 20
3.245070267896885
 30
0.0
 10
12.00000000000009
 20
2.348490618013797
 30
0.0
 10
12.00000000000009
 20
1.897083656207764
 30
0.0
 10
12.00000000000009
 20
1.019408478887661
 30
0.0
 10
12.00000000000009
 20
0.5933213245079431
 30
0.0
 10
12.00000000000009
 20
-0.1952650035241075
 30
0.0
 10
12.00000000000009
 20
-0.5574494915737178
 30
0.0
 10
12.00000000000009
 20
-1.180357185495086
 30
0.0
 10
12.00000000000009
 20
-1.440750444221484
 30
0.0
 10
12.00000000000009
 20
-1.63687900840443
 30
0.0
  0
SPLINE
  5
B6
330
1F
100
AcDbEntity
  8
0
  6
Continuous
 62
     1
370
    15
100
AcDbSpline
210
0.0
220
0.0
230
1.0
 70
     8
 71
     3
 72
    26
 73
    22
 74
     0
 42
0.000000001
 43
0.00000001
 40
0.0
 40
0.0
 40
0.0
 40
0.0
 40
0.054304911048354
 40
0.108623185984054
 40
0.1628740258937393
 40
0.2171317817948146
 40
0.271462522525303
 40
0.324976801002754
 40
0.3784469129874737
 40
0.4319568882985502
 40
0.4855169170928845
 40
0.5390004936057794
 40
0.5924784843360428
 40
0.6460308609603372
 40
0.6995524384740919
 40
0.7530230064747505
 40
0.8065265877054205
 40
0.8600894525241835
 40
0.9135771933841034
 40
0.967052488958393
 40
1.0
 40
1.0
 40
1.0
 40
1.0
 10
12.00000000000009
 20
7.501359402895718
 30
0.0
 10
12.53556664273814
 20
7.352624768509028
 30
0.0
 10
13.60683172572835
 20
7.055118897651968
 30
0.0
 10
15.2135897283349
 20
6.39904297176737
 30
0.0
 10
16.81879909347079
 20
5.606412375119157
 30
0.0
 10
18.42419649005888
 20
4.680221092148861
 30
0.0
 10
20.02354142763265
 20
3.652358901290613
 30
0.0
 10
21.61432557961135
 20
2.545230816336762
 30
0.0
 10
23.19646812412522
 20
1.385689553088581
 30
0.0
 10
24.77953484340262
 20
0.1951631975813629
 30
0.0
 10
26.3636453473698
 20
-0.9986580236644556
 30
0.0
 10
27.94614785853459
 20
-2.171433871136501
 30
0.0
 10
29.52851726018697
 20
-3.295211152310937
 30
0.0
 10
31.11246831735812
 20
-4.343539056266125
 30
0.0
 10
32.69577782613383
 20
-5.294566944561117
 30
0.0
 10
34.27793491175466
 20
-6.126729758700194
 30
0.0
 10
35.86086781748784
 20
-6.81998754517319
 30
0.0
 10
37.44503482726891
 20
-7.361001557481527
 30
0.0
 10
39.02764083295887
 20
-7.72909016610518
 30
0.0
 10
40.40684753886766
 20
-7.922759450487334
 30
0.0
 10
41.25934428745947
 20
-7.918069063885555
 30
0.0
 10
41.58434699377052
 20
-7.916280918251289
 30
0.0
  0
LINE
  5
B7
330
1F
100
AcDbEntity
  8
0
  6
Continuous
 62
     4
370
    15
100
AcDbLine
 10
12.00000000000008
 20
7.501359402895718
 30
0.0
 11
12.00000000000009
 21
7.937500000000002
 31
0.0
  0
SPLINE
  5
B8
330
1F
100
AcDbEntity
  8
0
  6
Continuous
 62
     1
370
    15
100
AcDbSpline
210
0.0
220
0.0
230
1.0
 70
     8
 71
     3
 72
    16
 73
    12
 74
     0
 42
0.000000001
 43
0.00000001
 40
0.0
 40
0.0
 40
0.0
 40
0.0
 40
0.1251336234590205
 40
0.2504022064084365
 40
0.3755083872381204
 40
0.5005722578232227
 40
0.6257663313506362
 40
0.7491677534053786
 40
0.8724066551125634
 40
0.9956742381634608
 40
1.0
 40
1.0
 40
1.0
 40
1.0
 10
50.22700000000008
 20
2.737190682394157
 30
0.0
 10
49.69163102438144
 20
3.109884918694795
 30
0.0
 10
48.62031566539294
 20
3.855675350600167
 30
0.0
 10
47.01261148090922
 20
4.866272570307301
 30
0.0
 10
45.40644960128618
 20
5.769536405196007
 30
0.0
 10
43.80074649098163
 20
6.53787539881411
 30
0.0
 10
42.20157529478396
 20
7.149863170522447
 30
0.0
 10
40.60994208841618
 20
7.601078326291007
 30
0.0
 10
39.02759688723062
 20
7.858309580456652
 30
0.0
 10
37.95467681048726
 20
7.965116725435345
 30
0.0
 10
37.40853080162567
 20
7.93547617516248
 30
0.0
 10
37.39001496473468
 20
7.934471279795112
 30
0.0
  0
SPLINE
  5
B9
330
1F
100
AcDbEntity
  8
0
  6
Continuous
 62
     1
370
    15
100
AcDbSpline
210
0.0
220
0.0
230
1.0
 70
     8
 71
     3
 72
    22
 73
    18
 74
     0
 42
0.000000001
 43
0.00000001
 40
0.0
 40
0.0
 40
0.0
 40
0.0
 40
0.1249999999999992
 40
0.1249999999999992
 40
0.2499999999999983
 40
0.2499999999999983
 40
0.3124999999999981
 40
0.3124999999999981
 40
0.3749999999999979
 40
0.3749999999999979
 40
0.4374999999999977
 40
0.4374999999999977
 40
0.4999999999999976
 40
0.4999999999999976
 40
0.7499999999999988
 40
0.7499999999999988
 40
1.0
 40
1.0
 40
1.0
 40
1.0
 10
53.27500000000008
 20
1.417550865690459
 30
0.0
 10
53.27500000000009
 20
1.311092857888916
 30
0.0
 10
53.26258723737624
 20
1.217721377843205
 30
0.0
 10
53.19640150996544
 20
1.070814532986784
 30
0.0
 10
53.1417043968839
 20
1.018350051560115
 30
0.0
 10
53.0216848142656
 20
0.9867626895199622
 30
0.0
 10
52.97464094311959
 20
0.9839269229823175
 30
0.0
 10
52.87012069529495
 20
0.9944893961977823
 30
0.0
 10
52.81253670278466
 20
1.00765922892238
 30
0.0
 10
52.68669743755383
 20
1.049075805589133
 30
0.0
 10
52.61784094410852
 20
1.077677808639992
 30
0.0
 10
52.47434510072512
 20
1.146864867008126
 30
0.0
 10
52.39929456158123
 20
1.187505735425699
 30
0.0
 10
52.00791166951067
 20
1.416853098098195
 30
0.0
 10
51.65643678619399
 20
1.674976728876233
 30
0.0
 10
50.95007647362063
 20
2.205110469489338
 30
0.0
 10
50.58808979182809
 20
2.482168994881623
 30
0.0
 10
50.22700000000007
 20
2.737190682394151
 30
0.0
  0
LINE
  5
BA
330
1F
100
AcDbEntity
  8
0
  6
Continuous
 62
     1
370
    15
100
AcDbLine
 10
53.27500000000009
 20
-3.402272728740176
 30
0.0
 11
53.27500000000009
 21
1.417550865690455
 31
0.0
  0
SPLINE
  5
BB
330
1F
100
AcDbEntity
  8
0
  6
Continuous
 62
     1
370
    15
100
AcDbSpline
210
0.0
220
0.0
230
1.0
 70
     8
 71
     3
 72
     8
 73
     4
 74
     0
 42
0.000000001
 43
0.00000001
 40
0.0
 40
0.0
 40
0.0
 40
0.0
 40
1.0
 40
1.0
 40
1.0
 40
1.0
 10
53.27500000000008
 20
-3.402272728740179
 30
0.0
 10
53.27500000000008
 20
-3.460814964055758
 30
0.0
 10
53.26866758766152
 20
-3.522899404157925
 30
0.0
 10
53.25567219638897
 20
-3.588710960343338
 30
0.0
  0
SPLINE
  5
BC
330
1F
100
AcDbEntity
  8
0
  6
Continuous
 62
     1
370
    15
100
AcDbSpline
210
0.0
220
0.0
230
1.0
 70
     8
 71
     3
 72
    12
 73
     8
 74
     0
 42
0.000000001
 43
0.00000001
 40
0.0
 40
0.0
 40
0.0
 40
0.0
 40
0.2135479658188092
 40
0.4271484836242266
 40
0.6404838207608542
 40
0.8538463542571564
 40
1.0
 40
1.0
 40
1.0
 40
1.0
 10
12.00000000000009
 20
-5.997930247991525
 30
0.0
 10
12.53556663146094
 20
-6.248658349523198
 30
0.0
 10
13.60683169189398
 20
-6.750176254227128
 30
0.0
 10
15.21358986364122
 20
-7.309733675235608
 30
0.0
 10
16.8187985867523
 20
-7.70328756804645
 30
0.0
 10
18.25498103271228
 20
-7.916040129383181
 30
0.0
 10
19.15688429523966
 20
-7.917121641169721
 30
0.0
 10
19.52353385800679
 20
-7.917561306752646
 30
0.0
  0
SPLINE
  5
BD
330
1F
100
AcDbEntity
  8
0
  6
Continuous
 62
     1
370
    15
100
AcDbSpline
210
0.0
220
0.0
230
1.0
 70
     8
 71
     3
 72
    11
 73
     7
 74
     0
 42
0.000000001
 43
0.00000001
 40
0.0
 40
0.0
 40
0.0
 40
0.0
 40
0.0774898883111175
 40
0.3848377952354314
 40
0.6925846748663598
 40
1.0
 40
1.0
 40
1.0
 40
1.0
 10
45.00146628772507
 20
5.940084905973836
 30
0.0
 10
45.13640854875884
 20
6.011213495654329
 30
0.0
 10
45.80657188686855
 20
6.364459192963187
 30
0.0
 10
47.01260045715797
 20
6.859152170729846
 30
0.0
 10
48.6203184193548
 20
7.411616385159373
 30
0.0
 10
49.69163194203883
 20
7.806390754126904
 30
0.0
 10
50.22700000000009
 20
7.937500000000003
 30
0.0
  0
SPLINE
  5
BF
330
1F
100
AcDbEntity
  8
0
  6
Continuous
 62
     1
370
    15
100
AcDbSpline
210
0.0
220
0.0
230
1.0
 70
     8
 71
     3
 72
    18
 73
    14
 74
     0
 42
0.000000001
 43
0.00000001
 40
0.0
 40
0.0
 40
0.0
 40
0.0
 40
0.2499999999999993
 40
0.2499999999999993
 40
0.375
 40
0.375
 40
0.5000000000000008
 40
0.5000000000000008
 40
0.6250000000000016
 40
0.6250000000000016
 40
0.7500000000000022
 40
0.7500000000000022
 40
1.0
 40
1.0
 40
1.0
 40
1.0
 10
53.25567219639708
 20
5.091758263722835
 30
0.0
 10
53.13078687940578
 20
4.7872808278262
 30
0.0
 10
52.98065800212369
 20
4.504442636653325
 30
0.0
 10
52.71151370801341
 20
4.11786093772248
 30
0.0
 10
52.61357732895816
 20
3.994483312371734
 30
0.0
 10
52.4072884405406
 20
3.767778211284541
 30
0.0
 10
52.29877615145409
 20
3.663923216126115
 30
0.0
 10
52.0711976658401
 20
3.474886701427699
 30
0.0
 10
51.95213289454814
 20
3.389702660158226
 30
0.0
 10
51.70336465568239
 20
3.238158073726704
 30
0.0
 10
51.57372241200913
 20
3.172069093482333
 30
0.0
 10
51.18071797708162
 20
3.006870405603124
 30
0.0
 10
50.90798019953426
 20
2.937971422905536
 30
0.0
 10
50.63042783600671
 20
2.906664270008327
 30
0.0
  0
SPLINE
  5
C0
330
1F
100
AcDbEntity
  8
0
  6
Continuous
 62
     1
370
    15
100
AcDbSpline
210
0.0
220
0.0
230
1.0
 70
     8
 71
     3
 72
     8
 73
     4
 74
     0
 42
0.000000001
 43
0.00000001
 40
0.0
 40
0.0
 40
0.0
 40
0.0
 40
1.0
 40
1.0
 40
1.0
 40
1.0
 10
53.27500000000009
 20
1.531147021911055
 30
0.0
 10
52.36569810576457
 20
2.058259412536178
 30
0.0
 10
51.48358264874566
 20
2.518225827299451
 30
0.0
 10
50.63042783600394
 20
2.906664270004958
 30
0.0
  0
LINE
  5
C1
330
1F
100
AcDbEntity
  8
0
  6
Continuous
 62
     1
370
    15
100
AcDbLine
 10
53.27500000000009
 20
1.417550865690455
 30
0.0
 11
53.27500000000009
 21
1.531147021911055
 31
0.0
  0
LINE
  5
C2
330
1F
100
AcDbEntity
  8
0
  6
Continuous
 62
     4
370
    15
100
AcDbLine
 10
12.00000000000008
 20
-5.997930247991526
 30
0.0
 11
12.00000000000008
 21
-1.636879008404425
 31
0.0
  0
SPLINE
  5
C3
330
1F
100
AcDbEntity
  8
0
  6
Continuous
 62
     1
370
    15
100
AcDbSpline
210
0.0
220
0.0
230
1.0
 70
     8
 71
     3
 72
     8
 73
     4
 74
     0
 42
0.000000001
 43
0.00000001
 40
0.0
 40
0.0
 40
0.0
 40
0.0
 40
1.0
 40
1.0
 40
1.0
 40
1.0
 10
53.27500000000008
 20
4.742322464718635
 30
0.0
 10
53.27500000000008
 20
4.859406935349633
 30
0.0
 10
53.26866758766153
 20
4.975895897328873
 30
0.0
 10
53.25567219638902
 20
5.09175826372502
 30
0.0
  0
LINE
  5
C4
330
1F
100
AcDbEntity
  8
0
  6
Continuous
 62
     1
370
    15
100
AcDbLine
 10
53.27500000000009
 20
1.531147021911055
 30
0.0
 11
53.27500000000009
 21
4.742322464718635
 31
0.0
  0
LINE
  5
C5
330
1F
100
AcDbEntity
  8
0
  6
Continuous
 62
     1
370
    15
100
AcDbLine
 10
53.27500000000009
 20
4.742322464718635
 30
0.0
 11
53.27500000000009
 21
4.889500000000003
 31
0.0
  0
LINE
  5
C6
330
1F
100
AcDbEntity
  8
0
  6
Continuous
 62
     1
370
    15
100
AcDbLine
 10
53.27500000000009
 20
-3.402272728740176
 30
0.0
 11
53.27500000000009
 21
-4.640327385311441
 31
0.0
  0
LINE
  5
C7
330
1F
100
AcDbEntity
  8
중심선
100
AcDbLine
 10
-38.62499999999993
 20
0.0000000000000018
 30
0.0
 11
56.27500000000008
 21
0.0000000000000023
 31
0.0
  0
CIRCLE
  5
C8
330
1F
100
AcDbEntity
  8
외형선
100
AcDbCircle
 10
0.0
 20
0.0
 30
0.0
 40
3.000000000000008
  0
INSERT
  5
C9
330
1F
100
AcDbEntity
  8
0
  6
Continuous
 62
     7
100
AcDbBlockReference
 66
     1
  2
블럭10
 10
-4.212050447181241
 20
-35.93010061546345
 30
0.0
  0
ATTRIB
  5
CA
330
C9
100
AcDbEntity
  8
FORMAT
 62
     2
100
AcDbText
 10
-13.39334573592252
 20
-33.85473370263126
 30
0.0
 40
4.233333333333333
  1
E5983902 [ 3 FLUTE ]
 41
0.75
  7
SLDTEXTSTYLE0
 11
-13.39334573592252
 21
-35.97140036929792
 31
0.0
100
AcDbAttribute
  2
AUTOATTR0
 70
     0
 74
     1
  0
SEQEND
  5
CB
330
C9
100
AcDbEntity
  8
0
  6
Continuous
 62
     7
  0
HATCH
  5
CC
330
1F
100
AcDbEntity
  8
중심선
100
AcDbHatch
 10
0.0
 20
0.0
 30
0.0
210
0.0
220
0.0
230
1.0
  2
SOLID
 70
     1
 71
     0
 91
        1
 92
        0
 93
        4
 72
     1
 10
1.502858857199596
 20
-19.68292631381951
 11
-1.943416386637686
 21
-19.68292631381951
 72
     1
 10
-1.943416386637686
 20
-19.68292631381951
 11
-4.071646245841709
 21
-22.21925189439212
 72
     1
 10
-4.071646245841709
 20
-22.21925189439212
 11
-0.6253379168912758
 21
-22.21921246508963
 72
     1
 10
-0.6253379168912758
 20
-22.21921246508963
 11
1.502858857199596
 21
-19.68292631381951
 97
        0
 75
     0
 76
     1
 98
        1
 10
16.13380143818664
 20
16.11599875745659
  0
HATCH
  5
CD
330
1F
100
AcDbEntity
  8
중심선
100
AcDbHatch
 10
0.0
 20
0.0
 30
0.0
210
0.0
220
0.0
230
1.0
  2
SOLID
 70
     1
 71
     0
 91
        1
 92
        0
 93
        4
 72
     1
 10
6.515622848235548
 20
-19.68292631381954
 11
3.069347604398294
 21
-19.68292631381949
 72
     1
 10
3.069347604398294
 20
-19.68292631381949
 11
-1.461790403959125
 21
-25.08292631381953
 72
     1
 10
-1.461790403959125
 20
-25.08292631381953
 11
1.98448483987816
 21
-25.08292631381953
 72
     1
 10
1.98448483987816
 20
-25.08292631381953
 11
6.515622848235548
 21
-19.68292631381954
 97
        0
 75
     0
 76
     1
 98
        1
 10
16.13380143818664
 20
16.11599875745659
  0
HATCH
  5
CE
330
1F
100
AcDbEntity
  8
중심선
100
AcDbHatch
 10
0.0
 20
0.0
 30
0.0
210
0.0
220
0.0
230
1.0
  2
SOLID
 70
     1
 71
     0
 91
        1
 92
        0
 93
        4
 72
     1
 10
11.52838683927147
 20
-19.68292631381954
 11
8.082111595434355
 21
-19.68292631381951
 72
     1
 10
8.082111595434355
 20
-19.68292631381951
 11
1.033674693545079
 21
-28.08292631381953
 72
     1
 10
1.033674693545079
 20
-28.08292631381953
 11
4.479949937382361
 21
-28.08292631381953
 72
     1
 10
4.479949937382361
 20
-28.08292631381953
 11
11.52838683927147
 21
-19.68292631381954
 97
        0
 75
     0
 76
     1
 98
        1
 10
16.13380143818664
 20
16.11599875745659
  0
HATCH
  5
CF
330
1F
100
AcDbEntity
  8
중심선
100
AcDbHatch
 10
0.0
 20
0.0
 30
0.0
210
0.0
220
0.0
230
1.0
  2
SOLID
 70
     1
 71
     0
 91
        1
 92
        0
 93
        6
 72
     3
 10
16.32827727028364
 20
-23.88292631387079
 11
3.960054785062283
 21
1.540882976769353E-10
 40
0.3939339440162628
 50
17.09539180608437
 51
320.0019657685082
 73
     0
 72
     1
 10
18.01127692598421
 20
-22.47082031845785
 11
20.3165787996853
 21
-20.5364936084099
 72
     3
 10
16.3282772702308
 20
-23.88292631381967
 11
6.600054785286829
 21
-1.278976924368180E-13
 40
0.636358354079598
 50
39.99873849337386
 51
368.4976242363725
 73
     1
 72
     1
 10
22.7536097621314
 20
-22.92292631374954
 11
15.00834457706672
 21
-22.92292631374954
 72
     1
 10
15.00834457706672
 20
-22.92292631374954
 11
15.00831953262078
 21
-24.84292631374943
 72
     1
 10
15.00831953262078
 20
-24.84292631374943
 11
19.44969930209282
 21
-24.8429263137494
 97
        0
 75
     0
 76
     1
 98
        1
 10
16.13380143818664
 20
16.11599875745659
  0
POINT
  5
D0
330
1F
100
AcDbEntity
  8
치수문자_일반주서
100
AcDbPoint
 10
-35.62499999999993
 20
-0.1156937548689074
 30
0.0
  0
DIMENSION
  5
D1
330
1F
100
AcDbEntity
  8
치수문자_일반주서
100
AcDbDimension
  2
_D
 10
12.00000000000009
 20
25.18392871963103
 30
0.0
 11
32.63750000000009
 21
25.18392871963103
 31
0.0
 70
   160
  1
<>
 71
     2
 42
41.27500000000001
  3
SLDDIMSTYLE1
100
AcDbAlignedDimension
 13
53.27500000000009
 23
7.937500000000002
 33
0.0
 14
12.00000000000009
 24
7.937500000000002
 34
0.0
 50
-0.0000000000000049
100
AcDbRotatedDimension
1001
ACAD
1000
DSTYLE
1002
{
1070
   171
1070
     6
1070
   273
1070
     5
1002
}
  0
DIMENSION
  5
E5
102
{ACAD_REACTORS
102
}
330
1F
100
AcDbEntity
  8
치수문자_일반주서
100
AcDbDimension
  2
_D_1
 10
-35.62499999999991
 20
55.56109778227561
 30
0.0
 11
8.46999180628059
 21
55.56109778227561
 31
0.0
 70
   160
  1
<>
 71
     2
 42
88.9
  3
SLDDIMSTYLE1
100
AcDbAlignedDimension
 13
53.27500000000009
 23
7.937500000000002
 33
0.0
 14
-35.62499999999991
 24
7.437499999999999
 34
0.0
100
AcDbRotatedDimension
1001
ACAD
1000
DSTYLE
1002
{
1070
   171
1070
     6
1070
   273
1070
     5
1002
}
  0
DIMENSION
  5
F9
330
1F
100
AcDbEntity
  8
치수문자_일반주서
100
AcDbDimension
  2
_D_2
 10
-45.62499999999985
 20
-7.937500000000043
 30
0.0
 11
-45.62499999999998
 21
28.76024999999996
 31
0.0
 70
   160
  1
%%c<>
 71
     2
 42
15.875
 52
-270.0
  3
SLDDIMSTYLE2
100
AcDbAlignedDimension
 13
-35.12499999999991
 23
7.937500000000002
 33
0.0
 14
-35.12499999999991
 24
-7.937499999999999
 34
0.0
 50
90.0000000000002
100
AcDbRotatedDimension
1001
ACAD
1000
DSTYLE
1002
{
1070
   171
1070
     6
1070
   273
1070
     5
1002
}
  0
INSERT
  5
114
330
1F
100
AcDbEntity
  8
외형선
100
AcDbBlockReference
  2
SW_DOWELSYMBOL_0
 10
0.0
 20
0.0
 30
0.0
  0
ARC
  5
13E
102
{ACAD_REACTORS
102
}
330
1F
100
AcDbEntity
  8
0
  6
Continuous
 62
     1
370
    15
100
AcDbCircle
 10
50.22700000000009
 20
-4.8895
 30
0.0
 40
3.047999999999999
100
AcDbArc
 50
270.0
 51
0.0
  0
ARC
  5
13F
330
1F
100
AcDbEntity
  8
0
  6
Continuous
 62
     1
370
    15
100
AcDbCircle
 10
50.22700000000009
 20
4.889500000000004
 30
0.0
 40
3.047999999999999
100
AcDbArc
 50
0.0
 51
90.0
  0
DIMENSION
  5
140
102
{ACAD_XDICTIONARY
360
141
102
}
330
1F
100
AcDbEntity
  8
치수문자_일반주서
100
AcDbDimension
  2
*D6
 10
62.91021257176804
 20
7.937500000000001
 30
0.0
 11
60.28521257176804
 21
28.5415
 31
0.0
 70
    32
  1
{Ø<>[]}
 71
     5
 42
15.875
  3
SLDDIMSTYLE2
100
AcDbAlignedDimension
 13
53.27500000000009
 23
-7.937499999999999
 33
0.0
 14
53.27500000000009
 24
7.937500000000002
 34
0.0
 50
90.0
100
AcDbRotatedDimension
1001
ACAD
1000
DSTYLE
1002
{
1070
   283
1070
     1
1070
   170
1070
     1
1070
   171
1070
     6
1070
   273
1070
     5
1002
}
  0
DIMENSION
  5
152
102
{ACAD_REACTORS
102
}
102
{ACAD_XDICTIONARY
360
153
102
}
330
1F
100
AcDbEntity
  8
치수문자_일반주서
100
AcDbDimension
  2
*D7
 10
50.22700000000009
 20
-4.8895
 30
0.0
 11
63.83635980139803
 21
-24.23381259559496
 31
0.0
 70
   164
  1
<>
 71
     5
 42
3.047999999999997
  3
SLDDIMSTYLE2
100
AcDbRadialDimension
 15
51.98081907131164
 25
-7.382374378123346
 35
0.0
 40
0.0
1001
ACAD_DSTYLE_DIMRADIAL_EXTENSION
1070
   387
1070
     1
1070
   388
1040
4.71238898038469
1070
   390
1040
0.0
  0
ENDSEC
  0
SECTION
  2
OBJECTS
  0
DICTIONARY
  5
C
330
0
100
AcDbDictionary
281
     1
  3
ACAD_GROUP
350
D
  3
ACAD_IMAGE_VARS
350
138
  3
ACAD_LAYOUT
350
1A
  3
ACAD_MLINESTYLE
350
17
  3
ACAD_PLOTSETTINGS
350
19
  3
ACAD_PLOTSTYLENAME
350
E
  3
ACAD_SCALELIST
350
47
  3
APPDATA
350
136
  3
DWGPROPS
350
162
  0
DICTIONARY
  5
141
330
140
100
AcDbDictionary
280
     1
281
     1
  0
DICTIONARY
  5
153
330
152
100
AcDbDictionary
280
     1
281
     1
  0
DICTIONARY
  5
D
102
{ACAD_REACTORS
330
C
102
}
330
C
100
AcDbDictionary
281
     1
  0
RASTERVARIABLES
  5
138
102
{ACAD_REACTORS
330
C
102
}
330
C
100
AcDbRasterVariables
 90
        0
 70
     1
 71
     1
 72
     1
  0
DICTIONARY
  5
1A
102
{ACAD_REACTORS
330
C
102
}
330
C
100
AcDbDictionary
281
     1
  3
Layout1
350
1E
  3
Layout2
350
26
  3
Model
350
22
  0
DICTIONARY
  5
17
102
{ACAD_REACTORS
330
C
102
}
330
C
100
AcDbDictionary
281
     1
  3
Standard
350
18
  0
DICTIONARY
  5
19
102
{ACAD_REACTORS
330
C
102
}
330
C
100
AcDbDictionary
281
     1
  0
ACDBDICTIONARYWDFLT
  5
E
102
{ACAD_REACTORS
330
C
102
}
330
C
100
AcDbDictionary
281
     1
  3
Normal
350
F
100
AcDbDictionaryWithDefault
340
F
  0
DICTIONARY
  5
47
102
{ACAD_REACTORS
330
C
102
}
330
C
100
AcDbDictionary
281
     1
  3
A0
350
48
  3
A1
350
49
  3
A2
350
4A
  3
A3
350
4B
  3
A4
350
4C
  3
A5
350
4D
  3
A6
350
4E
  3
A7
350
4F
  3
A8
350
50
  3
A9
350
51
  3
B0
350
52
  3
B1
350
53
  3
B2
350
54
  3
B3
350
55
  3
B4
350
56
  3
B5
350
57
  3
B6
350
58
  3
B7
350
59
  3
B8
350
5A
  3
B9
350
5B
  3
C0
350
5C
  3
C1
350
5D
  3
C2
350
5E
  3
C3
350
5F
  3
C4
350
60
  3
C5
350
61
  3
C6
350
62
  3
C7
350
63
  3
C8
350
64
  3
C9
350
65
  3
D0
350
66
  3
D1
350
67
  3
D2
350
68
  0
DICTIONARY
  5
136
102
{ACAD_REACTORS
330
C
102
}
330
C
100
AcDbDictionary
281
     1
  0
XRECORD
  5
162
102
{ACAD_REACTORS
330
C
102
}
330
C
100
AcDbXrecord
280
     1
  1
DWGPROPS COOKIE
  2

  3

  4

  6

  7

  8
12014074
  9

300
=
301
=
302
=
303
=
304
=
305
=
306
=
307
=
308
=
309
=
 40
0.0
 41
2458269.057506042
 42
2458269.483262928
  1

 90
        0
  0
LAYOUT
  5
1E
102
{ACAD_REACTORS
330
1A
102
}
330
1A
100
AcDbPlotSettings
  1

  2
none_device
  4

  6

 40
0.0
 41
0.0
 42
0.0
 43
0.0
 44
0.0
 45
0.0
 46
0.0
 47
0.0
 48
0.0
 49
0.0
140
0.0
141
0.0
142
1.0
143
1.0
 70
   688
 72
     1
 73
     0
 74
     5
  7

 75
    16
147
1.0
148
0.0
149
0.0
100
AcDbLayout
  1
Layout1
 70
     1
 71
     1
 10
0.0
 20
0.0
 11
420.0
 21
297.0
 12
0.0
 22
0.0
 32
0.0
 14
1.000000000000000E+20
 24
1.000000000000000E+20
 34
1.000000000000000E+20
 15
-1.000000000000000E+20
 25
-1.000000000000000E+20
 35
-1.000000000000000E+20
146
0.0
 13
0.0
 23
0.0
 33
0.0
 16
1.0
 26
0.0
 36
0.0
 17
0.0
 27
1.0
 37
0.0
 76
     0
330
1B
  0
LAYOUT
  5
26
102
{ACAD_REACTORS
330
1A
102
}
330
1A
100
AcDbPlotSettings
  1

  2
none_device
  4

  6

 40
0.0
 41
0.0
 42
0.0
 43
0.0
 44
0.0
 45
0.0
 46
0.0
 47
0.0
 48
0.0
 49
0.0
140
0.0
141
0.0
142
1.0
143
1.0
 70
   688
 72
     1
 73
     0
 74
     5
  7

 75
    16
147
1.0
148
0.0
149
0.0
100
AcDbLayout
  1
Layout2
 70
     1
 71
     2
 10
0.0
 20
0.0
 11
0.0
 21
0.0
 12
0.0
 22
0.0
 32
0.0
 14
0.0
 24
0.0
 34
0.0
 15
0.0
 25
0.0
 35
0.0
146
0.0
 13
0.0
 23
0.0
 33
0.0
 16
1.0
 26
0.0
 36
0.0
 17
0.0
 27
1.0
 37
0.0
 76
     0
330
23
  0
LAYOUT
  5
22
102
{ACAD_REACTORS
330
1A
102
}
330
1A
100
AcDbPlotSettings
  1

  2
none_device
  4
ANSI_A_(11.00_x_8.50_Inches)
  6

 40
6.35
 41
19.05
 42
6.35000508
 43
19.05000254
 44
279.4
 45
215.9
 46
137.1313456964519
 47
74.60753872107644
 48
0.0
 49
0.0
140
0.0
141
0.0
142
0.0718688043815392
143
1.0
 70
  1696
 72
     0
 73
     0
 74
     0
  7

 75
     0
147
0.0235690232323232
148
0.0
149
0.0
100
AcDbLayout
  1
Model
 70
     1
 71
     0
 10
0.0
 20
0.0
 11
420.0
 21
297.0
 12
0.0
 22
0.0
 32
0.0
 14
-50.00000000000002
 24
-35.68402299379932
 34
0.0
 15
74.96667499669128
 25
59.93609778227561
 35
0.0
146
0.0
 13
0.0
 23
0.0
 33
0.0
 16
1.0
 26
0.0
 36
0.0
 17
0.0
 27
1.0
 37
0.0
 76
     0
330
1F
331
29
  0
MLINESTYLE
  5
18
102
{ACAD_REACTORS
330
17
102
}
330
17
100
AcDbMlineStyle
  2
Standard
 70
     0
  3

 62
   256
 51
90.0
 52
90.0
 71
     2
 49
0.5
 62
   256
  6
BYLAYER
 49
-0.5
 62
   256
  6
BYLAYER
  0
ACDBPLACEHOLDER
  5
F
102
{ACAD_REACTORS
330
E
102
}
330
E
  0
SCALE
  5
48
102
{ACAD_REACTORS
330
47
102
}
330
47
100
AcDbScale
 70
     0
300
1:1
140
1.0
141
1.0
290
     1
  0
SCALE
  5
49
102
{ACAD_REACTORS
330
47
102
}
330
47
100
AcDbScale
 70
     0
300
1:2
140
1.0
141
2.0
290
     0
  0
SCALE
  5
4A
102
{ACAD_REACTORS
330
47
102
}
330
47
100
AcDbScale
 70
     0
300
1:4
140
1.0
141
4.0
290
     0
  0
SCALE
  5
4B
102
{ACAD_REACTORS
330
47
102
}
330
47
100
AcDbScale
 70
     0
300
1:5
140
1.0
141
5.0
290
     0
  0
SCALE
  5
4C
102
{ACAD_REACTORS
330
47
102
}
330
47
100
AcDbScale
 70
     0
300
1:8
140
1.0
141
8.0
290
     0
  0
SCALE
  5
4D
102
{ACAD_REACTORS
330
47
102
}
330
47
100
AcDbScale
 70
     0
300
1:10
140
1.0
141
10.0
290
     0
  0
SCALE
  5
4E
102
{ACAD_REACTORS
330
47
102
}
330
47
100
AcDbScale
 70
     0
300
1:16
140
1.0
141
16.0
290
     0
  0
SCALE
  5
4F
102
{ACAD_REACTORS
330
47
102
}
330
47
100
AcDbScale
 70
     0
300
1:20
140
1.0
141
20.0
290
     0
  0
SCALE
  5
50
102
{ACAD_REACTORS
330
47
102
}
330
47
100
AcDbScale
 70
     0
300
1:30
140
1.0
141
30.0
290
     0
  0
SCALE
  5
51
102
{ACAD_REACTORS
330
47
102
}
330
47
100
AcDbScale
 70
     0
300
1:40
140
1.0
141
40.0
290
     0
  0
SCALE
  5
52
102
{ACAD_REACTORS
330
47
102
}
330
47
100
AcDbScale
 70
     0
300
1:50
140
1.0
141
50.0
290
     0
  0
SCALE
  5
53
102
{ACAD_REACTORS
330
47
102
}
330
47
100
AcDbScale
 70
     0
300
1:100
140
1.0
141
100.0
290
     0
  0
SCALE
  5
54
102
{ACAD_REACTORS
330
47
102
}
330
47
100
AcDbScale
 70
     0
300
2:1
140
2.0
141
1.0
290
     0
  0
SCALE
  5
55
102
{ACAD_REACTORS
330
47
102
}
330
47
100
AcDbScale
 70
     0
300
4:1
140
4.0
141
1.0
290
     0
  0
SCALE
  5
56
102
{ACAD_REACTORS
330
47
102
}
330
47
100
AcDbScale
 70
     0
300
8:1
140
8.0
141
1.0
290
     0
  0
SCALE
  5
57
102
{ACAD_REACTORS
330
47
102
}
330
47
100
AcDbScale
 70
     0
300
10:1
140
10.0
141
1.0
290
     0
  0
SCALE
  5
58
102
{ACAD_REACTORS
330
47
102
}
330
47
100
AcDbScale
 70
     0
300
100:1
140
100.0
141
1.0
290
     0
  0
SCALE
  5
59
102
{ACAD_REACTORS
330
47
102
}
330
47
100
AcDbScale
 70
     0
300
1/128" = 1'-0"
140
0.0078125
141
12.0
290
     0
  0
SCALE
  5
5A
102
{ACAD_REACTORS
330
47
102
}
330
47
100
AcDbScale
 70
     0
300
1/64" = 1'-0"
140
0.015625
141
12.0
290
     0
  0
SCALE
  5
5B
102
{ACAD_REACTORS
330
47
102
}
330
47
100
AcDbScale
 70
     0
300
1/32" = 1'-0"
140
0.03125
141
12.0
290
     0
  0
SCALE
  5
5C
102
{ACAD_REACTORS
330
47
102
}
330
47
100
AcDbScale
 70
     0
300
1/16" = 1'-0"
140
0.0625
141
12.0
290
     0
  0
SCALE
  5
5D
102
{ACAD_REACTORS
330
47
102
}
330
47
100
AcDbScale
 70
     0
300
3/32" = 1'-0"
140
0.09375
141
12.0
290
     0
  0
SCALE
  5
5E
102
{ACAD_REACTORS
330
47
102
}
330
47
100
AcDbScale
 70
     0
300
1/8" = 1'-0"
140
0.125
141
12.0
290
     0
  0
SCALE
  5
5F
102
{ACAD_REACTORS
330
47
102
}
330
47
100
AcDbScale
 70
     0
300
3/16" = 1'-0"
140
0.1875
141
12.0
290
     0
  0
SCALE
  5
60
102
{ACAD_REACTORS
330
47
102
}
330
47
100
AcDbScale
 70
     0
300
1/4" = 1'-0"
140
0.25
141
12.0
290
     0
  0
SCALE
  5
61
102
{ACAD_REACTORS
330
47
102
}
330
47
100
AcDbScale
 70
     0
300
3/8" = 1'-0"
140
0.375
141
12.0
290
     0
  0
SCALE
  5
62
102
{ACAD_REACTORS
330
47
102
}
330
47
100
AcDbScale
 70
     0
300
1/2" = 1'-0"
140
0.5
141
12.0
290
     0
  0
SCALE
  5
63
102
{ACAD_REACTORS
330
47
102
}
330
47
100
AcDbScale
 70
     0
300
3/4" = 1'-0"
140
0.75
141
12.0
290
     0
  0
SCALE
  5
64
102
{ACAD_REACTORS
330
47
102
}
330
47
100
AcDbScale
 70
     0
300
1" = 1'-0"
140
1.0
141
12.0
290
     0
  0
SCALE
  5
65
102
{ACAD_REACTORS
330
47
102
}
330
47
100
AcDbScale
 70
     0
300
1-1/2" = 1'-0"
140
1.5
141
12.0
290
     0
  0
SCALE
  5
66
102
{ACAD_REACTORS
330
47
102
}
330
47
100
AcDbScale
 70
     0
300
3" = 1'-0"
140
3.0
141
12.0
290
     0
  0
SCALE
  5
67
102
{ACAD_REACTORS
330
47
102
}
330
47
100
AcDbScale
 70
     0
300
6" = 1'-0"
140
6.0
141
12.0
290
     0
  0
SCALE
  5
68
102
{ACAD_REACTORS
330
47
102
}
330
47
100
AcDbScale
 70
     0
300
1'-0" = 1'-0"
140
12.0
141
12.0
290
     0
  0
ENDSEC
  0
EOF
