  0
SECTION
  2
HEADER
  9
$ACADVER
  1
AC1015
  9
$ACADMAINTVER
 70
     6
  9
$DWGCODEPAGE
  3
ANSI_949
  9
$INSBASE
 10
0.0
 20
0.0
 30
0.0
  9
$EXTMIN
 10
-51.1032261241995
 20
-38.08645350357097
 30
0.0
  9
$EXTMAX
 10
72.54534783066889
 20
61.4600977822756
 30
0.0
  9
$LIMMIN
 10
0.0
 20
0.0
  9
$LIMMAX
 10
420.0
 20
297.0
  9
$ORTHOMODE
 70
     1
  9
$REGENMODE
 70
     1
  9
$FILLMODE
 70
     1
  9
$QTEXTMODE
 70
     0
  9
$MIRRTEXT
 70
     1
  9
$LTSCALE
 40
1.0
  9
$ATTMODE
 70
     1
  9
$TEXTSIZE
 40
3.5
  9
$TRACEWID
 40
1.0
  9
$TEXTSTYLE
  7
Standard
  9
$CLAYER
  8
0
  9
$CELTYPE
  6
ByLayer
  9
$CECOLOR
 62
   256
  9
$CELTSCALE
 40
1.0
  9
$DISPSILH
 70
     0
  9
$DIMSCALE
 40
1.0
  9
$DIMASZ
 40
3.302
  9
$DIMEXO
 40
1.0
  9
$DIMDLI
 40
3.75
  9
$DIMRND
 40
0.0
  9
$DIMDLE
 40
0.0
  9
$DIMEXE
 40
1.0
  9
$DIMTP
 40
0.0
  9
$DIMTM
 40
0.0
  9
$DIMTXT
 40
3.5
  9
$DIMCEN
 40
2.5
  9
$DIMTSZ
 40
0.0
  9
$DIMTOL
 70
     0
  9
$DIMLIM
 70
     0
  9
$DIMTIH
 70
     1
  9
$DIMTOH
 70
     1
  9
$DIMSE1
 70
     0
  9
$DIMSE2
 70
     0
  9
$DIMTAD
 70
     1
  9
$DIMZIN
 70
     0
  9
$DIMBLK
  1

  9
$DIMASO
 70
     1
  9
$DIMSHO
 70
     1
  9
$DIMPOST
  1

  9
$DIMAPOST
  1

  9
$DIMALT
 70
     0
  9
$DIMALTD
 70
     3
  9
$DIMALTF
 40
0.0393700787401575
  9
$DIMLFAC
 40
1.0
  9
$DIMTOFL
 70
     1
  9
$DIMTVP
 40
0.0
  9
$DIMTIX
 70
     0
  9
$DIMSOXD
 70
     0
  9
$DIMSAH
 70
     0
  9
$DIMBLK1
  1

  9
$DIMBLK2
  1

  9
$DIMSTYLE
  2
ISO-25
  9
$DIMCLRD
 70
     0
  9
$DIMCLRE
 70
     0
  9
$DIMCLRT
 70
     0
  9
$DIMTFAC
 40
1.0
  9
$DIMGAP
 40
1.524
  9
$DIMJUST
 70
     0
  9
$DIMSD1
 70
     0
  9
$DIMSD2
 70
     0
  9
$DIMTOLJ
 70
     0
  9
$DIMTZIN
 70
     0
  9
$DIMALTZ
 70
     0
  9
$DIMALTTZ
 70
     0
  9
$DIMUPT
 70
     0
  9
$DIMDEC
 70
     2
  9
$DIMTDEC
 70
     2
  9
$DIMALTU
 70
     2
  9
$DIMALTTD
 70
     3
  9
$DIMTXSTY
  7
Standard
  9
$DIMAUNIT
 70
     0
  9
$DIMADEC
 70
     2
  9
$DIMALTRND
 40
0.0
  9
$DIMAZIN
 70
     0
  9
$DIMDSEP
 70
    44
  9
$DIMATFIT
 70
     3
  9
$DIMFRAC
 70
     0
  9
$DIMLDRBLK
  1

  9
$DIMLUNIT
 70
     2
  9
$DIMLWD
 70
    -2
  9
$DIMLWE
 70
    -2
  9
$DIMTMOVE
 70
     0
  9
$LUNITS
 70
     2
  9
$LUPREC
 70
     2
  9
$SKETCHINC
 40
1.0
  9
$FILLETRAD
 40
10.0
  9
$AUNITS
 70
     0
  9
$AUPREC
 70
     2
  9
$MENU
  1
.
  9
$ELEVATION
 40
0.0
  9
$PELEVATION
 40
0.0
  9
$THICKNESS
 40
0.0
  9
$LIMCHECK
 70
     0
  9
$CHAMFERA
 40
0.0
  9
$CHAMFERB
 40
0.0
  9
$CHAMFERC
 40
0.0
  9
$CHAMFERD
 40
0.0
  9
$SKPOLY
 70
     0
  9
$TDCREATE
 40
2458269.430798912
  9
$TDUCREATE
 40
2458269.055798912
  9
$TDUPDATE
 40
2458269.850590729
  9
$TDUUPDATE
 40
2458269.475590729
  9
$TDINDWG
 40
0.000958588
  9
$TDUSRTIMER
 40
2458269.47525037
  9
$USRTIMER
 70
     1
  9
$ANGBASE
 50
0.0
  9
$ANGDIR
 70
     0
  9
$PDMODE
 70
     0
  9
$PDSIZE
 40
-1.0
  9
$PLINEWID
 40
0.0
  9
$SPLFRAME
 70
     0
  9
$SPLINETYPE
 70
     6
  9
$SPLINESEGS
 70
     8
  9
$HANDSEED
  5
179
  9
$SURFTAB1
 70
     6
  9
$SURFTAB2
 70
     6
  9
$SURFTYPE
 70
     6
  9
$SURFU
 70
     6
  9
$SURFV
 70
     6
  9
$UCSBASE
  2

  9
$UCSNAME
  2

  9
$UCSORG
 10
0.0
 20
0.0
 30
0.0
  9
$UCSXDIR
 10
1.0
 20
0.0
 30
0.0
  9
$UCSYDIR
 10
0.0
 20
1.0
 30
0.0
  9
$UCSORTHOREF
  2

  9
$UCSORTHOVIEW
 70
     0
  9
$UCSORGTOP
 10
0.0
 20
0.0
 30
0.0
  9
$UCSORGBOTTOM
 10
0.0
 20
0.0
 30
0.0
  9
$UCSORGLEFT
 10
0.0
 20
0.0
 30
0.0
  9
$UCSORGRIGHT
 10
0.0
 20
0.0
 30
0.0
  9
$UCSORGFRONT
 10
0.0
 20
0.0
 30
0.0
  9
$UCSORGBACK
 10
0.0
 20
0.0
 30
0.0
  9
$PUCSBASE
  2

  9
$PUCSNAME
  2

  9
$PUCSORG
 10
0.0
 20
0.0
 30
0.0
  9
$PUCSXDIR
 10
1.0
 20
0.0
 30
0.0
  9
$PUCSYDIR
 10
0.0
 20
1.0
 30
0.0
  9
$PUCSORTHOREF
  2

  9
$PUCSORTHOVIEW
 70
     0
  9
$PUCSORGTOP
 10
0.0
 20
0.0
 30
0.0
  9
$PUCSORGBOTTOM
 10
0.0
 20
0.0
 30
0.0
  9
$PUCSORGLEFT
 10
0.0
 20
0.0
 30
0.0
  9
$PUCSORGRIGHT
 10
0.0
 20
0.0
 30
0.0
  9
$PUCSORGFRONT
 10
0.0
 20
0.0
 30
0.0
  9
$PUCSORGBACK
 10
0.0
 20
0.0
 30
0.0
  9
$USERI1
 70
     0
  9
$USERI2
 70
     0
  9
$USERI3
 70
     0
  9
$USERI4
 70
     0
  9
$USERI5
 70
     0
  9
$USERR1
 40
0.0
  9
$USERR2
 40
0.0
  9
$USERR3
 40
0.0
  9
$USERR4
 40
0.0
  9
$USERR5
 40
0.0
  9
$WORLDVIEW
 70
     1
  9
$SHADEDGE
 70
     3
  9
$SHADEDIF
 70
    70
  9
$TILEMODE
 70
     1
  9
$MAXACTVP
 70
    64
  9
$PINSBASE
 10
0.0
 20
0.0
 30
0.0
  9
$PLIMCHECK
 70
     0
  9
$PEXTMIN
 10
1.000000000000000E+20
 20
1.000000000000000E+20
 30
1.000000000000000E+20
  9
$PEXTMAX
 10
-1.000000000000000E+20
 20
-1.000000000000000E+20
 30
-1.000000000000000E+20
  9
$PLIMMIN
 10
0.0
 20
0.0
  9
$PLIMMAX
 10
0.0
 20
0.0
  9
$UNITMODE
 70
     0
  9
$VISRETAIN
 70
     1
  9
$PLINEGEN
 70
     0
  9
$PSLTSCALE
 70
     1
  9
$TREEDEPTH
 70
  3020
  9
$CMLSTYLE
  2
Standard
  9
$CMLJUST
 70
     0
  9
$CMLSCALE
 40
20.0
  9
$PROXYGRAPHICS
 70
     1
  9
$MEASUREMENT
 70
     1
  9
$CELWEIGHT
370
    -1
  9
$ENDCAPS
280
     0
  9
$JOINSTYLE
280
     0
  9
$LWDISPLAY
290
     1
  9
$INSUNITS
 70
     4
  9
$HYPERLINKBASE
  1

  9
$STYLESHEET
  1

  9
$XEDIT
290
     1
  9
$CEPSNTYPE
380
     0
  9
$PSTYLEMODE
290
     1
  9
$FINGERPRINTGUID
  2
{D62617CD-C19C-49AF-B12D-5F2A66CB13A3}
  9
$VERSIONGUID
  2
{FAEB1C32-E019-11D5-929B-00C0DF256EC4}
  9
$EXTNAMES
290
     1
  9
$PSVPSCALE
 40
0.0
  9
$OLESTARTUP
290
     0
  0
ENDSEC
  0
SECTION
  2
CLASSES
  0
CLASS
  1
ACDBDICTIONARYWDFLT
  2
AcDbDictionaryWithDefault
  3
ObjectDBX Classes
 90
        0
280
     0
281
     0
  0
CLASS
  1
VISUALSTYLE
  2
AcDbVisualStyle
  3
ObjectDBX Classes
 90
     4095
280
     0
281
     0
  0
CLASS
  1
MATERIAL
  2
AcDbMaterial
  3
ObjectDBX Classes
 90
     1153
280
     0
281
     0
  0
CLASS
  1
SCALE
  2
AcDbScale
  3
ObjectDBX Classes
 90
     1153
280
     0
281
     0
  0
CLASS
  1
SUN
  2
AcDbSun
  3
SCENEOE
 90
     1153
280
     0
281
     0
  0
CLASS
  1
ACDBPLACEHOLDER
  2
AcDbPlaceHolder
  3
ObjectDBX Classes
 90
        0
280
     0
281
     0
  0
CLASS
  1
LAYOUT
  2
AcDbLayout
  3
ObjectDBX Classes
 90
        0
280
     0
281
     0
  0
CLASS
  1
TABLESTYLE
  2
AcDbTableStyle
  3
ObjectDBX Classes
 90
     4095
280
     0
281
     0
  0
CLASS
  1
MLEADERSTYLE
  2
AcDbMLeaderStyle
  3
ACDB_MLEADERSTYLE_CLASS
 90
     4095
280
     0
281
     0
  0
CLASS
  1
RASTERVARIABLES
  2
AcDbRasterVariables
  3
ISM
 90
        0
280
     0
281
     0
  0
CLASS
  1
DIMASSOC
  2
AcDbDimAssoc
  3
"AcDbDimAssoc|Product Desc:     AcDim ARX App For Dimension|Company:          Autodesk, Inc.|WEB Address:      www.autodesk.com"
 90
        0
280
     0
281
     0
  0
ENDSEC
  0
SECTION
  2
TABLES
  0
TABLE
  2
VPORT
  5
8
330
0
100
AcDbSymbolTable
 70
     1
  0
VPORT
  5
29
330
8
100
AcDbSymbolTableRecord
100
AcDbViewportTableRecord
  2
*Active
 70
     0
 10
0.0
 20
0.0
 11
1.0
 21
1.0
 12
31.79907637080602
 22
5.219617558845718
 13
0.0
 23
0.0
 14
10.0
 24
10.0
 15
10.0
 25
10.0
 16
0.0
 26
0.0
 36
1.0
 17
0.0
 27
0.0
 37
0.0
 40
122.3847558998844
 41
1.970186335403727
 42
50.0
 43
0.0
 44
0.0
 50
0.0
 51
0.0
 71
    16
 72
  2000
 73
     1
 74
     3
 75
     0
 76
     0
 77
     0
 78
     0
281
     0
 65
     1
110
0.0
120
0.0
130
0.0
111
1.0
121
0.0
131
0.0
112
0.0
122
1.0
132
0.0
 79
     0
146
0.0
  0
ENDTAB
  0
TABLE
  2
LTYPE
  5
5
330
0
100
AcDbSymbolTable
 70
     6
  0
LTYPE
  5
14
330
5
100
AcDbSymbolTableRecord
100
AcDbLinetypeTableRecord
  2
ByBlock
 70
     0
  3

 72
    65
 73
     0
 40
0.0
  0
LTYPE
  5
15
330
5
100
AcDbSymbolTableRecord
100
AcDbLinetypeTableRecord
  2
ByLayer
 70
     0
  3

 72
    65
 73
     0
 40
0.0
  0
LTYPE
  5
16
330
5
100
AcDbSymbolTableRecord
100
AcDbLinetypeTableRecord
  2
Continuous
 70
     0
  3
Solid line
 72
    65
 73
     0
 40
0.0
  0
LTYPE
  5
6A
330
5
100
AcDbSymbolTableRecord
100
AcDbLinetypeTableRecord
  2
HIDDEN
 70
     0
  3
Hidden __ __ __ __ __ __ __ __ __ __ __ __ __ __
 72
    65
 73
     2
 40
1.905
 49
1.27
 74
     0
 49
-0.635
 74
     0
  0
LTYPE
  5
6B
330
5
100
AcDbSymbolTableRecord
100
AcDbLinetypeTableRecord
  2
PHANTOM
 70
     0
  3
Phantom ______  __  __  ______  __  __  ______
 72
    65
 73
     6
 40
12.7
 49
6.35
 74
     0
 49
-1.27
 74
     0
 49
1.27
 74
     0
 49
-1.27
 74
     0
 49
1.27
 74
     0
 49
-1.27
 74
     0
  0
LTYPE
  5
6C
330
5
100
AcDbSymbolTableRecord
100
AcDbLinetypeTableRecord
  2
CENTER
 70
     0
  3
Center ____ _ ____ _ ____ _ ____ _ ____ _ ____
 72
    65
 73
     4
 40
10.16
 49
6.35
 74
     0
 49
-1.27
 74
     0
 49
1.27
 74
     0
 49
-1.27
 74
     0
  0
LTYPE
  5
6D
330
5
100
AcDbSymbolTableRecord
100
AcDbLinetypeTableRecord
  2
CENTERX2
 70
     0
  3
Center (2x) ________  __  ________  __  _____
 72
    65
 73
     4
 40
20.32
 49
12.7
 74
     0
 49
-2.54
 74
     0
 49
2.54
 74
     0
 49
-2.54
 74
     0
  0
LTYPE
  5
6E
330
5
100
AcDbSymbolTableRecord
100
AcDbLinetypeTableRecord
  2
DOT2
 70
     0
  3
Dot (.5x) ........................................
 72
    65
 73
     2
 40
0.635
 49
0.0
 74
     0
 49
-0.635
 74
     0
  0
ENDTAB
  0
TABLE
  2
LAYER
  5
2
330
0
100
AcDbSymbolTable
 70
    17
  0
LAYER
  5
10
330
2
100
AcDbSymbolTableRecord
100
AcDbLayerTableRecord
  2
0
 70
     0
 62
     7
  6
Continuous
370
    -3
390
F
  0
LAYER
  5
6F
330
2
100
AcDbSymbolTableRecord
100
AcDbLayerTableRecord
  2
FORMAT
 70
     0
 62
     2
  6
Continuous
370
    -3
390
F
  0
LAYER
  5
70
330
2
100
AcDbSymbolTableRecord
100
AcDbLayerTableRecord
  2
외형선
 70
     0
 62
   100
  6
Continuous
370
    30
390
F
  0
LAYER
  5
71
330
2
100
AcDbSymbolTableRecord
100
AcDbLayerTableRecord
  2
숨은선
 70
     0
 62
     2
  6
HIDDEN
370
    15
390
F
  0
LAYER
  5
72
330
2
100
AcDbSymbolTableRecord
100
AcDbLayerTableRecord
  2
중심선
 70
     0
 62
     1
  6
CENTERX2
370
    -3
390
F
  0
LAYER
  5
73
330
2
100
AcDbSymbolTableRecord
100
AcDbLayerTableRecord
  2
파단선
 70
     0
 62
     4
  6
Continuous
370
    -3
390
F
  0
LAYER
  5
74
330
2
100
AcDbSymbolTableRecord
100
AcDbLayerTableRecord
  2
해칭선
 70
     0
 62
     4
  6
Continuous
370
    -3
390
F
  0
LAYER
  5
75
330
2
100
AcDbSymbolTableRecord
100
AcDbLayerTableRecord
  2
가는실선
 70
     0
 62
     4
  6
Continuous
370
    -3
390
F
  0
LAYER
  5
76
330
2
100
AcDbSymbolTableRecord
100
AcDbLayerTableRecord
  2
치수_보조선
 70
     0
 62
     4
  6
Continuous
370
    -3
390
F
  0
LAYER
  5
77
330
2
100
AcDbSymbolTableRecord
100
AcDbLayerTableRecord
  2
치수문자_일반주서
 70
     0
 62
     7
  6
Continuous
370
    15
390
F
  0
LAYER
  5
78
330
2
100
AcDbSymbolTableRecord
100
AcDbLayerTableRecord
  2
개별주서
 70
     0
 62
   100
  6
Continuous
370
    30
390
F
  0
LAYER
  5
79
330
2
100
AcDbSymbolTableRecord
100
AcDbLayerTableRecord
  2
중간선
 70
     0
 62
     2
  6
Continuous
370
    15
390
F
  0
LAYER
  5
7A
330
2
100
AcDbSymbolTableRecord
100
AcDbLayerTableRecord
  2
윤곽선
 70
     0
 62
     3
  6
Continuous
370
    40
390
F
  0
LAYER
  5
7B
330
2
100
AcDbSymbolTableRecord
100
AcDbLayerTableRecord
  2
중심마크
 70
     0
 62
   100
  6
Continuous
370
    30
390
F
  0
LAYER
  5
7C
330
2
100
AcDbSymbolTableRecord
100
AcDbLayerTableRecord
  2
가상선
 70
     0
 62
     4
  6
PHANTOM
370
    -3
390
F
  0
LAYER
  5
7D
330
2
100
AcDbSymbolTableRecord
100
AcDbLayerTableRecord
  2
특수지정선
 70
     0
 62
     5
  6
CENTERX2
370
    60
390
F
  0
LAYER
  5
13C
330
2
100
AcDbSymbolTableRecord
100
AcDbLayerTableRecord
  2
Defpoints
 70
     0
 62
     7
  6
Continuous
290
     0
370
    -3
390
F
  0
ENDTAB
  0
TABLE
  2
STYLE
  5
3
330
0
100
AcDbSymbolTable
 70
     2
  0
STYLE
  5
11
330
3
100
AcDbSymbolTableRecord
100
AcDbTextStyleTableRecord
  2
Standard
 70
     0
 40
0.0
 41
1.0
 50
0.0
 71
     0
 42
3.5
  3
txt
  4

  0
STYLE
  5
93
330
3
100
AcDbSymbolTableRecord
100
AcDbTextStyleTableRecord
  2
SLDTEXTSTYLE0
 70
     0
 40
0.0
 41
0.75
 50
0.0
 71
     0
 42
3.5
  3
TXT
  4

  0
ENDTAB
  0
TABLE
  2
VIEW
  5
6
330
0
100
AcDbSymbolTable
 70
     0
  0
ENDTAB
  0
TABLE
  2
UCS
  5
7
330
0
100
AcDbSymbolTable
 70
     0
  0
ENDTAB
  0
TABLE
  2
APPID
  5
9
330
0
100
AcDbSymbolTable
 70
     3
  0
APPID
  5
12
330
9
100
AcDbSymbolTableRecord
100
AcDbRegAppTableRecord
  2
ACAD
 70
     0
  0
APPID
  5
162
330
9
100
AcDbSymbolTableRecord
100
AcDbRegAppTableRecord
  2
ACAD_DSTYLE_DIMRADIAL_EXTENSION
 70
     0
  0
APPID
  5
173
330
9
100
AcDbSymbolTableRecord
100
AcDbRegAppTableRecord
  2
PE_DIMMEASUREMENT
 70
     0
  0
ENDTAB
  0
TABLE
  2
DIMSTYLE
  5
A
330
0
100
AcDbSymbolTable
 70
     4
100
AcDbDimStyleTable
  0
DIMSTYLE
105
27
330
A
100
AcDbSymbolTableRecord
100
AcDbDimStyleTableRecord
  2
ISO-25
 70
     0
 41
2.5
 42
0.625
 43
3.75
 44
1.25
 73
     0
 74
     0
 77
     1
 78
     8
140
2.5
141
2.5
143
0.03937007874016
147
0.625
171
     3
172
     1
178
     0
271
     2
272
     2
274
     3
278
    44
283
     0
284
     8
340
11
  0
DIMSTYLE
105
D1
102
{ACAD_REACTORS
330
D0
102
}
330
A
100
AcDbSymbolTableRecord
100
AcDbDimStyleTableRecord
  2
SLDDIMSTYLE0
 70
     0
 41
3.302
 44
0.0
 45
0.000000001
 73
     0
 74
     0
 77
     1
 78
    12
 79
     3
140
3.5
143
0.0393700787401575
147
0.875
148
0.000000001
170
     1
173
     1
178
     0
271
     2
272
     2
276
     2
284
    12
340
93
  0
DIMSTYLE
105
E5
102
{ACAD_REACTORS
330
E4
102
}
330
A
100
AcDbSymbolTableRecord
100
AcDbDimStyleTableRecord
  2
SLDDIMSTYLE1
 70
     0
 41
3.302
 44
0.0
 45
0.000000001
 73
     0
 74
     0
 77
     1
 78
     4
 79
     1
140
3.5
143
0.0393700787401575
147
0.875
148
0.000000001
170
     1
173
     1
178
     0
271
     2
272
     2
276
     2
284
    12
340
93
  0
DIMSTYLE
105
F9
102
{ACAD_REACTORS
330
F8
330
150
330
163
102
}
330
A
100
AcDbSymbolTableRecord
100
AcDbDimStyleTableRecord
  2
SLDDIMSTYLE2
 70
     0
 41
3.302
 44
0.0
 45
0.000000001
 73
     0
 74
     0
 77
     1
 78
    12
 79
     3
140
3.5
143
0.0393700787401575
147
0.875
148
0.000000001
170
     1
172
     1
173
     1
178
     0
271
     2
272
     2
276
     2
284
    12
289
     0
340
93
  0
ENDTAB
  0
TABLE
  2
BLOCK_RECORD
  5
1
330
0
100
AcDbSymbolTable
 70
     9
  0
BLOCK_RECORD
  5
1F
330
1
100
AcDbSymbolTableRecord
100
AcDbBlockTableRecord
  2
*Model_Space
340
22
  0
BLOCK_RECORD
  5
1B
330
1
100
AcDbSymbolTableRecord
100
AcDbBlockTableRecord
  2
*Paper_Space
340
1E
  0
BLOCK_RECORD
  5
23
330
1
100
AcDbSymbolTableRecord
100
AcDbBlockTableRecord
  2
*Paper_Space0
340
26
  0
BLOCK_RECORD
  5
7E
330
1
100
AcDbSymbolTableRecord
100
AcDbBlockTableRecord
  2
블럭10
340
0
102
{BLKREFS
331
C8
102
}
  0
BLOCK_RECORD
  5
D2
330
1
100
AcDbSymbolTableRecord
100
AcDbBlockTableRecord
  2
_D
340
0
  0
BLOCK_RECORD
  5
E6
330
1
100
AcDbSymbolTableRecord
100
AcDbBlockTableRecord
  2
_D_1
340
0
  0
BLOCK_RECORD
  5
FA
330
1
100
AcDbSymbolTableRecord
100
AcDbBlockTableRecord
  2
_D_2
340
0
  0
BLOCK_RECORD
  5
10D
330
1
100
AcDbSymbolTableRecord
100
AcDbBlockTableRecord
  2
SW_DOWELSYMBOL_0
340
0
102
{BLKREFS
331
113
102
}
  0
BLOCK_RECORD
  5
142
330
1
100
AcDbSymbolTableRecord
100
AcDbBlockTableRecord
  2
*D6
340
0
  0
BLOCK_RECORD
  5
153
330
1
100
AcDbSymbolTableRecord
100
AcDbBlockTableRecord
  2
*D7
340
0
  0
BLOCK_RECORD
  5
166
330
1
100
AcDbSymbolTableRecord
100
AcDbBlockTableRecord
  2
*D8
340
0
  0
ENDTAB
  0
ENDSEC
  0
SECTION
  2
BLOCKS
  0
BLOCK
  5
20
330
1F
100
AcDbEntity
  8
0
100
AcDbBlockBegin
  2
*Model_Space
 70
     0
 10
0.0
 20
0.0
 30
0.0
  3
*Model_Space
  1
*Model_Space
  0
ENDBLK
  5
21
330
1F
100
AcDbEntity
  8
0
100
AcDbBlockEnd
  0
BLOCK
  5
1C
330
1B
100
AcDbEntity
 67
     1
  8
0
100
AcDbBlockBegin
  2
*Paper_Space
 70
     0
 10
0.0
 20
0.0
 30
0.0
  3
*Paper_Space
  1
*Paper_Space
  0
ENDBLK
  5
1D
330
1B
100
AcDbEntity
 67
     1
  8
0
100
AcDbBlockEnd
  0
BLOCK
  5
24
330
23
100
AcDbEntity
  8
0
100
AcDbBlockBegin
  2
*Paper_Space0
 70
     0
 10
0.0
 20
0.0
 30
0.0
  3
*Paper_Space0
  1
*Paper_Space0
  0
ENDBLK
  5
25
330
23
100
AcDbEntity
  8
0
100
AcDbBlockEnd
  0
BLOCK
  5
7F
330
7E
100
AcDbEntity
  8
0
100
AcDbBlockBegin
  2
블럭10
 70
     2
 10
0.0
 20
0.0
 30
0.0
  3
블럭10
  1
블럭10
  0
ELLIPSE
  5
81
330
7E
100
AcDbEntity
  8
중심선
100
AcDbEllipse
 10
20.54032771741204
 20
12.0471743016438
 30
0.0
 11
6.600054785286829
 21
-1.261213355974178E-13
 31
0.0
210
0.0
220
0.0
230
1.0
 40
0.636358354079598
 41
0.9219305317359503
 42
6.513795318482858
  0
ELLIPSE
  5
82
330
7E
100
AcDbEntity
  8
중심선
100
AcDbEllipse
 10
20.54032771746488
 20
12.04717430159265
 30
0.0
 11
3.960054785062283
 21
1.540847449632565E-10
 31
0.0
210
0.0
220
0.0
230
1.0
 40
0.3939339440162632
 41
1.131841032648279
 42
5.62031148352944
  0
LINE
  5
83
330
7E
100
AcDbEntity
  8
중심선
100
AcDbLine
 10
2.268634060543552
 20
16.24717430164393
 30
0.0
 11
5.714909304380834
 21
16.24717430164393
 31
0.0
  0
LINE
  5
84
330
7E
100
AcDbEntity
  8
중심선
100
AcDbLine
 10
5.245725140726316
 20
7.84717430164391
 30
0.0
 11
8.692000384563599
 21
7.84717430164391
 31
0.0
  0
LINE
  5
85
330
7E
100
AcDbEntity
  8
중심선
100
AcDbLine
 10
15.74043728645272
 20
16.24717430164393
 30
0.0
 11
8.692000384563599
 21
7.84717430164391
 31
0.0
  0
LINE
  5
86
330
7E
100
AcDbEntity
  8
중심선
100
AcDbLine
 10
0.1404042013395286
 20
13.71084872107135
 30
0.0
 11
3.58671253028996
 21
13.71088815037384
 31
0.0
  0
LINE
  5
87
330
7E
100
AcDbEntity
  8
중심선
100
AcDbLine
 10
2.750260043222114
 20
10.84717430164391
 30
0.0
 11
6.196535287059397
 21
10.84717430164391
 31
0.0
  0
LINE
  5
88
330
7E
100
AcDbEntity
  8
중심선
100
AcDbLine
 10
12.29416204261559
 20
16.24717430164393
 30
0.0
 11
5.245725140726316
 21
7.84717430164391
 31
0.0
  0
LINE
  5
89
330
7E
100
AcDbEntity
  8
중심선
100
AcDbLine
 10
10.72767329541681
 20
16.24717430164393
 30
0.0
 11
6.196535287059397
 21
10.84717430164391
 31
0.0
  0
LINE
  5
8A
330
7E
100
AcDbEntity
  8
중심선
100
AcDbLine
 10
7.28139805157953
 20
16.24717430164393
 30
0.0
 11
2.750260043222114
 21
10.84717430164391
 31
0.0
  0
LINE
  5
8B
330
7E
100
AcDbEntity
  8
중심선
100
AcDbLine
 10
5.714909304380834
 20
16.24717430164393
 30
0.0
 11
3.58671253028996
 21
13.71088815037384
 31
0.0
  0
LINE
  5
8C
330
7E
100
AcDbEntity
  8
중심선
100
AcDbLine
 10
2.268634060543552
 20
16.24717430164393
 30
0.0
 11
0.1404042013395286
 21
13.71084872107135
 31
0.0
  0
LINE
  5
8D
330
7E
100
AcDbEntity
  8
중심선
100
AcDbLine
 10
7.28139805157953
 20
16.24717430164393
 30
0.0
 11
10.72767329541681
 21
16.24717430164393
 31
0.0
  0
LINE
  5
8E
330
7E
100
AcDbEntity
  8
중심선
100
AcDbLine
 10
12.29416204261559
 20
16.24717430164393
 30
0.0
 11
15.74043728645272
 21
16.24717430164393
 31
0.0
  0
LINE
  5
8F
330
7E
100
AcDbEntity
  8
중심선
100
AcDbLine
 10
19.22036997980202
 20
11.08717430171403
 30
0.0
 11
23.66174974927406
 21
11.08717430171406
 31
0.0
  0
LINE
  5
90
330
7E
100
AcDbEntity
  8
중심선
100
AcDbLine
 10
19.22039502424796
 20
13.00717430171391
 30
0.0
 11
19.22036997980202
 21
11.08717430171403
 31
0.0
  0
LINE
  5
91
330
7E
100
AcDbEntity
  8
중심선
100
AcDbLine
 10
19.22039502424796
 20
13.00717430171391
 30
0.0
 11
26.96566020931264
 21
13.00717430171391
 31
0.0
  0
LINE
  5
92
330
7E
100
AcDbEntity
  8
중심선
100
AcDbLine
 10
22.22332737316547
 20
13.45928029700563
 30
0.0
 11
24.52862924686651
 21
15.39360700705356
 31
0.0
  0
ATTDEF
  5
94
330
7E
100
AcDbEntity
  8
FORMAT
 62
     2
100
AcDbText
 10
-9.18129528874128
 20
2.075366912832191
 30
0.0
 40
4.233333333333333
  1
E5983040 [ 3 FLUTE ]
 41
0.75
  7
SLDTEXTSTYLE0
 11
-9.18129528874128
 21
-0.0412997538344756
 31
0.0
100
AcDbAttributeDefinition
  3

  2
AUTOATTR0
 70
     0
 74
     1
  0
ENDBLK
  5
80
330
7E
100
AcDbEntity
  8
0
100
AcDbBlockEnd
  0
BLOCK
  5
D3
330
D2
100
AcDbEntity
  8
0
100
AcDbBlockBegin
  2
_D
 70
     0
 10
0.0
 20
0.0
 30
0.0
  3
_D
  1
_D
  0
LINE
  5
D5
330
D2
100
AcDbEntity
  8
치수문자_일반주서
 62
     0
370
    -2
100
AcDbLine
 10
53.27500000000008
 20
8.0625
 30
0.0
 11
53.27500000000008
 21
30.13579535053692
 31
0.0
  0
LINE
  5
D6
330
D2
100
AcDbEntity
  8
치수문자_일반주서
 62
     0
370
    -2
100
AcDbLine
 10
12.00000000000009
 20
8.0
 30
0.0
 11
12.00000000000009
 21
30.13579535053692
 31
0.0
  0
LINE
  5
D7
330
D2
100
AcDbEntity
  8
치수문자_일반주서
 62
     0
370
    -2
100
AcDbLine
 10
49.97300000000008
 20
30.13579535053692
 30
0.0
 11
15.30200000000008
 21
30.13579535053692
 31
0.0
  0
SOLID
  5
D8
330
D2
100
AcDbEntity
  8
치수문자_일반주서
 62
     0
100
AcDbTrace
 10
49.97300000000008
 20
29.58546201720358
 30
0.0
 11
49.97300000000008
 21
30.68612868387025
 31
0.0
 12
53.27500000000008
 22
30.13579535053692
 32
0.0
 13
53.27500000000008
 23
30.13579535053692
 33
0.0
  0
SOLID
  5
D9
330
D2
100
AcDbEntity
  8
치수문자_일반주서
 62
     0
100
AcDbTrace
 10
15.30200000000008
 20
30.68612868387025
 30
0.0
 11
15.30200000000008
 21
29.58546201720358
 31
0.0
 12
12.00000000000009
 22
30.13579535053692
 32
0.0
 13
12.00000000000009
 23
30.13579535053692
 33
0.0
  0
MTEXT
  5
DA
330
D2
100
AcDbEntity
  8
치수문자_일반주서
 62
     0
100
AcDbMText
 10
32.63750000000009
 20
34.51079535053692
 30
0.0
 40
3.5
 41
0.0
 71
     2
 72
     1
  1
\A1;41.28 [1 5/8]
  7
SLDTEXTSTYLE0
 73
     1
 44
1.0
  0
POINT
  5
DB
330
D2
100
AcDbEntity
  8
Defpoints
 62
     0
100
AcDbPoint
 10
53.27500000000008
 20
8.0
 30
0.0
  0
POINT
  5
DC
330
D2
100
AcDbEntity
  8
Defpoints
 62
     0
100
AcDbPoint
 10
12.00000000000009
 20
7.9375
 30
0.0
  0
POINT
  5
DD
330
D2
100
AcDbEntity
  8
Defpoints
 62
     0
100
AcDbPoint
 10
12.00000000000009
 20
30.13579535053692
 30
0.0
  0
ENDBLK
  5
D4
330
D2
100
AcDbEntity
  8
0
100
AcDbBlockEnd
  0
BLOCK
  5
E7
330
E6
100
AcDbEntity
  8
0
100
AcDbBlockBegin
  2
_D_1
 70
     0
 10
0.0
 20
0.0
 30
0.0
  3
_D_1
  1
_D_1
  0
LINE
  5
E9
330
E6
100
AcDbEntity
  8
치수문자_일반주서
 62
     0
370
    -2
100
AcDbLine
 10
53.27500000000008
 20
8.0
 30
0.0
 11
53.27500000000008
 21
57.0850977822756
 31
0.0
  0
LINE
  5
EA
330
E6
100
AcDbEntity
  8
치수문자_일반주서
 62
     0
370
    -2
100
AcDbLine
 10
-35.62499999999993
 20
7.499999999999997
 30
0.0
 11
-35.62499999999994
 21
57.0850977822756
 31
0.0
  0
LINE
  5
EB
330
E6
100
AcDbEntity
  8
치수문자_일반주서
 62
     0
370
    -2
100
AcDbLine
 10
49.97300000000008
 20
57.0850977822756
 30
0.0
 11
-32.32299999999994
 21
57.0850977822756
 31
0.0
  0
SOLID
  5
EC
330
E6
100
AcDbEntity
  8
치수문자_일반주서
 62
     0
100
AcDbTrace
 10
49.97300000000008
 20
56.53476444894227
 30
0.0
 11
49.97300000000008
 21
57.63543111560894
 31
0.0
 12
53.27500000000008
 22
57.0850977822756
 32
0.0
 13
53.27500000000008
 23
57.0850977822756
 33
0.0
  0
SOLID
  5
ED
330
E6
100
AcDbEntity
  8
치수문자_일반주서
 62
     0
100
AcDbTrace
 10
-32.32299999999994
 20
57.63543111560894
 30
0.0
 11
-32.32299999999994
 21
56.53476444894227
 31
0.0
 12
-35.62499999999994
 22
57.0850977822756
 32
0.0
 13
-35.62499999999994
 23
57.0850977822756
 33
0.0
  0
MTEXT
  5
EE
330
E6
100
AcDbEntity
  8
치수문자_일반주서
 62
     0
100
AcDbMText
 10
8.469991806280582
 20
61.4600977822756
 30
0.0
 40
3.5
 41
0.0
 71
     2
 72
     1
  1
\A1;88.90 [3 1/2]
  7
SLDTEXTSTYLE0
 73
     1
 44
1.0
  0
POINT
  5
EF
330
E6
100
AcDbEntity
  8
Defpoints
 62
     0
100
AcDbPoint
 10
53.27500000000008
 20
7.9375
 30
0.0
  0
POINT
  5
F0
330
E6
100
AcDbEntity
  8
Defpoints
 62
     0
100
AcDbPoint
 10
-35.62499999999993
 20
7.437499999999997
 30
0.0
  0
POINT
  5
F1
330
E6
100
AcDbEntity
  8
Defpoints
 62
     0
100
AcDbPoint
 10
-35.62499999999993
 20
57.0850977822756
 30
0.0
  0
ENDBLK
  5
E8
330
E6
100
AcDbEntity
  8
0
100
AcDbBlockEnd
  0
BLOCK
  5
FB
330
FA
100
AcDbEntity
  8
0
100
AcDbBlockBegin
  2
_D_2
 70
     0
 10
0.0
 20
0.0
 30
0.0
  3
_D_2
  1
_D_2
  0
LINE
  5
FD
330
FA
100
AcDbEntity
  8
치수문자_일반주서
 62
     0
370
    -2
100
AcDbLine
 10
-35.18749999999993
 20
7.9375
 30
0.0
 11
-46.72822612419938
 21
7.937499999999957
 31
0.0
  0
LINE
  5
FE
330
FA
100
AcDbEntity
  8
치수문자_일반주서
 62
     0
370
    -2
100
AcDbLine
 10
-35.18749999999993
 20
-7.937500000000001
 30
0.0
 11
-46.72822612419932
 21
-7.937500000000043
 31
0.0
  0
LINE
  5
FF
330
FA
100
AcDbEntity
  8
치수문자_일반주서
 62
     0
370
    -2
100
AcDbLine
 10
-46.72822612419938
 20
7.937499999999957
 30
0.0
 11
-46.7282261241995
 21
42.54149999999996
 31
0.0
  0
LINE
  5
100
330
FA
100
AcDbEntity
  8
치수문자_일반주서
 62
     0
370
    -2
100
AcDbLine
 10
-46.72822612419938
 20
7.937499999999957
 30
0.0
 11
-46.72822612419932
 21
-7.937500000000043
 31
0.0
  0
LINE
  5
101
330
FA
100
AcDbEntity
  8
치수문자_일반주서
 62
     0
370
    -2
100
AcDbLine
 10
-46.7282261241994
 20
11.23949999999996
 30
0.0
 11
-46.72822612419941
 21
14.54149999999996
 31
0.0
  0
LINE
  5
102
330
FA
100
AcDbEntity
  8
치수문자_일반주서
 62
     0
370
    -2
100
AcDbLine
 10
-46.72822612419931
 20
-11.23950000000004
 30
0.0
 11
-46.7282261241993
 21
-14.54150000000004
 31
0.0
  0
SOLID
  5
103
330
FA
100
AcDbEntity
  8
치수문자_일반주서
 62
     0
100
AcDbTrace
 10
-47.27855945753273
 20
11.23949999999996
 30
0.0
 11
-46.17789279086606
 21
11.23949999999996
 31
0.0
 12
-46.72822612419938
 22
7.937499999999957
 32
0.0
 13
-46.72822612419938
 23
7.937499999999957
 33
0.0
  0
SOLID
  5
104
330
FA
100
AcDbEntity
  8
치수문자_일반주서
 62
     0
100
AcDbTrace
 10
-46.17789279086598
 20
-11.23950000000004
 30
0.0
 11
-47.27855945753264
 21
-11.23950000000004
 31
0.0
 12
-46.72822612419932
 22
-7.937500000000043
 32
0.0
 13
-46.72822612419932
 23
-7.937500000000043
 33
0.0
  0
MTEXT
  5
105
330
FA
100
AcDbEntity
  8
치수문자_일반주서
 62
     0
100
AcDbMText
 10
-51.10322612419945
 20
28.54149999999995
 30
0.0
 40
3.5
 41
0.0
 71
     2
 72
     1
  1
\A1;%%c15.88 [5/8]
  7
SLDTEXTSTYLE0
 11
-3.580687802255623E-15
 21
1.0
 31
0.0
 73
     1
 44
1.0
  0
POINT
  5
170
330
FA
100
AcDbEntity
  8
Defpoints
 62
     0
100
AcDbPoint
 10
-35.12499999999993
 20
7.9375
 30
0.0
  0
POINT
  5
171
330
FA
100
AcDbEntity
  8
Defpoints
 62
     0
100
AcDbPoint
 10
-35.12499999999993
 20
-7.937500000000001
 30
0.0
  0
POINT
  5
172
330
FA
100
AcDbEntity
  8
Defpoints
 62
     0
100
AcDbPoint
 10
-46.72822612419932
 20
-7.937500000000044
 30
0.0
  0
ENDBLK
  5
FC
330
FA
100
AcDbEntity
  8
0
100
AcDbBlockEnd
  0
BLOCK
  5
10E
330
10D
100
AcDbEntity
  8
0
100
AcDbBlockBegin
  2
SW_DOWELSYMBOL_0
 70
     0
 10
0.0
 20
0.0
 30
0.0
  3
SW_DOWELSYMBOL_0
  1
SW_DOWELSYMBOL_0
  0
CIRCLE
  5
110
330
10D
100
AcDbEntity
  8
외형선
 62
     0
100
AcDbCircle
 10
0.0
 20
0.0
 30
0.0
 40
3.000000000000008
  0
HATCH
  5
111
330
10D
100
AcDbEntity
  8
0
  6
Continuous
 62
     0
370
    30
100
AcDbHatch
 10
0.0
 20
0.0
 30
0.0
210
0.0
220
0.0
230
1.0
  2
SOLID
 70
     1
 71
     0
 91
        1
 92
        0
 93
        3
 72
     2
 10
0.0000000000000069
 20
0.0
 40
3.000000000000008
 50
0.0
 51
90.0
 73
     1
 72
     1
 10
0.0000000000000069
 20
3.000000000000008
 11
0.0000000000000069
 21
0.0
 72
     1
 10
0.0000000000000069
 20
0.0
 11
3.000000000000015
 21
0.0
 97
        0
 75
     0
 76
     1
 98
        1
 10
0.0
 20
0.0
  0
HATCH
  5
112
330
10D
100
AcDbEntity
  8
0
  6
Continuous
 62
     0
370
    30
100
AcDbHatch
 10
0.0
 20
0.0
 30
0.0
210
0.0
220
0.0
230
1.0
  2
SOLID
 70
     1
 71
     0
 91
        1
 92
        0
 93
        3
 72
     2
 10
0.0000000000000069
 20
0.0
 40
3.000000000000008
 50
180.0
 51
270.0000000000008
 73
     1
 72
     1
 10
0.0000000000000069
 20
-3.000000000000008
 11
0.0000000000000069
 21
0.0
 72
     1
 10
0.0000000000000069
 20
0.0
 11
-3.000000000000001
 21
0.0
 97
        0
 75
     0
 76
     1
 98
        1
 10
0.0
 20
0.0
  0
ENDBLK
  5
10F
330
10D
100
AcDbEntity
  8
0
100
AcDbBlockEnd
  0
BLOCK
  5
143
330
142
100
AcDbEntity
  8
0
100
AcDbBlockBegin
  2
*D6
 70
     1
 10
0.0
 20
0.0
 30
0.0
  3
*D6
  1
*D6
  0
LINE
  5
145
330
142
100
AcDbEntity
  8
0
 62
     0
370
    -2
100
AcDbLine
 10
52.27500000000002
 20
-7.997463382620944
 30
0.0
 11
63.73874599722371
 21
-7.997463382620945
 31
0.0
  0
LINE
  5
146
330
142
100
AcDbEntity
  8
0
 62
     0
370
    -2
100
AcDbLine
 10
52.27500000000002
 20
7.957176178736125
 30
0.0
 11
63.73874599722371
 21
7.957176178736124
 31
0.0
  0
LINE
  5
147
330
142
100
AcDbEntity
  8
0
 62
     0
370
    -2
100
AcDbLine
 10
62.73874599722371
 20
11.25917617873612
 30
0.0
 11
77.67941266389039
 21
11.25917617873612
 31
0.0
  0
LINE
  5
148
330
142
100
AcDbEntity
  8
0
 62
     0
370
    -2
100
AcDbLine
 10
62.73874599722371
 20
-4.695463382620946
 30
0.0
 11
62.73874599722371
 21
4.655176178736125
 31
0.0
  0
LINE
  5
149
330
142
100
AcDbEntity
  8
0
 62
     0
370
    -2
100
AcDbLine
 10
62.73874599722371
 20
7.957176178736124
 30
0.0
 11
62.73874599722371
 21
11.25917617873612
 31
0.0
  0
SOLID
  5
14A
330
142
100
AcDbEntity
  8
0
 62
     0
100
AcDbTrace
 10
62.18841266389038
 20
-4.695463382620946
 30
0.0
 11
63.28907933055704
 21
-4.695463382620946
 31
0.0
 12
62.73874599722371
 22
-7.997463382620945
 32
0.0
 13
62.73874599722371
 23
-7.997463382620945
 33
0.0
  0
SOLID
  5
14B
330
142
100
AcDbEntity
  8
0
 62
     0
100
AcDbTrace
 10
63.28907933055704
 20
4.655176178736125
 30
0.0
 11
62.18841266389038
 21
4.655176178736125
 31
0.0
 12
62.73874599722371
 22
7.957176178736124
 32
0.0
 13
62.73874599722371
 23
7.957176178736124
 33
0.0
  0
MTEXT
  5
14C
330
142
100
AcDbEntity
  8
0
 62
     0
100
AcDbMText
 10
70.97107933055705
 20
14.82484284540279
 30
0.0
 40
3.5
 41
0.0
 71
     5
 72
     1
  1
15,95
 73
     1
 44
1.0
  0
POINT
  5
14D
330
142
100
AcDbEntity
  8
Defpoints
 62
     0
100
AcDbPoint
 10
51.27500000000002
 20
-7.997463382620944
 30
0.0
  0
POINT
  5
14E
330
142
100
AcDbEntity
  8
Defpoints
 62
     0
100
AcDbPoint
 10
51.27500000000002
 20
7.957176178736125
 30
0.0
  0
POINT
  5
14F
330
142
100
AcDbEntity
  8
Defpoints
 62
     0
100
AcDbPoint
 10
62.73874599722371
 20
7.957176178736124
 30
0.0
  0
ENDBLK
  5
144
330
142
100
AcDbEntity
  8
0
100
AcDbBlockEnd
  0
BLOCK
  5
154
330
153
100
AcDbEntity
  8
0
100
AcDbBlockBegin
  2
*D7
 70
     1
 10
0.0
 20
0.0
 30
0.0
  3
*D7
  1
*D7
  0
LINE
  5
156
330
153
100
AcDbEntity
  8
치수문자_일반주서
 62
     0
370
    -2
100
AcDbLine
 10
53.33750000000008
 20
-7.937500000000001
 30
0.0
 11
62.50224087364453
 21
-7.937500000000001
 31
0.0
  0
LINE
  5
157
330
153
100
AcDbEntity
  8
치수문자_일반주서
 62
     0
370
    -2
100
AcDbLine
 10
53.33750000000008
 20
7.9375
 30
0.0
 11
62.50224087364453
 21
7.937499999999999
 31
0.0
  0
LINE
  5
158
330
153
100
AcDbEntity
  8
치수문자_일반주서
 62
     0
370
    -2
100
AcDbLine
 10
62.50224087364453
 20
11.2395
 30
0.0
 11
62.50224087364453
 21
42.54149999999999
 31
0.0
  0
LINE
  5
159
330
153
100
AcDbEntity
  8
치수문자_일반주서
 62
     0
370
    -2
100
AcDbLine
 10
62.50224087364453
 20
-7.937500000000001
 30
0.0
 11
62.50224087364453
 21
7.937499999999999
 31
0.0
  0
LINE
  5
15A
330
153
100
AcDbEntity
  8
치수문자_일반주서
 62
     0
370
    -2
100
AcDbLine
 10
62.50224087364453
 20
-11.2395
 30
0.0
 11
62.50224087364453
 21
-14.5415
 31
0.0
  0
SOLID
  5
15B
330
153
100
AcDbEntity
  8
치수문자_일반주서
 62
     0
100
AcDbTrace
 10
63.05257420697787
 20
-11.2395
 30
0.0
 11
61.9519075403112
 21
-11.2395
 31
0.0
 12
62.50224087364453
 22
-7.937500000000001
 32
0.0
 13
62.50224087364453
 23
-7.937500000000001
 33
0.0
  0
SOLID
  5
15C
330
153
100
AcDbEntity
  8
치수문자_일반주서
 62
     0
100
AcDbTrace
 10
61.9519075403112
 20
11.2395
 30
0.0
 11
63.05257420697787
 21
11.2395
 31
0.0
 12
62.50224087364453
 22
7.937499999999999
 32
0.0
 13
62.50224087364453
 23
7.937499999999999
 33
0.0
  0
MTEXT
  5
15D
330
153
100
AcDbEntity
  8
치수문자_일반주서
 62
     0
100
AcDbMText
 10
59.87724087364453
 20
28.5415
 30
0.0
 40
3.5
 41
0.0
 71
     5
 72
     1
  1
\A1;{Ø15.88 [5/8]}
  7
SLDTEXTSTYLE0
 11
0.0
 21
1.0
 31
0.0
 73
     1
 44
1.0
  0
POINT
  5
15E
330
153
100
AcDbEntity
  8
Defpoints
 62
     0
100
AcDbPoint
 10
53.27500000000008
 20
-7.937500000000001
 30
0.0
  0
POINT
  5
15F
330
153
100
AcDbEntity
  8
Defpoints
 62
     0
100
AcDbPoint
 10
53.27500000000008
 20
7.9375
 30
0.0
  0
POINT
  5
160
330
153
100
AcDbEntity
  8
Defpoints
 62
     0
100
AcDbPoint
 10
62.50224087364453
 20
7.937499999999999
 30
0.0
  0
ENDBLK
  5
155
330
153
100
AcDbEntity
  8
0
100
AcDbBlockEnd
  0
BLOCK
  5
167
330
166
100
AcDbEntity
  8
0
100
AcDbBlockBegin
  2
*D8
 70
     1
 10
0.0
 20
0.0
 30
0.0
  3
*D8
  1
*D8
  0
LINE
  5
169
330
166
100
AcDbEntity
  8
치수문자_일반주서
 62
     0
370
    -2
100
AcDbLine
 10
54.07260012568541
 20
-10.64439220571948
 30
0.0
 11
69.13076985925404
 21
-38.08645350357097
 31
0.0
  0
MTEXT
  5
16A
330
166
100
AcDbEntity
  8
치수문자_일반주서
 62
     0
100
AcDbMText
 10
64.69722039394509
 20
-24.5500483626682
 30
0.0
 40
3.5
 41
0.0
 71
     5
 72
     1
  1
\A1;R1.52 [R0.06]
  7
SLDTEXTSTYLE0
 11
0.4810609460599524
 21
-0.8766871541068134
 31
0.0
 73
     1
 44
1.0
  0
LINE
  5
16B
330
166
100
AcDbEntity
  8
치수문자_일반주서
 62
     0
370
    -2
100
AcDbLine
 10
51.75100000000008
 20
-6.413500000000001
 30
0.0
 11
52.48413688179545
 21
-7.749571222858784
 31
0.0
  0
SOLID
  5
16C
330
166
100
AcDbEntity
  8
치수문자_일반주서
 62
     0
100
AcDbTrace
 10
54.55507028949553
 20
-10.37964833173782
 30
0.0
 11
53.5901299618753
 21
-10.90913607970114
 31
0.0
 12
52.48413688179545
 22
-7.749571222858784
 32
0.0
 13
52.48413688179545
 23
-7.749571222858784
 33
0.0
  0
POINT
  5
16D
330
166
100
AcDbEntity
  8
Defpoints
 62
     0
100
AcDbPoint
 10
52.48413688179545
 20
-7.749571222858784
 30
0.0
  0
POINT
  5
16E
330
166
100
AcDbEntity
  8
Defpoints
 62
     0
100
AcDbPoint
 10
51.75100000000008
 20
-6.413500000000001
 30
0.0
  0
ENDBLK
  5
168
330
166
100
AcDbEntity
  8
0
100
AcDbBlockEnd
  0
ENDSEC
  0
SECTION
  2
ENTITIES
  0
LINE
  5
95
330
1F
100
AcDbEntity
  8
0
  6
Continuous
 62
     4
370
    15
100
AcDbLine
 10
12.00000000000009
 20
7.9375
 30
0.0
 11
-35.12499999999993
 21
7.9375
 31
0.0
  0
LINE
  5
96
330
1F
100
AcDbEntity
  8
0
  6
Continuous
 62
     4
370
    15
100
AcDbLine
 10
-35.12499999999993
 20
-7.937500000000001
 30
0.0
 11
8.950215207092674
 21
-7.937500000000001
 31
0.0
  0
LINE
  5
97
330
1F
100
AcDbEntity
  8
0
  6
Continuous
 62
     4
370
    15
100
AcDbLine
 10
-35.12499999999993
 20
7.937499999999998
 30
0.0
 11
-35.62499999999993
 21
7.437499999999997
 31
0.0
  0
LINE
  5
98
330
1F
100
AcDbEntity
  8
0
  6
Continuous
 62
     4
370
    15
100
AcDbLine
 10
-35.62499999999993
 20
-7.437499999999998
 30
0.0
 11
-35.12499999999993
 21
-7.937499999999999
 31
0.0
  0
LINE
  5
99
330
1F
100
AcDbEntity
  8
0
  6
Continuous
 62
     1
370
    15
100
AcDbLine
 10
41.5843469937705
 20
-7.937500000000001
 30
0.0
 11
48.42054639917768
 21
-7.937500000000001
 31
0.0
  0
LINE
  5
9A
330
1F
100
AcDbEntity
  8
0
  6
Continuous
 62
     1
370
    15
100
AcDbLine
 10
15.3285869338184
 20
7.9375
 30
0.0
 11
12.00000000000009
 21
7.9375
 31
0.0
  0
LINE
  5
9B
330
1F
100
AcDbEntity
  8
0
  6
Continuous
 62
     1
370
    15
100
AcDbLine
 10
37.39001496473468
 20
7.9375
 30
0.0
 11
30.55393314429639
 21
7.9375
 31
0.0
  0
LINE
  5
9C
330
1F
100
AcDbEntity
  8
0
  6
Continuous
 62
     1
370
    15
100
AcDbLine
 10
19.52353385800679
 20
-7.937500000000001
 30
0.0
 11
26.35942025437902
 21
-7.937500000000001
 31
0.0
  0
LINE
  5
9D
330
1F
100
AcDbEntity
  8
0
  6
Continuous
 62
     1
370
    15
100
AcDbLine
 10
53.27500000000008
 20
6.4135
 30
0.0
 11
53.27449537043545
 21
6.45271551047782
 31
0.0
  0
SPLINE
  5
9F
330
1F
100
AcDbEntity
  8
0
  6
Continuous
 62
     1
370
    15
100
AcDbSpline
210
0.0
220
0.0
230
1.0
 70
    24
 71
     3
 72
    12
 73
     8
 74
     0
 42
0.000000001
 43
0.00000001
 40
0.0
 40
0.0
 40
0.0
 40
0.0
 40
0.4999999999999996
 40
0.4999999999999996
 40
0.7499999999999998
 40
0.7499999999999998
 40
1.0
 40
1.0
 40
1.0
 40
1.0
 10
12.00000000000009
 20
7.437250978351737
 30
0.0
 10
12.00000000000009
 20
6.856823062751644
 30
0.0
 10
12.00000000000009
 20
6.268024400421171
 30
0.0
 10
12.00000000000009
 20
5.371309778232215
 30
0.0
 10
12.00000000000009
 20
5.068171306854802
 30
0.0
 10
12.00000000000009
 20
4.467652992326052
 30
0.0
 10
12.00000000000009
 20
4.170741138267847
 30
0.0
 10
12.00000000000009
 20
3.877460497346421
 30
0.0
  0
SPLINE
  5
A0
330
1F
100
AcDbEntity
  8
0
  6
Continuous
 62
     4
370
    15
100
AcDbSpline
210
0.0
220
0.0
230
1.0
 70
     8
 71
     3
 72
    14
 73
    10
 74
     0
 42
0.000000001
 43
0.00000001
 40
0.0
 40
0.0
 40
0.0
 40
0.0
 40
0.2500000000000001
 40
0.2500000000000001
 40
0.5000000000000001
 40
0.5000000000000001
 40
0.7500000000000001
 40
0.7500000000000001
 40
1.0
 40
1.0
 40
1.0
 40
1.0
 10
9.906764675137147
 20
-0.0712496289775647
 30
0.0
 10
9.752244472282921
 20
0.0450359298351015
 30
0.0
 10
9.615072935899128
 20
0.1777101434998659
 30
0.0
 10
9.374161607639625
 20
0.4745066370173596
 30
0.0
 10
9.270837201946627
 20
0.6395867561376704
 30
0.0
 10
9.108765674776574
 20
0.9830196028554199
 30
0.0
 10
9.047784165664531
 20
1.165649447317871
 30
0.0
 10
8.968689524005162
 20
1.535838215716407
 30
0.0
 10
8.950215207090416
 20
1.722340758258546
 30
0.0
 10
8.950215207090364
 20
1.909806400614704
 30
0.0
  0
SPLINE
  5
A1
330
1F
100
AcDbEntity
  8
0
  6
Continuous
 62
     4
370
    15
100
AcDbSpline
210
0.0
220
0.0
230
1.0
 70
     8
 71
     3
 72
    22
 73
    18
 74
     0
 42
0.000000001
 43
0.00000001
 40
0.0
 40
0.0
 40
0.0
 40
0.0
 40
0.125
 40
0.125
 40
0.25
 40
0.25
 40
0.375
 40
0.375
 40
0.5
 40
0.5
 40
0.625
 40
0.625
 40
0.75
 40
0.75
 40
0.875
 40
0.875
 40
1.0
 40
1.0
 40
1.0
 40
1.0
 10
8.950215207092674
 20
6.286684290315726
 30
0.0
 10
8.950215207092674
 20
6.402177489431106
 30
0.0
 10
8.967954260668908
 20
6.510448748960679
 30
0.0
 10
9.043176378234932
 20
6.713203346454134
 30
0.0
 10
9.101813887499299
 20
6.808421638840356
 30
0.0
 10
9.257049851762776
 20
6.97687388952899
 30
0.0
 10
9.353655758497691
 20
7.051401543924962
 30
0.0
 10
9.587509699607969
 20
7.183408883756885
 30
0.0
 10
9.719803517375208
 20
7.238175773604704
 30
0.0
 10
10.01425918518405
 20
7.330186287454003
 30
0.0
 10
10.17759737596968
 20
7.367311550813559
 30
0.0
 10
10.5178133886514
 20
7.423588127696512
 30
0.0
 10
10.69870942944921
 20
7.443563439003869
 30
0.0
 10
11.06820597322237
 20
7.467899007707859
 30
0.0
 10
11.25454462075654
 20
7.472336981617885
 30
0.0
 10
11.6304006417748
 20
7.466391611288268
 30
0.0
 10
11.81818239515123
 20
7.455882008176182
 30
0.0
 10
12.0
 20
7.437250978351276
 30
0.0
  0
SPLINE
  5
A2
330
1F
100
AcDbEntity
  8
0
  6
Continuous
 62
     4
370
    15
100
AcDbSpline
210
0.0
220
0.0
230
1.0
 70
     8
 71
     3
 72
    22
 73
    18
 74
     0
 42
0.000000001
 43
0.00000001
 40
0.0
 40
0.0
 40
0.0
 40
0.0
 40
0.125
 40
0.125
 40
0.25
 40
0.25
 40
0.375
 40
0.375
 40
0.5
 40
0.5
 40
0.625
 40
0.625
 40
0.75
 40
0.75
 40
0.875
 40
0.875
 40
1.0
 40
1.0
 40
1.0
 40
1.0
 10
8.950215207092674
 20
-7.339903852427621
 30
0.0
 10
8.950215207092674
 20
-7.267888995256485
 30
0.0
 10
8.9679542606689
 20
-7.190786728761068
 30
0.0
 10
9.043176378234921
 20
-7.02781180762855
 30
0.0
 10
9.101813887499299
 20
-6.940962018093771
 30
0.0
 10
9.257049851762776
 20
-6.769745524843145
 30
0.0
 10
9.353655758497691
 20
-6.684483011351279
 30
0.0
 10
9.587509699607969
 20
-6.51891824389233
 30
0.0
 10
9.719803517375208
 20
-6.442134998842197
 30
0.0
 10
10.01425918518405
 20
-6.304082180727917
 30
0.0
 10
10.17759737596968
 20
-6.242849318207496
 30
0.0
 10
10.5178133886514
 20
-6.145964494881918
 30
0.0
 10
10.69870942944921
 20
-6.109017685498709
 30
0.0
 10
11.06820597322237
 20
-6.063485158917369
 30
0.0
 10
11.25454462075654
 20
-6.054815209758112
 30
0.0
 10
11.6304006417748
 20
-6.06616276053175
 30
0.0
 10
11.81818239515123
 20
-6.086421424046115
 30
0.0
 10
12.0
 20
-6.120375497244653
 30
0.0
  0
LINE
  5
A3
330
1F
100
AcDbEntity
  8
0
  6
Continuous
 62
     4
370
    15
100
AcDbLine
 10
8.950215207092674
 20
-7.339903852427621
 30
0.0
 11
8.950215207092674
 21
-7.937500000000001
 31
0.0
  0
SPLINE
  5
A4
330
1F
100
AcDbEntity
  8
0
  6
Continuous
 62
     4
370
    15
100
AcDbSpline
210
0.0
220
0.0
230
1.0
 70
     8
 71
     3
 72
    14
 73
    10
 74
     0
 42
0.000000001
 43
0.00000001
 40
0.0
 40
0.0
 40
0.0
 40
0.0
 40
0.2500000000000001
 40
0.2500000000000001
 40
0.5000000000000001
 40
0.5000000000000001
 40
0.75
 40
0.75
 40
1.0
 40
1.0
 40
1.0
 40
1.0
 10
9.906764675137147
 20
-6.838174884751694
 30
0.0
 10
9.752244472282921
 20
-6.897221673215975
 30
0.0
 10
9.615072935899128
 20
-6.962412263766187
 30
0.0
 10
9.374161607639625
 20
-7.100241496541281
 30
0.0
 10
9.270837201946627
 20
-7.173148370221061
 30
0.0
 10
9.108765674776572
 20
-7.314304859739904
 30
0.0
 10
9.047784165664531
 20
-7.384319922666507
 30
0.0
 10
8.96868952400516
 20
-7.514050714120133
 30
0.0
 10
8.950215207090416
 20
-7.573551742921624
 30
0.0
 10
8.950215207090366
 20
-7.62703998859554
 30
0.0
  0
SPLINE
  5
A5
330
1F
100
AcDbEntity
  8
0
  6
Continuous
 62
     4
370
    15
100
AcDbSpline
210
0.0
220
0.0
230
1.0
 70
     8
 71
     3
 72
     9
 73
     5
 74
     0
 42
0.000000001
 43
0.00000001
 40
0.0
 40
0.0
 40
0.0
 40
0.0
 40
0.3969831460123615
 40
1.0
 40
1.0
 40
1.0
 40
1.0
 10
11.64521478581682
 20
-6.076500860545989
 30
0.0
 10
11.41534836403424
 20
-6.188561653933496
 30
0.0
 10
10.83631516302418
 20
-6.470842638688494
 30
0.0
 10
10.25643948325531
 20
-6.699993221322378
 30
0.0
 10
9.906764675137147
 20
-6.838174884751695
 30
0.0
  0
LINE
  5
A6
330
1F
100
AcDbEntity
  8
0
  6
Continuous
 62
     4
370
    15
100
AcDbLine
 10
12.00000000000009
 20
7.9375
 30
0.0
 11
12.00000000000009
 21
7.437250978351583
 31
0.0
  0
LINE
  5
A7
330
1F
100
AcDbEntity
  8
0
  6
Continuous
 62
     4
370
    15
100
AcDbLine
 10
8.950215207092674
 20
6.286684290315726
 30
0.0
 11
8.950215207092674
 21
1.909806400615321
 31
0.0
  0
SPLINE
  5
A8
330
1F
100
AcDbEntity
  8
0
  6
Continuous
 62
     4
370
    15
100
AcDbSpline
210
0.0
220
0.0
230
1.0
 70
     8
 71
     3
 72
    10
 73
     6
 74
     0
 42
0.000000001
 43
0.00000001
 40
0.0
 40
0.0
 40
0.0
 40
0.0
 40
0.5
 40
0.5
 40
1.0
 40
1.0
 40
1.0
 40
1.0
 10
12.00000000000009
 20
-1.636879008404907
 30
0.0
 10
11.65064134256937
 20
-1.379500946584597
 30
0.0
 10
11.30419015175017
 20
-1.120147626314223
 30
0.0
 10
10.60677534726633
 20
-0.59749733196603
 30
0.0
 10
10.25633906785816
 20
-0.3343249605735961
 30
0.0
 10
9.906764675137147
 20
-0.0712496289775641
 30
0.0
  0
LINE
  5
A9
330
1F
100
AcDbEntity
  8
0
  6
Continuous
 62
     4
370
    15
100
AcDbLine
 10
12.00000000000009
 20
-1.636879008404434
 30
0.0
 11
12.00000000000009
 21
-6.120375497244093
 31
0.0
  0
LINE
  5
AA
330
1F
100
AcDbEntity
  8
0
  6
Continuous
 62
     4
370
    15
100
AcDbLine
 10
-35.12499999999993
 20
7.9375
 30
0.0
 11
-35.12499999999993
 21
-7.937500000000001
 31
0.0
  0
LINE
  5
AB
330
1F
100
AcDbEntity
  8
0
  6
Continuous
 62
     4
370
    15
100
AcDbLine
 10
-35.62499999999993
 20
7.43749999999999
 30
0.0
 11
-35.62499999999993
 21
-7.437499999999987
 31
0.0
  0
SPLINE
  5
AC
330
1F
100
AcDbEntity
  8
0
  6
Continuous
 62
     1
370
    15
100
AcDbSpline
210
0.0
220
0.0
230
1.0
 70
    24
 71
     3
 72
    14
 73
    10
 74
     0
 42
0.000000001
 43
0.00000001
 40
0.0
 40
0.0
 40
0.0
 40
0.0
 40
0.2500000000000001
 40
0.2500000000000001
 40
0.5000000000000001
 40
0.5000000000000001
 40
0.75
 40
0.75
 40
1.0
 40
1.0
 40
1.0
 40
1.0
 10
12.00000000000009
 20
3.877460497346425
 30
0.0
 10
12.00000000000009
 20
3.352900145670436
 30
0.0
 10
12.00000000000009
 20
2.810319277450719
 30
0.0
 10
12.00000000000009
 20
1.731623524306718
 30
0.0
 10
12.00000000000009
 20
1.195734544186527
 30
0.0
 10
12.00000000000009
 20
0.192339772537717
 30
0.0
 10
12.00000000000009
 20
-0.2744933444935389
 30
0.0
 10
12.00000000000009
 20
-1.071544865409192
 30
0.0
 10
12.00000000000009
 20
-1.400913883197344
 30
0.0
 10
12.00000000000009
 20
-1.636879008404438
 30
0.0
  0
SPLINE
  5
AE
330
1F
100
AcDbEntity
  8
0
  6
Continuous
 62
     1
370
    15
100
AcDbSpline
210
0.0
220
0.0
230
1.0
 70
     8
 71
     3
 72
    30
 73
    26
 74
     0
 42
0.000000001
 43
0.00000001
 40
0.0
 40
0.0
 40
0.0
 40
0.0
 40
0.0437066764247212
 40
0.0874338401190372
 40
0.1312152820347904
 40
0.1749408171259486
 40
0.2186479031102286
 40
0.2624015375975801
 40
0.3058936116368707
 40
0.3493284063768537
 40
0.3927733096804457
 40
0.4362792316973957
 40
0.4797370011898465
 40
0.5231679560035963
 40
0.5666403428039734
 40
0.610137745885796
 40
0.6535747297403081
 40
0.6970162505930634
 40
0.740519869076436
 40
0.7839828320992266
 40
0.827413416518414
 40
0.8708798747467238
 40
0.9150094965909197
 40
0.959079837209072
 40
1.0
 40
1.0
 40
1.0
 40
1.0
 10
51.75100000000008
 20
-7.937500000000002
 30
0.0
 10
51.22048103189614
 20
-7.937500000000001
 30
0.0
 10
50.15919441777281
 20
-7.937500000000001
 30
0.0
 10
48.5664337012112
 20
-7.964978926405513
 30
0.0
 10
46.97220596021317
 20
-7.893368110815324
 30
0.0
 10
45.37944992668231
 20
-7.638167526504919
 30
0.0
 10
43.78724292651172
 20
-7.209300970592536
 30
0.0
 10
42.19708309584463
 20
-6.617104672107961
 30
0.0
 10
40.60993204466515
 20
-5.876624518100167
 30
0.0
 10
39.02763251551682
 20
-5.00444269976535
 30
0.0
 10
37.44503705970877
 20
-4.019343784260803
 30
0.0
 10
35.86086721968532
 20
-2.944977083212861
 30
0.0
 10
34.277935071722
 20
-1.80308168174111
 30
0.0
 10
32.69577778332342
 20
-0.6203212023928327
 30
0.0
 10
31.1124683285189
 20
0.575899474663063
 30
0.0
 10
29.52851725840498
 20
1.758458053342809
 30
0.0
 10
27.94614785452388
 20
2.902663578986352
 30
0.0
 10
26.36364536520848
 20
3.981333674530557
 30
0.0
 10
24.77953477598037
 20
4.969000987804786
 30
0.0
 10
23.19646837560078
 20
5.84567191132421
 30
0.0
 10
21.61432464146183
 20
6.590373496700781
 30
0.0
 10
20.02354495478303
 20
7.190177653882732
 30
0.0
 10
18.42418311073085
 20
7.623636697228537
 30
0.0
 10
16.85701534883232
 20
7.89190305661018
 30
0.0
 10
15.8253164122988
 20
7.91856317756602
 30
0.0
 10
15.3285869338184
 20
7.931399158596606
 30
0.0
  0
SPLINE
  5
AF
330
1F
100
AcDbEntity
  8
0
  6
Continuous
 62
     1
370
    15
100
AcDbSpline
210
0.0
220
0.0
230
1.0
 70
     8
 71
     3
 72
    26
 73
    22
 74
     0
 42
0.000000001
 43
0.00000001
 40
0.0
 40
0.0
 40
0.0
 40
0.0
 40
0.0088910972219875
 40
0.063836853467256
 40
0.1188340062320394
 40
0.1737526553459436
 40
0.2286655687993636
 40
0.2836548640708979
 40
0.3386125338294235
 40
0.3935178253863809
 40
0.448457015985125
 40
0.5034570808706119
 40
0.5583800060694
 40
0.6132901520503569
 40
0.6682727103612327
 40
0.7235859326587087
 40
0.778840308468843
 40
0.834118007588272
 40
0.8894663839589291
 40
0.944746141953914
 40
1.0
 40
1.0
 40
1.0
 40
1.0
 10
22.9400538468667
 20
5.94401708070127
 30
0.0
 10
23.02541967692419
 20
5.98939904357095
 30
0.0
 10
23.63833457914957
 20
6.31523528643689
 30
0.0
 10
24.7795401735583
 20
6.792737690313975
 30
0.0
 10
26.36364392065884
 20
7.34694070632455
 30
0.0
 10
27.94614824129376
 20
7.723995740853101
 30
0.0
 10
29.52851715461217
 20
7.929960325988546
 30
0.0
 10
31.11246835632944
 20
7.956203836518977
 30
0.0
 10
32.69577777588149
 20
7.803427013666552
 30
0.0
 10
34.27793507371656
 20
7.474488031485639
 30
0.0
 10
35.86086721915005
 20
6.976985544532792
 30
0.0
 10
37.44503705985201
 20
6.322923877030261
 30
0.0
 10
39.02763251547849
 20
5.525493225600326
 30
0.0
 10
40.60993204467542
 20
4.603306705175463
 30
0.0
 10
42.19708309584185
 20
3.576147778974452
 30
0.0
 10
43.78724292651248
 20
2.465248417887926
 30
0.0
 10
45.3794499266821
 20
1.295202625727105
 30
0.0
 10
46.97220596021321
 20
0.0951916461633213
 30
0.0
 10
48.56643370121119
 20
-1.104069356189812
 30
0.0
 10
50.15919441777282
 20
-2.28514049537737
 30
0.0
 10
51.22048103189614
 20
-3.023562591484962
 30
0.0
 10
51.75100000000077
 20
-3.392687126968013
 30
0.0
  0
SPLINE
  5
B0
330
1F
100
AcDbEntity
  8
0
  6
Continuous
 62
     1
370
    15
100
AcDbSpline
210
0.0
220
0.0
230
1.0
 70
     8
 71
     3
 72
    18
 73
    14
 74
     0
 42
0.000000001
 43
0.00000001
 40
0.0
 40
0.0
 40
0.0
 40
0.0
 40
0.2499999999999998
 40
0.2499999999999998
 40
0.4999999999999996
 40
0.4999999999999996
 40
0.6249999999999997
 40
0.6249999999999997
 40
0.7499999999999998
 40
0.7499999999999998
 40
0.8749999999999999
 40
0.8749999999999999
 40
1.0
 40
1.0
 40
1.0
 40
1.0
 10
51.75100000000009
 20
-3.392687126967545
 30
0.0
 10
51.9411401919778
 20
-3.522086712794312
 30
0.0
 10
52.12386540356106
 20
-3.633687374135622
 30
0.0
 10
52.47816507488047
 20
-3.816934269478352
 30
0.0
 10
52.64309799416368
 20
-3.884651211299378
 30
0.0
 10
52.86081626793491
 20
-3.944456432217356
 30
0.0
 10
52.92824901348592
 20
-3.957274692845409
 30
0.0
 10
53.04645406147779
 20
-3.968168657818996
 30
0.0
 10
53.09807794740122
 20
-3.966495655825129
 30
0.0
 10
53.18419373619361
 20
-3.949346823303378
 30
0.0
 10
53.21787204976172
 20
-3.933842635745201
 30
0.0
 10
53.26302586636985
 20
-3.892092867901313
 30
0.0
 10
53.27500000000011
 20
-3.865767384965421
 30
0.0
 10
53.2750000000001
 20
-3.83480662788192
 30
0.0
  0
SPLINE
  5
B1
330
1F
100
AcDbEntity
  8
0
  6
Continuous
 62
     1
370
    15
100
AcDbSpline
210
0.0
220
0.0
230
1.0
 70
     8
 71
     3
 72
    11
 73
     7
 74
     0
 42
0.000000001
 43
0.00000001
 40
0.0
 40
0.0
 40
0.0
 40
0.0
 40
0.212163663121875
 40
0.5722136425334801
 40
0.9411119038055248
 40
1.0
 40
1.0
 40
1.0
 40
1.0
 10
51.97195331650645
 20
-3.534424793032038
 30
0.0
 10
51.88576089224561
 20
-3.555032467540605
 30
0.0
 10
51.6532965752209
 20
-3.610612166350376
 30
0.0
 10
51.22595358686981
 20
-3.785214890739871
 30
0.0
 10
50.85962220793152
 20
-3.963004125359901
 30
0.0
 10
50.65816058449207
 20
-4.07296821612456
 30
0.0
 10
50.63042783599852
 20
-4.088105622546863
 30
0.0
  0
SPLINE
  5
B2
330
1F
100
AcDbEntity
  8
0
  6
Continuous
 62
     1
370
    15
100
AcDbSpline
210
0.0
220
0.0
230
1.0
 70
     8
 71
     3
 72
     8
 73
     4
 74
     0
 42
0.000000001
 43
0.00000001
 40
0.0
 40
0.0
 40
0.0
 40
0.0
 40
1.0
 40
1.0
 40
1.0
 40
1.0
 10
53.27500000000008
 20
-4.640327385311442
 30
0.0
 10
52.36569810576265
 20
-4.57811558920722
 30
0.0
 10
51.48358264874192
 20
-4.396636166221399
 30
0.0
 10
50.63042783599852
 20
-4.088105622546846
 30
0.0
  0
LINE
  5
B3
330
1F
100
AcDbEntity
  8
0
  6
Continuous
 62
     1
370
    15
100
AcDbLine
 10
53.27500000000008
 20
-5.891411545138786
 30
0.0
 11
53.27500000000008
 21
-4.640327385311449
 31
0.0
  0
SPLINE
  5
B4
330
1F
100
AcDbEntity
  8
0
  6
Continuous
 62
     1
370
    15
100
AcDbSpline
210
0.0
220
0.0
230
1.0
 70
     8
 71
     3
 72
    21
 73
    17
 74
     0
 42
0.000000001
 43
0.00000001
 40
0.0
 40
0.0
 40
0.0
 40
0.0
 40
0.0580252615390237
 40
0.1300941604631818
 40
0.20220453159514
 40
0.2742147392093668
 40
0.3462324682985315
 40
0.41835314337695
 40
0.4904064194810989
 40
0.562406018056082
 40
0.6344650885421779
 40
0.7076235574078232
 40
0.7806837493440824
 40
0.853734628627247
 40
0.9268763118123062
 40
1.0
 40
1.0
 40
1.0
 40
1.0
 10
33.97070771661171
 20
-5.942625919075223
 30
0.0
 10
33.54588447928732
 20
-6.150446633869681
 30
0.0
 10
32.59341962279029
 20
-6.616386135061946
 30
0.0
 10
31.11246976431435
 20
-7.167369772738943
 30
0.0
 10
29.52851687298419
 20
-7.609749694172511
 30
0.0
 10
27.94614796223167
 20
-7.876976460629495
 30
0.0
 10
26.36364531953791
 20
-7.967474822690622
 30
0.0
 10
24.77953485085706
 20
-7.878152445749812
 30
0.0
 10
23.19646812213039
 20
-7.61127960933924
 30
0.0
 10
21.61432558014593
 20
-7.172587070065642
 30
0.0
 10
20.02354142748691
 20
-6.569407491061988
 30
0.0
 10
18.42419649009809
 20
-5.813214110316023
 30
0.0
 10
16.81879909346025
 20
-4.917900279684488
 30
0.0
 10
15.21358972833765
 20
-3.907636577376585
 30
0.0
 10
13.60683172572758
 20
-2.810412243411915
 30
0.0
 10
12.53556664273783
 20
-2.028024667748486
 30
0.0
 10
12.0
 20
-1.636879008404842
 30
0.0
  0
SPLINE
  5
B5
330
1F
100
AcDbEntity
  8
0
  6
Continuous
 62
     4
370
    15
100
AcDbSpline
210
0.0
220
0.0
230
1.0
 70
    24
 71
     3
 72
    20
 73
    16
 74
     0
 42
0.000000001
 43
0.00000001
 40
0.0
 40
0.0
 40
0.0
 40
0.0
 40
0.2499999999999998
 40
0.2499999999999998
 40
0.3749999999999999
 40
0.3749999999999999
 40
0.4999999999999999
 40
0.4999999999999999
 40
0.6249999999999999
 40
0.6249999999999999
 40
0.75
 40
0.75
 40
0.875
 40
0.875
 40
1.0
 40
1.0
 40
1.0
 40
1.0
 10
12.00000000000009
 20
7.501359402895716
 30
0.0
 10
12.00000000000009
 20
6.876945505370403
 30
0.0
 10
12.00000000000009
 20
6.163021782005965
 30
0.0
 10
12.00000000000009
 20
4.970134930986184
 30
0.0
 10
12.00000000000009
 20
4.552711693334378
 30
0.0
 10
12.00000000000009
 20
3.69020630390994
 30
0.0
 10
12.00000000000009
 20
3.245070267896888
 30
0.0
 10
12.00000000000009
 20
2.3484906180138
 30
0.0
 10
12.00000000000009
 20
1.897083656207766
 30
0.0
 10
12.00000000000009
 20
1.019408478887662
 30
0.0
 10
12.00000000000009
 20
0.5933213245079398
 30
0.0
 10
12.00000000000009
 20
-0.1952650035241122
 30
0.0
 10
12.00000000000009
 20
-0.5574494915737237
 30
0.0
 10
12.00000000000009
 20
-1.180357185495093
 30
0.0
 10
12.00000000000009
 20
-1.44075044422149
 30
0.0
 10
12.00000000000009
 20
-1.636879008404438
 30
0.0
  0
SPLINE
  5
B6
330
1F
100
AcDbEntity
  8
0
  6
Continuous
 62
     1
370
    15
100
AcDbSpline
210
0.0
220
0.0
230
1.0
 70
     8
 71
     3
 72
    26
 73
    22
 74
     0
 42
0.000000001
 43
0.00000001
 40
0.0
 40
0.0
 40
0.0
 40
0.0
 40
0.054304911048354
 40
0.1086231859840541
 40
0.1628740258937394
 40
0.2171317817948148
 40
0.2714625225253029
 40
0.324976801002754
 40
0.3784469129874737
 40
0.4319568882985503
 40
0.4855169170928847
 40
0.5390004936057796
 40
0.592478484336043
 40
0.6460308609603375
 40
0.699552438474092
 40
0.7530230064747508
 40
0.806526587705421
 40
0.8600894525241838
 40
0.9135771933841038
 40
0.9670524889583935
 40
1.0
 40
1.0
 40
1.0
 40
1.0
 10
12.00000000000009
 20
7.501359402895713
 30
0.0
 10
12.53556664273814
 20
7.352624768509023
 30
0.0
 10
13.60683172572835
 20
7.055118897651964
 30
0.0
 10
15.2135897283349
 20
6.399042971767361
 30
0.0
 10
16.81879909347079
 20
5.606412375119151
 30
0.0
 10
18.42419649005886
 20
4.680221092148856
 30
0.0
 10
20.02354142763265
 20
3.65235890129061
 30
0.0
 10
21.61432557961135
 20
2.545230816336761
 30
0.0
 10
23.19646812412521
 20
1.385689553088577
 30
0.0
 10
24.77953484340262
 20
0.1951631975813622
 30
0.0
 10
26.3636453473698
 20
-0.9986580236644577
 30
0.0
 10
27.94614785853458
 20
-2.171433871136502
 30
0.0
 10
29.52851726018698
 20
-3.29521115231094
 30
0.0
 10
31.11246831735811
 20
-4.343539056266124
 30
0.0
 10
32.69577782613383
 20
-5.294566944561121
 30
0.0
 10
34.27793491175465
 20
-6.126729758700193
 30
0.0
 10
35.86086781748784
 20
-6.81998754517319
 30
0.0
 10
37.44503482726893
 20
-7.361001557481534
 30
0.0
 10
39.02764083295887
 20
-7.729090166105184
 30
0.0
 10
40.40684753886764
 20
-7.922759450487332
 30
0.0
 10
41.25934428745947
 20
-7.91806906388556
 30
0.0
 10
41.58434699377051
 20
-7.916280918251291
 30
0.0
  0
LINE
  5
B7
330
1F
100
AcDbEntity
  8
0
  6
Continuous
 62
     4
370
    15
100
AcDbLine
 10
12.00000000000009
 20
7.501359402895716
 30
0.0
 11
12.00000000000009
 21
7.9375
 31
0.0
  0
SPLINE
  5
B8
330
1F
100
AcDbEntity
  8
0
  6
Continuous
 62
     1
370
    15
100
AcDbSpline
210
0.0
220
0.0
230
1.0
 70
     8
 71
     3
 72
    17
 73
    13
 74
     0
 42
0.000000001
 43
0.00000001
 40
0.0
 40
0.0
 40
0.0
 40
0.0
 40
0.1108468410755978
 40
0.2217456410120055
 40
0.3327820988505406
 40
0.4436767683993242
 40
0.5545246481808372
 40
0.6654905821120667
 40
0.7757931585933697
 40
0.8859504659783553
 40
0.9961334102324765
 40
1.0
 40
1.0
 40
1.0
 40
1.0
 10
51.75100000000077
 20
1.633558807613378
 30
0.0
 10
51.22048103299492
 20
2.021428023853016
 30
0.0
 10
50.15919442106967
 20
2.797348267942111
 30
0.0
 10
48.5664336880097
 20
3.887824336299016
 30
0.0
 10
46.97220600976001
 20
4.891029343447877
 30
0.0
 10
45.37944974201121
 20
5.782954093643475
 30
0.0
 10
43.78724361574421
 20
6.543347274235858
 30
0.0
 10
42.19708052700356
 20
7.15111487906745
 30
0.0
 10
40.60994156230961
 20
7.601084512485389
 30
0.0
 10
39.02759703677525
 20
7.858307822044587
 30
0.0
 10
37.95467680958283
 20
7.9651167360697
 30
0.0
 10
37.40853080159602
 20
7.935476175511194
 30
0.0
 10
37.39001496473468
 20
7.934471279795112
 30
0.0
  0
SPLINE
  5
B9
330
1F
100
AcDbEntity
  8
0
  6
Continuous
 62
     1
370
    15
100
AcDbSpline
210
0.0
220
0.0
230
1.0
 70
     8
 71
     3
 72
    20
 73
    16
 74
     0
 42
0.000000001
 43
0.00000001
 40
0.0
 40
0.0
 40
0.0
 40
0.0
 40
0.1250000000000007
 40
0.1250000000000007
 40
0.2500000000000015
 40
0.2500000000000015
 40
0.3750000000000022
 40
0.3750000000000022
 40
0.500000000000003
 40
0.500000000000003
 40
0.6250000000000038
 40
0.6250000000000038
 40
0.7500000000000044
 40
0.7500000000000044
 40
1.0
 40
1.0
 40
1.0
 40
1.0
 10
53.27500000000008
 20
0.7506683715545539
 30
0.0
 10
53.27500000000009
 20
0.7221243021364756
 30
0.0
 10
53.26473937327547
 20
0.7019439576471662
 30
0.0
 10
53.22043768364329
 20
0.6824278212407568
 30
0.0
 10
53.18646732511439
 20
0.6836343498811184
 30
0.0
 10
53.0971749544287
 20
0.7090611197217529
 30
0.0
 10
53.04103425805423
 20
0.7336347769015121
 30
0.0
 10
52.91466552681293
 20
0.8011100225617797
 30
0.0
 10
52.84298509574106
 20
0.8446893130231923
 30
0.0
 10
52.69206148733284
 20
0.9432837009681445
 30
0.0
 10
52.61120851542776
 20
0.9992919776058911
 30
0.0
 10
52.44629911833853
 20
1.117054561604514
 30
0.0
 10
52.36213282891437
 20
1.178832435344445
 30
0.0
 10
52.10400843188868
 20
1.370235860561415
 30
0.0
 10
51.92707624660676
 20
1.503850063479696
 30
0.0
 10
51.7510000000001
 20
1.633558807613868
 30
0.0
  0
LINE
  5
BA
330
1F
100
AcDbEntity
  8
0
  6
Continuous
 62
     1
370
    15
100
AcDbLine
 10
53.27500000000008
 20
-3.834806627881922
 30
0.0
 11
53.27500000000008
 21
0.7506683715545521
 31
0.0
  0
SPLINE
  5
BB
330
1F
100
AcDbEntity
  8
0
  6
Continuous
 62
     1
370
    15
100
AcDbSpline
210
0.0
220
0.0
230
1.0
 70
     8
 71
     3
 72
    12
 73
     8
 74
     0
 42
0.000000001
 43
0.00000001
 40
0.0
 40
0.0
 40
0.0
 40
0.0
 40
0.2135479658188095
 40
0.4271484836242269
 40
0.6404838207608546
 40
0.8538463542571569
 40
1.0
 40
1.0
 40
1.0
 40
1.0
 10
12.00000000000009
 20
-5.997930247991531
 30
0.0
 10
12.53556663146094
 20
-6.248658349523204
 30
0.0
 10
13.60683169189398
 20
-6.750176254227132
 30
0.0
 10
15.21358986364122
 20
-7.309733675235615
 30
0.0
 10
16.8187985867523
 20
-7.703287568046449
 30
0.0
 10
18.25498103271228
 20
-7.916040129383189
 30
0.0
 10
19.15688429523966
 20
-7.917121641169724
 30
0.0
 10
19.52353385800679
 20
-7.917561306752648
 30
0.0
  0
SPLINE
  5
BC
330
1F
100
AcDbEntity
  8
0
  6
Continuous
 62
     1
370
    15
100
AcDbSpline
210
0.0
220
0.0
230
1.0
 70
     8
 71
     3
 72
    12
 73
     8
 74
     0
 42
0.000000001
 43
0.00000001
 40
0.0
 40
0.0
 40
0.0
 40
0.0
 40
0.0559909641109361
 40
0.291941046563219
 40
0.5281928113127106
 40
0.7641516819719002
 40
1.0
 40
1.0
 40
1.0
 40
1.0
 10
45.00141874309306
 20
5.940817388445387
 30
0.0
 10
45.12736623701655
 20
6.007263528788311
 30
0.0
 10
45.78406582724303
 20
6.353718640962581
 30
0.0
 10
46.9721965440885
 20
6.845909121528607
 30
0.0
 10
48.5664362100939
 20
7.38578035288129
 30
0.0
 10
50.15919379121904
 20
7.759844145034797
 30
0.0
 10
51.22048082307752
 20
7.860527673608379
 30
0.0
 10
51.75100000000077
 20
7.9375
 30
0.0
  0
LINE
  5
BE
330
1F
100
AcDbEntity
  8
0
  6
Continuous
 62
     1
370
    15
100
AcDbLine
 10
53.27500000000008
 20
5.139562718986251
 30
0.0
 11
53.27500000000008
 21
6.369417496596347
 31
0.0
  0
SPLINE
  5
BF
330
1F
100
AcDbEntity
  8
0
  6
Continuous
 62
     1
370
    15
100
AcDbSpline
210
0.0
220
0.0
230
1.0
 70
     8
 71
     3
 72
    18
 73
    14
 74
     0
 42
0.000000001
 43
0.00000001
 40
0.0
 40
0.0
 40
0.0
 40
0.0
 40
0.249999999999999
 40
0.249999999999999
 40
0.3749999999999985
 40
0.3749999999999985
 40
0.499999999999998
 40
0.499999999999998
 40
0.6249999999999976
 40
0.6249999999999976
 40
0.749999999999997
 40
0.749999999999997
 40
1.0
 40
1.0
 40
1.0
 40
1.0
 10
53.27500000000008
 20
5.139562718986252
 30
0.0
 10
53.15116549347064
 20
4.828820125309104
 30
0.0
 10
53.00158115600291
 20
4.540150760877357
 30
0.0
 10
52.73242453926851
 20
4.14553304957284
 30
0.0
 10
52.63430997783524
 20
4.019503537414042
 30
0.0
 10
52.42675380287784
 20
3.787327777699881
 30
0.0
 10
52.31745677874453
 20
3.68100478631077
 30
0.0
 10
52.08802908228433
 20
3.487527236317525
 30
0.0
 10
51.96789986428221
 20
3.40037010451512
 30
0.0
 10
51.71673341302089
 20
3.245355854492009
 30
0.0
 10
51.58554899350898
 20
3.177666689879052
 30
0.0
 10
51.18778796597856
 20
3.008659445695993
 30
0.0
 10
50.91159814282163
 20
2.938379517082865
 30
0.0
 10
50.63042783599853
 20
2.906664270007401
 30
0.0
  0
SPLINE
  5
C0
330
1F
100
AcDbEntity
  8
0
  6
Continuous
 62
     1
370
    15
100
AcDbSpline
210
0.0
220
0.0
230
1.0
 70
     8
 71
     3
 72
     8
 73
     4
 74
     0
 42
0.000000001
 43
0.00000001
 40
0.0
 40
0.0
 40
0.0
 40
0.0
 40
1.0
 40
1.0
 40
1.0
 40
1.0
 10
53.27500000000008
 20
1.531147021911053
 30
0.0
 10
52.36569810576265
 20
2.058259412537291
 30
0.0
 10
51.48358264874194
 20
2.518225827301399
 30
0.0
 10
50.63042783599855
 20
2.906664270007418
 30
0.0
  0
LINE
  5
C1
330
1F
100
AcDbEntity
  8
0
  6
Continuous
 62
     1
370
    15
100
AcDbLine
 10
53.27500000000008
 20
0.7506683715545521
 30
0.0
 11
53.27500000000008
 21
1.531147021911053
 31
0.0
  0
LINE
  5
C2
330
1F
100
AcDbEntity
  8
0
  6
Continuous
 62
     4
370
    15
100
AcDbLine
 10
12.00000000000009
 20
-5.997930247991531
 30
0.0
 11
12.00000000000009
 21
-1.636879008404434
 31
0.0
  0
LINE
  5
C3
330
1F
100
AcDbEntity
  8
0
  6
Continuous
 62
     1
370
    15
100
AcDbLine
 10
53.27500000000008
 20
1.531147021911053
 30
0.0
 11
53.27500000000008
 21
5.139562718986251
 31
0.0
  0
LINE
  5
C4
330
1F
100
AcDbEntity
  8
0
  6
Continuous
 62
     1
370
    15
100
AcDbLine
 10
53.27500000000008
 20
-3.834806627881922
 30
0.0
 11
53.27500000000008
 21
-4.640327385311442
 31
0.0
  0
LINE
  5
C5
330
1F
100
AcDbEntity
  8
0
  6
Continuous
 62
     1
370
    15
100
AcDbLine
 10
53.27500000000008
 20
6.369417496596347
 30
0.0
 11
53.27500000000008
 21
6.4135
 31
0.0
  0
LINE
  5
C6
330
1F
100
AcDbEntity
  8
중심선
100
AcDbLine
 10
-38.62499999999993
 20
0.0
 30
0.0
 11
56.27500000000008
 21
0.0000000000000005
 31
0.0
  0
CIRCLE
  5
C7
330
1F
100
AcDbEntity
  8
외형선
100
AcDbCircle
 10
0.0
 20
0.0
 30
0.0
 40
3.000000000000008
  0
INSERT
  5
C8
330
1F
100
AcDbEntity
  8
0
  6
Continuous
 62
     7
100
AcDbBlockReference
 66
     1
  2
블럭10
 10
-7.518257128780593
 20
-39.93114876947649
 30
0.0
  0
ATTRIB
  5
C9
330
C8
100
AcDbEntity
  8
FORMAT
 62
     2
100
AcDbText
 10
-16.69955241752187
 20
-37.8557818566443
 30
0.0
 40
4.233333333333333
  1
E5983040 [ 3 FLUTE ]
 41
0.75
  7
SLDTEXTSTYLE0
 11
-16.69955241752187
 21
-39.97244852331097
 31
0.0
100
AcDbAttribute
  2
AUTOATTR0
 70
     0
 74
     1
  0
SEQEND
  5
CA
330
C8
100
AcDbEntity
  8
0
  6
Continuous
 62
     7
  0
HATCH
  5
CB
330
1F
100
AcDbEntity
  8
중심선
100
AcDbHatch
 10
0.0
 20
0.0
 30
0.0
210
0.0
220
0.0
230
1.0
  2
SOLID
 70
     1
 71
     0
 91
        1
 92
        0
 93
        4
 72
     1
 10
-1.803347824399756
 20
-23.68397446783256
 11
-5.249623068237039
 21
-23.68397446783256
 72
     1
 10
-5.249623068237039
 20
-23.68397446783256
 11
-7.377852927441062
 21
-26.22030004840516
 72
     1
 10
-7.377852927441062
 20
-26.22030004840516
 11
-3.931544598490628
 21
-26.22026061910267
 72
     1
 10
-3.931544598490628
 20
-26.22026061910267
 11
-1.803347824399756
 21
-23.68397446783256
 97
        0
 75
     0
 76
     1
 98
        1
 10
12.82759475658729
 20
12.11495060344355
  0
HATCH
  5
CC
330
1F
100
AcDbEntity
  8
중심선
100
AcDbHatch
 10
0.0
 20
0.0
 30
0.0
210
0.0
220
0.0
230
1.0
  2
SOLID
 70
     1
 71
     0
 91
        1
 92
        0
 93
        4
 72
     1
 10
3.209416166636196
 20
-23.68397446783258
 11
-0.2368590772010588
 21
-23.68397446783253
 72
     1
 10
-0.2368590772010588
 20
-23.68397446783253
 11
-4.767997085558477
 21
-29.08397446783258
 72
     1
 10
-4.767997085558477
 20
-29.08397446783258
 11
-1.321721841721192
 21
-29.08397446783258
 72
     1
 10
-1.321721841721192
 20
-29.08397446783258
 11
3.209416166636196
 21
-23.68397446783258
 97
        0
 75
     0
 76
     1
 98
        1
 10
12.82759475658729
 20
12.11495060344355
  0
HATCH
  5
CD
330
1F
100
AcDbEntity
  8
중심선
100
AcDbHatch
 10
0.0
 20
0.0
 30
0.0
210
0.0
220
0.0
230
1.0
  2
SOLID
 70
     1
 71
     0
 91
        1
 92
        0
 93
        4
 72
     1
 10
8.222180157672119
 20
-23.68397446783258
 11
4.775904913835003
 21
-23.68397446783256
 72
     1
 10
4.775904913835003
 20
-23.68397446783256
 11
-2.272531988054274
 21
-32.08397446783258
 72
     1
 10
-2.272531988054274
 20
-32.08397446783258
 11
1.173743255783009
 21
-32.08397446783258
 72
     1
 10
1.173743255783009
 20
-32.08397446783258
 11
8.222180157672119
 21
-23.68397446783258
 97
        0
 75
     0
 76
     1
 98
        1
 10
12.82759475658729
 20
12.11495060344355
  0
HATCH
  5
CE
330
1F
100
AcDbEntity
  8
중심선
100
AcDbHatch
 10
0.0
 20
0.0
 30
0.0
210
0.0
220
0.0
230
1.0
  2
SOLID
 70
     1
 71
     0
 91
        1
 92
        0
 93
        6
 72
     3
 10
13.02207058868429
 20
-27.88397446788383
 11
3.960054785062283
 21
1.540882976769353E-10
 40
0.3939339440162628
 50
17.09539180608437
 51
320.0019657685082
 73
     0
 72
     1
 10
14.70507024438486
 20
-26.47186847247089
 11
17.01037211808595
 21
-24.53754176242294
 72
     3
 10
13.02207058863144
 20
-27.88397446783271
 11
6.600054785286829
 21
-1.278976924368180E-13
 40
0.636358354079598
 50
39.99873849337386
 51
368.4976242363725
 73
     1
 72
     1
 10
19.44740308053206
 20
-26.92397446776258
 11
11.70213789546737
 21
-26.92397446776258
 72
     1
 10
11.70213789546737
 20
-26.92397446776258
 11
11.70211285102143
 21
-28.84397446776247
 72
     1
 10
11.70211285102143
 20
-28.84397446776247
 11
16.14349262049347
 21
-28.84397446776244
 97
        0
 75
     0
 76
     1
 98
        1
 10
12.82759475658729
 20
12.11495060344355
  0
POINT
  5
CF
330
1F
100
AcDbEntity
  8
치수문자_일반주서
100
AcDbPoint
 10
-35.62499999999994
 20
-0.1156937548689091
 30
0.0
  0
DIMENSION
  5
D0
102
{ACAD_REACTORS
102
}
330
1F
100
AcDbEntity
  8
치수문자_일반주서
100
AcDbDimension
  2
_D
 10
12.00000000000009
 20
30.13579535053692
 30
0.0
 11
32.63750000000009
 21
30.13579535053692
 31
0.0
 70
   160
  1
<>
 71
     2
 42
41.275
  3
SLDDIMSTYLE0
100
AcDbAlignedDimension
 13
53.27500000000008
 23
8.0
 33
0.0
 14
12.00000000000009
 24
7.9375
 34
0.0
 50
-0.0000000000000049
100
AcDbRotatedDimension
1001
ACAD
1000
DSTYLE
1002
{
1070
   171
1070
     6
1070
   273
1070
     5
1002
}
  0
DIMENSION
  5
E4
330
1F
100
AcDbEntity
  8
치수문자_일반주서
100
AcDbDimension
  2
_D_1
 10
-35.62499999999994
 20
57.0850977822756
 30
0.0
 11
8.469991806280582
 21
57.0850977822756
 31
0.0
 70
   160
  1
<>
 71
     2
 42
88.9
  3
SLDDIMSTYLE1
100
AcDbAlignedDimension
 13
53.27500000000008
 23
7.9375
 33
0.0
 14
-35.62499999999993
 24
7.437499999999997
 34
0.0
100
AcDbRotatedDimension
1001
ACAD
1000
DSTYLE
1002
{
1070
   171
1070
     6
1070
   273
1070
     5
1002
}
  0
DIMENSION
  5
F8
330
1F
100
AcDbEntity
  8
치수문자_일반주서
100
AcDbDimension
  2
_D_2
 10
-46.72822612419932
 20
-7.937500000000043
 30
0.0
 11
-46.72822612419945
 21
28.54149999999996
 31
0.0
 70
   160
  1
%%c<>
 71
     2
 42
15.875
 52
-270.0
  3
SLDDIMSTYLE2
100
AcDbAlignedDimension
 13
-35.12499999999993
 23
7.9375
 33
0.0
 14
-35.12499999999993
 24
-7.937500000000001
 34
0.0
 50
90.0000000000002
100
AcDbRotatedDimension
1001
ACAD
1000
DSTYLE
1002
{
1070
   171
1070
     6
1070
   273
1070
     5
1002
}
  0
INSERT
  5
113
330
1F
100
AcDbEntity
  8
외형선
100
AcDbBlockReference
  2
SW_DOWELSYMBOL_0
 10
0.0
 20
0.0
 30
0.0
  0
ARC
  5
13B
102
{ACAD_REACTORS
102
}
330
1F
100
AcDbEntity
  8
0
  6
Continuous
 62
     1
370
    15
100
AcDbCircle
 10
51.75100000000008
 20
-6.413500000000001
 30
0.0
 40
1.524
100
AcDbArc
 50
270.0
 51
0.0
  0
ARC
  5
13E
330
1F
100
AcDbEntity
  8
0
  6
Continuous
 62
     1
370
    15
100
AcDbCircle
 10
51.75100000000008
 20
6.413500000000002
 30
0.0
 40
1.524
100
AcDbArc
 50
0.0
 51
90.0
  0
DIMENSION
  5
150
102
{ACAD_XDICTIONARY
360
151
102
}
330
1F
100
AcDbEntity
  8
치수문자_일반주서
100
AcDbDimension
  2
*D7
 10
62.50224087364453
 20
7.937499999999999
 30
0.0
 11
59.87724087364453
 21
28.5415
 31
0.0
 70
    32
  1
{Ø<>[]}
 71
     5
 42
15.875
  3
SLDDIMSTYLE2
100
AcDbAlignedDimension
 13
53.27500000000008
 23
-7.937500000000001
 33
0.0
 14
53.27500000000008
 24
7.9375
 34
0.0
 50
90.0
100
AcDbRotatedDimension
1001
ACAD
1000
DSTYLE
1002
{
1070
   283
1070
     1
1070
   170
1070
     1
1070
   171
1070
     6
1070
   273
1070
     5
1002
}
  0
LINE
  5
161
330
1F
100
AcDbEntity
  8
0
  6
Continuous
 62
     1
370
    15
100
AcDbLine
 10
53.27500000000008
 20
-5.891411545138786
 30
0.0
 11
53.27500000000008
 21
-6.413500000000001
 31
0.0
  0
DIMENSION
  5
163
102
{ACAD_REACTORS
102
}
102
{ACAD_XDICTIONARY
360
164
102
}
330
1F
100
AcDbEntity
  8
치수문자_일반주서
100
AcDbDimension
  2
*D8
 10
51.75100000000008
 20
-6.413500000000001
 30
0.0
 11
62.39591661441471
 21
-25.81283334607557
 31
0.0
 70
   164
  1
<>
 71
     5
 42
1.524
  3
SLDDIMSTYLE2
100
AcDbRadialDimension
 15
52.48413688179545
 25
-7.749571222858784
 35
0.0
 40
0.0
1001
ACAD_DSTYLE_DIMRADIAL_EXTENSION
1070
   387
1070
     1
1070
   388
1040
4.71238898038469
1070
   390
1040
0.0
  0
ENDSEC
  0
SECTION
  2
OBJECTS
  0
DICTIONARY
  5
C
330
0
100
AcDbDictionary
281
     1
  3
ACAD_GROUP
350
D
  3
ACAD_IMAGE_VARS
350
137
  3
ACAD_LAYOUT
350
1A
  3
ACAD_MLINESTYLE
350
17
  3
ACAD_PLOTSETTINGS
350
19
  3
ACAD_PLOTSTYLENAME
350
E
  3
ACAD_SCALELIST
350
47
  3
APPDATA
350
135
  3
DWGPROPS
350
178
  0
DICTIONARY
  5
151
330
150
100
AcDbDictionary
280
     1
281
     1
  0
DICTIONARY
  5
164
330
163
100
AcDbDictionary
280
     1
281
     1
  0
DICTIONARY
  5
D
102
{ACAD_REACTORS
330
C
102
}
330
C
100
AcDbDictionary
281
     1
  0
RASTERVARIABLES
  5
137
102
{ACAD_REACTORS
330
C
102
}
330
C
100
AcDbRasterVariables
 90
        0
 70
     1
 71
     1
 72
     1
  0
DICTIONARY
  5
1A
102
{ACAD_REACTORS
330
C
102
}
330
C
100
AcDbDictionary
281
     1
  3
Layout1
350
1E
  3
Layout2
350
26
  3
Model
350
22
  0
DICTIONARY
  5
17
102
{ACAD_REACTORS
330
C
102
}
330
C
100
AcDbDictionary
281
     1
  3
Standard
350
18
  0
DICTIONARY
  5
19
102
{ACAD_REACTORS
330
C
102
}
330
C
100
AcDbDictionary
281
     1
  0
ACDBDICTIONARYWDFLT
  5
E
102
{ACAD_REACTORS
330
C
102
}
330
C
100
AcDbDictionary
281
     1
  3
Normal
350
F
100
AcDbDictionaryWithDefault
340
F
  0
DICTIONARY
  5
47
102
{ACAD_REACTORS
330
C
102
}
330
C
100
AcDbDictionary
281
     1
  3
A0
350
48
  3
A1
350
49
  3
A2
350
4A
  3
A3
350
4B
  3
A4
350
4C
  3
A5
350
4D
  3
A6
350
4E
  3
A7
350
4F
  3
A8
350
50
  3
A9
350
51
  3
B0
350
52
  3
B1
350
53
  3
B2
350
54
  3
B3
350
55
  3
B4
350
56
  3
B5
350
57
  3
B6
350
58
  3
B7
350
59
  3
B8
350
5A
  3
B9
350
5B
  3
C0
350
5C
  3
C1
350
5D
  3
C2
350
5E
  3
C3
350
5F
  3
C4
350
60
  3
C5
350
61
  3
C6
350
62
  3
C7
350
63
  3
C8
350
64
  3
C9
350
65
  3
D0
350
66
  3
D1
350
67
  3
D2
350
68
  0
DICTIONARY
  5
135
102
{ACAD_REACTORS
330
C
102
}
330
C
100
AcDbDictionary
281
     1
  0
XRECORD
  5
178
102
{ACAD_REACTORS
330
C
102
}
330
C
100
AcDbXrecord
280
     1
  1
DWGPROPS COOKIE
  2

  3

  4

  6

  7

  8
12014074
  9

300
=
301
=
302
=
303
=
304
=
305
=
306
=
307
=
308
=
309
=
 40
0.0
 41
2458269.055798912
 42
2458269.475590729
  1

 90
        0
  0
LAYOUT
  5
1E
102
{ACAD_REACTORS
330
1A
102
}
330
1A
100
AcDbPlotSettings
  1

  2
none_device
  4

  6

 40
0.0
 41
0.0
 42
0.0
 43
0.0
 44
0.0
 45
0.0
 46
0.0
 47
0.0
 48
0.0
 49
0.0
140
0.0
141
0.0
142
1.0
143
1.0
 70
   688
 72
     1
 73
     0
 74
     5
  7

 75
    16
147
1.0
148
0.0
149
0.0
100
AcDbLayout
  1
Layout1
 70
     1
 71
     1
 10
0.0
 20
0.0
 11
420.0
 21
297.0
 12
0.0
 22
0.0
 32
0.0
 14
1.000000000000000E+20
 24
1.000000000000000E+20
 34
1.000000000000000E+20
 15
-1.000000000000000E+20
 25
-1.000000000000000E+20
 35
-1.000000000000000E+20
146
0.0
 13
0.0
 23
0.0
 33
0.0
 16
1.0
 26
0.0
 36
0.0
 17
0.0
 27
1.0
 37
0.0
 76
     0
330
1B
  0
LAYOUT
  5
26
102
{ACAD_REACTORS
330
1A
102
}
330
1A
100
AcDbPlotSettings
  1

  2
none_device
  4

  6

 40
0.0
 41
0.0
 42
0.0
 43
0.0
 44
0.0
 45
0.0
 46
0.0
 47
0.0
 48
0.0
 49
0.0
140
0.0
141
0.0
142
1.0
143
1.0
 70
   688
 72
     1
 73
     0
 74
     5
  7

 75
    16
147
1.0
148
0.0
149
0.0
100
AcDbLayout
  1
Layout2
 70
     1
 71
     2
 10
0.0
 20
0.0
 11
0.0
 21
0.0
 12
0.0
 22
0.0
 32
0.0
 14
0.0
 24
0.0
 34
0.0
 15
0.0
 25
0.0
 35
0.0
146
0.0
 13
0.0
 23
0.0
 33
0.0
 16
1.0
 26
0.0
 36
0.0
 17
0.0
 27
1.0
 37
0.0
 76
     0
330
23
  0
LAYOUT
  5
22
102
{ACAD_REACTORS
330
1A
102
}
330
1A
100
AcDbPlotSettings
  1

  2
none_device
  4
ANSI_A_(11.00_x_8.50_Inches)
  6

 40
6.35
 41
19.05
 42
6.35000508
 43
19.05000254
 44
279.4
 45
215.9
 46
145.8657758806763
 47
73.41804261601585
 48
0.0
 49
0.0
140
0.0
141
0.0
142
0.0709453924914685
143
1.0
 70
  1696
 72
     0
 73
     0
 74
     0
  7

 75
     0
147
0.0235690232323232
148
0.0
149
0.0
100
AcDbLayout
  1
Model
 70
     1
 71
     0
 10
0.0
 20
0.0
 11
420.0
 21
297.0
 12
0.0
 22
0.0
 32
0.0
 14
-51.1032261241995
 24
-38.08645350357097
 34
0.0
 15
72.54534783066889
 25
61.4600977822756
 35
0.0
146
0.0
 13
0.0
 23
0.0
 33
0.0
 16
1.0
 26
0.0
 36
0.0
 17
0.0
 27
1.0
 37
0.0
 76
     0
330
1F
331
29
  0
MLINESTYLE
  5
18
102
{ACAD_REACTORS
330
17
102
}
330
17
100
AcDbMlineStyle
  2
Standard
 70
     0
  3

 62
   256
 51
90.0
 52
90.0
 71
     2
 49
0.5
 62
   256
  6
BYLAYER
 49
-0.5
 62
   256
  6
BYLAYER
  0
ACDBPLACEHOLDER
  5
F
102
{ACAD_REACTORS
330
E
102
}
330
E
  0
SCALE
  5
48
102
{ACAD_REACTORS
330
47
102
}
330
47
100
AcDbScale
 70
     0
300
1:1
140
1.0
141
1.0
290
     1
  0
SCALE
  5
49
102
{ACAD_REACTORS
330
47
102
}
330
47
100
AcDbScale
 70
     0
300
1:2
140
1.0
141
2.0
290
     0
  0
SCALE
  5
4A
102
{ACAD_REACTORS
330
47
102
}
330
47
100
AcDbScale
 70
     0
300
1:4
140
1.0
141
4.0
290
     0
  0
SCALE
  5
4B
102
{ACAD_REACTORS
330
47
102
}
330
47
100
AcDbScale
 70
     0
300
1:5
140
1.0
141
5.0
290
     0
  0
SCALE
  5
4C
102
{ACAD_REACTORS
330
47
102
}
330
47
100
AcDbScale
 70
     0
300
1:8
140
1.0
141
8.0
290
     0
  0
SCALE
  5
4D
102
{ACAD_REACTORS
330
47
102
}
330
47
100
AcDbScale
 70
     0
300
1:10
140
1.0
141
10.0
290
     0
  0
SCALE
  5
4E
102
{ACAD_REACTORS
330
47
102
}
330
47
100
AcDbScale
 70
     0
300
1:16
140
1.0
141
16.0
290
     0
  0
SCALE
  5
4F
102
{ACAD_REACTORS
330
47
102
}
330
47
100
AcDbScale
 70
     0
300
1:20
140
1.0
141
20.0
290
     0
  0
SCALE
  5
50
102
{ACAD_REACTORS
330
47
102
}
330
47
100
AcDbScale
 70
     0
300
1:30
140
1.0
141
30.0
290
     0
  0
SCALE
  5
51
102
{ACAD_REACTORS
330
47
102
}
330
47
100
AcDbScale
 70
     0
300
1:40
140
1.0
141
40.0
290
     0
  0
SCALE
  5
52
102
{ACAD_REACTORS
330
47
102
}
330
47
100
AcDbScale
 70
     0
300
1:50
140
1.0
141
50.0
290
     0
  0
SCALE
  5
53
102
{ACAD_REACTORS
330
47
102
}
330
47
100
AcDbScale
 70
     0
300
1:100
140
1.0
141
100.0
290
     0
  0
SCALE
  5
54
102
{ACAD_REACTORS
330
47
102
}
330
47
100
AcDbScale
 70
     0
300
2:1
140
2.0
141
1.0
290
     0
  0
SCALE
  5
55
102
{ACAD_REACTORS
330
47
102
}
330
47
100
AcDbScale
 70
     0
300
4:1
140
4.0
141
1.0
290
     0
  0
SCALE
  5
56
102
{ACAD_REACTORS
330
47
102
}
330
47
100
AcDbScale
 70
     0
300
8:1
140
8.0
141
1.0
290
     0
  0
SCALE
  5
57
102
{ACAD_REACTORS
330
47
102
}
330
47
100
AcDbScale
 70
     0
300
10:1
140
10.0
141
1.0
290
     0
  0
SCALE
  5
58
102
{ACAD_REACTORS
330
47
102
}
330
47
100
AcDbScale
 70
     0
300
100:1
140
100.0
141
1.0
290
     0
  0
SCALE
  5
59
102
{ACAD_REACTORS
330
47
102
}
330
47
100
AcDbScale
 70
     0
300
1/128" = 1'-0"
140
0.0078125
141
12.0
290
     0
  0
SCALE
  5
5A
102
{ACAD_REACTORS
330
47
102
}
330
47
100
AcDbScale
 70
     0
300
1/64" = 1'-0"
140
0.015625
141
12.0
290
     0
  0
SCALE
  5
5B
102
{ACAD_REACTORS
330
47
102
}
330
47
100
AcDbScale
 70
     0
300
1/32" = 1'-0"
140
0.03125
141
12.0
290
     0
  0
SCALE
  5
5C
102
{ACAD_REACTORS
330
47
102
}
330
47
100
AcDbScale
 70
     0
300
1/16" = 1'-0"
140
0.0625
141
12.0
290
     0
  0
SCALE
  5
5D
102
{ACAD_REACTORS
330
47
102
}
330
47
100
AcDbScale
 70
     0
300
3/32" = 1'-0"
140
0.09375
141
12.0
290
     0
  0
SCALE
  5
5E
102
{ACAD_REACTORS
330
47
102
}
330
47
100
AcDbScale
 70
     0
300
1/8" = 1'-0"
140
0.125
141
12.0
290
     0
  0
SCALE
  5
5F
102
{ACAD_REACTORS
330
47
102
}
330
47
100
AcDbScale
 70
     0
300
3/16" = 1'-0"
140
0.1875
141
12.0
290
     0
  0
SCALE
  5
60
102
{ACAD_REACTORS
330
47
102
}
330
47
100
AcDbScale
 70
     0
300
1/4" = 1'-0"
140
0.25
141
12.0
290
     0
  0
SCALE
  5
61
102
{ACAD_REACTORS
330
47
102
}
330
47
100
AcDbScale
 70
     0
300
3/8" = 1'-0"
140
0.375
141
12.0
290
     0
  0
SCALE
  5
62
102
{ACAD_REACTORS
330
47
102
}
330
47
100
AcDbScale
 70
     0
300
1/2" = 1'-0"
140
0.5
141
12.0
290
     0
  0
SCALE
  5
63
102
{ACAD_REACTORS
330
47
102
}
330
47
100
AcDbScale
 70
     0
300
3/4" = 1'-0"
140
0.75
141
12.0
290
     0
  0
SCALE
  5
64
102
{ACAD_REACTORS
330
47
102
}
330
47
100
AcDbScale
 70
     0
300
1" = 1'-0"
140
1.0
141
12.0
290
     0
  0
SCALE
  5
65
102
{ACAD_REACTORS
330
47
102
}
330
47
100
AcDbScale
 70
     0
300
1-1/2" = 1'-0"
140
1.5
141
12.0
290
     0
  0
SCALE
  5
66
102
{ACAD_REACTORS
330
47
102
}
330
47
100
AcDbScale
 70
     0
300
3" = 1'-0"
140
3.0
141
12.0
290
     0
  0
SCALE
  5
67
102
{ACAD_REACTORS
330
47
102
}
330
47
100
AcDbScale
 70
     0
300
6" = 1'-0"
140
6.0
141
12.0
290
     0
  0
SCALE
  5
68
102
{ACAD_REACTORS
330
47
102
}
330
47
100
AcDbScale
 70
     0
300
1'-0" = 1'-0"
140
12.0
141
12.0
290
     0
  0
ENDSEC
  0
EOF
