  0
SECTION
  2
HEADER
  9
$ACADVER
  1
AC1015
  9
$ACADMAINTVER
 70
     6
  9
$DWGCODEPAGE
  3
ANSI_949
  9
$INSBASE
 10
0.0
 20
0.0
 30
0.0
  9
$EXTMIN
 10
-83.22145802161211
 20
-49.88227576695243
 30
0.0
  9
$EXTMAX
 10
129.1467230688362
 20
57.07500000000005
 30
0.0
  9
$LIMMIN
 10
0.0
 20
0.0
  9
$LIMMAX
 10
420.0
 20
297.0
  9
$ORTHOMODE
 70
     1
  9
$REGENMODE
 70
     1
  9
$FILLMODE
 70
     1
  9
$QTEXTMODE
 70
     0
  9
$MIRRTEXT
 70
     1
  9
$LTSCALE
 40
1.0
  9
$ATTMODE
 70
     1
  9
$TEXTSIZE
 40
3.5
  9
$TRACEWID
 40
1.0
  9
$TEXTSTYLE
  7
Standard
  9
$CLAYER
  8
0
  9
$CELTYPE
  6
ByLayer
  9
$CECOLOR
 62
   256
  9
$CELTSCALE
 40
1.0
  9
$DISPSILH
 70
     0
  9
$DIMSCALE
 40
1.0
  9
$DIMASZ
 40
3.302
  9
$DIMEXO
 40
1.0
  9
$DIMDLI
 40
3.75
  9
$DIMRND
 40
0.0
  9
$DIMDLE
 40
0.0
  9
$DIMEXE
 40
1.0
  9
$DIMTP
 40
0.0
  9
$DIMTM
 40
0.0
  9
$DIMTXT
 40
3.5
  9
$DIMCEN
 40
2.5
  9
$DIMTSZ
 40
0.0
  9
$DIMTOL
 70
     0
  9
$DIMLIM
 70
     0
  9
$DIMTIH
 70
     1
  9
$DIMTOH
 70
     1
  9
$DIMSE1
 70
     0
  9
$DIMSE2
 70
     0
  9
$DIMTAD
 70
     1
  9
$DIMZIN
 70
     0
  9
$DIMBLK
  1

  9
$DIMASO
 70
     1
  9
$DIMSHO
 70
     1
  9
$DIMPOST
  1

  9
$DIMAPOST
  1

  9
$DIMALT
 70
     0
  9
$DIMALTD
 70
     3
  9
$DIMALTF
 40
0.0393700787401575
  9
$DIMLFAC
 40
1.0
  9
$DIMTOFL
 70
     1
  9
$DIMTVP
 40
0.0
  9
$DIMTIX
 70
     0
  9
$DIMSOXD
 70
     0
  9
$DIMSAH
 70
     0
  9
$DIMBLK1
  1

  9
$DIMBLK2
  1

  9
$DIMSTYLE
  2
ISO-25
  9
$DIMCLRD
 70
     0
  9
$DIMCLRE
 70
     0
  9
$DIMCLRT
 70
     0
  9
$DIMTFAC
 40
1.0
  9
$DIMGAP
 40
1.524
  9
$DIMJUST
 70
     0
  9
$DIMSD1
 70
     0
  9
$DIMSD2
 70
     0
  9
$DIMTOLJ
 70
     0
  9
$DIMTZIN
 70
     0
  9
$DIMALTZ
 70
     0
  9
$DIMALTTZ
 70
     0
  9
$DIMUPT
 70
     0
  9
$DIMDEC
 70
     2
  9
$DIMTDEC
 70
     2
  9
$DIMALTU
 70
     2
  9
$DIMALTTD
 70
     3
  9
$DIMTXSTY
  7
Standard
  9
$DIMAUNIT
 70
     0
  9
$DIMADEC
 70
     2
  9
$DIMALTRND
 40
0.0
  9
$DIMAZIN
 70
     0
  9
$DIMDSEP
 70
    44
  9
$DIMATFIT
 70
     3
  9
$DIMFRAC
 70
     0
  9
$DIMLDRBLK
  1

  9
$DIMLUNIT
 70
     2
  9
$DIMLWD
 70
    -2
  9
$DIMLWE
 70
    -2
  9
$DIMTMOVE
 70
     0
  9
$LUNITS
 70
     2
  9
$LUPREC
 70
     2
  9
$SKETCHINC
 40
1.0
  9
$FILLETRAD
 40
10.0
  9
$AUNITS
 70
     0
  9
$AUPREC
 70
     2
  9
$MENU
  1
.
  9
$ELEVATION
 40
0.0
  9
$PELEVATION
 40
0.0
  9
$THICKNESS
 40
0.0
  9
$LIMCHECK
 70
     0
  9
$CHAMFERA
 40
0.0
  9
$CHAMFERB
 40
0.0
  9
$CHAMFERC
 40
0.0
  9
$CHAMFERD
 40
0.0
  9
$SKPOLY
 70
     0
  9
$TDCREATE
 40
2458269.737478056
  9
$TDUCREATE
 40
2458269.362478056
  9
$TDUPDATE
 40
2458275.407537025
  9
$TDUUPDATE
 40
2458275.032537025
  9
$TDINDWG
 40
0.0012598495
  9
$TDUSRTIMER
 40
2458275.031277477
  9
$USRTIMER
 70
     1
  9
$ANGBASE
 50
0.0
  9
$ANGDIR
 70
     0
  9
$PDMODE
 70
     0
  9
$PDSIZE
 40
-1.0
  9
$PLINEWID
 40
0.0
  9
$SPLFRAME
 70
     0
  9
$SPLINETYPE
 70
     6
  9
$SPLINESEGS
 70
     8
  9
$HANDSEED
  5
16B
  9
$SURFTAB1
 70
     6
  9
$SURFTAB2
 70
     6
  9
$SURFTYPE
 70
     6
  9
$SURFU
 70
     6
  9
$SURFV
 70
     6
  9
$UCSBASE
  2

  9
$UCSNAME
  2

  9
$UCSORG
 10
0.0
 20
0.0
 30
0.0
  9
$UCSXDIR
 10
1.0
 20
0.0
 30
0.0
  9
$UCSYDIR
 10
0.0
 20
1.0
 30
0.0
  9
$UCSORTHOREF
  2

  9
$UCSORTHOVIEW
 70
     0
  9
$UCSORGTOP
 10
0.0
 20
0.0
 30
0.0
  9
$UCSORGBOTTOM
 10
0.0
 20
0.0
 30
0.0
  9
$UCSORGLEFT
 10
0.0
 20
0.0
 30
0.0
  9
$UCSORGRIGHT
 10
0.0
 20
0.0
 30
0.0
  9
$UCSORGFRONT
 10
0.0
 20
0.0
 30
0.0
  9
$UCSORGBACK
 10
0.0
 20
0.0
 30
0.0
  9
$PUCSBASE
  2

  9
$PUCSNAME
  2

  9
$PUCSORG
 10
0.0
 20
0.0
 30
0.0
  9
$PUCSXDIR
 10
1.0
 20
0.0
 30
0.0
  9
$PUCSYDIR
 10
0.0
 20
1.0
 30
0.0
  9
$PUCSORTHOREF
  2

  9
$PUCSORTHOVIEW
 70
     0
  9
$PUCSORGTOP
 10
0.0
 20
0.0
 30
0.0
  9
$PUCSORGBOTTOM
 10
0.0
 20
0.0
 30
0.0
  9
$PUCSORGLEFT
 10
0.0
 20
0.0
 30
0.0
  9
$PUCSORGRIGHT
 10
0.0
 20
0.0
 30
0.0
  9
$PUCSORGFRONT
 10
0.0
 20
0.0
 30
0.0
  9
$PUCSORGBACK
 10
0.0
 20
0.0
 30
0.0
  9
$USERI1
 70
     0
  9
$USERI2
 70
     0
  9
$USERI3
 70
     0
  9
$USERI4
 70
     0
  9
$USERI5
 70
     0
  9
$USERR1
 40
0.0
  9
$USERR2
 40
0.0
  9
$USERR3
 40
0.0
  9
$USERR4
 40
0.0
  9
$USERR5
 40
0.0
  9
$WORLDVIEW
 70
     1
  9
$SHADEDGE
 70
     3
  9
$SHADEDIF
 70
    70
  9
$TILEMODE
 70
     1
  9
$MAXACTVP
 70
    64
  9
$PINSBASE
 10
0.0
 20
0.0
 30
0.0
  9
$PLIMCHECK
 70
     0
  9
$PEXTMIN
 10
1.000000000000000E+20
 20
1.000000000000000E+20
 30
1.000000000000000E+20
  9
$PEXTMAX
 10
-1.000000000000000E+20
 20
-1.000000000000000E+20
 30
-1.000000000000000E+20
  9
$PLIMMIN
 10
0.0
 20
0.0
  9
$PLIMMAX
 10
0.0
 20
0.0
  9
$UNITMODE
 70
     0
  9
$VISRETAIN
 70
     1
  9
$PLINEGEN
 70
     0
  9
$PSLTSCALE
 70
     1
  9
$TREEDEPTH
 70
  3020
  9
$CMLSTYLE
  2
Standard
  9
$CMLJUST
 70
     0
  9
$CMLSCALE
 40
20.0
  9
$PROXYGRAPHICS
 70
     1
  9
$MEASUREMENT
 70
     1
  9
$CELWEIGHT
370
    -1
  9
$ENDCAPS
280
     0
  9
$JOINSTYLE
280
     0
  9
$LWDISPLAY
290
     1
  9
$INSUNITS
 70
     4
  9
$HYPERLINKBASE
  1

  9
$STYLESHEET
  1

  9
$XEDIT
290
     1
  9
$CEPSNTYPE
380
     0
  9
$PSTYLEMODE
290
     1
  9
$FINGERPRINTGUID
  2
{E9D4939B-9A42-4850-AAE4-BCDA2AE50501}
  9
$VERSIONGUID
  2
{FAEB1C32-E019-11D5-929B-00C0DF256EC4}
  9
$EXTNAMES
290
     1
  9
$PSVPSCALE
 40
0.0
  9
$OLESTARTUP
290
     0
  0
ENDSEC
  0
SECTION
  2
CLASSES
  0
CLASS
  1
ACDBDICTIONARYWDFLT
  2
AcDbDictionaryWithDefault
  3
ObjectDBX Classes
 90
        0
280
     0
281
     0
  0
CLASS
  1
VISUALSTYLE
  2
AcDbVisualStyle
  3
ObjectDBX Classes
 90
     4095
280
     0
281
     0
  0
CLASS
  1
MATERIAL
  2
AcDbMaterial
  3
ObjectDBX Classes
 90
     1153
280
     0
281
     0
  0
CLASS
  1
SCALE
  2
AcDbScale
  3
ObjectDBX Classes
 90
     1153
280
     0
281
     0
  0
CLASS
  1
SUN
  2
AcDbSun
  3
SCENEOE
 90
     1153
280
     0
281
     0
  0
CLASS
  1
ACDBPLACEHOLDER
  2
AcDbPlaceHolder
  3
ObjectDBX Classes
 90
        0
280
     0
281
     0
  0
CLASS
  1
LAYOUT
  2
AcDbLayout
  3
ObjectDBX Classes
 90
        0
280
     0
281
     0
  0
CLASS
  1
TABLESTYLE
  2
AcDbTableStyle
  3
ObjectDBX Classes
 90
     4095
280
     0
281
     0
  0
CLASS
  1
MLEADERSTYLE
  2
AcDbMLeaderStyle
  3
ACDB_MLEADERSTYLE_CLASS
 90
     4095
280
     0
281
     0
  0
CLASS
  1
RASTERVARIABLES
  2
AcDbRasterVariables
  3
ISM
 90
        0
280
     0
281
     0
  0
CLASS
  1
DIMASSOC
  2
AcDbDimAssoc
  3
"AcDbDimAssoc|Product Desc:     AcDim ARX App For Dimension|Company:          Autodesk, Inc.|WEB Address:      www.autodesk.com"
 90
        0
280
     0
281
     0
  0
ENDSEC
  0
SECTION
  2
TABLES
  0
TABLE
  2
VPORT
  5
8
330
0
100
AcDbSymbolTable
 70
     1
  0
VPORT
  5
29
330
8
100
AcDbSymbolTableRecord
100
AcDbViewportTableRecord
  2
*Active
 70
     0
 10
0.0
 20
0.0
 11
1.0
 21
1.0
 12
8.776975126895328
 22
2.299701314748381
 13
0.0
 23
0.0
 14
10.0
 24
10.0
 15
10.0
 25
10.0
 16
0.0
 26
0.0
 36
1.0
 17
0.0
 27
0.0
 37
0.0
 40
18.64323513262167
 41
1.515444015444015
 42
50.0
 43
0.0
 44
0.0
 50
0.0
 51
0.0
 71
    16
 72
  2000
 73
     1
 74
     3
 75
     0
 76
     0
 77
     0
 78
     0
281
     0
 65
     1
110
0.0
120
0.0
130
0.0
111
1.0
121
0.0
131
0.0
112
0.0
122
1.0
132
0.0
 79
     0
146
0.0
  0
ENDTAB
  0
TABLE
  2
LTYPE
  5
5
330
0
100
AcDbSymbolTable
 70
     6
  0
LTYPE
  5
14
330
5
100
AcDbSymbolTableRecord
100
AcDbLinetypeTableRecord
  2
ByBlock
 70
     0
  3

 72
    65
 73
     0
 40
0.0
  0
LTYPE
  5
15
330
5
100
AcDbSymbolTableRecord
100
AcDbLinetypeTableRecord
  2
ByLayer
 70
     0
  3

 72
    65
 73
     0
 40
0.0
  0
LTYPE
  5
16
330
5
100
AcDbSymbolTableRecord
100
AcDbLinetypeTableRecord
  2
Continuous
 70
     0
  3
Solid line
 72
    65
 73
     0
 40
0.0
  0
LTYPE
  5
6A
330
5
100
AcDbSymbolTableRecord
100
AcDbLinetypeTableRecord
  2
HIDDEN
 70
     0
  3
Hidden __ __ __ __ __ __ __ __ __ __ __ __ __ __
 72
    65
 73
     2
 40
1.905
 49
1.27
 74
     0
 49
-0.635
 74
     0
  0
LTYPE
  5
6B
330
5
100
AcDbSymbolTableRecord
100
AcDbLinetypeTableRecord
  2
PHANTOM
 70
     0
  3
Phantom ______  __  __  ______  __  __  ______
 72
    65
 73
     6
 40
12.7
 49
6.35
 74
     0
 49
-1.27
 74
     0
 49
1.27
 74
     0
 49
-1.27
 74
     0
 49
1.27
 74
     0
 49
-1.27
 74
     0
  0
LTYPE
  5
6C
330
5
100
AcDbSymbolTableRecord
100
AcDbLinetypeTableRecord
  2
CENTER
 70
     0
  3
Center ____ _ ____ _ ____ _ ____ _ ____ _ ____
 72
    65
 73
     4
 40
10.16
 49
6.35
 74
     0
 49
-1.27
 74
     0
 49
1.27
 74
     0
 49
-1.27
 74
     0
  0
LTYPE
  5
6D
330
5
100
AcDbSymbolTableRecord
100
AcDbLinetypeTableRecord
  2
CENTERX2
 70
     0
  3
Center (2x) ________  __  ________  __  _____
 72
    65
 73
     4
 40
20.32
 49
12.7
 74
     0
 49
-2.54
 74
     0
 49
2.54
 74
     0
 49
-2.54
 74
     0
  0
LTYPE
  5
6E
330
5
100
AcDbSymbolTableRecord
100
AcDbLinetypeTableRecord
  2
DOT2
 70
     0
  3
Dot (.5x) ........................................
 72
    65
 73
     2
 40
0.635
 49
0.0
 74
     0
 49
-0.635
 74
     0
  0
ENDTAB
  0
TABLE
  2
LAYER
  5
2
330
0
100
AcDbSymbolTable
 70
    17
  0
LAYER
  5
10
330
2
100
AcDbSymbolTableRecord
100
AcDbLayerTableRecord
  2
0
 70
     0
 62
     7
  6
Continuous
370
    -3
390
F
  0
LAYER
  5
6F
330
2
100
AcDbSymbolTableRecord
100
AcDbLayerTableRecord
  2
FORMAT
 70
     0
 62
     2
  6
Continuous
370
    -3
390
F
  0
LAYER
  5
70
330
2
100
AcDbSymbolTableRecord
100
AcDbLayerTableRecord
  2
외형선
 70
     0
 62
   100
  6
Continuous
370
    30
390
F
  0
LAYER
  5
71
330
2
100
AcDbSymbolTableRecord
100
AcDbLayerTableRecord
  2
숨은선
 70
     0
 62
     2
  6
HIDDEN
370
    15
390
F
  0
LAYER
  5
72
330
2
100
AcDbSymbolTableRecord
100
AcDbLayerTableRecord
  2
중심선
 70
     0
 62
     1
  6
CENTERX2
370
    -3
390
F
  0
LAYER
  5
73
330
2
100
AcDbSymbolTableRecord
100
AcDbLayerTableRecord
  2
파단선
 70
     0
 62
     4
  6
Continuous
370
    -3
390
F
  0
LAYER
  5
74
330
2
100
AcDbSymbolTableRecord
100
AcDbLayerTableRecord
  2
해칭선
 70
     0
 62
     4
  6
Continuous
370
    -3
390
F
  0
LAYER
  5
75
330
2
100
AcDbSymbolTableRecord
100
AcDbLayerTableRecord
  2
가는실선
 70
     0
 62
     4
  6
Continuous
370
    -3
390
F
  0
LAYER
  5
76
330
2
100
AcDbSymbolTableRecord
100
AcDbLayerTableRecord
  2
치수_보조선
 70
     0
 62
     4
  6
Continuous
370
    -3
390
F
  0
LAYER
  5
77
330
2
100
AcDbSymbolTableRecord
100
AcDbLayerTableRecord
  2
치수문자_일반주서
 70
     0
 62
     7
  6
Continuous
370
    15
390
F
  0
LAYER
  5
78
330
2
100
AcDbSymbolTableRecord
100
AcDbLayerTableRecord
  2
개별주서
 70
     0
 62
   100
  6
Continuous
370
    30
390
F
  0
LAYER
  5
79
330
2
100
AcDbSymbolTableRecord
100
AcDbLayerTableRecord
  2
중간선
 70
     0
 62
     2
  6
Continuous
370
    15
390
F
  0
LAYER
  5
7A
330
2
100
AcDbSymbolTableRecord
100
AcDbLayerTableRecord
  2
윤곽선
 70
     0
 62
     3
  6
Continuous
370
    40
390
F
  0
LAYER
  5
7B
330
2
100
AcDbSymbolTableRecord
100
AcDbLayerTableRecord
  2
중심마크
 70
     0
 62
   100
  6
Continuous
370
    30
390
F
  0
LAYER
  5
7C
330
2
100
AcDbSymbolTableRecord
100
AcDbLayerTableRecord
  2
가상선
 70
     0
 62
     4
  6
PHANTOM
370
    -3
390
F
  0
LAYER
  5
7D
330
2
100
AcDbSymbolTableRecord
100
AcDbLayerTableRecord
  2
특수지정선
 70
     0
 62
     5
  6
CENTERX2
370
    60
390
F
  0
LAYER
  5
150
330
2
100
AcDbSymbolTableRecord
100
AcDbLayerTableRecord
  2
Defpoints
 70
     0
 62
     7
  6
Continuous
290
     0
370
    -3
390
F
  0
ENDTAB
  0
TABLE
  2
STYLE
  5
3
330
0
100
AcDbSymbolTable
 70
     2
  0
STYLE
  5
11
330
3
100
AcDbSymbolTableRecord
100
AcDbTextStyleTableRecord
  2
Standard
 70
     0
 40
0.0
 41
1.0
 50
0.0
 71
     0
 42
3.5
  3
txt
  4

  0
STYLE
  5
93
330
3
100
AcDbSymbolTableRecord
100
AcDbTextStyleTableRecord
  2
SLDTEXTSTYLE0
 70
     0
 40
0.0
 41
0.75
 50
0.0
 71
     0
 42
3.5
  3
TXT
  4

  0
ENDTAB
  0
TABLE
  2
VIEW
  5
6
330
0
100
AcDbSymbolTable
 70
     0
  0
ENDTAB
  0
TABLE
  2
UCS
  5
7
330
0
100
AcDbSymbolTable
 70
     0
  0
ENDTAB
  0
TABLE
  2
APPID
  5
9
330
0
100
AcDbSymbolTable
 70
     4
  0
APPID
  5
12
330
9
100
AcDbSymbolTableRecord
100
AcDbRegAppTableRecord
  2
ACAD
 70
     0
  0
APPID
  5
163
330
9
100
AcDbSymbolTableRecord
100
AcDbRegAppTableRecord
  2
PE_DIMMEASUREMENT
 70
     0
  0
APPID
  5
169
330
9
100
AcDbSymbolTableRecord
100
AcDbRegAppTableRecord
  2
ACAD_DSTYLE_DIMFLIPARROW_SYMBOL
 70
     0
  0
APPID
  5
16A
330
9
100
AcDbSymbolTableRecord
100
AcDbRegAppTableRecord
  2
ACAD_DSTYLE_DIMFLIPARROW_WHICH_SYMBOL
 70
     0
  0
ENDTAB
  0
TABLE
  2
DIMSTYLE
  5
A
330
0
100
AcDbSymbolTable
 70
     4
100
AcDbDimStyleTable
  0
DIMSTYLE
105
27
330
A
100
AcDbSymbolTableRecord
100
AcDbDimStyleTableRecord
  2
ISO-25
 70
     0
 41
2.5
 42
0.625
 43
3.75
 44
1.25
 73
     0
 74
     0
 77
     1
 78
     8
140
2.5
141
2.5
143
0.03937007874016
147
0.625
171
     3
172
     1
178
     0
271
     2
272
     2
274
     3
278
    44
283
     0
284
     8
340
11
  0
DIMSTYLE
105
D4
102
{ACAD_REACTORS
330
D3
102
}
330
A
100
AcDbSymbolTableRecord
100
AcDbDimStyleTableRecord
  2
SLDDIMSTYLE0
 70
     0
 41
3.302
 44
0.0
 45
0.000000001
 73
     0
 74
     0
 77
     1
 78
     4
 79
     1
140
3.5
143
0.0393700787401575
147
0.875
148
0.000000001
170
     1
172
     1
173
     1
178
     0
271
     2
272
     2
276
     2
284
    12
289
     0
340
93
  0
DIMSTYLE
105
E9
102
{ACAD_REACTORS
330
E8
330
FC
102
}
330
A
100
AcDbSymbolTableRecord
100
AcDbDimStyleTableRecord
  2
SLDDIMSTYLE1
 70
     0
 41
3.302
 44
0.0
 45
0.000000001
 73
     0
 74
     0
 77
     1
 78
    12
 79
     3
140
3.5
143
0.0393700787401575
147
0.875
148
0.000000001
170
     1
173
     1
178
     0
271
     2
272
     2
276
     2
284
    12
340
93
  0
DIMSTYLE
105
110
102
{ACAD_REACTORS
330
10F
330
153
102
}
330
A
100
AcDbSymbolTableRecord
100
AcDbDimStyleTableRecord
  2
SLDDIMSTYLE2
 70
     0
 41
3.302
 44
0.0
 45
0.000000001
 73
     0
 74
     0
 77
     1
 78
    12
 79
     3
140
3.5
143
0.0393700787401575
147
0.875
148
0.000000001
170
     1
172
     1
173
     1
178
     0
271
     2
272
     2
276
     2
284
    12
289
     0
340
93
  0
ENDTAB
  0
TABLE
  2
BLOCK_RECORD
  5
1
330
0
100
AcDbSymbolTable
 70
     8
  0
BLOCK_RECORD
  5
1F
330
1
100
AcDbSymbolTableRecord
100
AcDbBlockTableRecord
  2
*Model_Space
340
22
  0
BLOCK_RECORD
  5
1B
330
1
100
AcDbSymbolTableRecord
100
AcDbBlockTableRecord
  2
*Paper_Space
340
1E
  0
BLOCK_RECORD
  5
23
330
1
100
AcDbSymbolTableRecord
100
AcDbBlockTableRecord
  2
*Paper_Space0
340
26
  0
BLOCK_RECORD
  5
7E
330
1
100
AcDbSymbolTableRecord
100
AcDbBlockTableRecord
  2
블럭10
340
0
102
{BLKREFS
331
CB
102
}
  0
BLOCK_RECORD
  5
D5
330
1
100
AcDbSymbolTableRecord
100
AcDbBlockTableRecord
  2
_D
340
0
  0
BLOCK_RECORD
  5
EA
330
1
100
AcDbSymbolTableRecord
100
AcDbBlockTableRecord
  2
_D_1
340
0
  0
BLOCK_RECORD
  5
FD
330
1
100
AcDbSymbolTableRecord
100
AcDbBlockTableRecord
  2
_D_2
340
0
  0
BLOCK_RECORD
  5
111
330
1
100
AcDbSymbolTableRecord
100
AcDbBlockTableRecord
  2
_D_3
340
0
  0
BLOCK_RECORD
  5
125
330
1
100
AcDbSymbolTableRecord
100
AcDbBlockTableRecord
  2
SW_DOWELSYMBOL_0
340
0
102
{BLKREFS
331
12B
102
}
  0
BLOCK_RECORD
  5
156
330
1
100
AcDbSymbolTableRecord
100
AcDbBlockTableRecord
  2
*D7
340
0
  0
ENDTAB
  0
ENDSEC
  0
SECTION
  2
BLOCKS
  0
BLOCK
  5
20
330
1F
100
AcDbEntity
  8
0
100
AcDbBlockBegin
  2
*Model_Space
 70
     0
 10
0.0
 20
0.0
 30
0.0
  3
*Model_Space
  1
*Model_Space
  0
ENDBLK
  5
21
330
1F
100
AcDbEntity
  8
0
100
AcDbBlockEnd
  0
BLOCK
  5
1C
330
1B
100
AcDbEntity
 67
     1
  8
0
100
AcDbBlockBegin
  2
*Paper_Space
 70
     0
 10
0.0
 20
0.0
 30
0.0
  3
*Paper_Space
  1
*Paper_Space
  0
ENDBLK
  5
1D
330
1B
100
AcDbEntity
 67
     1
  8
0
100
AcDbBlockEnd
  0
BLOCK
  5
24
330
23
100
AcDbEntity
  8
0
100
AcDbBlockBegin
  2
*Paper_Space0
 70
     0
 10
0.0
 20
0.0
 30
0.0
  3
*Paper_Space0
  1
*Paper_Space0
  0
ENDBLK
  5
25
330
23
100
AcDbEntity
  8
0
100
AcDbBlockEnd
  0
BLOCK
  5
7F
330
7E
100
AcDbEntity
  8
0
100
AcDbBlockBegin
  2
블럭10
 70
     2
 10
0.0
 20
0.0
 30
0.0
  3
블럭10
  1
블럭10
  0
ELLIPSE
  5
81
330
7E
100
AcDbEntity
  8
중심선
100
AcDbEllipse
 10
20.54032771741204
 20
12.0471743016438
 30
0.0
 11
6.600054785286829
 21
-1.261213355974178E-13
 31
0.0
210
0.0
220
0.0
230
1.0
 40
0.636358354079598
 41
0.9219305317359503
 42
6.513795318482858
  0
ELLIPSE
  5
82
330
7E
100
AcDbEntity
  8
중심선
100
AcDbEllipse
 10
20.54032771746488
 20
12.04717430159265
 30
0.0
 11
3.960054785062283
 21
1.540847449632565E-10
 31
0.0
210
0.0
220
0.0
230
1.0
 40
0.3939339440162632
 41
1.131841032648279
 42
5.62031148352944
  0
LINE
  5
83
330
7E
100
AcDbEntity
  8
중심선
100
AcDbLine
 10
2.268634060543552
 20
16.24717430164393
 30
0.0
 11
5.714909304380834
 21
16.24717430164393
 31
0.0
  0
LINE
  5
84
330
7E
100
AcDbEntity
  8
중심선
100
AcDbLine
 10
5.245725140726316
 20
7.84717430164391
 30
0.0
 11
8.692000384563599
 21
7.84717430164391
 31
0.0
  0
LINE
  5
85
330
7E
100
AcDbEntity
  8
중심선
100
AcDbLine
 10
15.74043728645272
 20
16.24717430164393
 30
0.0
 11
8.692000384563599
 21
7.84717430164391
 31
0.0
  0
LINE
  5
86
330
7E
100
AcDbEntity
  8
중심선
100
AcDbLine
 10
0.1404042013395286
 20
13.71084872107135
 30
0.0
 11
3.58671253028996
 21
13.71088815037384
 31
0.0
  0
LINE
  5
87
330
7E
100
AcDbEntity
  8
중심선
100
AcDbLine
 10
2.750260043222114
 20
10.84717430164391
 30
0.0
 11
6.196535287059397
 21
10.84717430164391
 31
0.0
  0
LINE
  5
88
330
7E
100
AcDbEntity
  8
중심선
100
AcDbLine
 10
12.29416204261559
 20
16.24717430164393
 30
0.0
 11
5.245725140726316
 21
7.84717430164391
 31
0.0
  0
LINE
  5
89
330
7E
100
AcDbEntity
  8
중심선
100
AcDbLine
 10
10.72767329541681
 20
16.24717430164393
 30
0.0
 11
6.196535287059397
 21
10.84717430164391
 31
0.0
  0
LINE
  5
8A
330
7E
100
AcDbEntity
  8
중심선
100
AcDbLine
 10
7.28139805157953
 20
16.24717430164393
 30
0.0
 11
2.750260043222114
 21
10.84717430164391
 31
0.0
  0
LINE
  5
8B
330
7E
100
AcDbEntity
  8
중심선
100
AcDbLine
 10
5.714909304380834
 20
16.24717430164393
 30
0.0
 11
3.58671253028996
 21
13.71088815037384
 31
0.0
  0
LINE
  5
8C
330
7E
100
AcDbEntity
  8
중심선
100
AcDbLine
 10
2.268634060543552
 20
16.24717430164393
 30
0.0
 11
0.1404042013395286
 21
13.71084872107135
 31
0.0
  0
LINE
  5
8D
330
7E
100
AcDbEntity
  8
중심선
100
AcDbLine
 10
7.28139805157953
 20
16.24717430164393
 30
0.0
 11
10.72767329541681
 21
16.24717430164393
 31
0.0
  0
LINE
  5
8E
330
7E
100
AcDbEntity
  8
중심선
100
AcDbLine
 10
12.29416204261559
 20
16.24717430164393
 30
0.0
 11
15.74043728645272
 21
16.24717430164393
 31
0.0
  0
LINE
  5
8F
330
7E
100
AcDbEntity
  8
중심선
100
AcDbLine
 10
19.22036997980202
 20
11.08717430171403
 30
0.0
 11
23.66174974927406
 21
11.08717430171406
 31
0.0
  0
LINE
  5
90
330
7E
100
AcDbEntity
  8
중심선
100
AcDbLine
 10
19.22039502424796
 20
13.00717430171391
 30
0.0
 11
19.22036997980202
 21
11.08717430171403
 31
0.0
  0
LINE
  5
91
330
7E
100
AcDbEntity
  8
중심선
100
AcDbLine
 10
19.22039502424796
 20
13.00717430171391
 30
0.0
 11
26.96566020931264
 21
13.00717430171391
 31
0.0
  0
LINE
  5
92
330
7E
100
AcDbEntity
  8
중심선
100
AcDbLine
 10
22.22332737316547
 20
13.45928029700563
 30
0.0
 11
24.52862924686651
 21
15.39360700705356
 31
0.0
  0
ATTDEF
  5
94
330
7E
100
AcDbEntity
  8
FORMAT
 62
     2
100
AcDbText
 10
-9.18129528874128
 20
2.075366912832191
 30
0.0
 40
4.233333333333333
  1
E5978908 [ 3 FLUTE ]
 41
0.75
  7
SLDTEXTSTYLE0
 11
-9.18129528874128
 21
-0.0412997538344756
 31
0.0
100
AcDbAttributeDefinition
  3

  2
AUTOATTR0
 70
     0
 74
     1
  0
ENDBLK
  5
80
330
7E
100
AcDbEntity
  8
0
100
AcDbBlockEnd
  0
BLOCK
  5
D6
330
D5
100
AcDbEntity
  8
0
100
AcDbBlockBegin
  2
_D
 70
     0
 10
0.0
 20
0.0
 30
0.0
  3
_D
  1
_D
  0
LINE
  5
D8
330
D5
100
AcDbEntity
  8
치수문자_일반주서
 62
     0
370
    -2
100
AcDbLine
 10
-66.4125
 20
12.69999999999999
 30
0.0
 11
-78.84645802161212
 21
12.69999999999995
 31
0.0
  0
LINE
  5
D9
330
D5
100
AcDbEntity
  8
치수문자_일반주서
 62
     0
370
    -2
100
AcDbLine
 10
-66.4125
 20
-12.70000000000001
 30
0.0
 11
-78.84645802161204
 21
-12.70000000000005
 31
0.0
  0
LINE
  5
DA
330
D5
100
AcDbEntity
  8
치수문자_일반주서
 62
     0
370
    -2
100
AcDbLine
 10
-78.84645802161211
 20
9.397999999999946
 30
0.0
 11
-78.84645802161205
 21
-9.398000000000053
 31
0.0
  0
SOLID
  5
DB
330
D5
100
AcDbEntity
  8
치수문자_일반주서
 62
     0
100
AcDbTrace
 10
-78.29612468827878
 20
9.397999999999948
 30
0.0
 11
-79.39679135494544
 21
9.397999999999945
 31
0.0
 12
-78.84645802161212
 22
12.69999999999995
 32
0.0
 13
-78.84645802161212
 23
12.69999999999995
 33
0.0
  0
SOLID
  5
DC
330
D5
100
AcDbEntity
  8
치수문자_일반주서
 62
     0
100
AcDbTrace
 10
-79.39679135494538
 20
-9.398000000000055
 30
0.0
 11
-78.29612468827872
 21
-9.398000000000051
 31
0.0
 12
-78.84645802161204
 22
-12.70000000000005
 32
0.0
 13
-78.84645802161204
 23
-12.70000000000005
 33
0.0
  0
MTEXT
  5
DD
330
D5
100
AcDbEntity
  8
치수문자_일반주서
 62
     0
100
AcDbMText
 10
-83.22145802161208
 20
-0.0000000000000207
 30
0.0
 40
3.5
 41
0.0
 71
     2
 72
     1
  1
\A1;%%c25.40 [1]
  7
SLDTEXTSTYLE0
 11
-3.356894814614647E-15
 21
1.0
 31
0.0
 73
     1
 44
1.0
  0
POINT
  5
DE
330
D5
100
AcDbEntity
  8
Defpoints
 62
     0
100
AcDbPoint
 10
-66.35
 20
12.69999999999999
 30
0.0
  0
POINT
  5
DF
330
D5
100
AcDbEntity
  8
Defpoints
 62
     0
100
AcDbPoint
 10
-66.35
 20
-12.70000000000001
 30
0.0
  0
POINT
  5
E0
330
D5
100
AcDbEntity
  8
Defpoints
 62
     0
100
AcDbPoint
 10
-78.84645802161202
 20
-12.70000000000005
 30
0.0
  0
ENDBLK
  5
D7
330
D5
100
AcDbEntity
  8
0
100
AcDbBlockEnd
  0
BLOCK
  5
EB
330
EA
100
AcDbEntity
  8
0
100
AcDbBlockBegin
  2
_D_1
 70
     0
 10
0.0
 20
0.0
 30
0.0
  3
_D_1
  1
_D_1
  0
LINE
  5
ED
330
EA
100
AcDbEntity
  8
치수문자_일반주서
 62
     0
370
    -2
100
AcDbLine
 10
-67.35
 20
11.76249999999999
 30
0.0
 11
-67.35
 21
52.70000000000005
 31
0.0
  0
LINE
  5
EE
330
EA
100
AcDbEntity
  8
치수문자_일반주서
 62
     0
370
    -2
100
AcDbLine
 10
110.45
 20
0.0625000000000043
 30
0.0
 11
110.45
 21
52.70000000000005
 31
0.0
  0
LINE
  5
EF
330
EA
100
AcDbEntity
  8
치수문자_일반주서
 62
     0
370
    -2
100
AcDbLine
 10
-64.048
 20
52.70000000000005
 30
0.0
 11
107.148
 21
52.70000000000005
 31
0.0
  0
SOLID
  5
F0
330
EA
100
AcDbEntity
  8
치수문자_일반주서
 62
     0
100
AcDbTrace
 10
-64.048
 20
53.25033333333338
 30
0.0
 11
-64.048
 21
52.14966666666671
 31
0.0
 12
-67.35
 22
52.70000000000005
 32
0.0
 13
-67.35
 23
52.70000000000005
 33
0.0
  0
SOLID
  5
F1
330
EA
100
AcDbEntity
  8
치수문자_일반주서
 62
     0
100
AcDbTrace
 10
107.148
 20
52.14966666666671
 30
0.0
 11
107.148
 21
53.25033333333338
 31
0.0
 12
110.45
 22
52.70000000000005
 32
0.0
 13
110.45
 23
52.70000000000005
 33
0.0
  0
MTEXT
  5
F2
330
EA
100
AcDbEntity
  8
치수문자_일반주서
 62
     0
100
AcDbMText
 10
28.33899047663051
 20
57.07500000000005
 30
0.0
 40
3.5
 41
0.0
 71
     2
 72
     1
  1
\A1;177.8 [7]
  7
SLDTEXTSTYLE0
 73
     1
 44
1.0
  0
POINT
  5
F3
330
EA
100
AcDbEntity
  8
Defpoints
 62
     0
100
AcDbPoint
 10
-67.35
 20
11.69999999999999
 30
0.0
  0
POINT
  5
F4
330
EA
100
AcDbEntity
  8
Defpoints
 62
     0
100
AcDbPoint
 10
110.45
 20
0.0000000000000043
 30
0.0
  0
POINT
  5
F5
330
EA
100
AcDbEntity
  8
Defpoints
 62
     0
100
AcDbPoint
 10
110.45
 20
52.70000000000005
 30
0.0
  0
ENDBLK
  5
EC
330
EA
100
AcDbEntity
  8
0
100
AcDbBlockEnd
  0
BLOCK
  5
FE
330
FD
100
AcDbEntity
  8
0
100
AcDbBlockBegin
  2
_D_2
 70
     0
 10
0.0
 20
0.0
 30
0.0
  3
_D_2
  1
_D_2
  0
LINE
  5
100
330
FD
100
AcDbEntity
  8
치수문자_일반주서
 62
     0
370
    -2
100
AcDbLine
 10
2.500000000000002
 20
12.2625
 30
0.0
 11
2.5
 21
44.89442639265617
 31
0.0
  0
LINE
  5
101
330
FD
100
AcDbEntity
  8
치수문자_일반주서
 62
     0
370
    -2
100
AcDbLine
 10
110.45
 20
0.1250000000000043
 30
0.0
 11
110.45
 21
44.89442639265617
 31
0.0
  0
LINE
  5
102
330
FD
100
AcDbEntity
  8
치수문자_일반주서
 62
     0
370
    -2
100
AcDbLine
 10
5.802
 20
44.89442639265617
 30
0.0
 11
107.148
 21
44.89442639265617
 31
0.0
  0
SOLID
  5
103
330
FD
100
AcDbEntity
  8
치수문자_일반주서
 62
     0
100
AcDbTrace
 10
5.802
 20
45.44475972598951
 30
0.0
 11
5.802
 21
44.34409305932284
 31
0.0
 12
2.5
 22
44.89442639265617
 32
0.0
 13
2.5
 23
44.89442639265617
 33
0.0
  0
SOLID
  5
104
330
FD
100
AcDbEntity
  8
치수문자_일반주서
 62
     0
100
AcDbTrace
 10
107.148
 20
44.34409305932284
 30
0.0
 11
107.148
 21
45.44475972598951
 31
0.0
 12
110.45
 22
44.89442639265617
 32
0.0
 13
110.45
 23
44.89442639265617
 33
0.0
  0
MTEXT
  5
105
330
FD
100
AcDbEntity
  8
치수문자_일반주서
 62
     0
100
AcDbMText
 10
60.07222395490211
 20
49.26942639265617
 30
0.0
 40
3.5
 41
0.0
 71
     2
 72
     1
  1
\A1;107.95 [4 1/4]
  7
SLDTEXTSTYLE0
 73
     1
 44
1.0
  0
POINT
  5
106
330
FD
100
AcDbEntity
  8
Defpoints
 62
     0
100
AcDbPoint
 10
2.500000000000002
 20
12.2
 30
0.0
  0
POINT
  5
107
330
FD
100
AcDbEntity
  8
Defpoints
 62
     0
100
AcDbPoint
 10
110.45
 20
0.0625000000000043
 30
0.0
  0
POINT
  5
108
330
FD
100
AcDbEntity
  8
Defpoints
 62
     0
100
AcDbPoint
 10
110.45
 20
44.89442639265617
 30
0.0
  0
ENDBLK
  5
FF
330
FD
100
AcDbEntity
  8
0
100
AcDbBlockEnd
  0
BLOCK
  5
112
330
111
100
AcDbEntity
  8
0
100
AcDbBlockBegin
  2
_D_3
 70
     0
 10
0.0
 20
0.0
 30
0.0
  3
_D_3
  1
_D_3
  0
LINE
  5
114
330
111
100
AcDbEntity
  8
치수문자_일반주서
 62
     0
370
    -2
100
AcDbLine
 10
81.875
 20
11.77198182612214
 30
0.0
 11
81.875
 21
32.48304773109912
 31
0.0
  0
LINE
  5
115
330
111
100
AcDbEntity
  8
치수문자_일반주서
 62
     0
370
    -2
100
AcDbLine
 10
110.45
 20
0.0625000000000043
 30
0.0
 11
110.45
 21
32.48304773109912
 31
0.0
  0
LINE
  5
116
330
111
100
AcDbEntity
  8
치수문자_일반주서
 62
     0
370
    -2
100
AcDbLine
 10
81.875
 20
32.48304773109912
 30
0.0
 11
110.45
 21
32.48304773109912
 31
0.0
  0
LINE
  5
117
330
111
100
AcDbEntity
  8
치수문자_일반주서
 62
     0
370
    -2
100
AcDbLine
 10
78.57300000000001
 20
32.48304773109912
 30
0.0
 11
75.27100000000002
 21
32.48304773109912
 31
0.0
  0
LINE
  5
118
330
111
100
AcDbEntity
  8
치수문자_일반주서
 62
     0
370
    -2
100
AcDbLine
 10
113.752
 20
32.48304773109912
 30
0.0
 11
117.054
 21
32.48304773109912
 31
0.0
  0
SOLID
  5
119
330
111
100
AcDbEntity
  8
치수문자_일반주서
 62
     0
100
AcDbTrace
 10
78.57300000000001
 20
31.93271439776579
 30
0.0
 11
78.57300000000001
 21
33.03338106443245
 31
0.0
 12
81.875
 22
32.48304773109912
 32
0.0
 13
81.875
 23
32.48304773109912
 33
0.0
  0
SOLID
  5
11A
330
111
100
AcDbEntity
  8
치수문자_일반주서
 62
     0
100
AcDbTrace
 10
113.752
 20
33.03338106443245
 30
0.0
 11
113.752
 21
31.93271439776579
 31
0.0
 12
110.45
 22
32.48304773109912
 32
0.0
 13
110.45
 23
32.48304773109912
 33
0.0
  0
MTEXT
  5
11B
330
111
100
AcDbEntity
  8
치수문자_일반주서
 62
     0
100
AcDbMText
 10
94.91744413524702
 20
36.85804773109912
 30
0.0
 40
3.5
 41
0.0
 71
     2
 72
     1
  1
\A1;28.58 [1 1/8]
  7
SLDTEXTSTYLE0
 73
     1
 44
1.0
  0
POINT
  5
11C
330
111
100
AcDbEntity
  8
Defpoints
 62
     0
100
AcDbPoint
 10
81.875
 20
11.70948182612214
 30
0.0
  0
POINT
  5
11D
330
111
100
AcDbEntity
  8
Defpoints
 62
     0
100
AcDbPoint
 10
110.45
 20
0.0000000000000043
 30
0.0
  0
POINT
  5
11E
330
111
100
AcDbEntity
  8
Defpoints
 62
     0
100
AcDbPoint
 10
110.45
 20
32.48304773109912
 30
0.0
  0
ENDBLK
  5
113
330
111
100
AcDbEntity
  8
0
100
AcDbBlockEnd
  0
BLOCK
  5
126
330
125
100
AcDbEntity
  8
0
100
AcDbBlockBegin
  2
SW_DOWELSYMBOL_0
 70
     0
 10
0.0
 20
0.0
 30
0.0
  3
SW_DOWELSYMBOL_0
  1
SW_DOWELSYMBOL_0
  0
CIRCLE
  5
128
330
125
100
AcDbEntity
  8
외형선
 62
     0
100
AcDbCircle
 10
0.0
 20
0.0
 30
0.0
 40
3.000000000000004
  0
HATCH
  5
129
330
125
100
AcDbEntity
  8
0
  6
Continuous
 62
     0
370
    30
100
AcDbHatch
 10
0.0
 20
0.0
 30
0.0
210
0.0
220
0.0
230
1.0
  2
SOLID
 70
     1
 71
     0
 91
        1
 92
        0
 93
        3
 72
     2
 10
0.0
 20
0.0
 40
3.000000000000004
 50
0.0
 51
90.0
 73
     1
 72
     1
 10
0.0
 20
3.000000000000004
 11
0.0
 21
0.0
 72
     1
 10
0.0
 20
0.0
 11
3.000000000000006
 21
0.0
 97
        0
 75
     0
 76
     1
 98
        1
 10
0.0
 20
0.0
  0
HATCH
  5
12A
330
125
100
AcDbEntity
  8
0
  6
Continuous
 62
     0
370
    30
100
AcDbHatch
 10
0.0
 20
0.0
 30
0.0
210
0.0
220
0.0
230
1.0
  2
SOLID
 70
     1
 71
     0
 91
        1
 92
        0
 93
        3
 72
     2
 10
0.0
 20
0.0
 40
3.000000000000004
 50
180.0
 51
270.0000000000008
 73
     1
 72
     1
 10
0.0
 20
-3.000000000000004
 11
0.0
 21
0.0
 72
     1
 10
0.0
 20
0.0
 11
-3.000000000000006
 21
0.0
 97
        0
 75
     0
 76
     1
 98
        1
 10
0.0
 20
0.0
  0
ENDBLK
  5
127
330
125
100
AcDbEntity
  8
0
100
AcDbBlockEnd
  0
BLOCK
  5
157
330
156
100
AcDbEntity
  8
0
100
AcDbBlockBegin
  2
*D7
 70
     1
 10
0.0
 20
0.0
 30
0.0
  3
*D7
  1
*D7
  0
LINE
  5
159
330
156
100
AcDbEntity
  8
치수문자_일반주서
 62
     0
370
    -2
100
AcDbLine
 10
110.5125
 20
12.7
 30
0.0
 11
128.5963897355029
 21
12.7
 31
0.0
  0
LINE
  5
15A
330
156
100
AcDbEntity
  8
치수문자_일반주서
 62
     0
370
    -2
100
AcDbLine
 10
110.5125
 20
-12.7
 30
0.0
 11
128.5963897355029
 21
-12.7
 31
0.0
  0
LINE
  5
15B
330
156
100
AcDbEntity
  8
치수문자_일반주서
 62
     0
370
    -2
100
AcDbLine
 10
128.5963897355029
 20
9.398000000000001
 30
0.0
 11
128.5963897355029
 21
-9.397999999999998
 31
0.0
  0
SOLID
  5
15C
330
156
100
AcDbEntity
  8
치수문자_일반주서
 62
     0
100
AcDbTrace
 10
129.1467230688362
 20
9.398000000000001
 30
0.0
 11
128.0460564021695
 21
9.398000000000001
 31
0.0
 12
128.5963897355029
 22
12.7
 32
0.0
 13
128.5963897355029
 23
12.7
 33
0.0
  0
SOLID
  5
15D
330
156
100
AcDbEntity
  8
치수문자_일반주서
 62
     0
100
AcDbTrace
 10
128.0460564021695
 20
-9.397999999999998
 30
0.0
 11
129.1467230688362
 21
-9.397999999999998
 31
0.0
 12
128.5963897355029
 22
-12.7
 32
0.0
 13
128.5963897355029
 23
-12.7
 33
0.0
  0
MTEXT
  5
15E
330
156
100
AcDbEntity
  8
치수문자_일반주서
 62
     0
100
AcDbMText
 10
125.9713897355029
 20
0.0000000000000018
 30
0.0
 40
3.5
 41
0.0
 71
     5
 72
     1
  1
\A1;{%%C25.4 [1]}
  7
SLDTEXTSTYLE0
 11
0.0
 21
1.0
 31
0.0
 73
     1
 44
1.0
  0
POINT
  5
15F
330
156
100
AcDbEntity
  8
Defpoints
 62
     0
100
AcDbPoint
 10
110.45
 20
12.7
 30
0.0
  0
POINT
  5
160
330
156
100
AcDbEntity
  8
Defpoints
 62
     0
100
AcDbPoint
 10
110.45
 20
-12.7
 30
0.0
  0
POINT
  5
161
330
156
100
AcDbEntity
  8
Defpoints
 62
     0
100
AcDbPoint
 10
128.5963897355029
 20
-12.7
 30
0.0
  0
ENDBLK
  5
158
330
156
100
AcDbEntity
  8
0
100
AcDbBlockEnd
  0
ENDSEC
  0
SECTION
  2
ENTITIES
  0
LINE
  5
95
330
1F
100
AcDbEntity
  8
0
  6
Continuous
 62
     4
370
    15
100
AcDbLine
 10
2.0
 20
12.7
 30
0.0
 11
-66.35
 21
12.7
 31
0.0
  0
LINE
  5
96
330
1F
100
AcDbEntity
  8
0
  6
Continuous
 62
     4
370
    15
100
AcDbLine
 10
-66.35
 20
-12.70000000000001
 30
0.0
 11
2.0
 21
-12.7
 31
0.0
  0
LINE
  5
97
330
1F
100
AcDbEntity
  8
0
  6
Continuous
 62
     4
370
    15
100
AcDbLine
 10
2.0
 20
-12.70000000000001
 30
0.0
 11
2.500000000000002
 21
-12.20000000000001
 31
0.0
  0
LINE
  5
98
330
1F
100
AcDbEntity
  8
0
  6
Continuous
 62
     4
370
    15
100
AcDbLine
 10
2.500000000000002
 20
12.2
 30
0.0
 11
2.0
 21
12.7
 31
0.0
  0
LINE
  5
99
330
1F
100
AcDbEntity
  8
0
  6
Continuous
 62
     4
370
    15
100
AcDbLine
 10
-66.35
 20
12.69999999999999
 30
0.0
 11
-67.35
 21
11.69999999999999
 31
0.0
  0
LINE
  5
9A
330
1F
100
AcDbEntity
  8
0
  6
Continuous
 62
     4
370
    15
100
AcDbLine
 10
-67.35
 20
-11.70000000000001
 30
0.0
 11
-66.35
 21
-12.70000000000001
 31
0.0
  0
LINE
  5
9B
330
1F
100
AcDbEntity
  8
0
  6
Continuous
 62
     4
370
    15
100
AcDbLine
 10
78.82546563138595
 20
12.20000000000001
 30
0.0
 11
2.500000000000002
 21
12.2
 31
0.0
  0
LINE
  5
9C
330
1F
100
AcDbEntity
  8
0
  6
Continuous
 62
     4
370
    15
100
AcDbLine
 10
2.500000000000002
 20
-12.2
 30
0.0
 11
78.82546563138595
 21
-12.2
 31
0.0
  0
ARC
  5
9D
330
1F
100
AcDbEntity
  8
0
  6
Continuous
 62
     1
370
    15
100
AcDbCircle
 10
97.75
 20
0.0000000000000043
 30
0.0
 40
12.70000000000001
100
AcDbArc
 50
353.5800701243586
 51
0.0
  0
ARC
  5
9E
330
1F
100
AcDbEntity
  8
0
  6
Continuous
 62
     1
370
    15
100
AcDbCircle
 10
97.75
 20
0.0000000000000043
 30
0.0
 40
12.7
100
AcDbArc
 50
0.0
 51
60.07074239269285
  0
LINE
  5
9F
330
1F
100
AcDbEntity
  8
0
  6
Continuous
 62
     1
370
    15
100
AcDbLine
 10
86.89792619922011
 20
-12.7
 30
0.0
 11
92.82316144366393
 21
-12.7
 31
0.0
  0
LINE
  5
A0
330
1F
100
AcDbEntity
  8
0
  6
Continuous
 62
     4
370
    15
100
AcDbLine
 10
2.0
 20
12.7
 30
0.0
 11
2.0
 21
-12.7
 31
0.0
  0
LINE
  5
A1
330
1F
100
AcDbEntity
  8
0
  6
Continuous
 62
     4
370
    15
100
AcDbLine
 10
-66.35
 20
12.69999999999999
 30
0.0
 11
-66.35
 21
-12.70000000000001
 31
0.0
  0
LINE
  5
A2
330
1F
100
AcDbEntity
  8
0
  6
Continuous
 62
     4
370
    15
100
AcDbLine
 10
2.500000000000002
 20
12.2
 30
0.0
 11
2.500000000000002
 21
-12.20000000000002
 31
0.0
  0
LINE
  5
A3
330
1F
100
AcDbEntity
  8
0
  6
Continuous
 62
     4
370
    15
100
AcDbLine
 10
-67.35
 20
11.69999999999999
 30
0.0
 11
-67.35
 21
-11.70000000000001
 31
0.0
  0
LINE
  5
A4
330
1F
100
AcDbEntity
  8
0
  6
Continuous
 62
     4
370
    15
100
AcDbLine
 10
78.82546563138595
 20
11.92538120871339
 30
0.0
 11
78.82546563138595
 21
12.20000000000001
 31
0.0
  0
SPLINE
  5
A5
330
1F
100
AcDbEntity
  8
0
  6
Continuous
 62
     4
370
    15
100
AcDbSpline
210
0.0
220
0.0
230
1.0
 70
     8
 71
     3
 72
    10
 73
     6
 74
     0
 42
0.000000001
 43
0.00000001
 40
0.0
 40
0.0
 40
0.0
 40
0.0
 40
0.5000000000000001
 40
0.5000000000000001
 40
1.0
 40
1.0
 40
1.0
 40
1.0
 10
81.875
 20
11.26775306602484
 30
0.0
 10
81.36704226081383
 20
11.40878090480375
 30
0.0
 10
80.85701053193554
 20
11.53460369421087
 30
0.0
 10
79.83905146037003
 20
11.75423366319125
 30
0.0
 10
79.33324106318403
 20
11.84794530872323
 30
0.0
 10
78.82546563138595
 20
11.92552396830381
 30
0.0
  0
LINE
  5
A6
330
1F
100
AcDbEntity
  8
0
  6
Continuous
 62
     1
370
    15
100
AcDbLine
 10
81.875
 20
9.2993806656886
 30
0.0
 11
81.875
 21
8.899117468911648
 31
0.0
  0
SPLINE
  5
A7
330
1F
100
AcDbEntity
  8
0
  6
Continuous
 62
     4
370
    15
100
AcDbSpline
210
0.0
220
0.0
230
1.0
 70
     8
 71
     3
 72
    10
 73
     6
 74
     0
 42
0.000000001
 43
0.00000001
 40
0.0
 40
0.0
 40
0.0
 40
0.0
 40
0.5
 40
0.5
 40
1.0
 40
1.0
 40
1.0
 40
1.0
 10
81.87499999999989
 20
8.899117468911692
 30
0.0
 10
81.36699303474936
 20
9.150765118707897
 30
0.0
 10
80.85691167767635
 20
9.390592221839327
 30
0.0
 10
79.83885436416989
 20
9.843613433808036
 30
0.0
 10
79.33299587505539
 20
10.05653952163829
 30
0.0
 10
78.82517038075568
 20
10.25575949486993
 30
0.0
  0
SPLINE
  5
A8
330
1F
100
AcDbEntity
  8
0
  6
Continuous
 62
     4
370
    15
100
AcDbSpline
210
0.0
220
0.0
230
1.0
 70
     8
 71
     3
 72
    10
 73
     6
 74
     0
 42
0.000000001
 43
0.00000001
 40
0.0
 40
0.0
 40
0.0
 40
0.0
 40
0.5
 40
0.5
 40
1.0
 40
1.0
 40
1.0
 40
1.0
 10
81.875
 20
-9.68459321433144
 30
0.0
 10
81.36704226081383
 20
-9.460887557073322
 30
0.0
 10
80.85701053193554
 20
-9.223644712938318
 30
0.0
 10
79.83905146037
 20
-8.724942499784841
 30
0.0
 10
79.33324106318406
 20
-8.463874522864252
 30
0.0
 10
78.82546563138595
 20
-8.191306029276125
 30
0.0
  0
LINE
  5
A9
330
1F
100
AcDbEntity
  8
0
  6
Continuous
 62
     1
370
    15
100
AcDbLine
 10
81.875
 20
-9.68459321433144
 30
0.0
 11
81.875
 21
-10.11308877614046
 31
0.0
  0
SPLINE
  5
AA
330
1F
100
AcDbEntity
  8
0
  6
Continuous
 62
     4
370
    15
100
AcDbSpline
210
0.0
220
0.0
230
1.0
 70
     8
 71
     3
 72
    10
 73
     6
 74
     0
 42
0.000000001
 43
0.00000001
 40
0.0
 40
0.0
 40
0.0
 40
0.0
 40
0.5
 40
0.5
 40
1.0
 40
1.0
 40
1.0
 40
1.0
 10
81.87499999999989
 20
-11.6768875083448
 30
0.0
 10
81.36699303474936
 20
-11.57031821127756
 30
0.0
 10
80.85691167767635
 20
-11.44764538763216
 30
0.0
 10
79.83885436416989
 20
-11.17153418189697
 30
0.0
 10
79.33299587505539
 20
-11.01834379599594
 30
0.0
 10
78.82517038075568
 20
-10.85016494546025
 30
0.0
  0
LINE
  5
AB
330
1F
100
AcDbEntity
  8
0
  6
Continuous
 62
     4
370
    15
100
AcDbLine
 10
78.82546563138595
 20
-12.2
 30
0.0
 11
78.82546563138595
 21
-10.84985375069746
 31
0.0
  0
LINE
  5
AC
330
1F
100
AcDbEntity
  8
0
  6
Continuous
 62
     4
370
    15
100
AcDbLine
 10
78.82546563138595
 20
-8.191807530439633
 30
0.0
 11
78.82546563138595
 21
10.25612809154305
 31
0.0
  0
SPLINE
  5
AD
330
1F
100
AcDbEntity
  8
0
  6
Continuous
 62
     4
370
    15
100
AcDbSpline
210
0.0
220
0.0
230
1.0
 70
     8
 71
     3
 72
    10
 73
     6
 74
     0
 42
0.000000001
 43
0.00000001
 40
0.0
 40
0.0
 40
0.0
 40
0.0
 40
0.5
 40
0.5
 40
1.0
 40
1.0
 40
1.0
 40
1.0
 10
81.87499999999983
 20
-0.4360479933383868
 30
0.0
 10
81.36704226081369
 20
-0.1721745078047598
 30
0.0
 10
80.85701053193543
 20
0.0926532256208834
 30
0.0
 10
79.83905146036997
 20
0.6209702317202068
 30
0.0
 10
79.33324106318412
 20
0.8840934644756787
 30
0.0
 10
78.82546563138595
 20
1.145993736260833
 30
0.0
  0
SPLINE
  5
AE
330
1F
100
AcDbEntity
  8
0
  6
Continuous
 62
     1
370
    15
100
AcDbSpline
210
0.0
220
0.0
230
1.0
 70
    24
 71
     3
 72
    16
 73
    12
 74
     0
 42
0.000000001
 43
0.00000001
 40
0.0
 40
0.0
 40
0.0
 40
0.0
 40
0.25
 40
0.25
 40
0.4999999999999999
 40
0.4999999999999999
 40
0.75
 40
0.75
 40
0.875
 40
0.875
 40
1.0
 40
1.0
 40
1.0
 40
1.0
 10
81.875
 20
-0.4360479933384678
 30
0.0
 10
81.87499999999997
 20
-0.8895053302887873
 30
0.0
 10
81.87500000000003
 20
-1.443742001082853
 30
0.0
 10
81.87500000000003
 20
-2.766248006692494
 30
0.0
 10
81.87499999999997
 20
-3.53593158087165
 30
0.0
 10
81.875
 20
-5.225499677085656
 30
0.0
 10
81.87500000000003
 20
-6.144515031417411
 30
0.0
 10
81.87500000000003
 20
-7.515353395027129
 30
0.0
 10
81.87500000000003
 20
-7.970359604053838
 30
0.0
 10
81.875
 20
-8.853221966357887
 30
0.0
 10
81.87500000000003
 20
-9.280951900322124
 30
0.0
 10
81.875
 20
-9.684593214331436
 30
0.0
  0
SPLINE
  5
AF
330
1F
100
AcDbEntity
  8
0
  6
Continuous
 62
     4
370
    15
100
AcDbSpline
210
0.0
220
0.0
230
1.0
 70
    24
 71
     3
 72
    16
 73
    12
 74
     0
 42
0.000000001
 43
0.00000001
 40
0.0
 40
0.0
 40
0.0
 40
0.0
 40
0.1249999999999998
 40
0.1249999999999998
 40
0.2499999999999998
 40
0.2499999999999998
 40
0.4999999999999998
 40
0.4999999999999998
 40
0.7499999999999998
 40
0.7499999999999998
 40
1.0
 40
1.0
 40
1.0
 40
1.0
 10
81.875
 20
8.899117468911616
 30
0.0
 10
81.87499999999997
 20
8.520285623092121
 30
0.0
 10
81.875
 20
8.11395213593389
 30
0.0
 10
81.875
 20
7.26584879002904
 30
0.0
 10
81.87500000000003
 20
6.824200883926422
 30
0.0
 10
81.875
 20
5.480766690904633
 30
0.0
 10
81.87500000000003
 20
4.56279904770579
 30
0.0
 10
81.875
 20
2.846991875346683
 30
0.0
 10
81.87499999999997
 20
2.050322666362768
 30
0.0
 10
81.87499999999997
 20
0.6583730404291702
 30
0.0
 10
81.87499999999997
 20
0.0618600945847663
 30
0.0
 10
81.87499999999997
 20
-0.4360479933384713
 30
0.0
  0
SPLINE
  5
B0
330
1F
100
AcDbEntity
  8
0
  6
Continuous
 62
     1
370
    15
100
AcDbSpline
210
0.0
220
0.0
230
1.0
 70
     8
 71
     3
 72
     8
 73
     4
 74
     0
 42
0.000000001
 43
0.00000001
 40
0.0
 40
0.0
 40
0.0
 40
0.0
 40
1.0
 40
1.0
 40
1.0
 40
1.0
 10
102.2807952234648
 20
-8.344453410387136
 30
0.0
 10
101.8668992203429
 20
-8.046911900654763
 30
0.0
 10
101.4451281820039
 20
-7.750376475571763
 30
0.0
 10
101.0127998076759
 20
-7.455189815717625
 30
0.0
  0
SPLINE
  5
B1
330
1F
100
AcDbEntity
  8
0
  6
Continuous
 62
     1
370
    15
100
AcDbSpline
210
0.0
220
0.0
230
1.0
 70
     8
 71
     3
 72
    32
 73
    28
 74
     0
 42
0.000000001
 43
0.00000001
 40
0.0
 40
0.0
 40
0.0
 40
0.0
 40
0.1250000000000021
 40
0.1250000000000021
 40
0.1875000000000023
 40
0.1875000000000023
 40
0.2500000000000026
 40
0.2500000000000026
 40
0.3125000000000028
 40
0.3125000000000028
 40
0.375000000000003
 40
0.375000000000003
 40
0.5000000000000034
 40
0.5000000000000034
 40
0.5625000000000036
 40
0.5625000000000036
 40
0.6250000000000038
 40
0.6250000000000038
 40
0.6875000000000039
 40
0.6875000000000039
 40
0.7500000000000041
 40
0.7500000000000041
 40
0.8750000000000028
 40
0.8750000000000028
 40
0.9375000000000013
 40
0.9375000000000013
 40
1.0
 40
1.0
 40
1.0
 40
1.0
 10
102.2807952235557
 20
-8.34445341040155
 30
0.0
 10
101.4289811990743
 20
-8.209440694673258
 30
0.0
 10
100.5830376687495
 20
-8.042877471885236
 30
0.0
 10
99.30493432917902
 20
-7.747379218687303
 30
0.0
 10
98.87864038312725
 20
-7.641349370732832
 30
0.0
 10
98.0291899297541
 20
-7.415184064719158
 30
0.0
 10
97.60628405600372
 20
-7.295093946608902
 30
0.0
 10
96.75539037476096
 20
-7.040740677505463
 30
0.0
 10
96.32887401179786
 20
-6.906602268710547
 30
0.0
 10
95.47736502310218
 20
-6.625544273060378
 30
0.0
 10
95.05360199694482
 20
-6.478774787895254
 30
0.0
 10
93.78115956358954
 20
-6.020255365239557
 30
0.0
 10
92.92536548326771
 20
-5.689427642956156
 30
0.0
 10
91.652357199367
 20
-5.163927312629072
 30
0.0
 10
91.22892726898272
 20
-4.983800547830611
 30
0.0
 10
90.37758559192804
 20
-4.613738415793728
 30
0.0
 10
89.95105816359165
 20
-4.423992388040014
 30
0.0
 10
89.09995322494345
 20
-4.036702389862239
 30
0.0
 10
88.676853082333
 20
-3.839395188434987
 30
0.0
 10
87.82773631746224
 20
-3.437392666489203
 30
0.0
 10
87.40151528789573
 20
-3.232654365167741
 30
0.0
 10
86.12334579603342
 20
-2.609830387564354
 30
0.0
 10
85.27729681002319
 20
-2.184046844825111
 30
0.0
 10
83.99976072477492
 20
-1.533909575275923
 30
0.0
 10
83.57327203807583
 20
-1.315413086047653
 30
0.0
 10
82.72267000704713
 20
-0.8767317806964162
 30
0.0
 10
82.29992024314214
 20
-0.6567852259502924
 30
0.0
 10
81.87499999999994
 20
-0.4360479933384284
 30
0.0
  0
SPLINE
  5
B2
330
1F
100
AcDbEntity
  8
0
  6
Continuous
 62
     4
370
    15
100
AcDbSpline
210
0.0
220
0.0
230
1.0
 70
    24
 71
     3
 72
    18
 73
    14
 74
     0
 42
0.000000001
 43
0.00000001
 40
0.0
 40
0.0
 40
0.0
 40
0.0
 40
0.125
 40
0.125
 40
0.25
 40
0.25
 40
0.375
 40
0.375
 40
0.5
 40
0.5
 40
0.75
 40
0.75
 40
1.0
 40
1.0
 40
1.0
 40
1.0
 10
81.875
 20
9.299380665686668
 30
0.0
 10
81.875
 20
8.9251402605376
 30
0.0
 10
81.87500000000003
 20
8.51771541315359
 30
0.0
 10
81.875
 20
7.656682197901253
 30
0.0
 10
81.87500000000003
 20
7.20321286775641
 30
0.0
 10
81.875
 20
6.275802299587762
 30
0.0
 10
81.87500000000003
 20
5.802021804207656
 30
0.0
 10
81.875
 20
4.860379100765396
 30
0.0
 10
81.875
 20
4.392642093245534
 30
0.0
 10
81.87499999999997
 20
3.032162728129776
 30
0.0
 10
81.87499999999994
 20
2.185989480866997
 30
0.0
 10
81.87499999999997
 20
0.7128286529612029
 30
0.0
 10
81.87499999999997
 20
0.0843880311251461
 30
0.0
 10
81.87499999999997
 20
-0.4360479933384713
 30
0.0
  0
SPLINE
  5
B3
330
1F
100
AcDbEntity
  8
0
  6
Continuous
 62
     1
370
    15
100
AcDbSpline
210
0.0
220
0.0
230
1.0
 70
     8
 71
     3
 72
    24
 73
    20
 74
     0
 42
0.000000001
 43
0.00000001
 40
0.0
 40
0.0
 40
0.0
 40
0.0
 40
0.125
 40
0.125
 40
0.2499999999999999
 40
0.2499999999999999
 40
0.3749999999999999
 40
0.3749999999999999
 40
0.4999999999999999
 40
0.4999999999999999
 40
0.6249999999999999
 40
0.6249999999999999
 40
0.7499999999999998
 40
0.7499999999999998
 40
0.8749999999999998
 40
0.8749999999999998
 40
0.9374999999999999
 40
0.9374999999999999
 40
1.0
 40
1.0
 40
1.0
 40
1.0
 10
97.74999999999974
 20
-1.524917199992015
 30
0.0
 10
97.09013046306859
 20
-1.030465658626232
 30
0.0
 10
96.42570126427626
 20
-0.5313489540658944
 30
0.0
 10
95.10149228323942
 20
0.4658801207398993
 30
0.0
 10
94.44375010429977
 20
0.9634761322150012
 30
0.0
 10
93.1187108979035
 20
1.954313899817027
 30
0.0
 10
92.45459836278897
 20
2.44673744631075
 30
0.0
 10
91.13693446732958
 20
3.4154470633691
 30
0.0
 10
90.47330229859892
 20
3.894199491811464
 30
0.0
 10
89.14806560984542
 20
4.830990963727218
 30
0.0
 10
88.49020542323956
 20
5.288191046285506
 30
0.0
 10
87.1663211004865
 20
6.177958738671537
 30
0.0
 10
86.50182443157652
 20
6.610110734902071
 30
0.0
 10
85.18149544443989
 20
7.440070582133714
 30
0.0
 10
84.52079593395558
 20
7.838942134096294
 30
0.0
 10
83.52649685477289
 20
8.409330407046879
 30
0.0
 10
83.19516747533677
 20
8.594681033008065
 30
0.0
 10
82.5344351863568
 20
8.954893310588536
 30
0.0
 10
82.2055497395792
 20
9.129674708104194
 30
0.0
 10
81.87499999999983
 20
9.29938066568865
 30
0.0
  0
SPLINE
  5
B4
330
1F
100
AcDbEntity
  8
0
  6
Continuous
 62
     1
370
    15
100
AcDbSpline
210
0.0
220
0.0
230
1.0
 70
     8
 71
     3
 72
    20
 73
    16
 74
     0
 42
0.000000001
 43
0.00000001
 40
0.0
 40
0.0
 40
0.0
 40
0.0
 40
0.125
 40
0.125
 40
0.25
 40
0.25
 40
0.375
 40
0.375
 40
0.5
 40
0.5
 40
0.625
 40
0.625
 40
0.75
 40
0.75
 40
1.0
 40
1.0
 40
1.0
 40
1.0
 10
106.7880682529712
 20
-6.471580678673579
 30
0.0
 10
106.5335269122901
 20
-6.393929264882016
 30
0.0
 10
106.2469891482187
 20
-6.310113831057733
 30
0.0
 10
105.6284090352481
 20
-6.112987033407206
 30
0.0
 10
105.2990669973652
 20
-6.000670712973469
 30
0.0
 10
104.6080779285203
 20
-5.737587222014905
 30
0.0
 10
104.2465884153579
 20
-5.586563176675932
 30
0.0
 10
103.4932950910108
 20
-5.240481646661338
 30
0.0
 10
103.1046044016352
 20
-5.046841639564836
 30
0.0
 10
102.3183977602492
 20
-4.62356827799891
 30
0.0
 10
101.9189220772512
 20
-4.393088305273469
 30
0.0
 10
101.1071844316455
 20
-3.894522724657774
 30
0.0
 10
100.6930048888882
 20
-3.625091404885408
 30
0.0
 10
99.43755180677252
 20
-2.775728148488533
 30
0.0
 10
98.60144973001698
 20
-2.162923059999529
 30
0.0
 10
97.75000000000003
 20
-1.524917199992236
 30
0.0
  0
SPLINE
  5
B5
330
1F
100
AcDbEntity
  8
0
  6
Continuous
 62
     1
370
    15
100
AcDbSpline
210
0.0
220
0.0
230
1.0
 70
     8
 71
     3
 72
    13
 73
     9
 74
     0
 42
0.000000001
 43
0.00000001
 40
0.0
 40
0.0
 40
0.0
 40
0.0
 40
0.1252952877972184
 40
0.3386411088440738
 40
0.4813822283222423
 40
0.6282146544817419
 40
0.8117156333081694
 40
1.0
 40
1.0
 40
1.0
 40
1.0
 10
106.6449304112168
 20
-6.433087238977558
 30
0.0
 10
106.480343613635
 20
-6.37952750384645
 30
0.0
 10
106.0355076057205
 20
-6.234769241879347
 30
0.0
 10
105.1511681861367
 20
-6.25087656511293
 30
0.0
 10
104.1680435389164
 20
-6.396555270500693
 30
0.0
 10
103.2044473808868
 20
-6.631106554180154
 30
0.0
 10
102.1366721242078
 20
-6.975241962949898
 30
0.0
 10
101.3906234656018
 20
-7.293840834450849
 30
0.0
 10
101.012799807676
 20
-7.455189815717627
 30
0.0
  0
SPLINE
  5
B6
330
1F
100
AcDbEntity
  8
0
  6
Continuous
 62
     1
370
    15
100
AcDbSpline
210
0.0
220
0.0
230
1.0
 70
     8
 71
     3
 72
    44
 73
    40
 74
     0
 42
0.000000001
 43
0.00000001
 40
0.0
 40
0.0
 40
0.0
 40
0.0
 40
0.1249999999999983
 40
0.1249999999999983
 40
0.1874999999999985
 40
0.1874999999999985
 40
0.2499999999999986
 40
0.2499999999999986
 40
0.374999999999997
 40
0.374999999999997
 40
0.4374999999999963
 40
0.4374999999999963
 40
0.4999999999999956
 40
0.4999999999999956
 40
0.5624999999999948
 40
0.5624999999999948
 40
0.5937499999999953
 40
0.5937499999999953
 40
0.6249999999999958
 40
0.6249999999999958
 40
0.6562499999999962
 40
0.6562499999999962
 40
0.6874999999999967
 40
0.6874999999999967
 40
0.7187499999999972
 40
0.7187499999999972
 40
0.7499999999999977
 40
0.7499999999999977
 40
0.781249999999998
 40
0.781249999999998
 40
0.8124999999999983
 40
0.8124999999999983
 40
0.8437499999999988
 40
0.8437499999999988
 40
0.8749999999999991
 40
0.8749999999999991
 40
0.9374999999999994
 40
0.9374999999999994
 40
1.0
 40
1.0
 40
1.0
 40
1.0
 10
97.75
 20
2.911030433140123
 30
0.0
 10
98.32584429878145
 20
2.487967717382789
 30
0.0
 10
98.8951191885237
 20
2.058288959970888
 30
0.0
 10
99.75106520895233
 20
1.419949078211502
 30
0.0
 10
100.0366288995664
 20
1.208078148102344
 30
0.0
 10
100.610316592409
 20
0.7889889841848929
 30
0.0
 10
100.8997169461544
 20
0.5807022558583955
 30
0.0
 10
101.7656079525227
 20
-0.0236043794109001
 30
0.0
 10
102.3371834163
 20
-0.3960700506445304
 30
0.0
 10
103.2033482780901
 20
-0.8782253048104632
 30
0.0
 10
103.4955739031241
 20
-1.026810931482264
 30
0.0
 10
104.0754980227867
 20
-1.282887379502975
 30
0.0
 10
104.3632756881529
 20
-1.391044277157709
 30
0.0
 10
104.9392373650483
 20
-1.552486793511215
 30
0.0
 10
105.2295205194064
 20
-1.605909455314277
 30
0.0
 10
105.6522361982024
 20
-1.626817048903933
 30
0.0
 10
105.7915565806323
 20
-1.624084578474638
 30
0.0
 10
106.0672836256189
 20
-1.595652581078343
 30
0.0
 10
106.2046672729344
 20
-1.569589497429948
 30
0.0
 10
106.4693281980767
 20
-1.491407100900837
 30
0.0
 10
106.5971137357769
 20
-1.439440039252673
 30
0.0
 10
106.8430356862925
 20
-1.30587160121772
 30
0.0
 10
106.9622112922364
 20
-1.223088070906399
 30
0.0
 10
107.1803169060064
 20
-1.030652185203789
 30
0.0
 10
107.2802505363216
 20
-0.9208259795274671
 30
0.0
 10
107.461257886442
 20
-0.6725903827071114
 30
0.0
 10
107.5428562515386
 20
-0.5323943874615387
 30
0.0
 10
107.6794656378123
 20
-0.2356368152061742
 30
0.0
 10
107.7355055087995
 20
-0.0782009441651328
 30
0.0
 10
107.8245826671023
 20
0.2532184456380753
 30
0.0
 10
107.8570147594543
 20
0.4257972792454111
 30
0.0
 10
107.8992439492472
 20
0.77334650538822
 30
0.0
 10
107.9094213935304
 20
0.9497569891375708
 30
0.0
 10
107.9105308414031
 20
1.306862406627389
 30
0.0
 10
107.9012941167196
 20
1.488024869366765
 30
0.0
 10
107.8490186358519
 20
2.024054870470851
 30
0.0
 10
107.7819734436998
 20
2.37606826262474
 30
0.0
 10
107.5990601121921
 20
3.071429486227752
 30
0.0
 10
107.4824734167096
 20
3.415520845003293
 30
0.0
 10
107.3478621304135
 20
3.7502257286118
 30
0.0
  0
SPLINE
  5
B7
330
1F
100
AcDbEntity
  8
0
  6
Continuous
 62
     1
370
    15
100
AcDbSpline
210
0.0
220
0.0
230
1.0
 70
     8
 71
     3
 72
    24
 73
    20
 74
     0
 42
0.000000001
 43
0.00000001
 40
0.0
 40
0.0
 40
0.0
 40
0.0
 40
0.125
 40
0.125
 40
0.2500000000000001
 40
0.2500000000000001
 40
0.3750000000000001
 40
0.3750000000000001
 40
0.5000000000000001
 40
0.5000000000000001
 40
0.6250000000000001
 40
0.6250000000000001
 40
0.7500000000000002
 40
0.7500000000000002
 40
0.8750000000000001
 40
0.8750000000000001
 40
0.9375000000000001
 40
0.9375000000000001
 40
1.0
 40
1.0
 40
1.0
 40
1.0
 10
97.74999999999997
 20
2.911030433140136
 30
0.0
 10
97.09013046306882
 20
3.395825018986295
 30
0.0
 10
96.42570126427651
 20
3.874993556164157
 30
0.0
 10
95.10149228323971
 20
4.812088748942633
 30
0.0
 10
94.44375010429994
 20
5.269584517090698
 30
0.0
 10
93.11871089790372
 20
6.160329260523632
 30
0.0
 10
92.45459836278917
 20
6.59278802298978
 30
0.0
 10
91.13693446732972
 20
7.423081146878221
 30
0.0
 10
90.4733022985991
 20
7.823033148440541
 30
0.0
 10
89.14806560984564
 20
8.58448411228147
 30
0.0
 10
88.49020542323984
 20
8.945354047083493
 30
0.0
 10
87.16632110048673
 20
9.62563632634186
 30
0.0
 10
86.50182443157672
 20
9.944671145865884
 30
0.0
 10
85.18149544444017
 20
10.53403480842466
 30
0.0
 10
84.52079593395581
 20
10.80515367657519
 30
0.0
 10
83.52649685477309
 20
11.17385695224183
 30
0.0
 10
83.19516747533694
 20
11.29034679515263
 30
0.0
 10
82.534435186357
 20
11.50994054012473
 30
0.0
 10
82.20554973957937
 20
11.61300492267198
 30
0.0
 10
81.875
 20
11.70948182611245
 30
0.0
  0
SPLINE
  5
B8
330
1F
100
AcDbEntity
  8
0
  6
Continuous
 62
     1
370
    15
100
AcDbSpline
210
0.0
220
0.0
230
1.0
 70
     8
 71
     3
 72
    11
 73
     7
 74
     0
 42
0.000000001
 43
0.00000001
 40
0.0
 40
0.0
 40
0.0
 40
0.0
 40
0.2865061352301216
 40
0.5728573937410752
 40
0.8691378066614609
 40
1.0
 40
1.0
 40
1.0
 40
1.0
 10
102.2807952235867
 20
6.488320703834979
 30
0.0
 10
101.0065458833622
 20
6.902638995143276
 30
0.0
 10
98.45873602431351
 20
7.73105160957993
 30
0.0
 10
94.59389242896623
 20
8.473298138594334
 30
0.0
 10
91.42059331481067
 20
8.8188689774236
 30
0.0
 10
89.5207599432907
 20
8.72037654334426
 30
0.0
 10
88.93871460683422
 20
8.690201759180814
 30
0.0
  0
SPLINE
  5
B9
330
1F
100
AcDbEntity
  8
0
  6
Continuous
 62
     1
370
    15
100
AcDbSpline
210
0.0
220
0.0
230
1.0
 70
     8
 71
     3
 72
    10
 73
     6
 74
     0
 42
0.000000001
 43
0.00000001
 40
0.0
 40
0.0
 40
0.0
 40
0.0
 40
0.5
 40
0.5
 40
1.0
 40
1.0
 40
1.0
 40
1.0
 10
100.1090275489881
 20
5.848454059930804
 30
0.0
 10
100.4613579062505
 20
6.002635824941894
 30
0.0
 10
100.8246652726029
 20
6.125447575502804
 30
0.0
 10
101.5553762887402
 20
6.333385036349896
 30
0.0
 10
101.9187388990468
 20
6.4173942939216
 30
0.0
 10
102.2807952234647
 20
6.488320703877541
 30
0.0
  0
SPLINE
  5
BA
330
1F
100
AcDbEntity
  8
0
  6
Continuous
 62
     1
370
    15
100
AcDbSpline
210
0.0
220
0.0
230
1.0
 70
     8
 71
     3
 72
    10
 73
     6
 74
     0
 42
0.000000001
 43
0.00000001
 40
0.0
 40
0.0
 40
0.0
 40
0.0
 40
0.5
 40
0.5
 40
1.0
 40
1.0
 40
1.0
 40
1.0
 10
100.1090275489881
 20
5.848454059930795
 30
0.0
 10
101.3060860053826
 20
5.522161472606816
 30
0.0
 10
102.509054770117
 20
5.181172825612839
 30
0.0
 10
104.9232293314113
 20
4.478714043307053
 30
0.0
 10
106.134760872437
 20
4.116575611653531
 30
0.0
 10
107.3478621304174
 20
3.75022572862709
 30
0.0
  0
SPLINE
  5
BB
330
1F
100
AcDbEntity
  8
0
  6
Continuous
 62
     1
370
    15
100
AcDbSpline
210
0.0
220
0.0
230
1.0
 70
     8
 71
     3
 72
    13
 73
     9
 74
     0
 42
0.000000001
 43
0.00000001
 40
0.0
 40
0.0
 40
0.0
 40
0.0
 40
0.2195402512503369
 40
0.44491300684448
 40
0.6149670689147626
 40
0.7890152963645526
 40
0.897608026552317
 40
1.0
 40
1.0
 40
1.0
 40
1.0
 10
97.75
 20
-12.16121119408588
 30
0.0
 10
98.27877462107321
 20
-12.01796579233454
 30
0.0
 10
99.3503717667669
 20
-11.72766940227912
 30
0.0
 10
100.8372818664501
 20
-10.99669683408429
 30
0.0
 10
102.214248693078
 20
-10.16032540327758
 30
0.0
 10
103.314512658879
 20
-9.39592327278323
 30
0.0
 10
104.2494409176025
 20
-8.70643270392563
 30
0.0
 10
104.7578469796551
 20
-8.330862639872485
 30
0.0
 10
105.0045790844445
 20
-8.148596535440957
 30
0.0
  0
ARC
  5
BC
330
1F
100
AcDbEntity
  8
0
  6
Continuous
 62
     1
370
    15
100
AcDbCircle
 10
97.58846112390552
 20
0.082709549797275
 30
0.0
 40
12.86787529287235
100
AcDbArc
 50
319.326110317457
 51
352.5506397975669
  0
ARC
  5
BD
330
1F
100
AcDbEntity
  8
0
  6
Continuous
 62
     1
370
    15
100
AcDbCircle
 10
102.145435296954
 20
0.6166944971757081
 30
0.0
 40
8.473351505328784
100
AcDbArc
 50
303.2237394290578
 51
346.091618053114
  0
ARC
  5
BE
330
1F
100
AcDbEntity
  8
0
  6
Continuous
 62
     1
370
    15
100
AcDbCircle
 10
103.5338422409722
 20
-2.800640463135207
 30
0.0
 40
7.580276748210322
100
AcDbArc
 50
25.37441790339816
 51
59.79134606481249
  0
ARC
  5
BF
330
1F
100
AcDbEntity
  8
0
  6
Continuous
 62
     1
370
    15
100
AcDbCircle
 10
98.62315223639925
 20
0.0838441783441916
 30
0.0
 40
11.76530177576935
100
AcDbArc
 50
1.772460154024397
 51
46.05379227830726
  0
SPLINE
  5
C0
330
1F
100
AcDbEntity
  8
0
  6
Continuous
 62
     1
370
    15
100
AcDbSpline
210
0.0
220
0.0
230
1.0
 70
     8
 71
     3
 72
    20
 73
    16
 74
     0
 42
0.000000001
 43
0.00000001
 40
0.0
 40
0.0
 40
0.0
 40
0.0
 40
0.125
 40
0.125
 40
0.25
 40
0.25
 40
0.375
 40
0.375
 40
0.5
 40
0.5
 40
0.625
 40
0.625
 40
0.75
 40
0.75
 40
1.0
 40
1.0
 40
1.0
 40
1.0
 10
106.7880682529711
 20
8.554763391584833
 30
0.0
 10
106.53352691229
 20
8.911186359373383
 30
0.0
 10
106.2469891482186
 20
9.251571132773883
 30
0.0
 10
105.6284090352481
 20
9.883008140762977
 30
0.0
 10
105.2990669973653
 20
10.17174069677449
 30
0.0
 10
104.6080779285204
 20
10.6925743916772
 30
0.0
 10
104.2465884153579
 20
10.92459289889652
 30
0.0
 10
103.4932950910109
 20
11.32906799521868
 30
0.0
 10
103.1046044016351
 20
11.4994293971007
 30
0.0
 10
102.3183977602491
 20
11.7716888857111
 30
0.0
 10
101.9189220772511
 20
11.87467058518148
 30
0.0
 10
101.1071844316455
 20
12.01438545174459
 30
0.0
 10
100.6930048888882
 20
12.05109863823747
 30
0.0
 10
99.43755180677255
 20
12.06038429650334
 30
0.0
 10
98.60144973001698
 20
11.93358470106542
 30
0.0
 10
97.75000000000003
 20
11.68140867085347
 30
0.0
  0
LINE
  5
C1
330
1F
100
AcDbEntity
  8
0
  6
Continuous
 62
     4
370
    15
100
AcDbLine
 10
81.87499999999991
 20
9.2993806656886
 30
0.0
 11
81.875
 21
11.70948182612214
 31
0.0
  0
SPLINE
  5
C2
330
1F
100
AcDbEntity
  8
0
  6
Continuous
 62
     1
370
    15
100
AcDbSpline
210
0.0
220
0.0
230
1.0
 70
     8
 71
     3
 72
    24
 73
    20
 74
     0
 42
0.000000001
 43
0.00000001
 40
0.0
 40
0.0
 40
0.0
 40
0.0
 40
0.1249999999999998
 40
0.1249999999999998
 40
0.2499999999999996
 40
0.2499999999999996
 40
0.3749999999999993
 40
0.3749999999999993
 40
0.4999999999999991
 40
0.4999999999999991
 40
0.6249999999999989
 40
0.6249999999999989
 40
0.7499999999999987
 40
0.7499999999999987
 40
0.8749999999999984
 40
0.8749999999999984
 40
0.9374999999999992
 40
0.9374999999999992
 40
1.0
 40
1.0
 40
1.0
 40
1.0
 10
97.74999999999997
 20
-12.16121119408588
 30
0.0
 10
97.09013046306885
 20
-12.30474159903291
 30
0.0
 10
96.42570126427651
 20
-12.42044876148021
 30
0.0
 10
95.10149228323974
 20
-12.59362578448671
 30
0.0
 10
94.44375010429994
 20
-12.65116139900056
 30
0.0
 10
93.11871089790372
 20
-12.70782265526393
 30
0.0
 10
92.4545983627892
 20
-12.70674515917939
 30
0.0
 10
91.1369344673297
 20
-12.64612220186084
 30
0.0
 10
90.4733022985991
 20
-12.58643295974812
 30
0.0
 10
89.14806560984562
 20
-12.40914013493842
 30
0.0
 10
88.49020542323984
 20
-12.29184666240365
 30
0.0
 10
87.16632110048675
 20
-12.00060482505862
 30
0.0
 10
86.50182443157675
 20
-11.82662154867786
 30
0.0
 10
85.18149544444012
 20
-11.42568466085397
 30
0.0
 10
84.52079593395581
 20
-11.19831639730083
 30
0.0
 10
83.52649685477309
 20
-10.81883465239232
 30
0.0
 10
83.195167475337
 20
-10.68601692139886
 30
0.0
 10
82.53443518635706
 20
-10.40846391138911
 30
0.0
 10
82.20554973957937
 20
-10.26381737403944
 30
0.0
 10
81.875
 20
-10.11308877613141
 30
0.0
  0
SPLINE
  5
C3
330
1F
100
AcDbEntity
  8
0
  6
Continuous
 62
     1
370
    15
100
AcDbSpline
210
0.0
220
0.0
230
1.0
 70
     8
 71
     3
 72
    12
 73
     8
 74
     0
 42
0.000000001
 43
0.00000001
 40
0.0
 40
0.0
 40
0.0
 40
0.0
 40
0.0511713363353408
 40
0.3469169045494573
 40
0.6430747864459223
 40
0.9393186978562197
 40
0.9999999999999999
 40
0.9999999999999999
 40
0.9999999999999999
 40
0.9999999999999999
 10
101.5224272882473
 20
-7.808067427201538
 30
0.0
 10
101.6210473443397
 20
-7.821241398776667
 30
0.0
 10
102.2896436139749
 20
-7.910554552717313
 30
0.0
 10
103.5370215747728
 20
-8.030006363352413
 30
0.0
 10
105.2619834229689
 20
-8.176125618530737
 30
0.0
 10
106.5340324194471
 20
-8.256652085186289
 30
0.0
 10
107.2296066800626
 20
-8.297089908895813
 30
0.0
 10
107.3478621304175
 20
-8.303964793900768
 30
0.0
  0
SPLINE
  5
C4
330
1F
100
AcDbEntity
  8
0
  6
Continuous
 62
     4
370
    15
100
AcDbSpline
210
0.0
220
0.0
230
1.0
 70
    24
 71
     3
 72
    18
 73
    14
 74
     0
 42
0.000000001
 43
0.00000001
 40
0.0
 40
0.0
 40
0.0
 40
0.0
 40
0.2500000000000001
 40
0.2500000000000001
 40
0.5000000000000002
 40
0.5000000000000002
 40
0.6250000000000002
 40
0.6250000000000002
 40
0.7500000000000001
 40
0.7500000000000001
 40
0.875
 40
0.875
 40
1.0
 40
1.0
 40
1.0
 40
1.0
 10
81.87499999999997
 20
-0.4360479933384739
 30
0.0
 10
81.875
 20
-0.9100220850043382
 30
0.0
 10
81.875
 20
-1.494361997873493
 30
0.0
 10
81.875
 20
-2.896420187974643
 30
0.0
 10
81.875
 20
-3.715828858313672
 30
0.0
 10
81.875
 20
-5.059709772323773
 30
0.0
 10
81.875
 20
-5.525827254656139
 30
0.0
 10
81.875
 20
-6.473161806461403
 30
0.0
 10
81.875
 20
-6.954262457157325
 30
0.0
 10
81.87499999999997
 20
-7.905518310289138
 30
0.0
 10
81.87499999999997
 20
-8.375513830030622
 30
0.0
 10
81.87500000000003
 20
-9.278061327247807
 30
0.0
 10
81.87500000000003
 20
-9.71046637169536
 30
0.0
 10
81.87500000000003
 20
-10.11308877613845
 30
0.0
  0
SPLINE
  5
C5
330
1F
100
AcDbEntity
  8
0
  6
Continuous
 62
     1
370
    15
100
AcDbSpline
210
0.0
220
0.0
230
1.0
 70
     8
 71
     3
 72
     9
 73
     5
 74
     0
 42
0.000000001
 43
0.00000001
 40
0.0
 40
0.0
 40
0.0
 40
0.0
 40
0.5899815482714187
 40
1.0
 40
1.0
 40
1.0
 40
1.0
 10
81.87499999999983
 20
-12.14026036629052
 30
0.0
 10
82.86281715336511
 20
-12.33351364022439
 30
0.0
 10
84.5371358778396
 20
-12.66107180623835
 30
0.0
 10
86.21143334429217
 20
-12.65919269524782
 30
0.0
 10
86.89792619922011
 20
-12.65842222506886
 30
0.0
  0
LINE
  5
C6
330
1F
100
AcDbEntity
  8
0
  6
Continuous
 62
     4
370
    15
100
AcDbLine
 10
81.87499999999991
 20
-12.14026036629055
 30
0.0
 11
81.875
 21
-10.11308877614046
 31
0.0
  0
SPLINE
  5
C7
330
1F
100
AcDbEntity
  8
0
  6
Continuous
 62
     1
370
    15
100
AcDbSpline
210
0.0
220
0.0
230
1.0
 70
     8
 71
     3
 72
    10
 73
     6
 74
     0
 42
0.000000001
 43
0.00000001
 40
0.0
 40
0.0
 40
0.0
 40
0.0
 40
0.3235292552007633
 40
0.6616090127820348
 40
1.0
 40
1.0
 40
1.0
 40
1.0
 10
90.86464380910982
 20
8.736632311407096
 30
0.0
 10
91.60706862540712
 20
9.128650713654842
 30
0.0
 10
93.12530829579035
 20
9.930318272103538
 30
0.0
 10
95.42009256518148
 20
10.92647213069411
 30
0.0
 10
96.97312601596693
 20
11.42968598484408
 30
0.0
 10
97.74999999999974
 20
11.68140867085337
 30
0.0
  0
SPLINE
  5
C8
330
1F
100
AcDbEntity
  8
0
  6
Continuous
 62
     1
370
    15
100
AcDbSpline
210
0.0
220
0.0
230
1.0
 70
     8
 71
     3
 72
    18
 73
    14
 74
     0
 42
0.000000001
 43
0.00000001
 40
0.0
 40
0.0
 40
0.0
 40
0.0
 40
0.125
 40
0.125
 40
0.25
 40
0.25
 40
0.375
 40
0.375
 40
0.5
 40
0.5
 40
0.75
 40
0.75
 40
1.0
 40
1.0
 40
1.0
 40
1.0
 10
106.7880682529711
 20
8.554763391584803
 30
0.0
 10
106.6364759841207
 20
8.3245843972274
 30
0.0
 10
106.4639430788971
 20
8.11220734620547
 30
0.0
 10
106.0756300604095
 20
7.724218332539611
 30
0.0
 10
105.8609856491945
 20
7.55070051737179
 30
0.0
 10
105.41002235425
 20
7.253894353321288
 30
0.0
 10
105.1702277166926
 20
7.127796114418858
 30
0.0
 10
104.6725712235678
 20
6.919948739874584
 30
0.0
 10
104.4187751010652
 20
6.839515396440479
 30
0.0
 10
103.6448672428
 20
6.657413129148743
 30
0.0
 10
103.1062193913592
 20
6.615042103178586
 30
0.0
 10
102.0506281222484
 20
6.658032292495429
 30
0.0
 10
101.5289541432534
 20
6.741610391515622
 30
0.0
 10
101.012799807676
 20
6.881166165691082
 30
0.0
  0
LINE
  5
C9
330
1F
100
AcDbEntity
  8
중심선
100
AcDbLine
 10
-70.35000000000002
 20
-0.000000000000014
 30
0.0
 11
113.3828248191902
 21
-0.000000000000014
 31
0.0
  0
CIRCLE
  5
CA
330
1F
100
AcDbEntity
  8
외형선
100
AcDbCircle
 10
0.0
 20
0.0
 30
0.0
 40
3.000000000000004
  0
INSERT
  5
CB
330
1F
100
AcDbEntity
  8
0
  6
Continuous
 62
     7
100
AcDbBlockReference
 66
     1
  2
블럭10
 10
-8.440786299681431
 20
-51.95764267978461
 30
0.0
  0
ATTRIB
  5
CC
330
CB
100
AcDbEntity
  8
FORMAT
 62
     2
100
AcDbText
 10
-17.62208158842271
 20
-49.88227576695243
 30
0.0
 40
4.233333333333333
  1
E5978908 [ 3 FLUTE ]
 41
0.75
  7
SLDTEXTSTYLE0
 11
-17.62208158842271
 21
-51.99894243361909
 31
0.0
100
AcDbAttribute
  2
AUTOATTR0
 70
     0
 74
     1
  0
SEQEND
  5
CD
330
CB
100
AcDbEntity
  8
0
  6
Continuous
 62
     7
  0
HATCH
  5
CE
330
1F
100
AcDbEntity
  8
중심선
100
AcDbHatch
 10
0.0
 20
0.0
 30
0.0
210
0.0
220
0.0
230
1.0
  2
SOLID
 70
     1
 71
     0
 91
        1
 92
        0
 93
        4
 72
     1
 10
-2.725876995300581
 20
-35.71046837814069
 11
-6.172152239137864
 21
-35.71046837814069
 72
     1
 10
-6.172152239137864
 20
-35.71046837814069
 11
-8.300382098341887
 21
-38.24679395871328
 72
     1
 10
-8.300382098341887
 20
-38.24679395871328
 11
-4.854073769391455
 21
-38.24675452941079
 72
     1
 10
-4.854073769391455
 20
-38.24675452941079
 11
-2.725876995300581
 21
-35.71046837814069
 97
        0
 75
     0
 76
     1
 98
        1
 10
-9.65885681430867
 20
-0.0000000000000036
  0
HATCH
  5
CF
330
1F
100
AcDbEntity
  8
중심선
100
AcDbHatch
 10
0.0
 20
0.0
 30
0.0
210
0.0
220
0.0
230
1.0
  2
SOLID
 70
     1
 71
     0
 91
        1
 92
        0
 93
        4
 72
     1
 10
2.286886995735371
 20
-35.71046837814069
 11
-1.159388248101912
 21
-35.71046837814069
 72
     1
 10
-1.159388248101912
 20
-35.71046837814069
 11
-5.6905262564593
 21
-41.1104683781407
 72
     1
 10
-5.6905262564593
 20
-41.11046837814069
 11
-2.244251012622018
 21
-41.11046837814069
 72
     1
 10
-2.244251012622018
 20
-41.11046837814069
 11
2.286886995735371
 21
-35.71046837814068
 97
        0
 75
     0
 76
     1
 98
        1
 10
-9.65885681430867
 20
-0.0000000000000036
  0
HATCH
  5
D0
330
1F
100
AcDbEntity
  8
중심선
100
AcDbHatch
 10
0.0
 20
0.0
 30
0.0
210
0.0
220
0.0
230
1.0
  2
SOLID
 70
     1
 71
     0
 91
        1
 92
        0
 93
        4
 72
     1
 10
7.299650986771265
 20
-35.71046837814072
 11
3.85337574293415
 21
-35.71046837814069
 72
     1
 10
3.85337574293415
 20
-35.71046837814069
 11
-3.195061158955099
 21
-44.11046837814071
 72
     1
 10
-3.195061158955099
 20
-44.11046837814071
 11
0.251214084882184
 21
-44.11046837814071
 72
     1
 10
0.251214084882184
 20
-44.11046837814071
 11
7.299650986771265
 21
-35.71046837814072
 97
        0
 75
     0
 76
     1
 98
        1
 10
-9.65885681430867
 20
-0.0000000000000036
  0
HATCH
  5
D1
330
1F
100
AcDbEntity
  8
중심선
100
AcDbHatch
 10
0.0
 20
0.0
 30
0.0
210
0.0
220
0.0
230
1.0
  2
SOLID
 70
     1
 71
     0
 91
        1
 92
        0
 93
        6
 72
     3
 10
12.09954141778346
 20
-39.91046837819196
 11
3.960054785062283
 21
1.540882976769353E-10
 40
0.3939339440162628
 50
17.09539180608437
 51
320.0019657685079
 73
     0
 72
     1
 10
13.78254107348406
 20
-38.49836238277899
 11
16.0878429471851
 21
-36.56403567273107
 72
     3
 10
12.09954141773062
 20
-39.91046837814083
 11
6.600054785286829
 21
-1.278976924368180E-13
 40
0.636358354079598
 50
39.99873849337417
 51
368.4976242363725
 73
     1
 72
     1
 10
18.52487390963123
 20
-38.95046837807071
 11
10.77960872456654
 21
-38.95046837807068
 72
     1
 10
10.77960872456654
 20
-38.95046837807068
 11
10.77958368012061
 21
-40.8704683780706
 72
     1
 10
10.77958368012061
 20
-40.8704683780706
 11
15.22096344959265
 21
-40.87046837807057
 97
        0
 75
     0
 76
     1
 98
        1
 10
-9.65885681430867
 20
-0.0000000000000036
  0
POINT
  5
D2
330
1F
100
AcDbEntity
  8
치수문자_일반주서
100
AcDbPoint
 10
-67.35000000000002
 20
-0.000000000000014
 30
0.0
  0
DIMENSION
  5
D3
330
1F
100
AcDbEntity
  8
치수문자_일반주서
100
AcDbDimension
  2
_D
 10
-78.84645802161204
 20
-12.70000000000005
 30
0.0
 11
-78.84645802161208
 21
-0.0000000000000062
 31
0.0
 70
   160
  1
%%c<>
 71
     2
 42
25.4
 52
-270.0
  3
SLDDIMSTYLE0
100
AcDbAlignedDimension
 13
-66.35
 23
12.69999999999999
 33
0.0
 14
-66.35
 24
-12.70000000000001
 34
0.0
 50
90.0000000000002
100
AcDbRotatedDimension
1001
ACAD
1000
DSTYLE
1002
{
1070
   171
1070
     6
1070
   273
1070
     7
1002
}
  0
DIMENSION
  5
E8
330
1F
100
AcDbEntity
  8
치수문자_일반주서
100
AcDbDimension
  2
_D_1
 10
110.45
 20
52.70000000000005
 30
0.0
 11
28.33899047663051
 21
52.70000000000005
 31
0.0
 70
   160
  1
<>
 71
     2
 42
177.8
  3
SLDDIMSTYLE1
100
AcDbAlignedDimension
 13
-67.35
 23
11.69999999999999
 33
0.0
 14
110.45
 24
0.0000000000000043
 34
0.0
 50
-0.0000000000000046
100
AcDbRotatedDimension
1001
ACAD
1000
DSTYLE
1002
{
1070
   171
1070
     6
1070
   273
1070
     7
1002
}
  0
DIMENSION
  5
FC
330
1F
100
AcDbEntity
  8
치수문자_일반주서
100
AcDbDimension
  2
_D_2
 10
110.45
 20
44.89442639265617
 30
0.0
 11
60.07222395490211
 21
44.89442639265617
 31
0.0
 70
   160
  1
<>
 71
     2
 42
107.95
  3
SLDDIMSTYLE1
100
AcDbAlignedDimension
 13
2.500000000000002
 23
12.2
 33
0.0
 14
110.45
 24
0.0625000000000043
 34
0.0
100
AcDbRotatedDimension
1001
ACAD
1000
DSTYLE
1002
{
1070
   171
1070
     6
1070
   273
1070
     7
1002
}
  0
DIMENSION
  5
10F
330
1F
100
AcDbEntity
  8
치수문자_일반주서
100
AcDbDimension
  2
_D_3
 10
110.45
 20
32.48304773109912
 30
0.0
 11
94.91744413524702
 21
32.48304773109912
 31
0.0
 70
   160
  1
<>
 71
     2
 42
28.57500000000006
  3
SLDDIMSTYLE2
100
AcDbAlignedDimension
 13
81.875
 23
11.70948182612214
 33
0.0
 14
110.45
 24
0.0000000000000043
 34
0.0
 50
-0.0000000000002142
100
AcDbRotatedDimension
1001
ACAD
1000
DSTYLE
1002
{
1070
   171
1070
     6
1070
   273
1070
     7
1002
}
1001
ACAD_DSTYLE_DIMFLIPARROW_SYMBOL
1070
   385
1070
     0
1001
ACAD_DSTYLE_DIMFLIPARROW_WHICH_SYMBOL
1070
   386
1070
     3
  0
INSERT
  5
12B
330
1F
100
AcDbEntity
  8
외형선
100
AcDbBlockReference
  2
SW_DOWELSYMBOL_0
 10
0.0
 20
0.0
 30
0.0
  0
DIMENSION
  5
153
102
{ACAD_XDICTIONARY
360
154
102
}
330
1F
100
AcDbEntity
  8
치수문자_일반주서
100
AcDbDimension
  2
*D7
 10
128.5963897355029
 20
-12.7
 30
0.0
 11
125.9713897355029
 21
0.0000000000000018
 31
0.0
 70
    32
  1
{%%C<>[]}
 71
     5
 42
25.4
  3
SLDDIMSTYLE2
100
AcDbAlignedDimension
 13
110.45
 23
12.7
 33
0.0
 14
110.45
 24
-12.7
 34
0.0
 50
90.0
100
AcDbRotatedDimension
1001
ACAD
1000
DSTYLE
1002
{
1070
   171
1070
     6
1070
   273
1070
     7
1070
   283
1070
     1
1070
   170
1070
     1
1002
}
  0
ENDSEC
  0
SECTION
  2
OBJECTS
  0
DICTIONARY
  5
C
330
0
100
AcDbDictionary
281
     1
  3
ACAD_GROUP
350
D
  3
ACAD_IMAGE_VARS
350
14F
  3
ACAD_LAYOUT
350
1A
  3
ACAD_MLINESTYLE
350
17
  3
ACAD_PLOTSETTINGS
350
19
  3
ACAD_PLOTSTYLENAME
350
E
  3
ACAD_SCALELIST
350
47
  3
APPDATA
350
14D
  3
DWGPROPS
350
168
  0
DICTIONARY
  5
154
330
153
100
AcDbDictionary
280
     1
281
     1
  0
DICTIONARY
  5
D
102
{ACAD_REACTORS
330
C
102
}
330
C
100
AcDbDictionary
281
     1
  0
RASTERVARIABLES
  5
14F
102
{ACAD_REACTORS
330
C
102
}
330
C
100
AcDbRasterVariables
 90
        0
 70
     1
 71
     1
 72
     1
  0
DICTIONARY
  5
1A
102
{ACAD_REACTORS
330
C
102
}
330
C
100
AcDbDictionary
281
     1
  3
Layout1
350
1E
  3
Layout2
350
26
  3
Model
350
22
  0
DICTIONARY
  5
17
102
{ACAD_REACTORS
330
C
102
}
330
C
100
AcDbDictionary
281
     1
  3
Standard
350
18
  0
DICTIONARY
  5
19
102
{ACAD_REACTORS
330
C
102
}
330
C
100
AcDbDictionary
281
     1
  0
ACDBDICTIONARYWDFLT
  5
E
102
{ACAD_REACTORS
330
C
102
}
330
C
100
AcDbDictionary
281
     1
  3
Normal
350
F
100
AcDbDictionaryWithDefault
340
F
  0
DICTIONARY
  5
47
102
{ACAD_REACTORS
330
C
102
}
330
C
100
AcDbDictionary
281
     1
  3
A0
350
48
  3
A1
350
49
  3
A2
350
4A
  3
A3
350
4B
  3
A4
350
4C
  3
A5
350
4D
  3
A6
350
4E
  3
A7
350
4F
  3
A8
350
50
  3
A9
350
51
  3
B0
350
52
  3
B1
350
53
  3
B2
350
54
  3
B3
350
55
  3
B4
350
56
  3
B5
350
57
  3
B6
350
58
  3
B7
350
59
  3
B8
350
5A
  3
B9
350
5B
  3
C0
350
5C
  3
C1
350
5D
  3
C2
350
5E
  3
C3
350
5F
  3
C4
350
60
  3
C5
350
61
  3
C6
350
62
  3
C7
350
63
  3
C8
350
64
  3
C9
350
65
  3
D0
350
66
  3
D1
350
67
  3
D2
350
68
  0
DICTIONARY
  5
14D
102
{ACAD_REACTORS
330
C
102
}
330
C
100
AcDbDictionary
281
     1
  0
XRECORD
  5
168
102
{ACAD_REACTORS
330
C
102
}
330
C
100
AcDbXrecord
280
     1
  1
DWGPROPS COOKIE
  2

  3

  4

  6

  7

  8
12016016
  9

300
=
301
=
302
=
303
=
304
=
305
=
306
=
307
=
308
=
309
=
 40
0.0
 41
2458269.362478056
 42
2458275.032537025
  1

 90
        0
  0
LAYOUT
  5
1E
102
{ACAD_REACTORS
330
1A
102
}
330
1A
100
AcDbPlotSettings
  1

  2
none_device
  4

  6

 40
0.0
 41
0.0
 42
0.0
 43
0.0
 44
0.0
 45
0.0
 46
0.0
 47
0.0
 48
0.0
 49
0.0
140
0.0
141
0.0
142
1.0
143
1.0
 70
   688
 72
     1
 73
     0
 74
     5
  7

 75
    16
147
1.0
148
0.0
149
0.0
100
AcDbLayout
  1
Layout1
 70
     1
 71
     1
 10
0.0
 20
0.0
 11
420.0
 21
297.0
 12
0.0
 22
0.0
 32
0.0
 14
1.000000000000000E+20
 24
1.000000000000000E+20
 34
1.000000000000000E+20
 15
-1.000000000000000E+20
 25
-1.000000000000000E+20
 35
-1.000000000000000E+20
146
0.0
 13
0.0
 23
0.0
 33
0.0
 16
1.0
 26
0.0
 36
0.0
 17
0.0
 27
1.0
 37
0.0
 76
     0
330
1B
  0
LAYOUT
  5
26
102
{ACAD_REACTORS
330
1A
102
}
330
1A
100
AcDbPlotSettings
  1

  2
none_device
  4

  6

 40
0.0
 41
0.0
 42
0.0
 43
0.0
 44
0.0
 45
0.0
 46
0.0
 47
0.0
 48
0.0
 49
0.0
140
0.0
141
0.0
142
1.0
143
1.0
 70
   688
 72
     1
 73
     0
 74
     5
  7

 75
    16
147
1.0
148
0.0
149
0.0
100
AcDbLayout
  1
Layout2
 70
     1
 71
     2
 10
0.0
 20
0.0
 11
0.0
 21
0.0
 12
0.0
 22
0.0
 32
0.0
 14
0.0
 24
0.0
 34
0.0
 15
0.0
 25
0.0
 35
0.0
146
0.0
 13
0.0
 23
0.0
 33
0.0
 16
1.0
 26
0.0
 36
0.0
 17
0.0
 27
1.0
 37
0.0
 76
     0
330
23
  0
LAYOUT
  5
22
102
{ACAD_REACTORS
330
1A
102
}
330
1A
100
AcDbPlotSettings
  1

  2
none_device
  4
ANSI_A_(11.00_x_8.50_Inches)
  6

 40
6.35
 41
19.05
 42
6.35000508
 43
19.05000254
 44
279.4
 45
215.9
 46
102.2469268060979
 47
80.27725183507326
 48
0.0
 49
0.0
140
0.0
141
0.0
142
0.0527687443865539
143
1.0
 70
  1696
 72
     0
 73
     0
 74
     0
  7

 75
     0
147
0.0235690232323232
148
0.0
149
0.0
100
AcDbLayout
  1
Model
 70
     1
 71
     0
 10
0.0
 20
0.0
 11
420.0
 21
297.0
 12
0.0
 22
0.0
 32
0.0
 14
-83.22145802161211
 24
-49.88227576695243
 34
0.0
 15
129.1467230688362
 25
57.07500000000005
 35
0.0
146
0.0
 13
0.0
 23
0.0
 33
0.0
 16
1.0
 26
0.0
 36
0.0
 17
0.0
 27
1.0
 37
0.0
 76
     0
330
1F
331
29
  0
MLINESTYLE
  5
18
102
{ACAD_REACTORS
330
17
102
}
330
17
100
AcDbMlineStyle
  2
Standard
 70
     0
  3

 62
   256
 51
90.0
 52
90.0
 71
     2
 49
0.5
 62
   256
  6
BYLAYER
 49
-0.5
 62
   256
  6
BYLAYER
  0
ACDBPLACEHOLDER
  5
F
102
{ACAD_REACTORS
330
E
102
}
330
E
  0
SCALE
  5
48
102
{ACAD_REACTORS
330
47
102
}
330
47
100
AcDbScale
 70
     0
300
1:1
140
1.0
141
1.0
290
     1
  0
SCALE
  5
49
102
{ACAD_REACTORS
330
47
102
}
330
47
100
AcDbScale
 70
     0
300
1:2
140
1.0
141
2.0
290
     0
  0
SCALE
  5
4A
102
{ACAD_REACTORS
330
47
102
}
330
47
100
AcDbScale
 70
     0
300
1:4
140
1.0
141
4.0
290
     0
  0
SCALE
  5
4B
102
{ACAD_REACTORS
330
47
102
}
330
47
100
AcDbScale
 70
     0
300
1:5
140
1.0
141
5.0
290
     0
  0
SCALE
  5
4C
102
{ACAD_REACTORS
330
47
102
}
330
47
100
AcDbScale
 70
     0
300
1:8
140
1.0
141
8.0
290
     0
  0
SCALE
  5
4D
102
{ACAD_REACTORS
330
47
102
}
330
47
100
AcDbScale
 70
     0
300
1:10
140
1.0
141
10.0
290
     0
  0
SCALE
  5
4E
102
{ACAD_REACTORS
330
47
102
}
330
47
100
AcDbScale
 70
     0
300
1:16
140
1.0
141
16.0
290
     0
  0
SCALE
  5
4F
102
{ACAD_REACTORS
330
47
102
}
330
47
100
AcDbScale
 70
     0
300
1:20
140
1.0
141
20.0
290
     0
  0
SCALE
  5
50
102
{ACAD_REACTORS
330
47
102
}
330
47
100
AcDbScale
 70
     0
300
1:30
140
1.0
141
30.0
290
     0
  0
SCALE
  5
51
102
{ACAD_REACTORS
330
47
102
}
330
47
100
AcDbScale
 70
     0
300
1:40
140
1.0
141
40.0
290
     0
  0
SCALE
  5
52
102
{ACAD_REACTORS
330
47
102
}
330
47
100
AcDbScale
 70
     0
300
1:50
140
1.0
141
50.0
290
     0
  0
SCALE
  5
53
102
{ACAD_REACTORS
330
47
102
}
330
47
100
AcDbScale
 70
     0
300
1:100
140
1.0
141
100.0
290
     0
  0
SCALE
  5
54
102
{ACAD_REACTORS
330
47
102
}
330
47
100
AcDbScale
 70
     0
300
2:1
140
2.0
141
1.0
290
     0
  0
SCALE
  5
55
102
{ACAD_REACTORS
330
47
102
}
330
47
100
AcDbScale
 70
     0
300
4:1
140
4.0
141
1.0
290
     0
  0
SCALE
  5
56
102
{ACAD_REACTORS
330
47
102
}
330
47
100
AcDbScale
 70
     0
300
8:1
140
8.0
141
1.0
290
     0
  0
SCALE
  5
57
102
{ACAD_REACTORS
330
47
102
}
330
47
100
AcDbScale
 70
     0
300
10:1
140
10.0
141
1.0
290
     0
  0
SCALE
  5
58
102
{ACAD_REACTORS
330
47
102
}
330
47
100
AcDbScale
 70
     0
300
100:1
140
100.0
141
1.0
290
     0
  0
SCALE
  5
59
102
{ACAD_REACTORS
330
47
102
}
330
47
100
AcDbScale
 70
     0
300
1/128" = 1'-0"
140
0.0078125
141
12.0
290
     0
  0
SCALE
  5
5A
102
{ACAD_REACTORS
330
47
102
}
330
47
100
AcDbScale
 70
     0
300
1/64" = 1'-0"
140
0.015625
141
12.0
290
     0
  0
SCALE
  5
5B
102
{ACAD_REACTORS
330
47
102
}
330
47
100
AcDbScale
 70
     0
300
1/32" = 1'-0"
140
0.03125
141
12.0
290
     0
  0
SCALE
  5
5C
102
{ACAD_REACTORS
330
47
102
}
330
47
100
AcDbScale
 70
     0
300
1/16" = 1'-0"
140
0.0625
141
12.0
290
     0
  0
SCALE
  5
5D
102
{ACAD_REACTORS
330
47
102
}
330
47
100
AcDbScale
 70
     0
300
3/32" = 1'-0"
140
0.09375
141
12.0
290
     0
  0
SCALE
  5
5E
102
{ACAD_REACTORS
330
47
102
}
330
47
100
AcDbScale
 70
     0
300
1/8" = 1'-0"
140
0.125
141
12.0
290
     0
  0
SCALE
  5
5F
102
{ACAD_REACTORS
330
47
102
}
330
47
100
AcDbScale
 70
     0
300
3/16" = 1'-0"
140
0.1875
141
12.0
290
     0
  0
SCALE
  5
60
102
{ACAD_REACTORS
330
47
102
}
330
47
100
AcDbScale
 70
     0
300
1/4" = 1'-0"
140
0.25
141
12.0
290
     0
  0
SCALE
  5
61
102
{ACAD_REACTORS
330
47
102
}
330
47
100
AcDbScale
 70
     0
300
3/8" = 1'-0"
140
0.375
141
12.0
290
     0
  0
SCALE
  5
62
102
{ACAD_REACTORS
330
47
102
}
330
47
100
AcDbScale
 70
     0
300
1/2" = 1'-0"
140
0.5
141
12.0
290
     0
  0
SCALE
  5
63
102
{ACAD_REACTORS
330
47
102
}
330
47
100
AcDbScale
 70
     0
300
3/4" = 1'-0"
140
0.75
141
12.0
290
     0
  0
SCALE
  5
64
102
{ACAD_REACTORS
330
47
102
}
330
47
100
AcDbScale
 70
     0
300
1" = 1'-0"
140
1.0
141
12.0
290
     0
  0
SCALE
  5
65
102
{ACAD_REACTORS
330
47
102
}
330
47
100
AcDbScale
 70
     0
300
1-1/2" = 1'-0"
140
1.5
141
12.0
290
     0
  0
SCALE
  5
66
102
{ACAD_REACTORS
330
47
102
}
330
47
100
AcDbScale
 70
     0
300
3" = 1'-0"
140
3.0
141
12.0
290
     0
  0
SCALE
  5
67
102
{ACAD_REACTORS
330
47
102
}
330
47
100
AcDbScale
 70
     0
300
6" = 1'-0"
140
6.0
141
12.0
290
     0
  0
SCALE
  5
68
102
{ACAD_REACTORS
330
47
102
}
330
47
100
AcDbScale
 70
     0
300
1'-0" = 1'-0"
140
12.0
141
12.0
290
     0
  0
ENDSEC
  0
EOF
