  0
SECTION
  2
HEADER
  9
$ACADVER
  1
AC1015
  9
$ACADMAINTVER
 70
     6
  9
$DWGCODEPAGE
  3
ANSI_949
  9
$INSBASE
 10
0.0
 20
0.0
 30
0.0
  9
$EXTMIN
 10
-83.43395802161214
 20
-49.88227576695243
 30
0.0
  9
$EXTMAX
 10
131.6774388512155
 20
52.31250000000006
 30
0.0
  9
$LIMMIN
 10
0.0
 20
0.0
  9
$LIMMAX
 10
420.0
 20
297.0
  9
$ORTHOMODE
 70
     1
  9
$REGENMODE
 70
     1
  9
$FILLMODE
 70
     1
  9
$QTEXTMODE
 70
     0
  9
$MIRRTEXT
 70
     1
  9
$LTSCALE
 40
1.0
  9
$ATTMODE
 70
     1
  9
$TEXTSIZE
 40
3.5
  9
$TRACEWID
 40
1.0
  9
$TEXTSTYLE
  7
Standard
  9
$CLAYER
  8
0
  9
$CELTYPE
  6
ByLayer
  9
$CECOLOR
 62
   256
  9
$CELTSCALE
 40
1.0
  9
$DISPSILH
 70
     0
  9
$DIMSCALE
 40
1.0
  9
$DIMASZ
 40
3.302
  9
$DIMEXO
 40
1.0
  9
$DIMDLI
 40
3.75
  9
$DIMRND
 40
0.0
  9
$DIMDLE
 40
0.0
  9
$DIMEXE
 40
1.0
  9
$DIMTP
 40
0.0
  9
$DIMTM
 40
0.0
  9
$DIMTXT
 40
3.5
  9
$DIMCEN
 40
2.5
  9
$DIMTSZ
 40
0.0
  9
$DIMTOL
 70
     0
  9
$DIMLIM
 70
     0
  9
$DIMTIH
 70
     1
  9
$DIMTOH
 70
     1
  9
$DIMSE1
 70
     0
  9
$DIMSE2
 70
     0
  9
$DIMTAD
 70
     1
  9
$DIMZIN
 70
     0
  9
$DIMBLK
  1

  9
$DIMASO
 70
     1
  9
$DIMSHO
 70
     1
  9
$DIMPOST
  1

  9
$DIMAPOST
  1

  9
$DIMALT
 70
     0
  9
$DIMALTD
 70
     3
  9
$DIMALTF
 40
0.0393700787401575
  9
$DIMLFAC
 40
1.0
  9
$DIMTOFL
 70
     1
  9
$DIMTVP
 40
0.0
  9
$DIMTIX
 70
     0
  9
$DIMSOXD
 70
     0
  9
$DIMSAH
 70
     0
  9
$DIMBLK1
  1

  9
$DIMBLK2
  1

  9
$DIMSTYLE
  2
ISO-25
  9
$DIMCLRD
 70
     0
  9
$DIMCLRE
 70
     0
  9
$DIMCLRT
 70
     0
  9
$DIMTFAC
 40
1.0
  9
$DIMGAP
 40
1.524
  9
$DIMJUST
 70
     0
  9
$DIMSD1
 70
     0
  9
$DIMSD2
 70
     0
  9
$DIMTOLJ
 70
     0
  9
$DIMTZIN
 70
     0
  9
$DIMALTZ
 70
     0
  9
$DIMALTTZ
 70
     0
  9
$DIMUPT
 70
     0
  9
$DIMDEC
 70
     2
  9
$DIMTDEC
 70
     2
  9
$DIMALTU
 70
     2
  9
$DIMALTTD
 70
     3
  9
$DIMTXSTY
  7
Standard
  9
$DIMAUNIT
 70
     0
  9
$DIMADEC
 70
     2
  9
$DIMALTRND
 40
0.0
  9
$DIMAZIN
 70
     0
  9
$DIMDSEP
 70
    44
  9
$DIMATFIT
 70
     3
  9
$DIMFRAC
 70
     0
  9
$DIMLDRBLK
  1

  9
$DIMLUNIT
 70
     2
  9
$DIMLWD
 70
    -2
  9
$DIMLWE
 70
    -2
  9
$DIMTMOVE
 70
     0
  9
$LUNITS
 70
     2
  9
$LUPREC
 70
     2
  9
$SKETCHINC
 40
1.0
  9
$FILLETRAD
 40
10.0
  9
$AUNITS
 70
     0
  9
$AUPREC
 70
     2
  9
$MENU
  1
.
  9
$ELEVATION
 40
0.0
  9
$PELEVATION
 40
0.0
  9
$THICKNESS
 40
0.0
  9
$LIMCHECK
 70
     0
  9
$CHAMFERA
 40
0.0
  9
$CHAMFERB
 40
0.0
  9
$CHAMFERC
 40
0.0
  9
$CHAMFERD
 40
0.0
  9
$SKPOLY
 70
     0
  9
$TDCREATE
 40
2458269.737014132
  9
$TDUCREATE
 40
2458269.362014132
  9
$TDUPDATE
 40
2458275.412464016
  9
$TDUUPDATE
 40
2458275.037464016
  9
$TDINDWG
 40
0.001238287
  9
$TDUSRTIMER
 40
2458275.036225914
  9
$USRTIMER
 70
     1
  9
$ANGBASE
 50
0.0
  9
$ANGDIR
 70
     0
  9
$PDMODE
 70
     0
  9
$PDSIZE
 40
-1.0
  9
$PLINEWID
 40
0.0
  9
$SPLFRAME
 70
     0
  9
$SPLINETYPE
 70
     6
  9
$SPLINESEGS
 70
     8
  9
$HANDSEED
  5
167
  9
$SURFTAB1
 70
     6
  9
$SURFTAB2
 70
     6
  9
$SURFTYPE
 70
     6
  9
$SURFU
 70
     6
  9
$SURFV
 70
     6
  9
$UCSBASE
  2

  9
$UCSNAME
  2

  9
$UCSORG
 10
0.0
 20
0.0
 30
0.0
  9
$UCSXDIR
 10
1.0
 20
0.0
 30
0.0
  9
$UCSYDIR
 10
0.0
 20
1.0
 30
0.0
  9
$UCSORTHOREF
  2

  9
$UCSORTHOVIEW
 70
     0
  9
$UCSORGTOP
 10
0.0
 20
0.0
 30
0.0
  9
$UCSORGBOTTOM
 10
0.0
 20
0.0
 30
0.0
  9
$UCSORGLEFT
 10
0.0
 20
0.0
 30
0.0
  9
$UCSORGRIGHT
 10
0.0
 20
0.0
 30
0.0
  9
$UCSORGFRONT
 10
0.0
 20
0.0
 30
0.0
  9
$UCSORGBACK
 10
0.0
 20
0.0
 30
0.0
  9
$PUCSBASE
  2

  9
$PUCSNAME
  2

  9
$PUCSORG
 10
0.0
 20
0.0
 30
0.0
  9
$PUCSXDIR
 10
1.0
 20
0.0
 30
0.0
  9
$PUCSYDIR
 10
0.0
 20
1.0
 30
0.0
  9
$PUCSORTHOREF
  2

  9
$PUCSORTHOVIEW
 70
     0
  9
$PUCSORGTOP
 10
0.0
 20
0.0
 30
0.0
  9
$PUCSORGBOTTOM
 10
0.0
 20
0.0
 30
0.0
  9
$PUCSORGLEFT
 10
0.0
 20
0.0
 30
0.0
  9
$PUCSORGRIGHT
 10
0.0
 20
0.0
 30
0.0
  9
$PUCSORGFRONT
 10
0.0
 20
0.0
 30
0.0
  9
$PUCSORGBACK
 10
0.0
 20
0.0
 30
0.0
  9
$USERI1
 70
     0
  9
$USERI2
 70
     0
  9
$USERI3
 70
     0
  9
$USERI4
 70
     0
  9
$USERI5
 70
     0
  9
$USERR1
 40
0.0
  9
$USERR2
 40
0.0
  9
$USERR3
 40
0.0
  9
$USERR4
 40
0.0
  9
$USERR5
 40
0.0
  9
$WORLDVIEW
 70
     1
  9
$SHADEDGE
 70
     3
  9
$SHADEDIF
 70
    70
  9
$TILEMODE
 70
     1
  9
$MAXACTVP
 70
    64
  9
$PINSBASE
 10
0.0
 20
0.0
 30
0.0
  9
$PLIMCHECK
 70
     0
  9
$PEXTMIN
 10
1.000000000000000E+20
 20
1.000000000000000E+20
 30
1.000000000000000E+20
  9
$PEXTMAX
 10
-1.000000000000000E+20
 20
-1.000000000000000E+20
 30
-1.000000000000000E+20
  9
$PLIMMIN
 10
0.0
 20
0.0
  9
$PLIMMAX
 10
0.0
 20
0.0
  9
$UNITMODE
 70
     0
  9
$VISRETAIN
 70
     1
  9
$PLINEGEN
 70
     0
  9
$PSLTSCALE
 70
     1
  9
$TREEDEPTH
 70
  3020
  9
$CMLSTYLE
  2
Standard
  9
$CMLJUST
 70
     0
  9
$CMLSCALE
 40
20.0
  9
$PROXYGRAPHICS
 70
     1
  9
$MEASUREMENT
 70
     1
  9
$CELWEIGHT
370
    -1
  9
$ENDCAPS
280
     0
  9
$JOINSTYLE
280
     0
  9
$LWDISPLAY
290
     1
  9
$INSUNITS
 70
     4
  9
$HYPERLINKBASE
  1

  9
$STYLESHEET
  1

  9
$XEDIT
290
     1
  9
$CEPSNTYPE
380
     0
  9
$PSTYLEMODE
290
     1
  9
$FINGERPRINTGUID
  2
{7F702201-69A4-4A02-989F-F619BAA546D9}
  9
$VERSIONGUID
  2
{FAEB1C32-E019-11D5-929B-00C0DF256EC4}
  9
$EXTNAMES
290
     1
  9
$PSVPSCALE
 40
0.0
  9
$OLESTARTUP
290
     0
  0
ENDSEC
  0
SECTION
  2
CLASSES
  0
CLASS
  1
ACDBDICTIONARYWDFLT
  2
AcDbDictionaryWithDefault
  3
ObjectDBX Classes
 90
        0
280
     0
281
     0
  0
CLASS
  1
VISUALSTYLE
  2
AcDbVisualStyle
  3
ObjectDBX Classes
 90
     4095
280
     0
281
     0
  0
CLASS
  1
MATERIAL
  2
AcDbMaterial
  3
ObjectDBX Classes
 90
     1153
280
     0
281
     0
  0
CLASS
  1
SCALE
  2
AcDbScale
  3
ObjectDBX Classes
 90
     1153
280
     0
281
     0
  0
CLASS
  1
SUN
  2
AcDbSun
  3
SCENEOE
 90
     1153
280
     0
281
     0
  0
CLASS
  1
ACDBPLACEHOLDER
  2
AcDbPlaceHolder
  3
ObjectDBX Classes
 90
        0
280
     0
281
     0
  0
CLASS
  1
LAYOUT
  2
AcDbLayout
  3
ObjectDBX Classes
 90
        0
280
     0
281
     0
  0
CLASS
  1
TABLESTYLE
  2
AcDbTableStyle
  3
ObjectDBX Classes
 90
     4095
280
     0
281
     0
  0
CLASS
  1
MLEADERSTYLE
  2
AcDbMLeaderStyle
  3
ACDB_MLEADERSTYLE_CLASS
 90
     4095
280
     0
281
     0
  0
CLASS
  1
RASTERVARIABLES
  2
AcDbRasterVariables
  3
ISM
 90
        0
280
     0
281
     0
  0
CLASS
  1
DIMASSOC
  2
AcDbDimAssoc
  3
"AcDbDimAssoc|Product Desc:     AcDim ARX App For Dimension|Company:          Autodesk, Inc.|WEB Address:      www.autodesk.com"
 90
        0
280
     0
281
     0
  0
ENDSEC
  0
SECTION
  2
TABLES
  0
TABLE
  2
VPORT
  5
8
330
0
100
AcDbSymbolTable
 70
     1
  0
VPORT
  5
29
330
8
100
AcDbSymbolTableRecord
100
AcDbViewportTableRecord
  2
*Active
 70
     0
 10
0.0
 20
0.0
 11
1.0
 21
1.0
 12
8.14441500601788
 22
1.206851156795199
 13
0.0
 23
0.0
 14
10.0
 24
10.0
 15
10.0
 25
10.0
 16
0.0
 26
0.0
 36
1.0
 17
0.0
 27
0.0
 37
0.0
 40
271.3278926644725
 41
1.515444015444015
 42
50.0
 43
0.0
 44
0.0
 50
0.0
 51
0.0
 71
    16
 72
  2000
 73
     1
 74
     3
 75
     0
 76
     0
 77
     0
 78
     0
281
     0
 65
     1
110
0.0
120
0.0
130
0.0
111
1.0
121
0.0
131
0.0
112
0.0
122
1.0
132
0.0
 79
     0
146
0.0
  0
ENDTAB
  0
TABLE
  2
LTYPE
  5
5
330
0
100
AcDbSymbolTable
 70
     6
  0
LTYPE
  5
14
330
5
100
AcDbSymbolTableRecord
100
AcDbLinetypeTableRecord
  2
ByBlock
 70
     0
  3

 72
    65
 73
     0
 40
0.0
  0
LTYPE
  5
15
330
5
100
AcDbSymbolTableRecord
100
AcDbLinetypeTableRecord
  2
ByLayer
 70
     0
  3

 72
    65
 73
     0
 40
0.0
  0
LTYPE
  5
16
330
5
100
AcDbSymbolTableRecord
100
AcDbLinetypeTableRecord
  2
Continuous
 70
     0
  3
Solid line
 72
    65
 73
     0
 40
0.0
  0
LTYPE
  5
6A
330
5
100
AcDbSymbolTableRecord
100
AcDbLinetypeTableRecord
  2
HIDDEN
 70
     0
  3
Hidden __ __ __ __ __ __ __ __ __ __ __ __ __ __
 72
    65
 73
     2
 40
1.905
 49
1.27
 74
     0
 49
-0.635
 74
     0
  0
LTYPE
  5
6B
330
5
100
AcDbSymbolTableRecord
100
AcDbLinetypeTableRecord
  2
PHANTOM
 70
     0
  3
Phantom ______  __  __  ______  __  __  ______
 72
    65
 73
     6
 40
12.7
 49
6.35
 74
     0
 49
-1.27
 74
     0
 49
1.27
 74
     0
 49
-1.27
 74
     0
 49
1.27
 74
     0
 49
-1.27
 74
     0
  0
LTYPE
  5
6C
330
5
100
AcDbSymbolTableRecord
100
AcDbLinetypeTableRecord
  2
CENTER
 70
     0
  3
Center ____ _ ____ _ ____ _ ____ _ ____ _ ____
 72
    65
 73
     4
 40
10.16
 49
6.35
 74
     0
 49
-1.27
 74
     0
 49
1.27
 74
     0
 49
-1.27
 74
     0
  0
LTYPE
  5
6D
330
5
100
AcDbSymbolTableRecord
100
AcDbLinetypeTableRecord
  2
CENTERX2
 70
     0
  3
Center (2x) ________  __  ________  __  _____
 72
    65
 73
     4
 40
20.32
 49
12.7
 74
     0
 49
-2.54
 74
     0
 49
2.54
 74
     0
 49
-2.54
 74
     0
  0
LTYPE
  5
6E
330
5
100
AcDbSymbolTableRecord
100
AcDbLinetypeTableRecord
  2
DOT2
 70
     0
  3
Dot (.5x) ........................................
 72
    65
 73
     2
 40
0.635
 49
0.0
 74
     0
 49
-0.635
 74
     0
  0
ENDTAB
  0
TABLE
  2
LAYER
  5
2
330
0
100
AcDbSymbolTable
 70
    17
  0
LAYER
  5
10
330
2
100
AcDbSymbolTableRecord
100
AcDbLayerTableRecord
  2
0
 70
     0
 62
     7
  6
Continuous
370
    -3
390
F
  0
LAYER
  5
6F
330
2
100
AcDbSymbolTableRecord
100
AcDbLayerTableRecord
  2
FORMAT
 70
     0
 62
     2
  6
Continuous
370
    -3
390
F
  0
LAYER
  5
70
330
2
100
AcDbSymbolTableRecord
100
AcDbLayerTableRecord
  2
외형선
 70
     0
 62
   100
  6
Continuous
370
    30
390
F
  0
LAYER
  5
71
330
2
100
AcDbSymbolTableRecord
100
AcDbLayerTableRecord
  2
숨은선
 70
     0
 62
     2
  6
HIDDEN
370
    15
390
F
  0
LAYER
  5
72
330
2
100
AcDbSymbolTableRecord
100
AcDbLayerTableRecord
  2
중심선
 70
     0
 62
     1
  6
CENTERX2
370
    -3
390
F
  0
LAYER
  5
73
330
2
100
AcDbSymbolTableRecord
100
AcDbLayerTableRecord
  2
파단선
 70
     0
 62
     4
  6
Continuous
370
    -3
390
F
  0
LAYER
  5
74
330
2
100
AcDbSymbolTableRecord
100
AcDbLayerTableRecord
  2
해칭선
 70
     0
 62
     4
  6
Continuous
370
    -3
390
F
  0
LAYER
  5
75
330
2
100
AcDbSymbolTableRecord
100
AcDbLayerTableRecord
  2
가는실선
 70
     0
 62
     4
  6
Continuous
370
    -3
390
F
  0
LAYER
  5
76
330
2
100
AcDbSymbolTableRecord
100
AcDbLayerTableRecord
  2
치수_보조선
 70
     0
 62
     4
  6
Continuous
370
    -3
390
F
  0
LAYER
  5
77
330
2
100
AcDbSymbolTableRecord
100
AcDbLayerTableRecord
  2
치수문자_일반주서
 70
     0
 62
     7
  6
Continuous
370
    15
390
F
  0
LAYER
  5
78
330
2
100
AcDbSymbolTableRecord
100
AcDbLayerTableRecord
  2
개별주서
 70
     0
 62
   100
  6
Continuous
370
    30
390
F
  0
LAYER
  5
79
330
2
100
AcDbSymbolTableRecord
100
AcDbLayerTableRecord
  2
중간선
 70
     0
 62
     2
  6
Continuous
370
    15
390
F
  0
LAYER
  5
7A
330
2
100
AcDbSymbolTableRecord
100
AcDbLayerTableRecord
  2
윤곽선
 70
     0
 62
     3
  6
Continuous
370
    40
390
F
  0
LAYER
  5
7B
330
2
100
AcDbSymbolTableRecord
100
AcDbLayerTableRecord
  2
중심마크
 70
     0
 62
   100
  6
Continuous
370
    30
390
F
  0
LAYER
  5
7C
330
2
100
AcDbSymbolTableRecord
100
AcDbLayerTableRecord
  2
가상선
 70
     0
 62
     4
  6
PHANTOM
370
    -3
390
F
  0
LAYER
  5
7D
330
2
100
AcDbSymbolTableRecord
100
AcDbLayerTableRecord
  2
특수지정선
 70
     0
 62
     5
  6
CENTERX2
370
    60
390
F
  0
LAYER
  5
14F
330
2
100
AcDbSymbolTableRecord
100
AcDbLayerTableRecord
  2
Defpoints
 70
     0
 62
     7
  6
Continuous
290
     0
370
    -3
390
F
  0
ENDTAB
  0
TABLE
  2
STYLE
  5
3
330
0
100
AcDbSymbolTable
 70
     2
  0
STYLE
  5
11
330
3
100
AcDbSymbolTableRecord
100
AcDbTextStyleTableRecord
  2
Standard
 70
     0
 40
0.0
 41
1.0
 50
0.0
 71
     0
 42
3.5
  3
txt
  4

  0
STYLE
  5
93
330
3
100
AcDbSymbolTableRecord
100
AcDbTextStyleTableRecord
  2
SLDTEXTSTYLE0
 70
     0
 40
0.0
 41
0.75
 50
0.0
 71
     0
 42
3.5
  3
TXT
  4

  0
ENDTAB
  0
TABLE
  2
VIEW
  5
6
330
0
100
AcDbSymbolTable
 70
     0
  0
ENDTAB
  0
TABLE
  2
UCS
  5
7
330
0
100
AcDbSymbolTable
 70
     0
  0
ENDTAB
  0
TABLE
  2
APPID
  5
9
330
0
100
AcDbSymbolTable
 70
     2
  0
APPID
  5
12
330
9
100
AcDbSymbolTableRecord
100
AcDbRegAppTableRecord
  2
ACAD
 70
     0
  0
APPID
  5
163
330
9
100
AcDbSymbolTableRecord
100
AcDbRegAppTableRecord
  2
PE_DIMMEASUREMENT
 70
     0
  0
ENDTAB
  0
TABLE
  2
DIMSTYLE
  5
A
330
0
100
AcDbSymbolTable
 70
     3
100
AcDbDimStyleTable
  0
DIMSTYLE
105
27
330
A
100
AcDbSymbolTableRecord
100
AcDbDimStyleTableRecord
  2
ISO-25
 70
     0
 41
2.5
 42
0.625
 43
3.75
 44
1.25
 73
     0
 74
     0
 77
     1
 78
     8
140
2.5
141
2.5
143
0.03937007874016
147
0.625
171
     3
172
     1
178
     0
271
     2
272
     2
274
     3
278
    44
283
     0
284
     8
340
11
  0
DIMSTYLE
105
D4
102
{ACAD_REACTORS
330
D3
330
10F
330
152
102
}
330
A
100
AcDbSymbolTableRecord
100
AcDbDimStyleTableRecord
  2
SLDDIMSTYLE0
 70
     0
 41
3.302
 44
0.0
 45
0.000000001
 73
     0
 74
     0
 77
     1
 78
    12
 79
     3
140
3.5
143
0.0393700787401575
147
0.875
148
0.000000001
170
     1
172
     1
173
     1
178
     0
271
     2
272
     2
276
     2
284
    12
289
     0
340
93
  0
DIMSTYLE
105
E9
102
{ACAD_REACTORS
330
E8
330
FC
102
}
330
A
100
AcDbSymbolTableRecord
100
AcDbDimStyleTableRecord
  2
SLDDIMSTYLE1
 70
     0
 41
3.302
 44
0.0
 45
0.000000001
 73
     0
 74
     0
 77
     1
 78
    12
 79
     3
140
3.5
143
0.0393700787401575
147
0.875
148
0.000000001
170
     1
173
     1
178
     0
271
     2
272
     2
276
     2
284
    12
340
93
  0
ENDTAB
  0
TABLE
  2
BLOCK_RECORD
  5
1
330
0
100
AcDbSymbolTable
 70
     8
  0
BLOCK_RECORD
  5
1F
330
1
100
AcDbSymbolTableRecord
100
AcDbBlockTableRecord
  2
*Model_Space
340
22
  0
BLOCK_RECORD
  5
1B
330
1
100
AcDbSymbolTableRecord
100
AcDbBlockTableRecord
  2
*Paper_Space
340
1E
  0
BLOCK_RECORD
  5
23
330
1
100
AcDbSymbolTableRecord
100
AcDbBlockTableRecord
  2
*Paper_Space0
340
26
  0
BLOCK_RECORD
  5
7E
330
1
100
AcDbSymbolTableRecord
100
AcDbBlockTableRecord
  2
블럭10
340
0
102
{BLKREFS
331
CB
102
}
  0
BLOCK_RECORD
  5
D5
330
1
100
AcDbSymbolTableRecord
100
AcDbBlockTableRecord
  2
_D
340
0
  0
BLOCK_RECORD
  5
EA
330
1
100
AcDbSymbolTableRecord
100
AcDbBlockTableRecord
  2
_D_1
340
0
  0
BLOCK_RECORD
  5
FD
330
1
100
AcDbSymbolTableRecord
100
AcDbBlockTableRecord
  2
_D_2
340
0
  0
BLOCK_RECORD
  5
110
330
1
100
AcDbSymbolTableRecord
100
AcDbBlockTableRecord
  2
_D_3
340
0
  0
BLOCK_RECORD
  5
124
330
1
100
AcDbSymbolTableRecord
100
AcDbBlockTableRecord
  2
SW_DOWELSYMBOL_0
340
0
102
{BLKREFS
331
12A
102
}
  0
BLOCK_RECORD
  5
155
330
1
100
AcDbSymbolTableRecord
100
AcDbBlockTableRecord
  2
*D7
340
0
  0
ENDTAB
  0
ENDSEC
  0
SECTION
  2
BLOCKS
  0
BLOCK
  5
20
330
1F
100
AcDbEntity
  8
0
100
AcDbBlockBegin
  2
*Model_Space
 70
     0
 10
0.0
 20
0.0
 30
0.0
  3
*Model_Space
  1
*Model_Space
  0
ENDBLK
  5
21
330
1F
100
AcDbEntity
  8
0
100
AcDbBlockEnd
  0
BLOCK
  5
1C
330
1B
100
AcDbEntity
 67
     1
  8
0
100
AcDbBlockBegin
  2
*Paper_Space
 70
     0
 10
0.0
 20
0.0
 30
0.0
  3
*Paper_Space
  1
*Paper_Space
  0
ENDBLK
  5
1D
330
1B
100
AcDbEntity
 67
     1
  8
0
100
AcDbBlockEnd
  0
BLOCK
  5
24
330
23
100
AcDbEntity
  8
0
100
AcDbBlockBegin
  2
*Paper_Space0
 70
     0
 10
0.0
 20
0.0
 30
0.0
  3
*Paper_Space0
  1
*Paper_Space0
  0
ENDBLK
  5
25
330
23
100
AcDbEntity
  8
0
100
AcDbBlockEnd
  0
BLOCK
  5
7F
330
7E
100
AcDbEntity
  8
0
100
AcDbBlockBegin
  2
블럭10
 70
     2
 10
0.0
 20
0.0
 30
0.0
  3
블럭10
  1
블럭10
  0
ELLIPSE
  5
81
330
7E
100
AcDbEntity
  8
중심선
100
AcDbEllipse
 10
20.54032771741204
 20
12.0471743016438
 30
0.0
 11
6.600054785286829
 21
-1.261213355974178E-13
 31
0.0
210
0.0
220
0.0
230
1.0
 40
0.636358354079598
 41
0.9219305317359503
 42
6.513795318482858
  0
ELLIPSE
  5
82
330
7E
100
AcDbEntity
  8
중심선
100
AcDbEllipse
 10
20.54032771746488
 20
12.04717430159265
 30
0.0
 11
3.960054785062283
 21
1.540847449632565E-10
 31
0.0
210
0.0
220
0.0
230
1.0
 40
0.3939339440162632
 41
1.131841032648279
 42
5.62031148352944
  0
LINE
  5
83
330
7E
100
AcDbEntity
  8
중심선
100
AcDbLine
 10
2.268634060543552
 20
16.24717430164393
 30
0.0
 11
5.714909304380834
 21
16.24717430164393
 31
0.0
  0
LINE
  5
84
330
7E
100
AcDbEntity
  8
중심선
100
AcDbLine
 10
5.245725140726316
 20
7.84717430164391
 30
0.0
 11
8.692000384563599
 21
7.84717430164391
 31
0.0
  0
LINE
  5
85
330
7E
100
AcDbEntity
  8
중심선
100
AcDbLine
 10
15.74043728645272
 20
16.24717430164393
 30
0.0
 11
8.692000384563599
 21
7.84717430164391
 31
0.0
  0
LINE
  5
86
330
7E
100
AcDbEntity
  8
중심선
100
AcDbLine
 10
0.1404042013395286
 20
13.71084872107135
 30
0.0
 11
3.58671253028996
 21
13.71088815037384
 31
0.0
  0
LINE
  5
87
330
7E
100
AcDbEntity
  8
중심선
100
AcDbLine
 10
2.750260043222114
 20
10.84717430164391
 30
0.0
 11
6.196535287059397
 21
10.84717430164391
 31
0.0
  0
LINE
  5
88
330
7E
100
AcDbEntity
  8
중심선
100
AcDbLine
 10
12.29416204261559
 20
16.24717430164393
 30
0.0
 11
5.245725140726316
 21
7.84717430164391
 31
0.0
  0
LINE
  5
89
330
7E
100
AcDbEntity
  8
중심선
100
AcDbLine
 10
10.72767329541681
 20
16.24717430164393
 30
0.0
 11
6.196535287059397
 21
10.84717430164391
 31
0.0
  0
LINE
  5
8A
330
7E
100
AcDbEntity
  8
중심선
100
AcDbLine
 10
7.28139805157953
 20
16.24717430164393
 30
0.0
 11
2.750260043222114
 21
10.84717430164391
 31
0.0
  0
LINE
  5
8B
330
7E
100
AcDbEntity
  8
중심선
100
AcDbLine
 10
5.714909304380834
 20
16.24717430164393
 30
0.0
 11
3.58671253028996
 21
13.71088815037384
 31
0.0
  0
LINE
  5
8C
330
7E
100
AcDbEntity
  8
중심선
100
AcDbLine
 10
2.268634060543552
 20
16.24717430164393
 30
0.0
 11
0.1404042013395286
 21
13.71084872107135
 31
0.0
  0
LINE
  5
8D
330
7E
100
AcDbEntity
  8
중심선
100
AcDbLine
 10
7.28139805157953
 20
16.24717430164393
 30
0.0
 11
10.72767329541681
 21
16.24717430164393
 31
0.0
  0
LINE
  5
8E
330
7E
100
AcDbEntity
  8
중심선
100
AcDbLine
 10
12.29416204261559
 20
16.24717430164393
 30
0.0
 11
15.74043728645272
 21
16.24717430164393
 31
0.0
  0
LINE
  5
8F
330
7E
100
AcDbEntity
  8
중심선
100
AcDbLine
 10
19.22036997980202
 20
11.08717430171403
 30
0.0
 11
23.66174974927406
 21
11.08717430171406
 31
0.0
  0
LINE
  5
90
330
7E
100
AcDbEntity
  8
중심선
100
AcDbLine
 10
19.22039502424796
 20
13.00717430171391
 30
0.0
 11
19.22036997980202
 21
11.08717430171403
 31
0.0
  0
LINE
  5
91
330
7E
100
AcDbEntity
  8
중심선
100
AcDbLine
 10
19.22039502424796
 20
13.00717430171391
 30
0.0
 11
26.96566020931264
 21
13.00717430171391
 31
0.0
  0
LINE
  5
92
330
7E
100
AcDbEntity
  8
중심선
100
AcDbLine
 10
22.22332737316547
 20
13.45928029700563
 30
0.0
 11
24.52862924686651
 21
15.39360700705356
 31
0.0
  0
ATTDEF
  5
94
330
7E
100
AcDbEntity
  8
FORMAT
 62
     2
100
AcDbText
 10
-9.18129528874128
 20
2.075366912832191
 30
0.0
 40
4.233333333333333
  1
E5978904 [ 3 FLUTE ]
 41
0.75
  7
SLDTEXTSTYLE0
 11
-9.18129528874128
 21
-0.0412997538344756
 31
0.0
100
AcDbAttributeDefinition
  3

  2
AUTOATTR0
 70
     0
 74
     1
  0
ENDBLK
  5
80
330
7E
100
AcDbEntity
  8
0
100
AcDbBlockEnd
  0
BLOCK
  5
D6
330
D5
100
AcDbEntity
  8
0
100
AcDbBlockBegin
  2
_D
 70
     0
 10
0.0
 20
0.0
 30
0.0
  3
_D
  1
_D
  0
LINE
  5
D8
330
D5
100
AcDbEntity
  8
치수문자_일반주서
 62
     0
370
    -2
100
AcDbLine
 10
-66.625
 20
7.937499999999993
 30
0.0
 11
-79.05895802161211
 21
7.937499999999946
 31
0.0
  0
LINE
  5
D9
330
D5
100
AcDbEntity
  8
치수문자_일반주서
 62
     0
370
    -2
100
AcDbLine
 10
-66.625
 20
-7.937500000000007
 30
0.0
 11
-79.05895802161206
 21
-7.937500000000054
 31
0.0
  0
LINE
  5
DA
330
D5
100
AcDbEntity
  8
치수문자_일반주서
 62
     0
370
    -2
100
AcDbLine
 10
-79.0589580216121
 20
4.635499999999946
 30
0.0
 11
-79.05895802161207
 21
-4.635500000000055
 31
0.0
  0
SOLID
  5
DB
330
D5
100
AcDbEntity
  8
치수문자_일반주서
 62
     0
100
AcDbTrace
 10
-78.50862468827877
 20
4.635499999999948
 30
0.0
 11
-79.60929135494543
 21
4.635499999999944
 31
0.0
 12
-79.05895802161211
 22
7.937499999999946
 32
0.0
 13
-79.05895802161211
 23
7.937499999999946
 33
0.0
  0
SOLID
  5
DC
330
D5
100
AcDbEntity
  8
치수문자_일반주서
 62
     0
100
AcDbTrace
 10
-79.6092913549454
 20
-4.635500000000056
 30
0.0
 11
-78.50862468827874
 21
-4.635500000000053
 31
0.0
 12
-79.05895802161206
 22
-7.937500000000054
 32
0.0
 13
-79.05895802161206
 23
-7.937500000000054
 33
0.0
  0
MTEXT
  5
DD
330
D5
100
AcDbEntity
  8
치수문자_일반주서
 62
     0
100
AcDbMText
 10
-83.43395802161209
 20
-0.0000000000000217
 30
0.0
 40
3.5
 41
0.0
 71
     2
 72
     1
  1
\A1;%%c15.88 [5/8]
  7
SLDTEXTSTYLE0
 11
-3.580687802255623E-15
 21
1.0
 31
0.0
 73
     1
 44
1.0
  0
POINT
  5
DE
330
D5
100
AcDbEntity
  8
Defpoints
 62
     0
100
AcDbPoint
 10
-66.5625
 20
7.937499999999993
 30
0.0
  0
POINT
  5
DF
330
D5
100
AcDbEntity
  8
Defpoints
 62
     0
100
AcDbPoint
 10
-66.5625
 20
-7.937500000000007
 30
0.0
  0
POINT
  5
E0
330
D5
100
AcDbEntity
  8
Defpoints
 62
     0
100
AcDbPoint
 10
-79.05895802161206
 20
-7.937500000000054
 30
0.0
  0
ENDBLK
  5
D7
330
D5
100
AcDbEntity
  8
0
100
AcDbBlockEnd
  0
BLOCK
  5
EB
330
EA
100
AcDbEntity
  8
0
100
AcDbBlockBegin
  2
_D_1
 70
     0
 10
0.0
 20
0.0
 30
0.0
  3
_D_1
  1
_D_1
  0
LINE
  5
ED
330
EA
100
AcDbEntity
  8
치수문자_일반주서
 62
     0
370
    -2
100
AcDbLine
 10
-67.5625
 20
6.999999999999994
 30
0.0
 11
-67.5625
 21
47.93750000000006
 31
0.0
  0
LINE
  5
EE
330
EA
100
AcDbEntity
  8
치수문자_일반주서
 62
     0
370
    -2
100
AcDbLine
 10
110.2375
 20
0.0625000000000043
 30
0.0
 11
110.2375
 21
47.93750000000006
 31
0.0
  0
LINE
  5
EF
330
EA
100
AcDbEntity
  8
치수문자_일반주서
 62
     0
370
    -2
100
AcDbLine
 10
-64.26050000000001
 20
47.93750000000006
 30
0.0
 11
106.9355
 21
47.93750000000006
 31
0.0
  0
SOLID
  5
F0
330
EA
100
AcDbEntity
  8
치수문자_일반주서
 62
     0
100
AcDbTrace
 10
-64.26050000000001
 20
48.48783333333339
 30
0.0
 11
-64.26050000000001
 21
47.38716666666672
 31
0.0
 12
-67.5625
 22
47.93750000000006
 32
0.0
 13
-67.5625
 23
47.93750000000006
 33
0.0
  0
SOLID
  5
F1
330
EA
100
AcDbEntity
  8
치수문자_일반주서
 62
     0
100
AcDbTrace
 10
106.9355
 20
47.38716666666672
 30
0.0
 11
106.9355
 21
48.48783333333339
 31
0.0
 12
110.2375
 22
47.93750000000006
 32
0.0
 13
110.2375
 23
47.93750000000006
 33
0.0
  0
MTEXT
  5
F2
330
EA
100
AcDbEntity
  8
치수문자_일반주서
 62
     0
100
AcDbMText
 10
28.14005281080395
 20
52.31250000000006
 30
0.0
 40
3.5
 41
0.0
 71
     2
 72
     1
  1
\A1;177.8 [7]
  7
SLDTEXTSTYLE0
 73
     1
 44
1.0
  0
POINT
  5
F3
330
EA
100
AcDbEntity
  8
Defpoints
 62
     0
100
AcDbPoint
 10
-67.5625
 20
6.937499999999994
 30
0.0
  0
POINT
  5
F4
330
EA
100
AcDbEntity
  8
Defpoints
 62
     0
100
AcDbPoint
 10
110.2375
 20
0.0000000000000043
 30
0.0
  0
POINT
  5
F5
330
EA
100
AcDbEntity
  8
Defpoints
 62
     0
100
AcDbPoint
 10
110.2375
 20
47.93750000000006
 30
0.0
  0
ENDBLK
  5
EC
330
EA
100
AcDbEntity
  8
0
100
AcDbBlockEnd
  0
BLOCK
  5
FE
330
FD
100
AcDbEntity
  8
0
100
AcDbBlockBegin
  2
_D_2
 70
     0
 10
0.0
 20
0.0
 30
0.0
  3
_D_2
  1
_D_2
  0
LINE
  5
100
330
FD
100
AcDbEntity
  8
치수문자_일반주서
 62
     0
370
    -2
100
AcDbLine
 10
2.287499999999996
 20
7.712500000000005
 30
0.0
 11
2.287499999999994
 21
35.11591612541946
 31
0.0
  0
LINE
  5
101
330
FD
100
AcDbEntity
  8
치수문자_일반주서
 62
     0
370
    -2
100
AcDbLine
 10
110.2375
 20
0.0625000000000042
 30
0.0
 11
110.2375
 21
35.11591612541946
 31
0.0
  0
LINE
  5
102
330
FD
100
AcDbEntity
  8
치수문자_일반주서
 62
     0
370
    -2
100
AcDbLine
 10
5.589499999999994
 20
35.11591612541946
 30
0.0
 11
106.9355
 21
35.11591612541946
 31
0.0
  0
SOLID
  5
103
330
FD
100
AcDbEntity
  8
치수문자_일반주서
 62
     0
100
AcDbTrace
 10
5.589499999999994
 20
35.66624945875279
 30
0.0
 11
5.589499999999994
 21
34.56558279208613
 31
0.0
 12
2.287499999999994
 22
35.11591612541946
 32
0.0
 13
2.287499999999994
 23
35.11591612541946
 33
0.0
  0
SOLID
  5
104
330
FD
100
AcDbEntity
  8
치수문자_일반주서
 62
     0
100
AcDbTrace
 10
106.9355
 20
34.56558279208613
 30
0.0
 11
106.9355
 21
35.66624945875279
 31
0.0
 12
110.2375
 22
35.11591612541946
 32
0.0
 13
110.2375
 23
35.11591612541946
 33
0.0
  0
MTEXT
  5
105
330
FD
100
AcDbEntity
  8
치수문자_일반주서
 62
     0
100
AcDbMText
 10
59.17397612630219
 20
39.49091612541946
 30
0.0
 40
3.5
 41
0.0
 71
     2
 72
     1
  1
\A1;107.95 [4 1/4]
  7
SLDTEXTSTYLE0
 73
     1
 44
1.0
  0
POINT
  5
106
330
FD
100
AcDbEntity
  8
Defpoints
 62
     0
100
AcDbPoint
 10
2.287499999999996
 20
7.650000000000005
 30
0.0
  0
POINT
  5
107
330
FD
100
AcDbEntity
  8
Defpoints
 62
     0
100
AcDbPoint
 10
110.2375
 20
0.0000000000000043
 30
0.0
  0
POINT
  5
108
330
FD
100
AcDbEntity
  8
Defpoints
 62
     0
100
AcDbPoint
 10
110.2375
 20
35.11591612541946
 30
0.0
  0
ENDBLK
  5
FF
330
FD
100
AcDbEntity
  8
0
100
AcDbBlockEnd
  0
BLOCK
  5
111
330
110
100
AcDbEntity
  8
0
100
AcDbBlockBegin
  2
_D_3
 70
     0
 10
0.0
 20
0.0
 30
0.0
  3
_D_3
  1
_D_3
  0
LINE
  5
113
330
110
100
AcDbEntity
  8
치수문자_일반주서
 62
     0
370
    -2
100
AcDbLine
 10
91.18749999999997
 20
7.680641003832842
 30
0.0
 11
91.18749999999997
 21
26.31944489327643
 31
0.0
  0
LINE
  5
114
330
110
100
AcDbEntity
  8
치수문자_일반주서
 62
     0
370
    -2
100
AcDbLine
 10
110.2375
 20
0.0625000000000043
 30
0.0
 11
110.2375
 21
26.31944489327643
 31
0.0
  0
LINE
  5
115
330
110
100
AcDbEntity
  8
치수문자_일반주서
 62
     0
370
    -2
100
AcDbLine
 10
94.48949999999996
 20
26.31944489327643
 30
0.0
 11
106.9355
 21
26.31944489327643
 31
0.0
  0
SOLID
  5
116
330
110
100
AcDbEntity
  8
치수문자_일반주서
 62
     0
100
AcDbTrace
 10
94.48949999999996
 20
26.86977822660977
 30
0.0
 11
94.48949999999996
 21
25.7691115599431
 31
0.0
 12
91.18749999999997
 22
26.31944489327643
 32
0.0
 13
91.18749999999997
 23
26.31944489327643
 33
0.0
  0
SOLID
  5
117
330
110
100
AcDbEntity
  8
치수문자_일반주서
 62
     0
100
AcDbTrace
 10
106.9355
 20
25.7691115599431
 30
0.0
 11
106.9355
 21
26.86977822660977
 31
0.0
 12
110.2375
 22
26.31944489327643
 32
0.0
 13
110.2375
 23
26.31944489327643
 33
0.0
  0
MTEXT
  5
118
330
110
100
AcDbEntity
  8
치수문자_일반주서
 62
     0
100
AcDbMText
 10
101.654495735188
 20
30.69444489327643
 30
0.0
 40
3.5
 41
0.0
 71
     2
 72
     1
  1
\A1;19.05 [3/4]
  7
SLDTEXTSTYLE0
 73
     1
 44
1.0
  0
POINT
  5
119
330
110
100
AcDbEntity
  8
Defpoints
 62
     0
100
AcDbPoint
 10
91.18749999999997
 20
7.618141003832842
 30
0.0
  0
POINT
  5
11A
330
110
100
AcDbEntity
  8
Defpoints
 62
     0
100
AcDbPoint
 10
110.2375
 20
0.0000000000000043
 30
0.0
  0
POINT
  5
11B
330
110
100
AcDbEntity
  8
Defpoints
 62
     0
100
AcDbPoint
 10
110.2375
 20
26.31944489327643
 30
0.0
  0
ENDBLK
  5
112
330
110
100
AcDbEntity
  8
0
100
AcDbBlockEnd
  0
BLOCK
  5
125
330
124
100
AcDbEntity
  8
0
100
AcDbBlockBegin
  2
SW_DOWELSYMBOL_0
 70
     0
 10
0.0
 20
0.0
 30
0.0
  3
SW_DOWELSYMBOL_0
  1
SW_DOWELSYMBOL_0
  0
CIRCLE
  5
127
330
124
100
AcDbEntity
  8
외형선
 62
     0
100
AcDbCircle
 10
0.0
 20
0.0
 30
0.0
 40
3.000000000000004
  0
HATCH
  5
128
330
124
100
AcDbEntity
  8
0
  6
Continuous
 62
     0
370
    30
100
AcDbHatch
 10
0.0
 20
0.0
 30
0.0
210
0.0
220
0.0
230
1.0
  2
SOLID
 70
     1
 71
     0
 91
        1
 92
        0
 93
        3
 72
     2
 10
0.0
 20
0.0
 40
3.000000000000004
 50
0.0
 51
90.0
 73
     1
 72
     1
 10
0.0
 20
3.000000000000004
 11
0.0
 21
0.0
 72
     1
 10
0.0
 20
0.0
 11
3.000000000000006
 21
0.0
 97
        0
 75
     0
 76
     1
 98
        1
 10
0.0
 20
0.0
  0
HATCH
  5
129
330
124
100
AcDbEntity
  8
0
  6
Continuous
 62
     0
370
    30
100
AcDbHatch
 10
0.0
 20
0.0
 30
0.0
210
0.0
220
0.0
230
1.0
  2
SOLID
 70
     1
 71
     0
 91
        1
 92
        0
 93
        3
 72
     2
 10
0.0
 20
0.0
 40
3.000000000000004
 50
180.0
 51
270.0000000000008
 73
     1
 72
     1
 10
0.0
 20
-3.000000000000004
 11
0.0
 21
0.0
 72
     1
 10
0.0
 20
0.0
 11
-3.000000000000006
 21
0.0
 97
        0
 75
     0
 76
     1
 98
        1
 10
0.0
 20
0.0
  0
ENDBLK
  5
126
330
124
100
AcDbEntity
  8
0
100
AcDbBlockEnd
  0
BLOCK
  5
156
330
155
100
AcDbEntity
  8
0
100
AcDbBlockBegin
  2
*D7
 70
     1
 10
0.0
 20
0.0
 30
0.0
  3
*D7
  1
*D7
  0
LINE
  5
158
330
155
100
AcDbEntity
  8
치수문자_일반주서
 62
     0
370
    -2
100
AcDbLine
 10
110.3
 20
7.937500000000004
 30
0.0
 11
131.1271055178821
 21
7.9375
 31
0.0
  0
LINE
  5
159
330
155
100
AcDbEntity
  8
치수문자_일반주서
 62
     0
370
    -2
100
AcDbLine
 10
110.3
 20
-7.937499999999996
 30
0.0
 11
131.1271055178821
 21
-7.937499999999996
 31
0.0
  0
LINE
  5
15A
330
155
100
AcDbEntity
  8
치수문자_일반주서
 62
     0
370
    -2
100
AcDbLine
 10
131.1271055178821
 20
7.9375
 30
0.0
 11
131.1271055178821
 21
42.5415
 31
0.0
  0
LINE
  5
15B
330
155
100
AcDbEntity
  8
치수문자_일반주서
 62
     0
370
    -2
100
AcDbLine
 10
131.1271055178821
 20
7.9375
 30
0.0
 11
131.1271055178821
 21
-7.937499999999996
 31
0.0
  0
LINE
  5
15C
330
155
100
AcDbEntity
  8
치수문자_일반주서
 62
     0
370
    -2
100
AcDbLine
 10
131.1271055178821
 20
11.2395
 30
0.0
 11
131.1271055178821
 21
14.5415
 31
0.0
  0
LINE
  5
15D
330
155
100
AcDbEntity
  8
치수문자_일반주서
 62
     0
370
    -2
100
AcDbLine
 10
131.1271055178821
 20
-11.2395
 30
0.0
 11
131.1271055178821
 21
-14.5415
 31
0.0
  0
SOLID
  5
15E
330
155
100
AcDbEntity
  8
치수문자_일반주서
 62
     0
100
AcDbTrace
 10
130.5767721845488
 20
11.2395
 30
0.0
 11
131.6774388512155
 21
11.2395
 31
0.0
 12
131.1271055178821
 22
7.9375
 32
0.0
 13
131.1271055178821
 23
7.9375
 33
0.0
  0
SOLID
  5
15F
330
155
100
AcDbEntity
  8
치수문자_일반주서
 62
     0
100
AcDbTrace
 10
131.6774388512155
 20
-11.2395
 30
0.0
 11
130.5767721845488
 21
-11.2395
 31
0.0
 12
131.1271055178821
 22
-7.937499999999996
 32
0.0
 13
131.1271055178821
 23
-7.937499999999996
 33
0.0
  0
MTEXT
  5
160
330
155
100
AcDbEntity
  8
치수문자_일반주서
 62
     0
100
AcDbMText
 10
128.5021055178821
 20
28.5415
 30
0.0
 40
3.5
 41
0.0
 71
     5
 72
     1
  1
\A1;{%%C15.88 [5/8]}
  7
SLDTEXTSTYLE0
 11
0.0
 21
1.0
 31
0.0
 73
     1
 44
1.0
  0
POINT
  5
161
330
155
100
AcDbEntity
  8
Defpoints
 62
     0
100
AcDbPoint
 10
110.2375
 20
7.937500000000004
 30
0.0
  0
POINT
  5
162
330
155
100
AcDbEntity
  8
Defpoints
 62
     0
100
AcDbPoint
 10
110.2375
 20
-7.937499999999996
 30
0.0
  0
POINT
  5
164
330
155
100
AcDbEntity
  8
Defpoints
 62
     0
100
AcDbPoint
 10
131.1271055178821
 20
-7.937499999999997
 30
0.0
  0
ENDBLK
  5
157
330
155
100
AcDbEntity
  8
0
100
AcDbBlockEnd
  0
ENDSEC
  0
SECTION
  2
ENTITIES
  0
LINE
  5
95
330
1F
100
AcDbEntity
  8
0
  6
Continuous
 62
     4
370
    15
100
AcDbLine
 10
2.0
 20
7.9375
 30
0.0
 11
-66.5625
 21
7.937499999999993
 31
0.0
  0
LINE
  5
96
330
1F
100
AcDbEntity
  8
0
  6
Continuous
 62
     4
370
    15
100
AcDbLine
 10
-66.5625
 20
-7.937500000000007
 30
0.0
 11
2.0
 21
-7.9375
 31
0.0
  0
LINE
  5
97
330
1F
100
AcDbEntity
  8
0
  6
Continuous
 62
     4
370
    15
100
AcDbLine
 10
2.0
 20
-7.937500000000004
 30
0.0
 11
2.287499999999996
 21
-7.650000000000008
 31
0.0
  0
LINE
  5
98
330
1F
100
AcDbEntity
  8
0
  6
Continuous
 62
     4
370
    15
100
AcDbLine
 10
2.287499999999996
 20
7.650000000000005
 30
0.0
 11
2.0
 21
7.9375
 31
0.0
  0
LINE
  5
99
330
1F
100
AcDbEntity
  8
0
  6
Continuous
 62
     4
370
    15
100
AcDbLine
 10
-66.5625
 20
7.937499999999993
 30
0.0
 11
-67.5625
 21
6.937499999999993
 31
0.0
  0
LINE
  5
9A
330
1F
100
AcDbEntity
  8
0
  6
Continuous
 62
     4
370
    15
100
AcDbLine
 10
-67.5625
 20
-6.937500000000007
 30
0.0
 11
-66.5625
 21
-7.937500000000007
 31
0.0
  0
LINE
  5
9B
330
1F
100
AcDbEntity
  8
0
  6
Continuous
 62
     4
370
    15
100
AcDbLine
 10
88.22845227167142
 20
7.650000000000008
 30
0.0
 11
2.287499999999996
 21
7.650000000000002
 31
0.0
  0
LINE
  5
9C
330
1F
100
AcDbEntity
  8
0
  6
Continuous
 62
     4
370
    15
100
AcDbLine
 10
2.287499999999996
 20
-7.650000000000006
 30
0.0
 11
88.13757860771801
 21
-7.649999999999999
 31
0.0
  0
LINE
  5
9D
330
1F
100
AcDbEntity
  8
0
  6
Continuous
 62
     1
370
    15
100
AcDbLine
 10
101.8146368902997
 20
-0.5887316473634376
 30
0.0
 11
101.7338727669737
 21
-0.5291679424186979
 31
0.0
  0
ARC
  5
9E
330
1F
100
AcDbEntity
  8
0
  6
Continuous
 62
     1
370
    15
100
AcDbCircle
 10
102.3
 20
0.0000000000000043
 30
0.0
 40
7.9375
100
AcDbArc
 50
353.5800701243586
 51
0.0
  0
ARC
  5
9F
330
1F
100
AcDbEntity
  8
0
  6
Continuous
 62
     1
370
    15
100
AcDbCircle
 10
102.3
 20
0.0000000000000043
 30
0.0
 40
7.9375
100
AcDbArc
 50
0.0
 51
60.05582955230427
  0
LINE
  5
A0
330
1F
100
AcDbEntity
  8
0
  6
Continuous
 62
     1
370
    15
100
AcDbLine
 10
95.51534799120026
 20
-7.937499999999996
 30
0.0
 11
99.22052526987301
 21
-7.937499999999996
 31
0.0
  0
LINE
  5
A1
330
1F
100
AcDbEntity
  8
0
  6
Continuous
 62
     4
370
    15
100
AcDbLine
 10
2.0
 20
7.9375
 30
0.0
 11
2.0
 21
-7.9375
 31
0.0
  0
LINE
  5
A2
330
1F
100
AcDbEntity
  8
0
  6
Continuous
 62
     4
370
    15
100
AcDbLine
 10
-66.5625
 20
7.937499999999993
 30
0.0
 11
-66.5625
 21
-7.937500000000007
 31
0.0
  0
LINE
  5
A3
330
1F
100
AcDbEntity
  8
0
  6
Continuous
 62
     4
370
    15
100
AcDbLine
 10
2.287499999999996
 20
7.650000000000005
 30
0.0
 11
2.287499999999996
 21
-7.650000000000008
 31
0.0
  0
LINE
  5
A4
330
1F
100
AcDbEntity
  8
0
  6
Continuous
 62
     4
370
    15
100
AcDbLine
 10
-67.5625
 20
6.937499999999994
 30
0.0
 11
-67.5625
 21
-6.937500000000007
 31
0.0
  0
SPLINE
  5
A5
330
1F
100
AcDbEntity
  8
0
  6
Continuous
 62
     4
370
    15
100
AcDbSpline
210
0.0
220
0.0
230
1.0
 70
     8
 71
     3
 72
    11
 73
     7
 74
     0
 42
0.000000001
 43
0.00000001
 40
0.0
 40
0.0
 40
0.0
 40
0.0
 40
0.2565188346033035
 40
0.5134990646851785
 40
0.7718734633803254
 40
1.0
 40
1.0
 40
1.0
 40
1.0
 10
91.1875
 20
7.350020375082947
 30
0.0
 10
90.93447246797126
 20
7.397361693873491
 30
0.0
 10
90.42796228817375
 20
7.492129483371294
 30
0.0
 10
89.6672099433641
 20
7.58440394163319
 30
0.0
 10
88.93293077165919
 20
7.641146264045139
 30
0.0
 10
88.45333900865927
 20
7.645732034683653
 30
0.0
 10
88.22845227167142
 20
7.647882361430343
 30
0.0
  0
LINE
  5
A6
330
1F
100
AcDbEntity
  8
0
  6
Continuous
 62
     1
370
    15
100
AcDbLine
 10
91.1875
 20
6.384304311206648
 30
0.0
 11
91.1875
 21
6.136385798106946
 31
0.0
  0
SPLINE
  5
A7
330
1F
100
AcDbEntity
  8
0
  6
Continuous
 62
     4
370
    15
100
AcDbSpline
210
0.0
220
0.0
230
1.0
 70
     8
 71
     3
 72
    10
 73
     6
 74
     0
 42
0.000000001
 43
0.00000001
 40
0.0
 40
0.0
 40
0.0
 40
0.0
 40
0.5
 40
0.5
 40
1.0
 40
1.0
 40
1.0
 40
1.0
 10
91.1875
 20
6.136385798106939
 30
0.0
 10
90.67791996183354
 20
6.357061799486022
 30
0.0
 10
90.1730949265604
 20
6.555620338881189
 30
0.0
 10
89.15433920322195
 20
6.906778702352301
 30
0.0
 10
88.64352126329078
 20
7.058857135402008
 30
0.0
 10
88.13752882005821
 20
7.18538764818152
 30
0.0
  0
SPLINE
  5
A8
330
1F
100
AcDbEntity
  8
0
  6
Continuous
 62
     4
370
    15
100
AcDbSpline
210
0.0
220
0.0
230
1.0
 70
     8
 71
     3
 72
    10
 73
     6
 74
     0
 42
0.000000001
 43
0.00000001
 40
0.0
 40
0.0
 40
0.0
 40
0.0
 40
0.5
 40
0.5
 40
1.0
 40
1.0
 40
1.0
 40
1.0
 10
91.1875
 20
-5.512066355544857
 30
0.0
 10
90.67792831861405
 20
-5.255810190881459
 30
0.0
 10
90.1731115673283
 20
-4.9811012130556
 30
0.0
 10
89.1543726832405
 20
-4.39720121994494
 30
0.0
 10
88.64356238847179
 20
-4.088500167341966
 30
0.0
 10
88.13757860771801
 20
-3.767629757255953
 30
0.0
  0
LINE
  5
A9
330
1F
100
AcDbEntity
  8
0
  6
Continuous
 62
     1
370
    15
100
AcDbLine
 10
91.1875
 20
-5.512066355544858
 30
0.0
 11
91.1875
 21
-5.769799698158616
 31
0.0
  0
SPLINE
  5
AA
330
1F
100
AcDbEntity
  8
0
  6
Continuous
 62
     4
370
    15
100
AcDbSpline
210
0.0
220
0.0
230
1.0
 70
     8
 71
     3
 72
    10
 73
     6
 74
     0
 42
0.000000001
 43
0.00000001
 40
0.0
 40
0.0
 40
0.0
 40
0.0
 40
0.4999999999999999
 40
0.4999999999999999
 40
1.0
 40
1.0
 40
1.0
 40
1.0
 10
91.1875
 20
-7.024258116235017
 30
0.0
 10
90.67791996183354
 20
-6.877872641734286
 30
0.0
 10
90.1730949265604
 20
-6.707410693602174
 30
0.0
 10
89.15433920322192
 20
-6.319847835707792
 30
0.0
 10
88.64352126329078
 20
-6.102991552660515
 30
0.0
 10
88.13752882005821
 20
-5.86635348618192
 30
0.0
  0
LINE
  5
AB
330
1F
100
AcDbEntity
  8
0
  6
Continuous
 62
     4
370
    15
100
AcDbLine
 10
88.13757860771801
 20
-7.649999999999999
 30
0.0
 11
88.13757860771801
 21
-5.866080718717704
 31
0.0
  0
LINE
  5
AC
330
1F
100
AcDbEntity
  8
0
  6
Continuous
 62
     4
370
    15
100
AcDbLine
 10
88.13757860771804
 20
-3.76799883446327
 30
0.0
 11
88.13757860771801
 21
7.185533481177687
 31
0.0
  0
SPLINE
  5
AD
330
1F
100
AcDbEntity
  8
0
  6
Continuous
 62
     4
370
    15
100
AcDbSpline
210
0.0
220
0.0
230
1.0
 70
    24
 71
     3
 72
    14
 73
    10
 74
     0
 42
0.000000001
 43
0.00000001
 40
0.0
 40
0.0
 40
0.0
 40
0.0
 40
0.2500000000000001
 40
0.2500000000000001
 40
0.5000000000000001
 40
0.5000000000000001
 40
0.7500000000000002
 40
0.7500000000000002
 40
1.0
 40
1.0
 40
1.0
 40
1.0
 10
91.1875
 20
0.3456309726368322
 30
0.0
 10
91.1875
 20
0.0297970052531893
 30
0.0
 10
91.1875
 20
-0.3478937286514302
 30
0.0
 10
91.18750000000003
 20
-1.227081983267047
 30
0.0
 10
91.18750000000003
 20
-1.729344367914903
 30
0.0
 10
91.1875
 20
-2.808010709996473
 30
0.0
 10
91.1875
 20
-3.383629278660907
 30
0.0
 10
91.1875
 20
-4.502539883866831
 30
0.0
 10
91.1875
 20
-5.043379921530164
 30
0.0
 10
91.1875
 20
-5.512066355544864
 30
0.0
  0
SPLINE
  5
AE
330
1F
100
AcDbEntity
  8
0
  6
Continuous
 62
     4
370
    15
100
AcDbSpline
210
0.0
220
0.0
230
1.0
 70
     8
 71
     3
 72
    10
 73
     6
 74
     0
 42
0.000000001
 43
0.00000001
 40
0.0
 40
0.0
 40
0.0
 40
0.0
 40
0.5
 40
0.5
 40
1.0
 40
1.0
 40
1.0
 40
1.0
 10
91.18749999999991
 20
0.3456309726366867
 30
0.0
 10
90.67792831861397
 20
0.6096645208086499
 30
0.0
 10
90.17311156732822
 20
0.8716696693495348
 30
0.0
 10
89.15437268324038
 20
1.389327210732023
 30
0.0
 10
88.64356238847222
 20
1.644419755135925
 30
0.0
 10
88.13757860771801
 20
1.892106188555885
 30
0.0
  0
SPLINE
  5
AF
330
1F
100
AcDbEntity
  8
0
  6
Continuous
 62
     4
370
    15
100
AcDbSpline
210
0.0
220
0.0
230
1.0
 70
    24
 71
     3
 72
    14
 73
    10
 74
     0
 42
0.000000001
 43
0.00000001
 40
0.0
 40
0.0
 40
0.0
 40
0.0
 40
0.25
 40
0.25
 40
0.5
 40
0.5
 40
0.75
 40
0.75
 40
1.0
 40
1.0
 40
1.0
 40
1.0
 10
91.1875
 20
6.136385798106931
 30
0.0
 10
91.1875
 20
5.627915680759326
 30
0.0
 10
91.18749999999997
 20
5.058437597611749
 30
0.0
 10
91.1875
 20
3.909880358348562
 30
0.0
 10
91.18749999999997
 20
3.333193471163096
 30
0.0
 10
91.1875
 20
2.275083022509114
 30
0.0
 10
91.18749999999994
 20
1.794202013655786
 30
0.0
 10
91.1875
 20
0.9701683735350056
 30
0.0
 10
91.1875
 20
0.6261036615676764
 30
0.0
 10
91.1875
 20
0.3456309726368334
 30
0.0
  0
SPLINE
  5
B0
330
1F
100
AcDbEntity
  8
0
  6
Continuous
 62
     1
370
    15
100
AcDbSpline
210
0.0
220
0.0
230
1.0
 70
     8
 71
     3
 72
    38
 73
    34
 74
     0
 42
0.000000001
 43
0.00000001
 40
0.0
 40
0.0
 40
0.0
 40
0.0
 40
0.1250000000000066
 40
0.1250000000000066
 40
0.1875000000000084
 40
0.1875000000000084
 40
0.2500000000000102
 40
0.2500000000000102
 40
0.3750000000000135
 40
0.3750000000000135
 40
0.4375000000000138
 40
0.4375000000000138
 40
0.500000000000014
 40
0.500000000000014
 40
0.5625000000000142
 40
0.5625000000000142
 40
0.6250000000000144
 40
0.6250000000000144
 40
0.6562500000000132
 40
0.6562500000000132
 40
0.687500000000012
 40
0.687500000000012
 40
0.7187500000000108
 40
0.7187500000000108
 40
0.7500000000000094
 40
0.7500000000000094
 40
0.8125000000000071
 40
0.8125000000000071
 40
0.8750000000000048
 40
0.8750000000000048
 40
0.9375000000000024
 40
0.9375000000000024
 40
1.0
 40
1.0
 40
1.0
 40
1.0
 10
102.3
 20
1.818869058283205
 30
0.0
 10
102.6603486231415
 20
1.55497974306897
 30
0.0
 10
103.0166364489273
 20
1.287007067304245
 30
0.0
 10
103.5511367485927
 20
0.8872518374861377
 30
0.0
 10
103.7292531039052
 20
0.7542848399644602
 30
0.0
 10
104.0876743739051
 20
0.4920565955390854
 30
0.0
 10
104.2687416276879
 20
0.362060816335914
 30
0.0
 10
104.8106662398067
 20
-0.0145904538195849
 30
0.0
 10
105.1680799656272
 20
-0.2472851197683925
 30
0.0
 10
105.7092424959068
 20
-0.5493412498419716
 30
0.0
 10
105.8916819268473
 20
-0.6427536204934295
 30
0.0
 10
106.2540493161595
 20
-0.8028438291893548
 30
0.0
 10
106.4340354159129
 20
-0.8699388141609639
 30
0.0
 10
106.7941304771818
 20
-0.9702762960824207
 30
0.0
 10
106.9755394123062
 20
-1.003466160445249
 30
0.0
 10
107.3277237831133
 20
-1.020691905742857
 30
0.0
 10
107.5021814043824
 20
-1.005000994170949
 30
0.0
 10
107.7502608065473
 20
-0.9317775359060542
 30
0.0
 10
107.8301198105447
 20
-0.8993322930432526
 30
0.0
 10
107.9838168699454
 20
-0.8159150929054719
 30
0.0
 10
108.05829978219
 20
-0.7642215124999202
 30
0.0
 10
108.1945369761384
 20
-0.643928216665426
 30
0.0
 10
108.256939992899
 20
-0.5752231453214052
 30
0.0
 10
108.369967540456
 20
-0.4199341393351863
 30
0.0
 10
108.4209065497608
 20
-0.3322689345640045
 30
0.0
 10
108.5488083960736
 20
-0.054013461957785
 30
0.0
 10
108.6038185430064
 20
0.1580594492358598
 30
0.0
 10
108.6564873323277
 20
0.5924033436776099
 30
0.0
 10
108.6554249828219
 20
0.8188198687224281
 30
0.0
 10
108.6118170320914
 20
1.265339701360787
 30
0.0
 10
108.5699026433248
 20
1.485303190262127
 30
0.0
 10
108.4555367803057
 20
1.919865529119807
 30
0.0
 10
108.3826508172535
 20
2.13487985795566
 30
0.0
 10
108.2985077347785
 20
2.344001458541684
 30
0.0
  0
SPLINE
  5
B1
330
1F
100
AcDbEntity
  8
0
  6
Continuous
 62
     1
370
    15
100
AcDbSpline
210
0.0
220
0.0
230
1.0
 70
     8
 71
     3
 72
    22
 73
    18
 74
     0
 42
0.000000001
 43
0.00000001
 40
0.0
 40
0.0
 40
0.0
 40
0.0
 40
0.125
 40
0.125
 40
0.2499999999999999
 40
0.2499999999999999
 40
0.3749999999999999
 40
0.3749999999999999
 40
0.5
 40
0.5
 40
0.6250000000000001
 40
0.6250000000000001
 40
0.75
 40
0.75
 40
0.875
 40
0.875
 40
1.0
 40
1.0
 40
1.0
 40
1.0
 10
102.3
 20
1.818869058283206
 30
0.0
 10
101.8358613202422
 20
2.158765565443237
 30
0.0
 10
101.3758386994893
 20
2.492386477695263
 30
0.0
 10
100.4495416185172
 20
3.144784239759459
 30
0.0
 10
99.9837716296436
 20
3.463387417580212
 30
0.0
 10
99.0590927955528
 20
4.077155412942143
 30
0.0
 10
98.59781535183393
 20
4.372894954410508
 30
0.0
 10
97.66925142996092
 20
4.938577113241715
 30
0.0
 10
97.20740403922167
 20
5.207399813237838
 30
0.0
 10
96.28333006352139
 20
5.713498770688958
 30
0.0
 10
95.81760615366017
 20
5.951345630493124
 30
0.0
 10
94.89088457815473
 20
6.39035714811663
 30
0.0
 10
94.43109019237397
 20
6.591448106281589
 30
0.0
 10
93.50299511251214
 20
6.955512341137946
 30
0.0
 10
93.03791078646034
 20
7.117935142394914
 30
0.0
 10
92.11680318377321
 20
7.399758853122511
 30
0.0
 10
91.65150695061794
 20
7.520097706745617
 30
0.0
 10
91.1875
 20
7.618141003806104
 30
0.0
  0
SPLINE
  5
B2
330
1F
100
AcDbEntity
  8
0
  6
Continuous
 62
     1
370
    15
100
AcDbSpline
210
0.0
220
0.0
230
1.0
 70
     8
 71
     3
 72
    11
 73
     7
 74
     0
 42
0.000000001
 43
0.00000001
 40
0.0
 40
0.0
 40
0.0
 40
0.0
 40
0.0501199405426199
 40
0.3802827359453628
 40
0.7102028758455609
 40
0.9999999999999999
 40
0.9999999999999999
 40
0.9999999999999999
 40
0.9999999999999999
 10
105.1318396571268
 20
4.05550540693438
 30
0.0
 10
104.9920441723635
 20
4.10360815086726
 30
0.0
 10
103.931352382967
 20
4.468585500625285
 30
0.0
 10
101.9492671017807
 20
5.016793197990051
 30
0.0
 10
99.29953417773723
 20
5.461207717504622
 30
0.0
 10
97.57056819702453
 20
5.451807119976845
 30
0.0
 10
96.76205535087078
 20
5.447411137668626
 30
0.0
  0
SPLINE
  5
B3
330
1F
100
AcDbEntity
  8
0
  6
Continuous
 62
     1
370
    15
100
AcDbSpline
210
0.0
220
0.0
230
1.0
 70
     8
 71
     3
 72
    10
 73
     6
 74
     0
 42
0.000000001
 43
0.00000001
 40
0.0
 40
0.0
 40
0.0
 40
0.0
 40
0.5
 40
0.5
 40
1.0
 40
1.0
 40
1.0
 40
1.0
 10
103.7747810520018
 20
3.655234895744865
 30
0.0
 10
103.9950406864555
 20
3.751411949450473
 30
0.0
 10
104.2220160523419
 20
3.828177358831734
 30
0.0
 10
104.6785867146727
 20
3.958573745282654
 30
0.0
 10
104.9056250331724
 20
4.011193741064337
 30
0.0
 10
105.1318396571264
 20
4.055505406934548
 30
0.0
  0
SPLINE
  5
B4
330
1F
100
AcDbEntity
  8
0
  6
Continuous
 62
     1
370
    15
100
AcDbSpline
210
0.0
220
0.0
230
1.0
 70
     8
 71
     3
 72
     8
 73
     4
 74
     0
 42
0.000000001
 43
0.00000001
 40
0.0
 40
0.0
 40
0.0
 40
0.0
 40
1.0
 40
1.0
 40
1.0
 40
1.0
 10
103.7747810520018
 20
3.655234895744864
 30
0.0
 10
105.2707861059986
 20
3.247750942049169
 30
0.0
 10
106.7822772090906
 20
2.802102502244371
 30
0.0
 10
108.2985077347782
 20
2.34400145854085
 30
0.0
  0
SPLINE
  5
B5
330
1F
100
AcDbEntity
  8
0
  6
Continuous
 62
     1
370
    15
100
AcDbSpline
210
0.0
220
0.0
230
1.0
 70
     8
 71
     3
 72
     8
 73
     4
 74
     0
 42
0.000000001
 43
0.00000001
 40
0.0
 40
0.0
 40
0.0
 40
0.0
 40
1.0
 40
1.0
 40
1.0
 40
1.0
 10
105.1318396571264
 20
-5.215144868703925
 30
0.0
 10
104.8731791425442
 20
-5.029207065105644
 30
0.0
 10
104.6093975497776
 20
-4.843924178554239
 30
0.0
 10
104.3390439324891
 20
-4.659481765578303
 30
0.0
  0
SPLINE
  5
B6
330
1F
100
AcDbEntity
  8
0
  6
Continuous
 62
     1
370
    15
100
AcDbSpline
210
0.0
220
0.0
230
1.0
 70
     8
 71
     3
 72
    30
 73
    26
 74
     0
 42
0.000000001
 43
0.00000001
 40
0.0
 40
0.0
 40
0.0
 40
0.0
 40
0.0624999999999985
 40
0.0624999999999985
 40
0.124999999999997
 40
0.124999999999997
 40
0.249999999999994
 40
0.249999999999994
 40
0.3124999999999937
 40
0.3124999999999937
 40
0.3749999999999934
 40
0.3749999999999934
 40
0.4999999999999952
 40
0.4999999999999952
 40
0.5624999999999949
 40
0.5624999999999949
 40
0.6249999999999947
 40
0.6249999999999947
 40
0.7499999999999964
 40
0.7499999999999964
 40
0.8749999999999982
 40
0.8749999999999982
 40
0.937499999999999
 40
0.937499999999999
 40
1.0
 40
1.0
 40
1.0
 40
1.0
 10
105.1318396571268
 20
-5.215144868704106
 30
0.0
 10
104.8408999145348
 20
-5.16901471191282
 30
0.0
 10
104.5492583441212
 20
-5.116882227392098
 30
0.0
 10
103.9675645717942
 20
-5.001151365743418
 30
0.0
 10
103.6787152890615
 20
-4.937652571963709
 30
0.0
 10
102.8093945636798
 20
-4.730330900153049
 30
0.0
 10
102.2238729965244
 20
-4.569316554333027
 30
0.0
 10
101.3545413954321
 20
-4.298520572953779
 30
0.0
 10
101.0656977115008
 20
-4.20336196358843
 30
0.0
 10
100.4840078097067
 20
-4.003231830326497
 30
0.0
 10
100.1923663551824
 20
-3.898383094157986
 30
0.0
 10
99.31954201102002
 20
-3.571095451662888
 30
0.0
 10
98.7422425634212
 20
-3.336193766724248
 30
0.0
 10
97.86845409877864
 20
-2.961587781139349
 30
0.0
 10
97.57709698935798
 20
-2.833173070065793
 30
0.0
 10
96.99717753160795
 20
-2.570597734247013
 30
0.0
 10
96.70858494276857
 20
-2.436444018909189
 30
0.0
 10
95.83637030027603
 20
-2.025113832703916
 30
0.0
 10
95.25321338298667
 20
-1.740092450153024
 30
0.0
 10
94.0957226027327
 20
-1.158266291314089
 30
0.0
 10
93.51025033228149
 20
-0.8595950176195278
 30
0.0
 10
92.63985903176783
 20
-0.4090692036602624
 30
0.0
 10
92.35143884113936
 20
-0.2585525996665534
 30
0.0
 10
91.77019974708767
 20
0.0434874744878675
 30
0.0
 10
91.4785946856847
 20
0.1948008430927792
 30
0.0
 10
91.1875
 20
0.3456309726366526
 30
0.0
  0
SPLINE
  5
B7
330
1F
100
AcDbEntity
  8
0
  6
Continuous
 62
     4
370
    15
100
AcDbSpline
210
0.0
220
0.0
230
1.0
 70
    24
 71
     3
 72
    14
 73
    10
 74
     0
 42
0.000000001
 43
0.00000001
 40
0.0
 40
0.0
 40
0.0
 40
0.0
 40
0.25
 40
0.25
 40
0.5
 40
0.5
 40
0.75
 40
0.75
 40
1.0
 40
1.0
 40
1.0
 40
1.0
 10
91.1875
 20
6.384304311208821
 30
0.0
 10
91.1875
 20
5.876635032262011
 30
0.0
 10
91.1875
 20
5.29429587123033
 30
0.0
 10
91.1875
 20
4.102115569895238
 30
0.0
 10
91.1875
 20
3.495300728356399
 30
0.0
 10
91.18750000000003
 20
2.378106328562435
 30
0.0
 10
91.18750000000003
 20
1.868612589904968
 30
0.0
 10
91.1875
 20
0.9989649884558525
 30
0.0
 10
91.1875
 20
0.6377354767312817
 30
0.0
 10
91.1875
 20
0.3456309726368411
 30
0.0
  0
SPLINE
  5
B8
330
1F
100
AcDbEntity
  8
0
  6
Continuous
 62
     1
370
    15
100
AcDbSpline
210
0.0
220
0.0
230
1.0
 70
     8
 71
     3
 72
    22
 73
    18
 74
     0
 42
0.000000001
 43
0.00000001
 40
0.0
 40
0.0
 40
0.0
 40
0.0
 40
0.125
 40
0.125
 40
0.25
 40
0.25
 40
0.375
 40
0.375
 40
0.5
 40
0.5
 40
0.625
 40
0.625
 40
0.75
 40
0.75
 40
0.875
 40
0.875
 40
1.0
 40
1.0
 40
1.0
 40
1.0
 10
102.3
 20
-0.9536086630274998
 30
0.0
 10
101.8358613202423
 20
-0.6069499198809064
 30
0.0
 10
101.3758386994893
 20
-0.2585546690274469
 30
0.0
 10
100.4495416185171
 20
0.4392791179554862
 30
0.0
 10
99.98377162964354
 20
0.7885858751139964
 30
0.0
 10
99.05909279555269
 20
1.478907104324442
 30
0.0
 10
98.59781535183382
 20
1.820524324546749
 30
0.0
 10
97.66925142996081
 20
2.49269798401677
 30
0.0
 10
97.20740403922147
 20
2.821930435432964
 30
0.0
 10
96.28333006352119
 20
3.462288735857394
 30
0.0
 10
95.81760615366
 20
3.774181940945956
 30
0.0
 10
94.8908845781545
 20
4.373231770861636
 30
0.0
 10
94.43109019237374
 20
4.660204114936743
 30
0.0
 10
93.50299511251185
 20
5.207246107618236
 30
0.0
 10
93.03791078646003
 20
5.466586087916483
 30
0.0
 10
92.1168031837729
 20
5.950574766618044
 30
0.0
 10
91.65150695061763
 20
6.176838599492632
 30
0.0
 10
91.18749999999966
 20
6.38430431120662
 30
0.0
  0
SPLINE
  5
B9
330
1F
100
AcDbEntity
  8
0
  6
Continuous
 62
     1
370
    15
100
AcDbSpline
210
0.0
220
0.0
230
1.0
 70
     8
 71
     3
 72
    20
 73
    16
 74
     0
 42
0.000000001
 43
0.00000001
 40
0.0
 40
0.0
 40
0.0
 40
0.0
 40
0.125
 40
0.125
 40
0.25
 40
0.25
 40
0.375
 40
0.375
 40
0.5
 40
0.5
 40
0.625
 40
0.625
 40
0.75
 40
0.75
 40
1.0
 40
1.0
 40
1.0
 40
1.0
 10
107.9487090914211
 20
-4.044803904177504
 30
0.0
 10
107.7897003529433
 20
-3.996158682622732
 30
0.0
 10
107.6106845280698
 20
-3.943652450831326
 30
0.0
 10
107.2241807701642
 20
-3.820350737340102
 30
0.0
 10
107.0183570958863
 20
-3.750171180886005
 30
0.0
 10
106.5863656134687
 20
-3.586028760124967
 30
0.0
 10
106.3601634135704
 20
-3.492130234220977
 30
0.0
 10
105.8893536976519
 20
-3.275877587631456
 30
0.0
 10
105.6468780089032
 20
-3.154210615259563
 30
0.0
 10
105.1557791554393
 20
-2.889295438485851
 30
0.0
 10
104.9060829614702
 20
-2.745294851481441
 30
0.0
 10
104.3983039466341
 20
-2.434354738733237
 30
0.0
 10
104.1389851316218
 20
-2.266574006666439
 30
0.0
 10
103.3548912143462
 20
-1.735075035382176
 30
0.0
 10
102.8327699491956
 20
-1.351527149525613
 30
0.0
 10
102.3
 20
-0.95360866302749
 30
0.0
  0
SPLINE
  5
BA
330
1F
100
AcDbEntity
  8
0
  6
Continuous
 62
     1
370
    15
100
AcDbSpline
210
0.0
220
0.0
230
1.0
 70
     8
 71
     3
 72
    12
 73
     8
 74
     0
 42
0.000000001
 43
0.00000001
 40
0.0
 40
0.0
 40
0.0
 40
0.0
 40
0.1242733783853993
 40
0.3380399185661027
 40
0.6278911805812694
 40
0.8115786635456744
 40
1.0
 40
1.0
 40
1.0
 40
1.0
 10
107.8543830721881
 20
-4.019435603024284
 30
0.0
 10
107.7525642446018
 20
-3.986377433989325
 30
0.0
 10
107.4756036547074
 20
-3.896454870414481
 30
0.0
 10
106.758201921896
 20
-3.908814650038734
 30
0.0
 10
105.8894866542098
 20
-4.085257919006452
 30
0.0
 10
105.0401327204667
 20
-4.360473964148682
 30
0.0
 10
104.5747138335993
 20
-4.558970760121538
 30
0.0
 10
104.3390439324891
 20
-4.659481765578305
 30
0.0
  0
SPLINE
  5
BB
330
1F
100
AcDbEntity
  8
0
  6
Continuous
 62
     1
370
    15
100
AcDbSpline
210
0.0
220
0.0
230
1.0
 70
     8
 71
     3
 72
    12
 73
     8
 74
     0
 42
0.000000001
 43
0.00000001
 40
0.0
 40
0.0
 40
0.0
 40
0.0
 40
0.2194195588907337
 40
0.4446307219834143
 40
0.6149352849885069
 40
0.7891866102176489
 40
1.0
 40
1.0
 40
1.0
 40
1.0
 10
102.3
 20
-7.600601557329933
 30
0.0
 10
102.6304537880675
 20
-7.511332673916765
 30
0.0
 10
103.3000837295067
 20
-7.330438644764074
 30
0.0
 10
104.2272531638662
 20
-6.873203122604061
 30
0.0
 10
105.0892218962126
 20
-6.352051893122386
 30
0.0
 10
105.9315045692234
 20
-5.763574160455974
 30
0.0
 10
106.5148340305152
 20
-5.330123348487861
 30
0.0
 10
106.8341924559974
 20
-5.092819769601951
 30
0.0
  0
ARC
  5
BC
330
1F
100
AcDbEntity
  8
0
  6
Continuous
 62
     1
370
    15
100
AcDbCircle
 10
102.1990376123272
 20
0.0516936907901272
 30
0.0
 40
8.042422671982587
100
AcDbArc
 50
319.324405442218
 51
352.5506387717119
  0
ARC
  5
BD
330
1F
100
AcDbEntity
  8
0
  6
Continuous
 62
     1
370
    15
100
AcDbCircle
 10
105.0470648956638
 20
0.3854765470556979
 30
0.0
 40
5.295934659278826
100
AcDbArc
 50
303.2230837825193
 51
346.0913855491484
  0
ARC
  5
BE
330
1F
100
AcDbEntity
  8
0
  6
Continuous
 62
     1
370
    15
100
AcDbCircle
 10
105.9146955398195
 20
-1.750550800419888
 30
0.0
 40
4.737923467321319
100
AcDbArc
 50
25.37499562044648
 51
59.79241339967204
  0
ARC
  5
BF
330
1F
100
AcDbEntity
  8
0
  6
Continuous
 62
     1
370
    15
100
AcDbCircle
 10
102.8457291566244
 20
0.0524052809452485
 30
0.0
 40
7.353304522723792
100
AcDbArc
 50
1.772441534988669
 51
46.05472588770628
  0
SPLINE
  5
C0
330
1F
100
AcDbEntity
  8
0
  6
Continuous
 62
     1
370
    15
100
AcDbSpline
210
0.0
220
0.0
230
1.0
 70
     8
 71
     3
 72
    20
 73
    16
 74
     0
 42
0.000000001
 43
0.00000001
 40
0.0
 40
0.0
 40
0.0
 40
0.0
 40
0.125
 40
0.125
 40
0.25
 40
0.25
 40
0.375
 40
0.375
 40
0.5
 40
0.5
 40
0.625
 40
0.625
 40
0.75
 40
0.75
 40
1.0
 40
1.0
 40
1.0
 40
1.0
 10
107.948709091421
 20
5.346806398066417
 30
0.0
 10
107.7897003529432
 20
5.569510248685147
 30
0.0
 10
107.6106845280698
 20
5.782206743080416
 30
0.0
 10
107.2241807701642
 20
6.17677193812177
 30
0.0
 10
107.0183570958863
 20
6.357218074195608
 30
0.0
 10
106.5863656134687
 20
6.682811967797457
 30
0.0
 10
106.3601634135704
 20
6.827984395866608
 30
0.0
 10
105.889353697652
 20
7.080796819893561
 30
0.0
 10
105.6468780089033
 20
7.187025639418757
 30
0.0
 10
105.1557791554393
 20
7.357054746107596
 30
0.0
 10
104.9060829614702
 20
7.421443844106173
 30
0.0
 10
104.3983039466342
 20
7.509033251673307
 30
0.0
 10
104.1389851316218
 20
7.532229497745492
 30
0.0
 10
103.3548912143462
 20
7.537791081939057
 30
0.0
 10
102.8327699491957
 20
7.458348181661939
 30
0.0
 10
102.3
 20
7.30109202883785
 30
0.0
  0
LINE
  5
C1
330
1F
100
AcDbEntity
  8
0
  6
Continuous
 62
     4
370
    15
100
AcDbLine
 10
91.18749999999969
 20
6.384304311206648
 30
0.0
 11
91.18749999999997
 21
7.618141003832842
 31
0.0
  0
SPLINE
  5
C2
330
1F
100
AcDbEntity
  8
0
  6
Continuous
 62
     1
370
    15
100
AcDbSpline
210
0.0
220
0.0
230
1.0
 70
     8
 71
     3
 72
    22
 73
    18
 74
     0
 42
0.000000001
 43
0.00000001
 40
0.0
 40
0.0
 40
0.0
 40
0.0
 40
0.125
 40
0.125
 40
0.25
 40
0.25
 40
0.375
 40
0.375
 40
0.5
 40
0.5
 40
0.625
 40
0.625
 40
0.75
 40
0.75
 40
0.875
 40
0.875
 40
1.0
 40
1.0
 40
1.0
 40
1.0
 10
102.3
 20
-7.600601557329932
 30
0.0
 10
101.8358613202423
 20
-7.701253912606172
 30
0.0
 10
101.3758386994893
 20
-7.779588681170399
 30
0.0
 10
100.4495416185172
 20
-7.891173476710565
 30
0.0
 10
99.9837716296436
 20
-7.924258053158689
 30
0.0
 10
99.0590927955528
 20
-7.944231376165248
 30
0.0
 10
98.59781535183396
 20
-7.931248600201321
 30
0.0
 10
97.66925142996092
 20
-7.859301518287315
 30
0.0
 10
97.20740403922167
 20
-7.800462659553463
 30
0.0
 10
96.28333006352136
 20
-7.638072588127556
 30
0.0
 10
95.8176061536602
 20
-7.534224179938628
 30
0.0
 10
94.8908845781547
 20
-7.283794268197854
 30
0.0
 10
94.43109019237397
 20
-7.137465293978465
 30
0.0
 10
93.5029951125122
 20
-6.803414439109748
 30
0.0
 10
93.0379107864604
 20
-6.61595256660288
 30
0.0
 10
92.11680318377321
 20
-6.20519067815567
 30
0.0
 10
91.65150695061794
 20
-5.98051263248504
 30
0.0
 10
91.1875
 20
-5.739323185386801
 30
0.0
  0
SPLINE
  5
C3
330
1F
100
AcDbEntity
  8
0
  6
Continuous
 62
     1
370
    15
100
AcDbSpline
210
0.0
220
0.0
230
1.0
 70
     8
 71
     3
 72
    12
 73
     8
 74
     0
 42
0.000000001
 43
0.00000001
 40
0.0
 40
0.0
 40
0.0
 40
0.0
 40
0.0509327767620701
 40
0.3463082452380803
 40
0.6421022986079256
 40
0.9379824302822611
 40
1.0
 40
1.0
 40
1.0
 40
1.0
 10
104.6577150634587
 20
-4.87994952664094
 30
0.0
 10
104.7190681350086
 20
-4.888122200217083
 30
0.0
 10
105.1362272985009
 20
-4.943690822722776
 30
0.0
 10
105.9145155511344
 20
-5.019056393403942
 30
0.0
 10
106.9913899897715
 20
-5.109385783963442
 30
0.0
 10
107.7870658477372
 20
-5.160386152503182
 30
0.0
 10
108.2229725373983
 20
-5.185762399446202
 30
0.0
 10
108.2985077347782
 20
-5.190159670392179
 30
0.0
  0
SPLINE
  5
C4
330
1F
100
AcDbEntity
  8
0
  6
Continuous
 62
     4
370
    15
100
AcDbSpline
210
0.0
220
0.0
230
1.0
 70
    24
 71
     3
 72
    14
 73
    10
 74
     0
 42
0.000000001
 43
0.00000001
 40
0.0
 40
0.0
 40
0.0
 40
0.0
 40
0.2499999999999998
 40
0.2499999999999998
 40
0.4999999999999999
 40
0.4999999999999999
 40
0.75
 40
0.75
 40
1.0
 40
1.0
 40
1.0
 40
1.0
 10
91.1875
 20
0.3456309726368284
 30
0.0
 10
91.1875
 20
0.0166986806166402
 30
0.0
 10
91.18750000000003
 20
-0.3794870083360856
 30
0.0
 10
91.18750000000003
 20
-1.305493713001448
 30
0.0
 10
91.18750000000006
 20
-1.836202241996486
 30
0.0
 10
91.18750000000003
 20
-2.970938866162231
 30
0.0
 10
91.18750000000003
 20
-3.57378838309744
 30
0.0
 10
91.18750000000003
 20
-4.728167024249778
 30
0.0
 10
91.18750000000006
 20
-5.276647568495276
 30
0.0
 10
91.18750000000003
 20
-5.739323185407516
 30
0.0
  0
SPLINE
  5
C5
330
1F
100
AcDbEntity
  8
0
  6
Continuous
 62
     1
370
    15
100
AcDbSpline
210
0.0
220
0.0
230
1.0
 70
     8
 71
     3
 72
    10
 73
     6
 74
     0
 42
0.000000001
 43
0.00000001
 40
0.0
 40
0.0
 40
0.0
 40
0.0
 40
0.4792380865307468
 40
0.9584938929790691
 40
1.0
 40
1.0
 40
1.0
 40
1.0
 10
91.18749999999966
 20
-7.276686833376469
 30
0.0
 10
91.87885093190766
 20
-7.451534518126966
 30
0.0
 10
93.26157835855321
 20
-7.801236352653694
 30
0.0
 10
94.70419416903843
 20
-7.97903839069276
 30
0.0
 10
95.45546936370206
 20
-7.929318548161691
 30
0.0
 10
95.51534799120026
 20
-7.92535574471585
 30
0.0
  0
LINE
  5
C6
330
1F
100
AcDbEntity
  8
0
  6
Continuous
 62
     4
370
    15
100
AcDbLine
 10
91.18749999999969
 20
-7.276686833376456
 30
0.0
 11
91.18749999999997
 21
-5.739323185408666
 31
0.0
  0
SPLINE
  5
C7
330
1F
100
AcDbEntity
  8
0
  6
Continuous
 62
     1
370
    15
100
AcDbSpline
210
0.0
220
0.0
230
1.0
 70
     8
 71
     3
 72
     9
 73
     5
 74
     0
 42
0.000000001
 43
0.00000001
 40
0.0
 40
0.0
 40
0.0
 40
0.0
 40
0.4353709447430243
 40
0.9999999999999999
 40
0.9999999999999999
 40
0.9999999999999999
 40
0.9999999999999999
 10
97.96947905438614
 20
5.421390105041048
 30
0.0
 10
98.59792303927082
 20
5.763091351611519
 30
0.0
 10
100.0413909428435
 20
6.547942179845264
 30
0.0
 10
101.4849337746527
 20
7.029302184289826
 30
0.0
 10
102.3
 20
7.301092028837854
 30
0.0
  0
SPLINE
  5
C8
330
1F
100
AcDbEntity
  8
0
  6
Continuous
 62
     1
370
    15
100
AcDbSpline
210
0.0
220
0.0
230
1.0
 70
     8
 71
     3
 72
    16
 73
    12
 74
     0
 42
0.000000001
 43
0.00000001
 40
0.0
 40
0.0
 40
0.0
 40
0.0
 40
0.125
 40
0.125
 40
0.25
 40
0.25
 40
0.5
 40
0.5
 40
0.75
 40
0.75
 40
1.0
 40
1.0
 40
1.0
 40
1.0
 10
107.9487090914211
 20
5.346806398066403
 30
0.0
 10
107.8540562674194
 20
5.202873420765011
 30
0.0
 10
107.7462917364723
 20
5.070088078098381
 30
0.0
 10
107.5036769135046
 20
4.827545833647188
 30
0.0
 10
107.3694897931342
 20
4.719063017841145
 30
0.0
 10
106.9466425954144
 20
4.440846991124471
 30
0.0
 10
106.629197986451
 20
4.312684392247959
 30
0.0
 10
105.9842441605861
 20
4.160862742502858
 30
0.0
 10
105.6475628388697
 20
4.134417769005336
 30
0.0
 10
104.9877250044686
 20
4.16149615119102
 30
0.0
 10
104.661655333788
 20
4.213677242029474
 30
0.0
 10
104.3390439324891
 20
4.300575282806851
 30
0.0
  0
LINE
  5
C9
330
1F
100
AcDbEntity
  8
중심선
100
AcDbLine
 10
-70.56250000000003
 20
-0.000000000000014
 30
0.0
 11
113.1955155119939
 21
-0.000000000000014
 31
0.0
  0
CIRCLE
  5
CA
330
1F
100
AcDbEntity
  8
외형선
100
AcDbCircle
 10
0.0
 20
0.0
 30
0.0
 40
3.000000000000004
  0
INSERT
  5
CB
330
1F
100
AcDbEntity
  8
0
  6
Continuous
 62
     7
100
AcDbBlockReference
 66
     1
  2
블럭10
 10
-8.653286299681437
 20
-51.95764267978461
 30
0.0
  0
ATTRIB
  5
CC
330
CB
100
AcDbEntity
  8
FORMAT
 62
     2
100
AcDbText
 10
-17.83458158842272
 20
-49.88227576695243
 30
0.0
 40
4.233333333333333
  1
E5978904 [ 3 FLUTE ]
 41
0.75
  7
SLDTEXTSTYLE0
 11
-17.83458158842272
 21
-51.99894243361909
 31
0.0
100
AcDbAttribute
  2
AUTOATTR0
 70
     0
 74
     1
  0
SEQEND
  5
CD
330
CB
100
AcDbEntity
  8
0
  6
Continuous
 62
     7
  0
HATCH
  5
CE
330
1F
100
AcDbEntity
  8
중심선
100
AcDbHatch
 10
0.0
 20
0.0
 30
0.0
210
0.0
220
0.0
230
1.0
  2
SOLID
 70
     1
 71
     0
 91
        1
 92
        0
 93
        4
 72
     1
 10
-2.938376995300587
 20
-35.71046837814069
 11
-6.38465223913787
 21
-35.71046837814069
 72
     1
 10
-6.38465223913787
 20
-35.71046837814069
 11
-8.512882098341892
 21
-38.24679395871328
 72
     1
 10
-8.512882098341892
 20
-38.24679395871328
 11
-5.066573769391461
 21
-38.24675452941079
 72
     1
 10
-5.066573769391461
 20
-38.24675452941079
 11
-2.938376995300587
 21
-35.71046837814069
 97
        0
 75
     0
 76
     1
 98
        1
 10
-9.871356814308676
 20
-0.0000000000000036
  0
HATCH
  5
CF
330
1F
100
AcDbEntity
  8
중심선
100
AcDbHatch
 10
0.0
 20
0.0
 30
0.0
210
0.0
220
0.0
230
1.0
  2
SOLID
 70
     1
 71
     0
 91
        1
 92
        0
 93
        4
 72
     1
 10
2.074386995735365
 20
-35.71046837814069
 11
-1.371888248101918
 21
-35.71046837814069
 72
     1
 10
-1.371888248101918
 20
-35.71046837814069
 11
-5.903026256459306
 21
-41.1104683781407
 72
     1
 10
-5.903026256459306
 20
-41.11046837814069
 11
-2.456751012622024
 21
-41.11046837814069
 72
     1
 10
-2.456751012622024
 20
-41.11046837814069
 11
2.074386995735365
 21
-35.71046837814068
 97
        0
 75
     0
 76
     1
 98
        1
 10
-9.871356814308676
 20
-0.0000000000000036
  0
HATCH
  5
D0
330
1F
100
AcDbEntity
  8
중심선
100
AcDbHatch
 10
0.0
 20
0.0
 30
0.0
210
0.0
220
0.0
230
1.0
  2
SOLID
 70
     1
 71
     0
 91
        1
 92
        0
 93
        4
 72
     1
 10
7.08715098677126
 20
-35.71046837814072
 11
3.640875742934144
 21
-35.71046837814069
 72
     1
 10
3.640875742934144
 20
-35.71046837814069
 11
-3.407561158955104
 21
-44.11046837814071
 72
     1
 10
-3.407561158955104
 20
-44.11046837814071
 11
0.0387140848821783
 21
-44.11046837814071
 72
     1
 10
0.0387140848821783
 20
-44.11046837814071
 11
7.08715098677126
 21
-35.71046837814072
 97
        0
 75
     0
 76
     1
 98
        1
 10
-9.871356814308676
 20
-0.0000000000000036
  0
HATCH
  5
D1
330
1F
100
AcDbEntity
  8
중심선
100
AcDbHatch
 10
0.0
 20
0.0
 30
0.0
210
0.0
220
0.0
230
1.0
  2
SOLID
 70
     1
 71
     0
 91
        1
 92
        0
 93
        6
 72
     3
 10
11.88704141778346
 20
-39.91046837819196
 11
3.960054785062283
 21
1.540882976769353E-10
 40
0.3939339440162628
 50
17.09539180608437
 51
320.0019657685079
 73
     0
 72
     1
 10
13.57004107348406
 20
-38.49836238277899
 11
15.87534294718509
 21
-36.56403567273107
 72
     3
 10
11.88704141773061
 20
-39.91046837814083
 11
6.600054785286829
 21
-1.278976924368180E-13
 40
0.636358354079598
 50
39.99873849337417
 51
368.4976242363725
 73
     1
 72
     1
 10
18.31237390963122
 20
-38.95046837807071
 11
10.56710872456653
 21
-38.95046837807068
 72
     1
 10
10.56710872456653
 20
-38.95046837807068
 11
10.5670836801206
 21
-40.8704683780706
 72
     1
 10
10.5670836801206
 20
-40.8704683780706
 11
15.00846344959264
 21
-40.87046837807057
 97
        0
 75
     0
 76
     1
 98
        1
 10
-9.871356814308676
 20
-0.0000000000000036
  0
POINT
  5
D2
330
1F
100
AcDbEntity
  8
치수문자_일반주서
100
AcDbPoint
 10
-67.56250000000003
 20
-0.000000000000014
 30
0.0
  0
DIMENSION
  5
D3
330
1F
100
AcDbEntity
  8
치수문자_일반주서
100
AcDbDimension
  2
_D
 10
-79.05895802161206
 20
-7.937500000000054
 30
0.0
 11
-79.05895802161209
 21
-0.0000000000000062
 31
0.0
 70
   160
  1
%%c<>
 71
     2
 42
15.875
 52
-270.0
  3
SLDDIMSTYLE0
100
AcDbAlignedDimension
 13
-66.5625
 23
7.937499999999993
 33
0.0
 14
-66.5625
 24
-7.937500000000007
 34
0.0
 50
90.0000000000002
100
AcDbRotatedDimension
1001
ACAD
1000
DSTYLE
1002
{
1070
   171
1070
     6
1070
   273
1070
     7
1002
}
  0
DIMENSION
  5
E8
330
1F
100
AcDbEntity
  8
치수문자_일반주서
100
AcDbDimension
  2
_D_1
 10
110.2375
 20
47.93750000000006
 30
0.0
 11
28.14005281080395
 21
47.93750000000006
 31
0.0
 70
   160
  1
<>
 71
     2
 42
177.8
  3
SLDDIMSTYLE1
100
AcDbAlignedDimension
 13
-67.5625
 23
6.937499999999994
 33
0.0
 14
110.2375
 24
0.0000000000000043
 34
0.0
 50
-0.0000000000000046
100
AcDbRotatedDimension
1001
ACAD
1000
DSTYLE
1002
{
1070
   171
1070
     6
1070
   273
1070
     7
1002
}
  0
DIMENSION
  5
FC
330
1F
100
AcDbEntity
  8
치수문자_일반주서
100
AcDbDimension
  2
_D_2
 10
110.2375
 20
35.11591612541946
 30
0.0
 11
59.17397612630219
 21
35.11591612541946
 31
0.0
 70
   160
  1
<>
 71
     2
 42
107.95
  3
SLDDIMSTYLE1
100
AcDbAlignedDimension
 13
2.287499999999996
 23
7.650000000000005
 33
0.0
 14
110.2375
 24
0.0000000000000043
 34
0.0
100
AcDbRotatedDimension
1001
ACAD
1000
DSTYLE
1002
{
1070
   171
1070
     6
1070
   273
1070
     7
1002
}
  0
DIMENSION
  5
10F
330
1F
100
AcDbEntity
  8
치수문자_일반주서
100
AcDbDimension
  2
_D_3
 10
110.2375
 20
26.31944489327643
 30
0.0
 11
101.654495735188
 21
26.31944489327643
 31
0.0
 70
   160
  1
<>
 71
     2
 42
19.05000000000018
  3
SLDDIMSTYLE0
100
AcDbAlignedDimension
 13
91.18749999999997
 23
7.618141003832842
 33
0.0
 14
110.2375
 24
0.0000000000000043
 34
0.0
 50
-0.0000000000010495
100
AcDbRotatedDimension
1001
ACAD
1000
DSTYLE
1002
{
1070
   171
1070
     6
1070
   273
1070
     7
1002
}
  0
INSERT
  5
12A
330
1F
100
AcDbEntity
  8
외형선
100
AcDbBlockReference
  2
SW_DOWELSYMBOL_0
 10
0.0
 20
0.0
 30
0.0
  0
DIMENSION
  5
152
102
{ACAD_XDICTIONARY
360
153
102
}
330
1F
100
AcDbEntity
  8
치수문자_일반주서
100
AcDbDimension
  2
*D7
 10
131.1271055178821
 20
-7.937499999999996
 30
0.0
 11
131.1271055178821
 21
28.5415
 31
0.0
 70
   160
  1
{%%C<>[]}
 71
     5
 42
15.875
  3
SLDDIMSTYLE0
100
AcDbAlignedDimension
 13
110.2375
 23
7.937500000000004
 33
0.0
 14
110.2375
 24
-7.937499999999996
 34
0.0
 50
90.0
100
AcDbRotatedDimension
1001
ACAD
1000
DSTYLE
1002
{
1070
   283
1070
     1
1070
   170
1070
     1
1070
   171
1070
     6
1070
   273
1070
     7
1002
}
  0
ENDSEC
  0
SECTION
  2
OBJECTS
  0
DICTIONARY
  5
C
330
0
100
AcDbDictionary
281
     1
  3
ACAD_GROUP
350
D
  3
ACAD_IMAGE_VARS
350
14E
  3
ACAD_LAYOUT
350
1A
  3
ACAD_MLINESTYLE
350
17
  3
ACAD_PLOTSETTINGS
350
19
  3
ACAD_PLOTSTYLENAME
350
E
  3
ACAD_SCALELIST
350
47
  3
APPDATA
350
14C
  3
DWGPROPS
350
166
  0
DICTIONARY
  5
153
330
152
100
AcDbDictionary
280
     1
281
     1
  0
DICTIONARY
  5
D
102
{ACAD_REACTORS
330
C
102
}
330
C
100
AcDbDictionary
281
     1
  0
RASTERVARIABLES
  5
14E
102
{ACAD_REACTORS
330
C
102
}
330
C
100
AcDbRasterVariables
 90
        0
 70
     1
 71
     1
 72
     1
  0
DICTIONARY
  5
1A
102
{ACAD_REACTORS
330
C
102
}
330
C
100
AcDbDictionary
281
     1
  3
Layout1
350
1E
  3
Layout2
350
26
  3
Model
350
22
  0
DICTIONARY
  5
17
102
{ACAD_REACTORS
330
C
102
}
330
C
100
AcDbDictionary
281
     1
  3
Standard
350
18
  0
DICTIONARY
  5
19
102
{ACAD_REACTORS
330
C
102
}
330
C
100
AcDbDictionary
281
     1
  0
ACDBDICTIONARYWDFLT
  5
E
102
{ACAD_REACTORS
330
C
102
}
330
C
100
AcDbDictionary
281
     1
  3
Normal
350
F
100
AcDbDictionaryWithDefault
340
F
  0
DICTIONARY
  5
47
102
{ACAD_REACTORS
330
C
102
}
330
C
100
AcDbDictionary
281
     1
  3
A0
350
48
  3
A1
350
49
  3
A2
350
4A
  3
A3
350
4B
  3
A4
350
4C
  3
A5
350
4D
  3
A6
350
4E
  3
A7
350
4F
  3
A8
350
50
  3
A9
350
51
  3
B0
350
52
  3
B1
350
53
  3
B2
350
54
  3
B3
350
55
  3
B4
350
56
  3
B5
350
57
  3
B6
350
58
  3
B7
350
59
  3
B8
350
5A
  3
B9
350
5B
  3
C0
350
5C
  3
C1
350
5D
  3
C2
350
5E
  3
C3
350
5F
  3
C4
350
60
  3
C5
350
61
  3
C6
350
62
  3
C7
350
63
  3
C8
350
64
  3
C9
350
65
  3
D0
350
66
  3
D1
350
67
  3
D2
350
68
  0
DICTIONARY
  5
14C
102
{ACAD_REACTORS
330
C
102
}
330
C
100
AcDbDictionary
281
     1
  0
XRECORD
  5
166
102
{ACAD_REACTORS
330
C
102
}
330
C
100
AcDbXrecord
280
     1
  1
DWGPROPS COOKIE
  2

  3

  4

  6

  7

  8
12016016
  9

300
=
301
=
302
=
303
=
304
=
305
=
306
=
307
=
308
=
309
=
 40
0.0
 41
2458269.362014132
 42
2458275.037464016
  1

 90
        0
  0
LAYOUT
  5
1E
102
{ACAD_REACTORS
330
1A
102
}
330
1A
100
AcDbPlotSettings
  1

  2
none_device
  4

  6

 40
0.0
 41
0.0
 42
0.0
 43
0.0
 44
0.0
 45
0.0
 46
0.0
 47
0.0
 48
0.0
 49
0.0
140
0.0
141
0.0
142
1.0
143
1.0
 70
   688
 72
     1
 73
     0
 74
     5
  7

 75
    16
147
1.0
148
0.0
149
0.0
100
AcDbLayout
  1
Layout1
 70
     1
 71
     1
 10
0.0
 20
0.0
 11
420.0
 21
297.0
 12
0.0
 22
0.0
 32
0.0
 14
1.000000000000000E+20
 24
1.000000000000000E+20
 34
1.000000000000000E+20
 15
-1.000000000000000E+20
 25
-1.000000000000000E+20
 35
-1.000000000000000E+20
146
0.0
 13
0.0
 23
0.0
 33
0.0
 16
1.0
 26
0.0
 36
0.0
 17
0.0
 27
1.0
 37
0.0
 76
     0
330
1B
  0
LAYOUT
  5
26
102
{ACAD_REACTORS
330
1A
102
}
330
1A
100
AcDbPlotSettings
  1

  2
none_device
  4

  6

 40
0.0
 41
0.0
 42
0.0
 43
0.0
 44
0.0
 45
0.0
 46
0.0
 47
0.0
 48
0.0
 49
0.0
140
0.0
141
0.0
142
1.0
143
1.0
 70
   688
 72
     1
 73
     0
 74
     5
  7

 75
    16
147
1.0
148
0.0
149
0.0
100
AcDbLayout
  1
Layout2
 70
     1
 71
     2
 10
0.0
 20
0.0
 11
0.0
 21
0.0
 12
0.0
 22
0.0
 32
0.0
 14
0.0
 24
0.0
 34
0.0
 15
0.0
 25
0.0
 35
0.0
146
0.0
 13
0.0
 23
0.0
 33
0.0
 16
1.0
 26
0.0
 36
0.0
 17
0.0
 27
1.0
 37
0.0
 76
     0
330
23
  0
LAYOUT
  5
22
102
{ACAD_REACTORS
330
1A
102
}
330
1A
100
AcDbPlotSettings
  1

  2
none_device
  4
ANSI_A_(11.00_x_8.50_Inches)
  6

 40
6.35
 41
19.05
 42
6.35000508
 43
19.05000254
 44
279.4
 45
215.9
 46
102.2338431089472
 47
83.46956624080387
 48
0.0
 49
0.0
140
0.0
141
0.0
142
0.052762303987994
143
1.0
 70
  1696
 72
     0
 73
     0
 74
     0
  7

 75
     0
147
0.0235690232323232
148
0.0
149
0.0
100
AcDbLayout
  1
Model
 70
     1
 71
     0
 10
0.0
 20
0.0
 11
420.0
 21
297.0
 12
0.0
 22
0.0
 32
0.0
 14
-83.43395802161214
 24
-49.88227576695243
 34
0.0
 15
131.6774388512155
 25
52.31250000000006
 35
0.0
146
0.0
 13
0.0
 23
0.0
 33
0.0
 16
1.0
 26
0.0
 36
0.0
 17
0.0
 27
1.0
 37
0.0
 76
     0
330
1F
331
29
  0
MLINESTYLE
  5
18
102
{ACAD_REACTORS
330
17
102
}
330
17
100
AcDbMlineStyle
  2
Standard
 70
     0
  3

 62
   256
 51
90.0
 52
90.0
 71
     2
 49
0.5
 62
   256
  6
BYLAYER
 49
-0.5
 62
   256
  6
BYLAYER
  0
ACDBPLACEHOLDER
  5
F
102
{ACAD_REACTORS
330
E
102
}
330
E
  0
SCALE
  5
48
102
{ACAD_REACTORS
330
47
102
}
330
47
100
AcDbScale
 70
     0
300
1:1
140
1.0
141
1.0
290
     1
  0
SCALE
  5
49
102
{ACAD_REACTORS
330
47
102
}
330
47
100
AcDbScale
 70
     0
300
1:2
140
1.0
141
2.0
290
     0
  0
SCALE
  5
4A
102
{ACAD_REACTORS
330
47
102
}
330
47
100
AcDbScale
 70
     0
300
1:4
140
1.0
141
4.0
290
     0
  0
SCALE
  5
4B
102
{ACAD_REACTORS
330
47
102
}
330
47
100
AcDbScale
 70
     0
300
1:5
140
1.0
141
5.0
290
     0
  0
SCALE
  5
4C
102
{ACAD_REACTORS
330
47
102
}
330
47
100
AcDbScale
 70
     0
300
1:8
140
1.0
141
8.0
290
     0
  0
SCALE
  5
4D
102
{ACAD_REACTORS
330
47
102
}
330
47
100
AcDbScale
 70
     0
300
1:10
140
1.0
141
10.0
290
     0
  0
SCALE
  5
4E
102
{ACAD_REACTORS
330
47
102
}
330
47
100
AcDbScale
 70
     0
300
1:16
140
1.0
141
16.0
290
     0
  0
SCALE
  5
4F
102
{ACAD_REACTORS
330
47
102
}
330
47
100
AcDbScale
 70
     0
300
1:20
140
1.0
141
20.0
290
     0
  0
SCALE
  5
50
102
{ACAD_REACTORS
330
47
102
}
330
47
100
AcDbScale
 70
     0
300
1:30
140
1.0
141
30.0
290
     0
  0
SCALE
  5
51
102
{ACAD_REACTORS
330
47
102
}
330
47
100
AcDbScale
 70
     0
300
1:40
140
1.0
141
40.0
290
     0
  0
SCALE
  5
52
102
{ACAD_REACTORS
330
47
102
}
330
47
100
AcDbScale
 70
     0
300
1:50
140
1.0
141
50.0
290
     0
  0
SCALE
  5
53
102
{ACAD_REACTORS
330
47
102
}
330
47
100
AcDbScale
 70
     0
300
1:100
140
1.0
141
100.0
290
     0
  0
SCALE
  5
54
102
{ACAD_REACTORS
330
47
102
}
330
47
100
AcDbScale
 70
     0
300
2:1
140
2.0
141
1.0
290
     0
  0
SCALE
  5
55
102
{ACAD_REACTORS
330
47
102
}
330
47
100
AcDbScale
 70
     0
300
4:1
140
4.0
141
1.0
290
     0
  0
SCALE
  5
56
102
{ACAD_REACTORS
330
47
102
}
330
47
100
AcDbScale
 70
     0
300
8:1
140
8.0
141
1.0
290
     0
  0
SCALE
  5
57
102
{ACAD_REACTORS
330
47
102
}
330
47
100
AcDbScale
 70
     0
300
10:1
140
10.0
141
1.0
290
     0
  0
SCALE
  5
58
102
{ACAD_REACTORS
330
47
102
}
330
47
100
AcDbScale
 70
     0
300
100:1
140
100.0
141
1.0
290
     0
  0
SCALE
  5
59
102
{ACAD_REACTORS
330
47
102
}
330
47
100
AcDbScale
 70
     0
300
1/128" = 1'-0"
140
0.0078125
141
12.0
290
     0
  0
SCALE
  5
5A
102
{ACAD_REACTORS
330
47
102
}
330
47
100
AcDbScale
 70
     0
300
1/64" = 1'-0"
140
0.015625
141
12.0
290
     0
  0
SCALE
  5
5B
102
{ACAD_REACTORS
330
47
102
}
330
47
100
AcDbScale
 70
     0
300
1/32" = 1'-0"
140
0.03125
141
12.0
290
     0
  0
SCALE
  5
5C
102
{ACAD_REACTORS
330
47
102
}
330
47
100
AcDbScale
 70
     0
300
1/16" = 1'-0"
140
0.0625
141
12.0
290
     0
  0
SCALE
  5
5D
102
{ACAD_REACTORS
330
47
102
}
330
47
100
AcDbScale
 70
     0
300
3/32" = 1'-0"
140
0.09375
141
12.0
290
     0
  0
SCALE
  5
5E
102
{ACAD_REACTORS
330
47
102
}
330
47
100
AcDbScale
 70
     0
300
1/8" = 1'-0"
140
0.125
141
12.0
290
     0
  0
SCALE
  5
5F
102
{ACAD_REACTORS
330
47
102
}
330
47
100
AcDbScale
 70
     0
300
3/16" = 1'-0"
140
0.1875
141
12.0
290
     0
  0
SCALE
  5
60
102
{ACAD_REACTORS
330
47
102
}
330
47
100
AcDbScale
 70
     0
300
1/4" = 1'-0"
140
0.25
141
12.0
290
     0
  0
SCALE
  5
61
102
{ACAD_REACTORS
330
47
102
}
330
47
100
AcDbScale
 70
     0
300
3/8" = 1'-0"
140
0.375
141
12.0
290
     0
  0
SCALE
  5
62
102
{ACAD_REACTORS
330
47
102
}
330
47
100
AcDbScale
 70
     0
300
1/2" = 1'-0"
140
0.5
141
12.0
290
     0
  0
SCALE
  5
63
102
{ACAD_REACTORS
330
47
102
}
330
47
100
AcDbScale
 70
     0
300
3/4" = 1'-0"
140
0.75
141
12.0
290
     0
  0
SCALE
  5
64
102
{ACAD_REACTORS
330
47
102
}
330
47
100
AcDbScale
 70
     0
300
1" = 1'-0"
140
1.0
141
12.0
290
     0
  0
SCALE
  5
65
102
{ACAD_REACTORS
330
47
102
}
330
47
100
AcDbScale
 70
     0
300
1-1/2" = 1'-0"
140
1.5
141
12.0
290
     0
  0
SCALE
  5
66
102
{ACAD_REACTORS
330
47
102
}
330
47
100
AcDbScale
 70
     0
300
3" = 1'-0"
140
3.0
141
12.0
290
     0
  0
SCALE
  5
67
102
{ACAD_REACTORS
330
47
102
}
330
47
100
AcDbScale
 70
     0
300
6" = 1'-0"
140
6.0
141
12.0
290
     0
  0
SCALE
  5
68
102
{ACAD_REACTORS
330
47
102
}
330
47
100
AcDbScale
 70
     0
300
1'-0" = 1'-0"
140
12.0
141
12.0
290
     0
  0
ENDSEC
  0
EOF
