  0
SECTION
  2
HEADER
  9
$ACADVER
  1
AC1015
  9
$ACADMAINTVER
 70
     6
  9
$DWGCODEPAGE
  3
ANSI_949
  9
$INSBASE
 10
0.0
 20
0.0
 30
0.0
  9
$EXTMIN
 10
-83.42145802161212
 20
-49.88227576695243
 30
0.0
  9
$EXTMAX
 10
105.4439114724488
 20
50.72500000000007
 30
0.0
  9
$LIMMIN
 10
0.0
 20
0.0
  9
$LIMMAX
 10
420.0
 20
297.0
  9
$ORTHOMODE
 70
     1
  9
$REGENMODE
 70
     1
  9
$FILLMODE
 70
     1
  9
$QTEXTMODE
 70
     0
  9
$MIRRTEXT
 70
     1
  9
$LTSCALE
 40
1.0
  9
$ATTMODE
 70
     1
  9
$TEXTSIZE
 40
3.5
  9
$TRACEWID
 40
1.0
  9
$TEXTSTYLE
  7
Standard
  9
$CLAYER
  8
0
  9
$CELTYPE
  6
ByLayer
  9
$CECOLOR
 62
   256
  9
$CELTSCALE
 40
1.0
  9
$DISPSILH
 70
     0
  9
$DIMSCALE
 40
1.0
  9
$DIMASZ
 40
3.302
  9
$DIMEXO
 40
1.0
  9
$DIMDLI
 40
3.75
  9
$DIMRND
 40
0.0
  9
$DIMDLE
 40
0.0
  9
$DIMEXE
 40
1.0
  9
$DIMTP
 40
0.0
  9
$DIMTM
 40
0.0
  9
$DIMTXT
 40
3.5
  9
$DIMCEN
 40
2.5
  9
$DIMTSZ
 40
0.0
  9
$DIMTOL
 70
     0
  9
$DIMLIM
 70
     0
  9
$DIMTIH
 70
     1
  9
$DIMTOH
 70
     1
  9
$DIMSE1
 70
     0
  9
$DIMSE2
 70
     0
  9
$DIMTAD
 70
     1
  9
$DIMZIN
 70
     0
  9
$DIMBLK
  1

  9
$DIMASO
 70
     1
  9
$DIMSHO
 70
     1
  9
$DIMPOST
  1

  9
$DIMAPOST
  1

  9
$DIMALT
 70
     0
  9
$DIMALTD
 70
     3
  9
$DIMALTF
 40
0.0393700787401575
  9
$DIMLFAC
 40
1.0
  9
$DIMTOFL
 70
     1
  9
$DIMTVP
 40
0.0
  9
$DIMTIX
 70
     0
  9
$DIMSOXD
 70
     0
  9
$DIMSAH
 70
     0
  9
$DIMBLK1
  1

  9
$DIMBLK2
  1

  9
$DIMSTYLE
  2
ISO-25
  9
$DIMCLRD
 70
     0
  9
$DIMCLRE
 70
     0
  9
$DIMCLRT
 70
     0
  9
$DIMTFAC
 40
1.0
  9
$DIMGAP
 40
1.524
  9
$DIMJUST
 70
     0
  9
$DIMSD1
 70
     0
  9
$DIMSD2
 70
     0
  9
$DIMTOLJ
 70
     0
  9
$DIMTZIN
 70
     0
  9
$DIMALTZ
 70
     0
  9
$DIMALTTZ
 70
     0
  9
$DIMUPT
 70
     0
  9
$DIMDEC
 70
     2
  9
$DIMTDEC
 70
     2
  9
$DIMALTU
 70
     2
  9
$DIMALTTD
 70
     3
  9
$DIMTXSTY
  7
Standard
  9
$DIMAUNIT
 70
     0
  9
$DIMADEC
 70
     2
  9
$DIMALTRND
 40
0.0
  9
$DIMAZIN
 70
     0
  9
$DIMDSEP
 70
    44
  9
$DIMATFIT
 70
     3
  9
$DIMFRAC
 70
     0
  9
$DIMLDRBLK
  1

  9
$DIMLUNIT
 70
     2
  9
$DIMLWD
 70
    -2
  9
$DIMLWE
 70
    -2
  9
$DIMTMOVE
 70
     0
  9
$LUNITS
 70
     2
  9
$LUPREC
 70
     2
  9
$SKETCHINC
 40
1.0
  9
$FILLETRAD
 40
10.0
  9
$AUNITS
 70
     0
  9
$AUPREC
 70
     2
  9
$MENU
  1
.
  9
$ELEVATION
 40
0.0
  9
$PELEVATION
 40
0.0
  9
$THICKNESS
 40
0.0
  9
$LIMCHECK
 70
     0
  9
$CHAMFERA
 40
0.0
  9
$CHAMFERB
 40
0.0
  9
$CHAMFERC
 40
0.0
  9
$CHAMFERD
 40
0.0
  9
$SKPOLY
 70
     0
  9
$TDCREATE
 40
2458269.736687998
  9
$TDUCREATE
 40
2458269.361687998
  9
$TDUPDATE
 40
2459724.359033715
  9
$TDUUPDATE
 40
2459723.984033715
  9
$TDINDWG
 40
0.000985463
  9
$TDUSRTIMER
 40
0.0002115046
  9
$USRTIMER
 70
     1
  9
$ANGBASE
 50
0.0
  9
$ANGDIR
 70
     0
  9
$PDMODE
 70
     0
  9
$PDSIZE
 40
-1.0
  9
$PLINEWID
 40
0.0
  9
$SPLFRAME
 70
     0
  9
$SPLINETYPE
 70
     6
  9
$SPLINESEGS
 70
     8
  9
$HANDSEED
  5
2CD
  9
$SURFTAB1
 70
     6
  9
$SURFTAB2
 70
     6
  9
$SURFTYPE
 70
     6
  9
$SURFU
 70
     6
  9
$SURFV
 70
     6
  9
$UCSBASE
  2

  9
$UCSNAME
  2

  9
$UCSORG
 10
0.0
 20
0.0
 30
0.0
  9
$UCSXDIR
 10
1.0
 20
0.0
 30
0.0
  9
$UCSYDIR
 10
0.0
 20
1.0
 30
0.0
  9
$UCSORTHOREF
  2

  9
$UCSORTHOVIEW
 70
     0
  9
$UCSORGTOP
 10
0.0
 20
0.0
 30
0.0
  9
$UCSORGBOTTOM
 10
0.0
 20
0.0
 30
0.0
  9
$UCSORGLEFT
 10
0.0
 20
0.0
 30
0.0
  9
$UCSORGRIGHT
 10
0.0
 20
0.0
 30
0.0
  9
$UCSORGFRONT
 10
0.0
 20
0.0
 30
0.0
  9
$UCSORGBACK
 10
0.0
 20
0.0
 30
0.0
  9
$PUCSBASE
  2

  9
$PUCSNAME
  2

  9
$PUCSORG
 10
0.0
 20
0.0
 30
0.0
  9
$PUCSXDIR
 10
1.0
 20
0.0
 30
0.0
  9
$PUCSYDIR
 10
0.0
 20
1.0
 30
0.0
  9
$PUCSORTHOREF
  2

  9
$PUCSORTHOVIEW
 70
     0
  9
$PUCSORGTOP
 10
0.0
 20
0.0
 30
0.0
  9
$PUCSORGBOTTOM
 10
0.0
 20
0.0
 30
0.0
  9
$PUCSORGLEFT
 10
0.0
 20
0.0
 30
0.0
  9
$PUCSORGRIGHT
 10
0.0
 20
0.0
 30
0.0
  9
$PUCSORGFRONT
 10
0.0
 20
0.0
 30
0.0
  9
$PUCSORGBACK
 10
0.0
 20
0.0
 30
0.0
  9
$USERI1
 70
     0
  9
$USERI2
 70
     0
  9
$USERI3
 70
     0
  9
$USERI4
 70
     0
  9
$USERI5
 70
     0
  9
$USERR1
 40
0.0
  9
$USERR2
 40
0.0
  9
$USERR3
 40
0.0
  9
$USERR4
 40
0.0
  9
$USERR5
 40
0.0
  9
$WORLDVIEW
 70
     1
  9
$SHADEDGE
 70
     3
  9
$SHADEDIF
 70
    70
  9
$TILEMODE
 70
     1
  9
$MAXACTVP
 70
    64
  9
$PINSBASE
 10
0.0
 20
0.0
 30
0.0
  9
$PLIMCHECK
 70
     0
  9
$PEXTMIN
 10
1.000000000000000E+20
 20
1.000000000000000E+20
 30
1.000000000000000E+20
  9
$PEXTMAX
 10
-1.000000000000000E+20
 20
-1.000000000000000E+20
 30
-1.000000000000000E+20
  9
$PLIMMIN
 10
0.0
 20
0.0
  9
$PLIMMAX
 10
0.0
 20
0.0
  9
$UNITMODE
 70
     0
  9
$VISRETAIN
 70
     1
  9
$PLINEGEN
 70
     0
  9
$PSLTSCALE
 70
     1
  9
$TREEDEPTH
 70
  3020
  9
$CMLSTYLE
  2
Standard
  9
$CMLJUST
 70
     0
  9
$CMLSCALE
 40
20.0
  9
$PROXYGRAPHICS
 70
     1
  9
$MEASUREMENT
 70
     1
  9
$CELWEIGHT
370
    -1
  9
$ENDCAPS
280
     0
  9
$JOINSTYLE
280
     0
  9
$LWDISPLAY
290
     1
  9
$INSUNITS
 70
     4
  9
$HYPERLINKBASE
  1

  9
$STYLESHEET
  1

  9
$XEDIT
290
     1
  9
$CEPSNTYPE
380
     0
  9
$PSTYLEMODE
290
     1
  9
$FINGERPRINTGUID
  2
{4C9AAF9E-E6E2-459F-85F9-416EA8FBA918}
  9
$VERSIONGUID
  2
{FAEB1C32-E019-11D5-929B-00C0DF256EC4}
  9
$EXTNAMES
290
     1
  9
$PSVPSCALE
 40
0.0
  9
$OLESTARTUP
290
     0
  0
ENDSEC
  0
SECTION
  2
CLASSES
  0
CLASS
  1
ACDBDICTIONARYWDFLT
  2
AcDbDictionaryWithDefault
  3
ObjectDBX Classes
 90
        0
280
     0
281
     0
  0
CLASS
  1
VISUALSTYLE
  2
AcDbVisualStyle
  3
ObjectDBX Classes
 90
     4095
280
     0
281
     0
  0
CLASS
  1
MATERIAL
  2
AcDbMaterial
  3
ObjectDBX Classes
 90
     1153
280
     0
281
     0
  0
CLASS
  1
SCALE
  2
AcDbScale
  3
ObjectDBX Classes
 90
     1153
280
     0
281
     0
  0
CLASS
  1
SUN
  2
AcDbSun
  3
SCENEOE
 90
     1153
280
     0
281
     0
  0
CLASS
  1
ACDBPLACEHOLDER
  2
AcDbPlaceHolder
  3
ObjectDBX Classes
 90
        0
280
     0
281
     0
  0
CLASS
  1
LAYOUT
  2
AcDbLayout
  3
ObjectDBX Classes
 90
        0
280
     0
281
     0
  0
CLASS
  1
TABLESTYLE
  2
AcDbTableStyle
  3
ObjectDBX Classes
 90
     4095
280
     0
281
     0
  0
CLASS
  1
MLEADERSTYLE
  2
AcDbMLeaderStyle
  3
ACDB_MLEADERSTYLE_CLASS
 90
     4095
280
     0
281
     0
  0
CLASS
  1
RASTERVARIABLES
  2
AcDbRasterVariables
  3
ISM
 90
        0
280
     0
281
     0
  0
CLASS
  1
DIMASSOC
  2
AcDbDimAssoc
  3
"AcDbDimAssoc|Product Desc:     AcDim ARX App For Dimension|Company:          Autodesk, Inc.|WEB Address:      www.autodesk.com"
 90
        0
280
     0
281
     0
  0
ENDSEC
  0
SECTION
  2
TABLES
  0
TABLE
  2
VPORT
  5
8
330
0
100
AcDbSymbolTable
 70
     1
  0
VPORT
  5
29
330
8
100
AcDbSymbolTableRecord
100
AcDbViewportTableRecord
  2
*Active
 70
     0
 10
0.0
 20
0.0
 11
1.0
 21
1.0
 12
11.01122672541835
 22
0.4213621165238166
 13
0.0
 23
0.0
 14
10.0
 24
10.0
 15
10.0
 25
10.0
 16
0.0
 26
0.0
 36
1.0
 17
0.0
 27
0.0
 37
0.0
 40
102.6194212822915
 41
1.913499344692005
 42
50.0
 43
0.0
 44
0.0
 50
0.0
 51
0.0
 71
    16
 72
  2000
 73
     1
 74
     3
 75
     0
 76
     0
 77
     0
 78
     0
281
     0
 65
     1
110
0.0
120
0.0
130
0.0
111
1.0
121
0.0
131
0.0
112
0.0
122
1.0
132
0.0
 79
     0
146
0.0
  0
ENDTAB
  0
TABLE
  2
LTYPE
  5
5
330
0
100
AcDbSymbolTable
 70
     6
  0
LTYPE
  5
14
330
5
100
AcDbSymbolTableRecord
100
AcDbLinetypeTableRecord
  2
ByBlock
 70
     0
  3

 72
    65
 73
     0
 40
0.0
  0
LTYPE
  5
15
330
5
100
AcDbSymbolTableRecord
100
AcDbLinetypeTableRecord
  2
ByLayer
 70
     0
  3

 72
    65
 73
     0
 40
0.0
  0
LTYPE
  5
16
330
5
100
AcDbSymbolTableRecord
100
AcDbLinetypeTableRecord
  2
Continuous
 70
     0
  3
Solid line
 72
    65
 73
     0
 40
0.0
  0
LTYPE
  5
6A
330
5
100
AcDbSymbolTableRecord
100
AcDbLinetypeTableRecord
  2
HIDDEN
 70
     0
  3
Hidden __ __ __ __ __ __ __ __ __ __ __ __ __ __
 72
    65
 73
     2
 40
1.905
 49
1.27
 74
     0
 49
-0.635
 74
     0
  0
LTYPE
  5
6B
330
5
100
AcDbSymbolTableRecord
100
AcDbLinetypeTableRecord
  2
PHANTOM
 70
     0
  3
Phantom ______  __  __  ______  __  __  ______
 72
    65
 73
     6
 40
12.7
 49
6.35
 74
     0
 49
-1.27
 74
     0
 49
1.27
 74
     0
 49
-1.27
 74
     0
 49
1.27
 74
     0
 49
-1.27
 74
     0
  0
LTYPE
  5
6C
330
5
100
AcDbSymbolTableRecord
100
AcDbLinetypeTableRecord
  2
CENTER
 70
     0
  3
Center ____ _ ____ _ ____ _ ____ _ ____ _ ____
 72
    65
 73
     4
 40
10.16
 49
6.35
 74
     0
 49
-1.27
 74
     0
 49
1.27
 74
     0
 49
-1.27
 74
     0
  0
LTYPE
  5
6D
330
5
100
AcDbSymbolTableRecord
100
AcDbLinetypeTableRecord
  2
CENTERX2
 70
     0
  3
Center (2x) ________  __  ________  __  _____
 72
    65
 73
     4
 40
20.32
 49
12.7
 74
     0
 49
-2.54
 74
     0
 49
2.54
 74
     0
 49
-2.54
 74
     0
  0
LTYPE
  5
6E
330
5
100
AcDbSymbolTableRecord
100
AcDbLinetypeTableRecord
  2
DOT2
 70
     0
  3
Dot (.5x) ........................................
 72
    65
 73
     2
 40
0.635
 49
0.0
 74
     0
 49
-0.635
 74
     0
  0
ENDTAB
  0
TABLE
  2
LAYER
  5
2
330
0
100
AcDbSymbolTable
 70
    17
  0
LAYER
  5
10
330
2
100
AcDbSymbolTableRecord
100
AcDbLayerTableRecord
  2
0
 70
     0
 62
     7
  6
Continuous
370
    -3
390
F
  0
LAYER
  5
6F
330
2
100
AcDbSymbolTableRecord
100
AcDbLayerTableRecord
  2
FORMAT
 70
     0
 62
     2
  6
Continuous
370
    -3
390
F
  0
LAYER
  5
70
330
2
100
AcDbSymbolTableRecord
100
AcDbLayerTableRecord
  2
외형선
 70
     0
 62
   100
  6
Continuous
370
    30
390
F
  0
LAYER
  5
71
330
2
100
AcDbSymbolTableRecord
100
AcDbLayerTableRecord
  2
숨은선
 70
     0
 62
     2
  6
HIDDEN
370
    15
390
F
  0
LAYER
  5
72
330
2
100
AcDbSymbolTableRecord
100
AcDbLayerTableRecord
  2
중심선
 70
     0
 62
     1
  6
CENTERX2
370
    -3
390
F
  0
LAYER
  5
73
330
2
100
AcDbSymbolTableRecord
100
AcDbLayerTableRecord
  2
파단선
 70
     0
 62
     4
  6
Continuous
370
    -3
390
F
  0
LAYER
  5
74
330
2
100
AcDbSymbolTableRecord
100
AcDbLayerTableRecord
  2
해칭선
 70
     0
 62
     4
  6
Continuous
370
    -3
390
F
  0
LAYER
  5
75
330
2
100
AcDbSymbolTableRecord
100
AcDbLayerTableRecord
  2
가는실선
 70
     0
 62
     4
  6
Continuous
370
    -3
390
F
  0
LAYER
  5
76
330
2
100
AcDbSymbolTableRecord
100
AcDbLayerTableRecord
  2
치수_보조선
 70
     0
 62
     4
  6
Continuous
370
    -3
390
F
  0
LAYER
  5
77
330
2
100
AcDbSymbolTableRecord
100
AcDbLayerTableRecord
  2
치수문자_일반주서
 70
     0
 62
     7
  6
Continuous
370
    15
390
F
  0
LAYER
  5
78
330
2
100
AcDbSymbolTableRecord
100
AcDbLayerTableRecord
  2
개별주서
 70
     0
 62
   100
  6
Continuous
370
    30
390
F
  0
LAYER
  5
79
330
2
100
AcDbSymbolTableRecord
100
AcDbLayerTableRecord
  2
중간선
 70
     0
 62
     2
  6
Continuous
370
    15
390
F
  0
LAYER
  5
7A
330
2
100
AcDbSymbolTableRecord
100
AcDbLayerTableRecord
  2
윤곽선
 70
     0
 62
     3
  6
Continuous
370
    40
390
F
  0
LAYER
  5
7B
330
2
100
AcDbSymbolTableRecord
100
AcDbLayerTableRecord
  2
중심마크
 70
     0
 62
   100
  6
Continuous
370
    30
390
F
  0
LAYER
  5
7C
330
2
100
AcDbSymbolTableRecord
100
AcDbLayerTableRecord
  2
가상선
 70
     0
 62
     4
  6
PHANTOM
370
    -3
390
F
  0
LAYER
  5
7D
330
2
100
AcDbSymbolTableRecord
100
AcDbLayerTableRecord
  2
특수지정선
 70
     0
 62
     5
  6
CENTERX2
370
    60
390
F
  0
LAYER
  5
151
330
2
100
AcDbSymbolTableRecord
100
AcDbLayerTableRecord
  2
Defpoints
 70
     0
 62
     7
  6
Continuous
290
     0
370
    -3
390
F
  0
ENDTAB
  0
TABLE
  2
STYLE
  5
3
330
0
100
AcDbSymbolTable
 70
     2
  0
STYLE
  5
11
330
3
100
AcDbSymbolTableRecord
100
AcDbTextStyleTableRecord
  2
Standard
 70
     0
 40
0.0
 41
1.0
 50
0.0
 71
     0
 42
3.5
  3
txt
  4

  0
STYLE
  5
93
330
3
100
AcDbSymbolTableRecord
100
AcDbTextStyleTableRecord
  2
SLDTEXTSTYLE0
 70
     0
 40
0.0
 41
0.75
 50
0.0
 71
     0
 42
3.5
  3
TXT
  4

  0
ENDTAB
  0
TABLE
  2
VIEW
  5
6
330
0
100
AcDbSymbolTable
 70
     0
  0
ENDTAB
  0
TABLE
  2
UCS
  5
7
330
0
100
AcDbSymbolTable
 70
     0
  0
ENDTAB
  0
TABLE
  2
APPID
  5
9
330
0
100
AcDbSymbolTable
 70
     3
  0
APPID
  5
12
330
9
100
AcDbSymbolTableRecord
100
AcDbRegAppTableRecord
  2
ACAD
 70
     0
  0
APPID
  5
165
330
9
100
AcDbSymbolTableRecord
100
AcDbRegAppTableRecord
  2
PE_DIMMEASUREMENT
 70
     0
  0
APPID
  5
2C9
330
9
100
AcDbSymbolTableRecord
100
AcDbRegAppTableRecord
  2
PE_URL
 70
     0
  0
ENDTAB
  0
TABLE
  2
DIMSTYLE
  5
A
330
0
100
AcDbSymbolTable
 70
     5
100
AcDbDimStyleTable
  0
DIMSTYLE
105
27
330
A
100
AcDbSymbolTableRecord
100
AcDbDimStyleTableRecord
  2
ISO-25
 70
     0
 41
2.5
 42
0.625
 43
3.75
 44
1.25
 73
     0
 74
     0
 77
     1
 78
     8
140
2.5
141
2.5
143
0.03937007874016
147
0.625
171
     3
172
     1
178
     0
271
     2
272
     2
274
     3
278
    44
283
     0
284
     8
340
11
  0
DIMSTYLE
105
D3
102
{ACAD_REACTORS
330
D2
330
1D1
330
1F8
330
20C
330
154
330
10F
330
FB
330
E7
102
}
330
A
100
AcDbSymbolTableRecord
100
AcDbDimStyleTableRecord
  2
SLDDIMSTYLE0
 70
     0
 41
3.302
 44
0.0
 45
0.000000001
 73
     0
 74
     0
 77
     1
 78
     4
 79
     1
140
3.5
143
0.0393700787401575
147
0.875
148
0.000000001
170
     1
172
     1
173
     1
178
     0
271
     2
272
     2
276
     2
284
    12
289
     0
340
93
  0
DIMSTYLE
105
E8
102
{ACAD_REACTORS
330
1DE
330
1EB
102
}
330
A
100
AcDbSymbolTableRecord
100
AcDbDimStyleTableRecord
  2
SLDDIMSTYLE1
 70
     0
 41
3.302
 44
0.0
 45
0.000000001
 73
     0
 74
     0
 77
     1
 78
    12
 79
     3
140
3.5
143
0.0393700787401575
147
0.875
148
0.000000001
170
     1
173
     1
178
     0
271
     2
272
     2
276
     2
284
    12
340
93
  0
DIMSTYLE
105
FC
330
A
100
AcDbSymbolTableRecord
100
AcDbDimStyleTableRecord
  2
SLDDIMSTYLE2
 70
     0
 41
3.302
 44
0.0
 45
0.000000001
 73
     0
 74
     0
 77
     1
 78
     4
 79
     1
140
3.5
143
0.0393700787401575
147
0.875
148
0.000000001
170
     1
173
     1
178
     0
271
     2
272
     2
276
     2
284
    12
340
93
  0
DIMSTYLE
105
110
330
A
100
AcDbSymbolTableRecord
100
AcDbDimStyleTableRecord
  2
SLDDIMSTYLE3
 70
     0
 41
3.302
 44
0.0
 45
0.000000001
 73
     0
 74
     0
 77
     1
 78
    12
 79
     3
140
3.5
143
0.0393700787401575
147
0.875
148
0.000000001
170
     1
172
     1
173
     1
178
     0
271
     2
272
     2
276
     2
284
    12
289
     0
340
93
  0
ENDTAB
  0
TABLE
  2
BLOCK_RECORD
  5
1
330
0
100
AcDbSymbolTable
 70
    18
  0
BLOCK_RECORD
  5
1F
102
{ACAD_XDICTIONARY
360
2CA
102
}
330
1
100
AcDbSymbolTableRecord
100
AcDbBlockTableRecord
  2
*Model_Space
340
22
  0
BLOCK_RECORD
  5
1B
330
1
100
AcDbSymbolTableRecord
100
AcDbBlockTableRecord
  2
*Paper_Space
340
1E
  0
BLOCK_RECORD
  5
23
330
1
100
AcDbSymbolTableRecord
100
AcDbBlockTableRecord
  2
*Paper_Space0
340
26
  0
BLOCK_RECORD
  5
7E
330
1
100
AcDbSymbolTableRecord
100
AcDbBlockTableRecord
  2
블럭10
340
0
102
{BLKREFS
331
CA
102
}
  0
BLOCK_RECORD
  5
D4
330
1
100
AcDbSymbolTableRecord
100
AcDbBlockTableRecord
  2
_D
340
0
  0
BLOCK_RECORD
  5
E9
330
1
100
AcDbSymbolTableRecord
100
AcDbBlockTableRecord
  2
_D_1
340
0
  0
BLOCK_RECORD
  5
FD
330
1
100
AcDbSymbolTableRecord
100
AcDbBlockTableRecord
  2
_D_2
340
0
  0
BLOCK_RECORD
  5
111
330
1
100
AcDbSymbolTableRecord
100
AcDbBlockTableRecord
  2
_D_3
340
0
  0
BLOCK_RECORD
  5
125
330
1
100
AcDbSymbolTableRecord
100
AcDbBlockTableRecord
  2
SW_DOWELSYMBOL_0
340
0
102
{BLKREFS
331
12B
331
205
331
0
102
}
  0
BLOCK_RECORD
  5
157
330
1
100
AcDbSymbolTableRecord
100
AcDbBlockTableRecord
  2
*D7
340
0
  0
BLOCK_RECORD
  5
20D
330
1
100
AcDbSymbolTableRecord
100
AcDbBlockTableRecord
  2
*D9
340
0
  0
BLOCK_RECORD
  5
21E
330
1
100
AcDbSymbolTableRecord
100
AcDbBlockTableRecord
  2
*D10
340
0
  0
BLOCK_RECORD
  5
22A
330
1
100
AcDbSymbolTableRecord
100
AcDbBlockTableRecord
  2
*D11
340
0
  0
BLOCK_RECORD
  5
236
330
1
100
AcDbSymbolTableRecord
100
AcDbBlockTableRecord
  2
*D12
340
0
  0
BLOCK_RECORD
  5
242
330
1
100
AcDbSymbolTableRecord
100
AcDbBlockTableRecord
  2
*D13
340
0
  0
BLOCK_RECORD
  5
28A
330
1
100
AcDbSymbolTableRecord
100
AcDbBlockTableRecord
  2
*D14
340
0
  0
BLOCK_RECORD
  5
296
330
1
100
AcDbSymbolTableRecord
100
AcDbBlockTableRecord
  2
*D15
340
0
  0
BLOCK_RECORD
  5
2A2
330
1
100
AcDbSymbolTableRecord
100
AcDbBlockTableRecord
  2
*D16
340
0
  0
BLOCK_RECORD
  5
2AE
330
1
100
AcDbSymbolTableRecord
100
AcDbBlockTableRecord
  2
*D17
340
0
  0
BLOCK_RECORD
  5
2BA
330
1
100
AcDbSymbolTableRecord
100
AcDbBlockTableRecord
  2
*D18
340
0
  0
ENDTAB
  0
ENDSEC
  0
SECTION
  2
BLOCKS
  0
BLOCK
  5
20
330
1F
100
AcDbEntity
  8
0
100
AcDbBlockBegin
  2
*Model_Space
 70
     0
 10
0.0
 20
0.0
 30
0.0
  3
*Model_Space
  1
*Model_Space
  0
ENDBLK
  5
21
330
1F
100
AcDbEntity
  8
0
100
AcDbBlockEnd
  0
BLOCK
  5
1C
330
1B
100
AcDbEntity
 67
     1
  8
0
100
AcDbBlockBegin
  2
*Paper_Space
 70
     0
 10
0.0
 20
0.0
 30
0.0
  3
*Paper_Space
  1
*Paper_Space
  0
ENDBLK
  5
1D
330
1B
100
AcDbEntity
 67
     1
  8
0
100
AcDbBlockEnd
  0
BLOCK
  5
24
330
23
100
AcDbEntity
  8
0
100
AcDbBlockBegin
  2
*Paper_Space0
 70
     0
 10
0.0
 20
0.0
 30
0.0
  3
*Paper_Space0
  1
*Paper_Space0
  0
ENDBLK
  5
25
330
23
100
AcDbEntity
  8
0
100
AcDbBlockEnd
  0
BLOCK
  5
7F
330
7E
100
AcDbEntity
  8
0
100
AcDbBlockBegin
  2
블럭10
 70
     2
 10
0.0
 20
0.0
 30
0.0
  3
블럭10
  1
블럭10
  0
ELLIPSE
  5
81
330
7E
100
AcDbEntity
  8
중심선
100
AcDbEllipse
 10
20.54032771741204
 20
12.0471743016438
 30
0.0
 11
6.600054785286829
 21
-1.261213355974178E-13
 31
0.0
210
0.0
220
0.0
230
1.0
 40
0.636358354079598
 41
0.9219305317359503
 42
6.513795318482858
  0
ELLIPSE
  5
82
330
7E
100
AcDbEntity
  8
중심선
100
AcDbEllipse
 10
20.54032771746488
 20
12.04717430159265
 30
0.0
 11
3.960054785062283
 21
1.540847449632565E-10
 31
0.0
210
0.0
220
0.0
230
1.0
 40
0.3939339440162632
 41
1.131841032648279
 42
5.62031148352944
  0
LINE
  5
83
330
7E
100
AcDbEntity
  8
중심선
100
AcDbLine
 10
2.268634060543552
 20
16.24717430164393
 30
0.0
 11
5.714909304380834
 21
16.24717430164393
 31
0.0
  0
LINE
  5
84
330
7E
100
AcDbEntity
  8
중심선
100
AcDbLine
 10
5.245725140726316
 20
7.84717430164391
 30
0.0
 11
8.692000384563599
 21
7.84717430164391
 31
0.0
  0
LINE
  5
85
330
7E
100
AcDbEntity
  8
중심선
100
AcDbLine
 10
15.74043728645272
 20
16.24717430164393
 30
0.0
 11
8.692000384563599
 21
7.84717430164391
 31
0.0
  0
LINE
  5
86
330
7E
100
AcDbEntity
  8
중심선
100
AcDbLine
 10
0.1404042013395286
 20
13.71084872107135
 30
0.0
 11
3.58671253028996
 21
13.71088815037384
 31
0.0
  0
LINE
  5
87
330
7E
100
AcDbEntity
  8
중심선
100
AcDbLine
 10
2.750260043222114
 20
10.84717430164391
 30
0.0
 11
6.196535287059397
 21
10.84717430164391
 31
0.0
  0
LINE
  5
88
330
7E
100
AcDbEntity
  8
중심선
100
AcDbLine
 10
12.29416204261559
 20
16.24717430164393
 30
0.0
 11
5.245725140726316
 21
7.84717430164391
 31
0.0
  0
LINE
  5
89
330
7E
100
AcDbEntity
  8
중심선
100
AcDbLine
 10
10.72767329541681
 20
16.24717430164393
 30
0.0
 11
6.196535287059397
 21
10.84717430164391
 31
0.0
  0
LINE
  5
8A
330
7E
100
AcDbEntity
  8
중심선
100
AcDbLine
 10
7.28139805157953
 20
16.24717430164393
 30
0.0
 11
2.750260043222114
 21
10.84717430164391
 31
0.0
  0
LINE
  5
8B
330
7E
100
AcDbEntity
  8
중심선
100
AcDbLine
 10
5.714909304380834
 20
16.24717430164393
 30
0.0
 11
3.58671253028996
 21
13.71088815037384
 31
0.0
  0
LINE
  5
8C
330
7E
100
AcDbEntity
  8
중심선
100
AcDbLine
 10
2.268634060543552
 20
16.24717430164393
 30
0.0
 11
0.1404042013395286
 21
13.71084872107135
 31
0.0
  0
LINE
  5
8D
330
7E
100
AcDbEntity
  8
중심선
100
AcDbLine
 10
7.28139805157953
 20
16.24717430164393
 30
0.0
 11
10.72767329541681
 21
16.24717430164393
 31
0.0
  0
LINE
  5
8E
330
7E
100
AcDbEntity
  8
중심선
100
AcDbLine
 10
12.29416204261559
 20
16.24717430164393
 30
0.0
 11
15.74043728645272
 21
16.24717430164393
 31
0.0
  0
LINE
  5
8F
330
7E
100
AcDbEntity
  8
중심선
100
AcDbLine
 10
19.22036997980202
 20
11.08717430171403
 30
0.0
 11
23.66174974927406
 21
11.08717430171406
 31
0.0
  0
LINE
  5
90
330
7E
100
AcDbEntity
  8
중심선
100
AcDbLine
 10
19.22039502424796
 20
13.00717430171391
 30
0.0
 11
19.22036997980202
 21
11.08717430171403
 31
0.0
  0
LINE
  5
91
330
7E
100
AcDbEntity
  8
중심선
100
AcDbLine
 10
19.22039502424796
 20
13.00717430171391
 30
0.0
 11
26.96566020931264
 21
13.00717430171391
 31
0.0
  0
LINE
  5
92
330
7E
100
AcDbEntity
  8
중심선
100
AcDbLine
 10
22.22332737316547
 20
13.45928029700563
 30
0.0
 11
24.52862924686651
 21
15.39360700705356
 31
0.0
  0
ATTDEF
  5
94
330
7E
100
AcDbEntity
  8
FORMAT
 62
     2
100
AcDbText
 10
-9.18129528874128
 20
2.075366912832191
 30
0.0
 40
4.233333333333333
  1
E5978901 [ 3 FLUTE ]
 41
0.75
  7
SLDTEXTSTYLE0
 11
-9.18129528874128
 21
-0.0412997538344756
 31
0.0
100
AcDbAttributeDefinition
  3

  2
AUTOATTR0
 70
     0
 74
     1
  0
ENDBLK
  5
80
330
7E
100
AcDbEntity
  8
0
100
AcDbBlockEnd
  0
BLOCK
  5
D5
330
D4
100
AcDbEntity
  8
0
100
AcDbBlockBegin
  2
_D
 70
     0
 10
0.0
 20
0.0
 30
0.0
  3
_D
  1
_D
  0
LINE
  5
D7
330
D4
100
AcDbEntity
  8
치수문자_일반주서
 62
     0
370
    -2
100
AcDbLine
 10
-66.6125
 20
6.349999999999997
 30
0.0
 11
-79.0464580216121
 21
6.34999999999995
 31
0.0
  0
LINE
  5
D8
330
D4
100
AcDbEntity
  8
치수문자_일반주서
 62
     0
370
    -2
100
AcDbLine
 10
-66.6125
 20
-6.350000000000002
 30
0.0
 11
-79.04645802161205
 21
-6.350000000000049
 31
0.0
  0
LINE
  5
D9
330
D4
100
AcDbEntity
  8
치수문자_일반주서
 62
     0
370
    -2
100
AcDbLine
 10
-79.04645802161208
 20
3.04799999999995
 30
0.0
 11
-79.04645802161207
 21
-3.048000000000049
 31
0.0
  0
SOLID
  5
DA
330
D4
100
AcDbEntity
  8
치수문자_일반주서
 62
     0
100
AcDbTrace
 10
-78.49612468827875
 20
3.047999999999952
 30
0.0
 11
-79.59679135494541
 21
3.047999999999948
 31
0.0
 12
-79.0464580216121
 22
6.34999999999995
 32
0.0
 13
-79.0464580216121
 23
6.34999999999995
 33
0.0
  0
SOLID
  5
DB
330
D4
100
AcDbEntity
  8
치수문자_일반주서
 62
     0
100
AcDbTrace
 10
-79.5967913549454
 20
-3.048000000000051
 30
0.0
 11
-78.49612468827874
 21
-3.048000000000048
 31
0.0
 12
-79.04645802161205
 22
-6.350000000000049
 32
0.0
 13
-79.04645802161205
 23
-6.350000000000049
 33
0.0
  0
MTEXT
  5
DC
330
D4
100
AcDbEntity
  8
치수문자_일반주서
 62
     0
100
AcDbMText
 10
-83.42145802161208
 20
-0.0000000000000171
 30
0.0
 40
3.5
 41
0.0
 71
     2
 72
     1
  1
\A1;%%c12.70 [1/2]
  7
SLDTEXTSTYLE0
 11
-3.356894814614647E-15
 21
1.0
 31
0.0
 73
     1
 44
1.0
  0
POINT
  5
DD
330
D4
100
AcDbEntity
  8
Defpoints
 62
     0
100
AcDbPoint
 10
-66.55
 20
6.349999999999997
 30
0.0
  0
POINT
  5
DE
330
D4
100
AcDbEntity
  8
Defpoints
 62
     0
100
AcDbPoint
 10
-66.55
 20
-6.350000000000002
 30
0.0
  0
POINT
  5
DF
330
D4
100
AcDbEntity
  8
Defpoints
 62
     0
100
AcDbPoint
 10
-79.04645802161205
 20
-6.350000000000049
 30
0.0
  0
ENDBLK
  5
D6
330
D4
100
AcDbEntity
  8
0
100
AcDbBlockEnd
  0
BLOCK
  5
EA
330
E9
100
AcDbEntity
  8
0
100
AcDbBlockBegin
  2
_D_1
 70
     0
 10
0.0
 20
0.0
 30
0.0
  3
_D_1
  1
_D_1
  0
LINE
  5
EC
330
E9
100
AcDbEntity
  8
치수문자_일반주서
 62
     0
370
    -2
100
AcDbLine
 10
-67.55
 20
5.412499999999997
 30
0.0
 11
-67.54999999999998
 21
46.35000000000005
 31
0.0
  0
LINE
  5
ED
330
E9
100
AcDbEntity
  8
치수문자_일반주서
 62
     0
370
    -2
100
AcDbLine
 10
84.85
 20
0.0625000000000078
 30
0.0
 11
84.85000000000001
 21
46.35000000000005
 31
0.0
  0
LINE
  5
EE
330
E9
100
AcDbEntity
  8
치수문자_일반주서
 62
     0
370
    -2
100
AcDbLine
 10
-64.24799999999998
 20
46.35000000000005
 30
0.0
 11
81.548
 21
46.35000000000005
 31
0.0
  0
SOLID
  5
EF
330
E9
100
AcDbEntity
  8
치수문자_일반주서
 62
     0
100
AcDbTrace
 10
-64.24799999999998
 20
46.90033333333339
 30
0.0
 11
-64.24799999999998
 21
45.79966666666672
 31
0.0
 12
-67.54999999999998
 22
46.35000000000005
 32
0.0
 13
-67.54999999999998
 23
46.35000000000005
 33
0.0
  0
SOLID
  5
F0
330
E9
100
AcDbEntity
  8
치수문자_일반주서
 62
     0
100
AcDbTrace
 10
81.548
 20
45.79966666666672
 30
0.0
 11
81.548
 21
46.90033333333339
 31
0.0
 12
84.85000000000001
 22
46.35000000000005
 32
0.0
 13
84.85000000000001
 23
46.35000000000005
 33
0.0
  0
MTEXT
  5
F1
330
E9
100
AcDbEntity
  8
치수문자_일반주서
 62
     0
100
AcDbMText
 10
14.48205120299134
 20
50.72500000000005
 30
0.0
 40
3.5
 41
0.0
 71
     2
 72
     1
  1
\A1;152.40 [6]
  7
SLDTEXTSTYLE0
 73
     1
 44
1.0
  0
POINT
  5
F2
330
E9
100
AcDbEntity
  8
Defpoints
 62
     0
100
AcDbPoint
 10
-67.55
 20
5.349999999999997
 30
0.0
  0
POINT
  5
F3
330
E9
100
AcDbEntity
  8
Defpoints
 62
     0
100
AcDbPoint
 10
84.85
 20
0.0000000000000078
 30
0.0
  0
POINT
  5
F4
330
E9
100
AcDbEntity
  8
Defpoints
 62
     0
100
AcDbPoint
 10
84.85
 20
46.35000000000005
 30
0.0
  0
ENDBLK
  5
EB
330
E9
100
AcDbEntity
  8
0
100
AcDbBlockEnd
  0
BLOCK
  5
FE
330
FD
100
AcDbEntity
  8
0
100
AcDbBlockBegin
  2
_D_2
 70
     0
 10
0.0
 20
0.0
 30
0.0
  3
_D_2
  1
_D_2
  0
LINE
  5
100
330
FD
100
AcDbEntity
  8
치수문자_일반주서
 62
     0
370
    -2
100
AcDbLine
 10
2.299999999999995
 20
6.112500000000008
 30
0.0
 11
2.299999999999997
 21
33.99541034598419
 31
0.0
  0
LINE
  5
101
330
FD
100
AcDbEntity
  8
치수문자_일반주서
 62
     0
370
    -2
100
AcDbLine
 10
84.85
 20
0.0625000000000078
 30
0.0
 11
84.85
 21
33.99541034598419
 31
0.0
  0
LINE
  5
102
330
FD
100
AcDbEntity
  8
치수문자_일반주서
 62
     0
370
    -2
100
AcDbLine
 10
5.601999999999997
 20
33.99541034598419
 30
0.0
 11
81.54799999999999
 21
33.99541034598419
 31
0.0
  0
SOLID
  5
103
330
FD
100
AcDbEntity
  8
치수문자_일반주서
 62
     0
100
AcDbTrace
 10
5.601999999999997
 20
34.54574367931752
 30
0.0
 11
5.601999999999997
 21
33.44507701265086
 31
0.0
 12
2.299999999999997
 22
33.99541034598419
 32
0.0
 13
2.299999999999997
 23
33.99541034598419
 33
0.0
  0
SOLID
  5
104
330
FD
100
AcDbEntity
  8
치수문자_일반주서
 62
     0
100
AcDbTrace
 10
81.54799999999999
 20
33.44507701265086
 30
0.0
 11
81.54799999999999
 21
34.54574367931752
 31
0.0
 12
84.85
 22
33.99541034598419
 32
0.0
 13
84.85
 23
33.99541034598419
 33
0.0
  0
MTEXT
  5
105
330
FD
100
AcDbEntity
  8
치수문자_일반주서
 62
     0
100
AcDbMText
 10
43.17669746294824
 20
38.37041034598419
 30
0.0
 40
3.5
 41
0.0
 71
     2
 72
     1
  1
\A1;82.55 [3 1/4]
  7
SLDTEXTSTYLE0
 73
     1
 44
1.0
  0
POINT
  5
106
330
FD
100
AcDbEntity
  8
Defpoints
 62
     0
100
AcDbPoint
 10
2.299999999999995
 20
6.050000000000008
 30
0.0
  0
POINT
  5
107
330
FD
100
AcDbEntity
  8
Defpoints
 62
     0
100
AcDbPoint
 10
84.85
 20
0.0000000000000078
 30
0.0
  0
POINT
  5
108
330
FD
100
AcDbEntity
  8
Defpoints
 62
     0
100
AcDbPoint
 10
84.85
 20
33.99541034598419
 30
0.0
  0
ENDBLK
  5
FF
330
FD
100
AcDbEntity
  8
0
100
AcDbBlockEnd
  0
BLOCK
  5
112
330
111
100
AcDbEntity
  8
0
100
AcDbBlockBegin
  2
_D_3
 70
     0
 10
0.0
 20
0.0
 30
0.0
  3
_D_3
  1
_D_3
  0
LINE
  5
114
330
111
100
AcDbEntity
  8
치수문자_일반주서
 62
     0
370
    -2
100
AcDbLine
 10
68.97499999999998
 20
6.274081148931598
 30
0.0
 11
68.97499999999998
 21
25.56612234586108
 31
0.0
  0
LINE
  5
115
330
111
100
AcDbEntity
  8
치수문자_일반주서
 62
     0
370
    -2
100
AcDbLine
 10
84.85
 20
0.0625000000000078
 30
0.0
 11
84.85
 21
25.56612234586108
 31
0.0
  0
LINE
  5
116
330
111
100
AcDbEntity
  8
치수문자_일반주서
 62
     0
370
    -2
100
AcDbLine
 10
72.27699999999999
 20
25.56612234586108
 30
0.0
 11
81.54799999999999
 21
25.56612234586108
 31
0.0
  0
SOLID
  5
117
330
111
100
AcDbEntity
  8
치수문자_일반주서
 62
     0
100
AcDbTrace
 10
72.27699999999999
 20
26.11645567919441
 30
0.0
 11
72.27699999999999
 21
25.01578901252774
 31
0.0
 12
68.97499999999998
 22
25.56612234586108
 32
0.0
 13
68.97499999999998
 23
25.56612234586108
 33
0.0
  0
SOLID
  5
118
330
111
100
AcDbEntity
  8
치수문자_일반주서
 62
     0
100
AcDbTrace
 10
81.54799999999999
 20
25.01578901252774
 30
0.0
 11
81.54799999999999
 21
26.11645567919441
 31
0.0
 12
84.85
 22
25.56612234586108
 32
0.0
 13
84.85
 23
25.56612234586108
 33
0.0
  0
MTEXT
  5
119
330
111
100
AcDbEntity
  8
치수문자_일반주서
 62
     0
100
AcDbMText
 10
76.12057577143077
 20
29.94112234586108
 30
0.0
 40
3.5
 41
0.0
 71
     2
 72
     1
  1
\A1;15.88 [5/8]
  7
SLDTEXTSTYLE0
 73
     1
 44
1.0
  0
POINT
  5
11A
330
111
100
AcDbEntity
  8
Defpoints
 62
     0
100
AcDbPoint
 10
68.97499999999998
 20
6.211581148931598
 30
0.0
  0
POINT
  5
11B
330
111
100
AcDbEntity
  8
Defpoints
 62
     0
100
AcDbPoint
 10
84.85
 20
0.0000000000000078
 30
0.0
  0
POINT
  5
11C
330
111
100
AcDbEntity
  8
Defpoints
 62
     0
100
AcDbPoint
 10
84.85
 20
25.56612234586108
 30
0.0
  0
ENDBLK
  5
113
330
111
100
AcDbEntity
  8
0
100
AcDbBlockEnd
  0
BLOCK
  5
126
330
125
100
AcDbEntity
  8
0
100
AcDbBlockBegin
  2
SW_DOWELSYMBOL_0
 70
     0
 10
0.0
 20
0.0
 30
0.0
  3
SW_DOWELSYMBOL_0
  1
SW_DOWELSYMBOL_0
  0
CIRCLE
  5
128
330
125
100
AcDbEntity
  8
외형선
 62
     0
100
AcDbCircle
 10
0.0
 20
0.0
 30
0.0
 40
3.000000000000004
  0
HATCH
  5
129
330
125
100
AcDbEntity
  8
0
  6
Continuous
 62
     0
370
    30
100
AcDbHatch
 10
0.0
 20
0.0
 30
0.0
210
0.0
220
0.0
230
1.0
  2
SOLID
 70
     1
 71
     0
 91
        1
 92
        0
 93
        3
 72
     2
 10
0.0
 20
0.0
 40
3.000000000000004
 50
0.0
 51
90.0
 73
     1
 72
     1
 10
0.0
 20
3.000000000000004
 11
0.0
 21
0.0
 72
     1
 10
0.0
 20
0.0
 11
3.000000000000006
 21
0.0
 97
        0
 75
     0
 76
     1
 98
        1
 10
0.0
 20
0.0
  0
HATCH
  5
12A
330
125
100
AcDbEntity
  8
0
  6
Continuous
 62
     0
370
    30
100
AcDbHatch
 10
0.0
 20
0.0
 30
0.0
210
0.0
220
0.0
230
1.0
  2
SOLID
 70
     1
 71
     0
 91
        1
 92
        0
 93
        3
 72
     2
 10
0.0
 20
0.0
 40
3.000000000000004
 50
180.0
 51
270.0000000000007
 73
     1
 72
     1
 10
0.0
 20
-3.000000000000004
 11
0.0
 21
0.0
 72
     1
 10
0.0
 20
0.0
 11
-3.000000000000006
 21
0.0
 97
        0
 75
     0
 76
     1
 98
        1
 10
0.0
 20
0.0
  0
ENDBLK
  5
127
330
125
100
AcDbEntity
  8
0
100
AcDbBlockEnd
  0
BLOCK
  5
158
330
157
100
AcDbEntity
  8
0
100
AcDbBlockBegin
  2
*D7
 70
     1
 10
0.0
 20
0.0
 30
0.0
  3
*D7
  1
*D7
  0
LINE
  5
15A
330
157
100
AcDbEntity
  8
치수문자_일반주서
 62
     0
370
    -2
100
AcDbLine
 10
84.9125
 20
-6.349999999999994
 30
0.0
 11
104.8935781391155
 21
-6.349999999999998
 31
0.0
  0
LINE
  5
15B
330
157
100
AcDbEntity
  8
치수문자_일반주서
 62
     0
370
    -2
100
AcDbLine
 10
84.9125
 20
6.350000000000005
 30
0.0
 11
104.8935781391155
 21
6.350000000000001
 31
0.0
  0
LINE
  5
15C
330
157
100
AcDbEntity
  8
치수문자_일반주서
 62
     0
370
    -2
100
AcDbLine
 10
104.8935781391155
 20
6.350000000000001
 30
0.0
 11
104.8935781391155
 21
39.6415
 31
0.0
  0
LINE
  5
15D
330
157
100
AcDbEntity
  8
치수문자_일반주서
 62
     0
370
    -2
100
AcDbLine
 10
104.8935781391155
 20
-6.349999999999998
 30
0.0
 11
104.8935781391155
 21
6.350000000000001
 31
0.0
  0
LINE
  5
15E
330
157
100
AcDbEntity
  8
치수문자_일반주서
 62
     0
370
    -2
100
AcDbLine
 10
104.8935781391155
 20
-9.651999999999997
 30
0.0
 11
104.8935781391155
 21
-12.954
 31
0.0
  0
LINE
  5
15F
330
157
100
AcDbEntity
  8
치수문자_일반주서
 62
     0
370
    -2
100
AcDbLine
 10
104.8935781391155
 20
9.652000000000001
 30
0.0
 11
104.8935781391155
 21
12.954
 31
0.0
  0
SOLID
  5
160
330
157
100
AcDbEntity
  8
치수문자_일반주서
 62
     0
100
AcDbTrace
 10
105.4439114724488
 20
-9.651999999999997
 30
0.0
 11
104.3432448057822
 21
-9.651999999999997
 31
0.0
 12
104.8935781391155
 22
-6.349999999999998
 32
0.0
 13
104.8935781391155
 23
-6.349999999999998
 33
0.0
  0
SOLID
  5
161
330
157
100
AcDbEntity
  8
치수문자_일반주서
 62
     0
100
AcDbTrace
 10
104.3432448057822
 20
9.652000000000001
 30
0.0
 11
105.4439114724488
 21
9.652000000000001
 31
0.0
 12
104.8935781391155
 22
6.350000000000001
 32
0.0
 13
104.8935781391155
 23
6.350000000000001
 33
0.0
  0
MTEXT
  5
162
330
157
100
AcDbEntity
  8
치수문자_일반주서
 62
     0
100
AcDbMText
 10
102.2685781391155
 20
26.29775
 30
0.0
 40
3.5
 41
0.0
 71
     5
 72
     1
  1
\A1;{%%C12.70 [1/2]}
  7
SLDTEXTSTYLE0
 11
0.0
 21
1.0
 31
0.0
 73
     1
 44
1.0
  0
POINT
  5
163
330
157
100
AcDbEntity
  8
Defpoints
 62
     0
100
AcDbPoint
 10
84.85
 20
-6.349999999999994
 30
0.0
  0
POINT
  5
164
330
157
100
AcDbEntity
  8
Defpoints
 62
     0
100
AcDbPoint
 10
84.85
 20
6.350000000000005
 30
0.0
  0
POINT
  5
166
330
157
100
AcDbEntity
  8
Defpoints
 62
     0
100
AcDbPoint
 10
104.8935781391155
 20
6.350000000000004
 30
0.0
  0
ENDBLK
  5
159
330
157
100
AcDbEntity
  8
0
100
AcDbBlockEnd
  0
BLOCK
  5
20E
330
20D
100
AcDbEntity
  8
0
100
AcDbBlockBegin
  2
*D9
 70
     1
 10
0.0
 20
0.0
 30
0.0
  3
*D9
  1
*D7
  0
LINE
  5
20F
330
20D
100
AcDbEntity
  8
치수문자_일반주서
 62
     0
370
    -2
100
AcDbLine
 10
142.9339580216121
 20
25.654
 30
0.0
 11
157.9664480340774
 21
25.654
 31
0.0
  0
LINE
  5
210
330
20D
100
AcDbEntity
  8
치수문자_일반주서
 62
     0
370
    -2
100
AcDbLine
 10
142.9339580216121
 20
6.603999999999996
 30
0.0
 11
157.9664480340774
 21
6.603999999999999
 31
0.0
  0
LINE
  5
211
330
20D
100
AcDbEntity
  8
치수문자_일반주서
 62
     0
370
    -2
100
AcDbLine
 10
157.9664480340774
 20
25.654
 30
0.0
 11
157.9664480340774
 21
59.8205
 31
0.0
  0
LINE
  5
212
330
20D
100
AcDbEntity
  8
치수문자_일반주서
 62
     0
370
    -2
100
AcDbLine
 10
157.9664480340774
 20
25.654
 30
0.0
 11
157.9664480340774
 21
6.603999999999999
 31
0.0
  0
LINE
  5
213
330
20D
100
AcDbEntity
  8
치수문자_일반주서
 62
     0
370
    -2
100
AcDbLine
 10
157.9664480340774
 20
28.956
 30
0.0
 11
157.9664480340774
 21
32.258
 31
0.0
  0
LINE
  5
214
330
20D
100
AcDbEntity
  8
치수문자_일반주서
 62
     0
370
    -2
100
AcDbLine
 10
157.9664480340774
 20
3.301999999999999
 30
0.0
 11
157.9664480340774
 21
-0.0000000000000009
 31
0.0
  0
SOLID
  5
215
330
20D
100
AcDbEntity
  8
치수문자_일반주서
 62
     0
100
AcDbTrace
 10
157.416114700744
 20
28.956
 30
0.0
 11
158.5167813674107
 21
28.956
 31
0.0
 12
157.9664480340774
 22
25.654
 32
0.0
 13
157.9664480340774
 23
25.654
 33
0.0
  0
SOLID
  5
216
330
20D
100
AcDbEntity
  8
치수문자_일반주서
 62
     0
100
AcDbTrace
 10
158.5167813674107
 20
3.301999999999999
 30
0.0
 11
157.416114700744
 21
3.301999999999999
 31
0.0
 12
157.9664480340774
 22
6.603999999999999
 32
0.0
 13
157.9664480340774
 23
6.603999999999999
 33
0.0
  0
MTEXT
  5
217
330
20D
100
AcDbEntity
  8
치수문자_일반주서
 62
     0
100
AcDbMText
 10
155.3414480340774
 20
46.03925
 30
0.0
 40
3.5
 41
0.0
 71
     5
 72
     1
  1
\A1;{%%C19.05 [3/4]}
  7
SLDTEXTSTYLE0
 11
0.0
 21
1.0
 31
0.0
 73
     1
 44
1.0
  0
POINT
  5
218
330
20D
100
AcDbEntity
  8
Defpoints
 62
     0
100
AcDbPoint
 10
142.8714580216121
 20
25.654
 30
0.0
  0
POINT
  5
219
330
20D
100
AcDbEntity
  8
Defpoints
 62
     0
100
AcDbPoint
 10
142.8714580216121
 20
6.603999999999996
 30
0.0
  0
POINT
  5
21A
330
20D
100
AcDbEntity
  8
Defpoints
 62
     0
100
AcDbPoint
 10
157.9664480340774
 20
6.603999999999995
 30
0.0
  0
ENDBLK
  5
21B
330
20D
100
AcDbEntity
  8
0
100
AcDbBlockEnd
  0
BLOCK
  5
21F
330
21E
100
AcDbEntity
  8
0
100
AcDbBlockBegin
  2
*D10
 70
     1
 10
0.0
 20
0.0
 30
0.0
  3
*D10
  1

  0
LINE
  5
221
330
21E
100
AcDbEntity
  8
치수문자_일반주서
 62
     0
370
    -2
100
AcDbLine
 10
16.80895802161211
 20
25.65399999999999
 30
0.0
 11
4.37500000000001
 21
25.65399999999994
 31
0.0
  0
LINE
  5
222
330
21E
100
AcDbEntity
  8
치수문자_일반주서
 62
     0
370
    -2
100
AcDbLine
 10
16.80895802161211
 20
6.603999999999985
 30
0.0
 11
4.375000000000076
 21
6.603999999999939
 31
0.0
  0
LINE
  5
223
330
21E
100
AcDbEntity
  8
치수문자_일반주서
 62
     0
370
    -2
100
AcDbLine
 10
4.375000000000021
 20
22.35199999999994
 30
0.0
 11
4.375000000000065
 21
9.905999999999938
 31
0.0
  0
SOLID
  5
224
330
21E
100
AcDbEntity
  8
치수문자_일반주서
 62
     0
100
AcDbTrace
 10
4.925333333333355
 20
22.35199999999994
 30
0.0
 11
3.824666666666688
 21
22.35199999999994
 31
0.0
 12
4.37500000000001
 22
25.65399999999994
 32
0.0
 13
4.37500000000001
 23
25.65399999999994
 33
0.0
  0
SOLID
  5
225
330
21E
100
AcDbEntity
  8
치수문자_일반주서
 62
     0
100
AcDbTrace
 10
3.824666666666731
 20
9.905999999999937
 30
0.0
 11
4.925333333333398
 21
9.90599999999994
 31
0.0
 12
4.375000000000076
 22
6.603999999999939
 32
0.0
 13
4.375000000000076
 23
6.603999999999939
 33
0.0
  0
MTEXT
  5
226
330
21E
100
AcDbEntity
  8
치수문자_일반주서
 62
     0
100
AcDbMText
 10
0.0000000000000426
 20
16.12899999999997
 30
0.0
 40
3.5
 41
0.0
 71
     2
 72
     1
  1
\A1;%%c19.05 [3/4]
  7
SLDTEXTSTYLE0
 11
-3.496765431890257E-15
 21
1.0
 31
0.0
 73
     1
 44
1.0
  0
POINT
  5
227
330
21E
100
AcDbEntity
  8
Defpoints
 62
     0
100
AcDbPoint
 10
16.87145802161211
 20
25.65399999999999
 30
0.0
  0
POINT
  5
228
330
21E
100
AcDbEntity
  8
Defpoints
 62
     0
100
AcDbPoint
 10
16.87145802161211
 20
6.603999999999985
 30
0.0
  0
POINT
  5
229
330
21E
100
AcDbEntity
  8
Defpoints
 62
     0
100
AcDbPoint
 10
4.375000000000085
 20
6.603999999999938
 30
0.0
  0
ENDBLK
  5
220
330
21E
100
AcDbEntity
  8
0
100
AcDbBlockEnd
  0
BLOCK
  5
22B
330
22A
100
AcDbEntity
  8
0
100
AcDbBlockBegin
  2
*D11
 70
     1
 10
0.0
 20
0.0
 30
0.0
  3
*D11
  1

  0
LINE
  5
22D
330
22A
100
AcDbEntity
  8
치수문자_일반주서
 62
     0
370
    -2
100
AcDbLine
 10
15.87145802161211
 20
24.71649999999999
 30
0.0
 11
15.87145802161211
 21
65.65400000000004
 31
0.0
  0
LINE
  5
22E
330
22A
100
AcDbEntity
  8
치수문자_일반주서
 62
     0
370
    -2
100
AcDbLine
 10
142.8714580216121
 20
16.19149999999999
 30
0.0
 11
142.8714580216121
 21
65.65400000000004
 31
0.0
  0
LINE
  5
22F
330
22A
100
AcDbEntity
  8
치수문자_일반주서
 62
     0
370
    -2
100
AcDbLine
 10
19.17345802161211
 20
65.65400000000004
 30
0.0
 11
139.5694580216121
 21
65.65400000000004
 31
0.0
  0
SOLID
  5
230
330
22A
100
AcDbEntity
  8
치수문자_일반주서
 62
     0
100
AcDbTrace
 10
19.17345802161211
 20
66.20433333333337
 30
0.0
 11
19.17345802161211
 21
65.10366666666671
 31
0.0
 12
15.87145802161211
 22
65.65400000000004
 32
0.0
 13
15.87145802161211
 23
65.65400000000004
 33
0.0
  0
SOLID
  5
231
330
22A
100
AcDbEntity
  8
치수문자_일반주서
 62
     0
100
AcDbTrace
 10
139.5694580216121
 20
65.10366666666671
 30
0.0
 11
139.5694580216121
 21
66.20433333333337
 31
0.0
 12
142.8714580216121
 22
65.65400000000004
 32
0.0
 13
142.8714580216121
 23
65.65400000000004
 33
0.0
  0
MTEXT
  5
232
330
22A
100
AcDbEntity
  8
치수문자_일반주서
 62
     0
100
AcDbMText
 10
84.2194452826174
 20
70.02900000000004
 30
0.0
 40
3.5
 41
0.0
 71
     2
 72
     1
  1
\A1;127 [5]
  7
SLDTEXTSTYLE0
 73
     1
 44
1.0
  0
POINT
  5
233
330
22A
100
AcDbEntity
  8
Defpoints
 62
     0
100
AcDbPoint
 10
15.87145802161211
 20
24.65399999999999
 30
0.0
  0
POINT
  5
234
330
22A
100
AcDbEntity
  8
Defpoints
 62
     0
100
AcDbPoint
 10
142.8714580216121
 20
16.12899999999999
 30
0.0
  0
POINT
  5
235
330
22A
100
AcDbEntity
  8
Defpoints
 62
     0
100
AcDbPoint
 10
142.8714580216121
 20
65.65400000000004
 30
0.0
  0
ENDBLK
  5
22C
330
22A
100
AcDbEntity
  8
0
100
AcDbBlockEnd
  0
BLOCK
  5
237
330
236
100
AcDbEntity
  8
0
100
AcDbBlockBegin
  2
*D12
 70
     1
 10
0.0
 20
0.0
 30
0.0
  3
*D12
  1

  0
LINE
  5
239
330
236
100
AcDbEntity
  8
치수문자_일반주서
 62
     0
370
    -2
100
AcDbLine
 10
85.72145802161212
 20
25.20849999999999
 30
0.0
 11
85.72145802161212
 21
53.03371645742493
 31
0.0
  0
LINE
  5
23A
330
236
100
AcDbEntity
  8
치수문자_일반주서
 62
     0
370
    -2
100
AcDbLine
 10
142.8714580216121
 20
16.19149999999999
 30
0.0
 11
142.8714580216121
 21
53.03371645742493
 31
0.0
  0
LINE
  5
23B
330
236
100
AcDbEntity
  8
치수문자_일반주서
 62
     0
370
    -2
100
AcDbLine
 10
89.02345802161213
 20
53.03371645742493
 30
0.0
 11
139.5694580216121
 21
53.03371645742493
 31
0.0
  0
SOLID
  5
23C
330
236
100
AcDbEntity
  8
치수문자_일반주서
 62
     0
100
AcDbTrace
 10
89.02345802161213
 20
53.58404979075826
 30
0.0
 11
89.02345802161213
 21
52.4833831240916
 31
0.0
 12
85.72145802161212
 22
53.03371645742493
 32
0.0
 13
85.72145802161212
 23
53.03371645742493
 33
0.0
  0
SOLID
  5
23D
330
236
100
AcDbEntity
  8
치수문자_일반주서
 62
     0
100
AcDbTrace
 10
139.5694580216121
 20
52.4833831240916
 30
0.0
 11
139.5694580216121
 21
53.58404979075826
 31
0.0
 12
142.8714580216121
 22
53.03371645742493
 32
0.0
 13
142.8714580216121
 23
53.03371645742493
 33
0.0
  0
MTEXT
  5
23E
330
236
100
AcDbEntity
  8
치수문자_일반주서
 62
     0
100
AcDbMText
 10
111.2693939359548
 20
57.40871645742493
 30
0.0
 40
3.5
 41
0.0
 71
     2
 72
     1
  1
\A1;57.15 [2 1/4]
  7
SLDTEXTSTYLE0
 73
     1
 44
1.0
  0
POINT
  5
23F
330
236
100
AcDbEntity
  8
Defpoints
 62
     0
100
AcDbPoint
 10
85.72145802161212
 20
25.14599999999999
 30
0.0
  0
POINT
  5
240
330
236
100
AcDbEntity
  8
Defpoints
 62
     0
100
AcDbPoint
 10
142.8714580216121
 20
16.12899999999999
 30
0.0
  0
POINT
  5
241
330
236
100
AcDbEntity
  8
Defpoints
 62
     0
100
AcDbPoint
 10
142.8714580216121
 20
53.03371645742493
 30
0.0
  0
ENDBLK
  5
238
330
236
100
AcDbEntity
  8
0
100
AcDbBlockEnd
  0
BLOCK
  5
243
330
242
100
AcDbEntity
  8
0
100
AcDbBlockBegin
  2
*D13
 70
     1
 10
0.0
 20
0.0
 30
0.0
  3
*D13
  1

  0
LINE
  5
245
330
242
100
AcDbEntity
  8
치수문자_일반주서
 62
     0
370
    -2
100
AcDbLine
 10
117.4714580216121
 20
25.68325553939702
 30
0.0
 11
117.4714580216121
 21
42.23506911247279
 31
0.0
  0
LINE
  5
246
330
242
100
AcDbEntity
  8
치수문자_일반주서
 62
     0
370
    -2
100
AcDbLine
 10
142.8714580216121
 20
16.19149999999999
 30
0.0
 11
142.8714580216121
 21
42.23506911247279
 31
0.0
  0
LINE
  5
247
330
242
100
AcDbEntity
  8
치수문자_일반주서
 62
     0
370
    -2
100
AcDbLine
 10
120.7734580216121
 20
42.23506911247279
 30
0.0
 11
139.5694580216121
 21
42.23506911247279
 31
0.0
  0
SOLID
  5
248
330
242
100
AcDbEntity
  8
치수문자_일반주서
 62
     0
100
AcDbTrace
 10
120.7734580216121
 20
42.78540244580612
 30
0.0
 11
120.7734580216121
 21
41.68473577913945
 31
0.0
 12
117.4714580216121
 22
42.23506911247279
 32
0.0
 13
117.4714580216121
 23
42.23506911247279
 33
0.0
  0
SOLID
  5
249
330
242
100
AcDbEntity
  8
치수문자_일반주서
 62
     0
100
AcDbTrace
 10
139.5694580216121
 20
41.68473577913945
 30
0.0
 11
139.5694580216121
 21
42.78540244580612
 31
0.0
 12
142.8714580216121
 22
42.23506911247279
 32
0.0
 13
142.8714580216121
 23
42.23506911247279
 33
0.0
  0
MTEXT
  5
24A
330
242
100
AcDbEntity
  8
치수문자_일반주서
 62
     0
100
AcDbMText
 10
129.8436964371898
 20
46.61006911247279
 30
0.0
 40
3.5
 41
0.0
 71
     2
 72
     1
  1
\A1;25.40 [1]
  7
SLDTEXTSTYLE0
 73
     1
 44
1.0
  0
POINT
  5
24B
330
242
100
AcDbEntity
  8
Defpoints
 62
     0
100
AcDbPoint
 10
117.4714580216121
 20
25.62075553939702
 30
0.0
  0
POINT
  5
24C
330
242
100
AcDbEntity
  8
Defpoints
 62
     0
100
AcDbPoint
 10
142.8714580216121
 20
16.12899999999999
 30
0.0
  0
POINT
  5
24D
330
242
100
AcDbEntity
  8
Defpoints
 62
     0
100
AcDbPoint
 10
142.8714580216121
 20
42.23506911247279
 30
0.0
  0
ENDBLK
  5
244
330
242
100
AcDbEntity
  8
0
100
AcDbBlockEnd
  0
BLOCK
  5
28B
330
28A
100
AcDbEntity
  8
0
100
AcDbBlockBegin
  2
*D14
 70
     1
 10
0.0
 20
0.0
 30
0.0
  3
*D14
  1

  0
LINE
  5
28D
330
28A
100
AcDbEntity
  8
치수문자_일반주서
 62
     0
370
    -2
100
AcDbLine
 10
125.1227315641471
 20
-26.10955810030209
 30
0.0
 11
112.688773542535
 21
-26.10955810030214
 31
0.0
  0
LINE
  5
28E
330
28A
100
AcDbEntity
  8
치수문자_일반주서
 62
     0
370
    -2
100
AcDbLine
 10
125.1227315641471
 20
-45.15955810030209
 30
0.0
 11
112.6887735425351
 21
-45.15955810030214
 31
0.0
  0
LINE
  5
28F
330
28A
100
AcDbEntity
  8
치수문자_일반주서
 62
     0
370
    -2
100
AcDbLine
 10
112.688773542535
 20
-29.41155810030214
 30
0.0
 11
112.6887735425351
 21
-41.85755810030214
 31
0.0
  0
SOLID
  5
290
330
28A
100
AcDbEntity
  8
치수문자_일반주서
 62
     0
100
AcDbTrace
 10
113.2391068758684
 20
-29.41155810030213
 30
0.0
 11
112.1384402092017
 21
-29.41155810030214
 31
0.0
 12
112.688773542535
 22
-26.10955810030214
 32
0.0
 13
112.688773542535
 23
-26.10955810030214
 33
0.0
  0
SOLID
  5
291
330
28A
100
AcDbEntity
  8
치수문자_일반주서
 62
     0
100
AcDbTrace
 10
112.1384402092017
 20
-41.85755810030214
 30
0.0
 11
113.2391068758684
 21
-41.85755810030214
 31
0.0
 12
112.6887735425351
 22
-45.15955810030214
 32
0.0
 13
112.6887735425351
 23
-45.15955810030214
 33
0.0
  0
MTEXT
  5
292
330
28A
100
AcDbEntity
  8
치수문자_일반주서
 62
     0
100
AcDbMText
 10
108.313773542535
 20
-35.63455810030211
 30
0.0
 40
3.5
 41
0.0
 71
     2
 72
     1
  1
\A1;%%c19.05 [3/4]
  7
SLDTEXTSTYLE0
 11
-3.729883127349606E-15
 21
1.0
 31
0.0
 73
     1
 44
1.0
  0
POINT
  5
293
330
28A
100
AcDbEntity
  8
Defpoints
 62
     0
100
AcDbPoint
 10
125.1852315641471
 20
-26.10955810030209
 30
0.0
  0
POINT
  5
294
330
28A
100
AcDbEntity
  8
Defpoints
 62
     0
100
AcDbPoint
 10
125.1852315641471
 20
-45.15955810030209
 30
0.0
  0
POINT
  5
295
330
28A
100
AcDbEntity
  8
Defpoints
 62
     0
100
AcDbPoint
 10
112.6887735425351
 20
-45.15955810030214
 30
0.0
  0
ENDBLK
  5
28C
330
28A
100
AcDbEntity
  8
0
100
AcDbBlockEnd
  0
BLOCK
  5
297
330
296
100
AcDbEntity
  8
0
100
AcDbBlockBegin
  2
*D15
 70
     1
 10
0.0
 20
0.0
 30
0.0
  3
*D15
  1

  0
LINE
  5
299
330
296
100
AcDbEntity
  8
치수문자_일반주서
 62
     0
370
    -2
100
AcDbLine
 10
124.1852315641471
 20
-27.04705810030209
 30
0.0
 11
124.1852315641471
 21
13.89044189969796
 31
0.0
  0
LINE
  5
29A
330
296
100
AcDbEntity
  8
치수문자_일반주서
 62
     0
370
    -2
100
AcDbLine
 10
251.1852315641472
 20
-35.57205810030209
 30
0.0
 11
251.1852315641472
 21
13.89044189969796
 31
0.0
  0
LINE
  5
29B
330
296
100
AcDbEntity
  8
치수문자_일반주서
 62
     0
370
    -2
100
AcDbLine
 10
127.4872315641471
 20
13.89044189969796
 30
0.0
 11
247.8832315641472
 21
13.89044189969796
 31
0.0
  0
SOLID
  5
29C
330
296
100
AcDbEntity
  8
치수문자_일반주서
 62
     0
100
AcDbTrace
 10
127.4872315641471
 20
14.44077523303129
 30
0.0
 11
127.4872315641471
 21
13.34010856636463
 31
0.0
 12
124.1852315641471
 22
13.89044189969796
 32
0.0
 13
124.1852315641471
 23
13.89044189969796
 33
0.0
  0
SOLID
  5
29D
330
296
100
AcDbEntity
  8
치수문자_일반주서
 62
     0
100
AcDbTrace
 10
247.8832315641472
 20
13.34010856636463
 30
0.0
 11
247.8832315641472
 21
14.44077523303129
 31
0.0
 12
251.1852315641472
 22
13.89044189969796
 32
0.0
 13
251.1852315641472
 23
13.89044189969796
 33
0.0
  0
MTEXT
  5
29E
330
296
100
AcDbEntity
  8
치수문자_일반주서
 62
     0
100
AcDbMText
 10
192.5332188251524
 20
18.26544189969796
 30
0.0
 40
3.5
 41
0.0
 71
     2
 72
     1
  1
\A1;127 [5]
  7
SLDTEXTSTYLE0
 73
     1
 44
1.0
  0
POINT
  5
29F
330
296
100
AcDbEntity
  8
Defpoints
 62
     0
100
AcDbPoint
 10
124.1852315641471
 20
-27.10955810030209
 30
0.0
  0
POINT
  5
2A0
330
296
100
AcDbEntity
  8
Defpoints
 62
     0
100
AcDbPoint
 10
251.1852315641472
 20
-35.63455810030209
 30
0.0
  0
POINT
  5
2A1
330
296
100
AcDbEntity
  8
Defpoints
 62
     0
100
AcDbPoint
 10
251.1852315641472
 20
13.89044189969796
 30
0.0
  0
ENDBLK
  5
298
330
296
100
AcDbEntity
  8
0
100
AcDbBlockEnd
  0
BLOCK
  5
2A3
330
2A2
100
AcDbEntity
  8
0
100
AcDbBlockBegin
  2
*D16
 70
     1
 10
0.0
 20
0.0
 30
0.0
  3
*D16
  1

  0
LINE
  5
2A5
330
2A2
100
AcDbEntity
  8
치수문자_일반주서
 62
     0
370
    -2
100
AcDbLine
 10
194.0352315641471
 20
-26.55505810030208
 30
0.0
 11
194.0352315641471
 21
1.270158357122853
 31
0.0
  0
LINE
  5
2A6
330
2A2
100
AcDbEntity
  8
치수문자_일반주서
 62
     0
370
    -2
100
AcDbLine
 10
251.1852315641472
 20
-35.57205810030209
 30
0.0
 11
251.1852315641472
 21
1.270158357122853
 31
0.0
  0
LINE
  5
2A7
330
2A2
100
AcDbEntity
  8
치수문자_일반주서
 62
     0
370
    -2
100
AcDbLine
 10
197.3372315641471
 20
1.270158357122853
 30
0.0
 11
247.8832315641472
 21
1.270158357122853
 31
0.0
  0
SOLID
  5
2A8
330
2A2
100
AcDbEntity
  8
치수문자_일반주서
 62
     0
100
AcDbTrace
 10
197.3372315641471
 20
1.820491690456186
 30
0.0
 11
197.3372315641471
 21
0.7198250237895192
 31
0.0
 12
194.0352315641471
 22
1.270158357122853
 32
0.0
 13
194.0352315641471
 23
1.270158357122853
 33
0.0
  0
SOLID
  5
2A9
330
2A2
100
AcDbEntity
  8
치수문자_일반주서
 62
     0
100
AcDbTrace
 10
247.8832315641472
 20
0.7198250237895192
 30
0.0
 11
247.8832315641472
 21
1.820491690456186
 31
0.0
 12
251.1852315641472
 22
1.270158357122853
 32
0.0
 13
251.1852315641472
 23
1.270158357122853
 33
0.0
  0
MTEXT
  5
2AA
330
2A2
100
AcDbEntity
  8
치수문자_일반주서
 62
     0
100
AcDbMText
 10
219.5831674784898
 20
5.645158357122853
 30
0.0
 40
3.5
 41
0.0
 71
     2
 72
     1
  1
\A1;57.15 [2 1/4]
  7
SLDTEXTSTYLE0
 73
     1
 44
1.0
  0
POINT
  5
2AB
330
2A2
100
AcDbEntity
  8
Defpoints
 62
     0
100
AcDbPoint
 10
194.0352315641471
 20
-26.61755810030208
 30
0.0
  0
POINT
  5
2AC
330
2A2
100
AcDbEntity
  8
Defpoints
 62
     0
100
AcDbPoint
 10
251.1852315641472
 20
-35.63455810030209
 30
0.0
  0
POINT
  5
2AD
330
2A2
100
AcDbEntity
  8
Defpoints
 62
     0
100
AcDbPoint
 10
251.1852315641472
 20
1.270158357122853
 30
0.0
  0
ENDBLK
  5
2A4
330
2A2
100
AcDbEntity
  8
0
100
AcDbBlockEnd
  0
BLOCK
  5
2AF
330
2AE
100
AcDbEntity
  8
0
100
AcDbBlockBegin
  2
*D17
 70
     1
 10
0.0
 20
0.0
 30
0.0
  3
*D17
  1

  0
LINE
  5
2B1
330
2AE
100
AcDbEntity
  8
치수문자_일반주서
 62
     0
370
    -2
100
AcDbLine
 10
225.7852315641471
 20
-26.08030256090506
 30
0.0
 11
225.7852315641471
 21
-9.528488987829292
 31
0.0
  0
LINE
  5
2B2
330
2AE
100
AcDbEntity
  8
치수문자_일반주서
 62
     0
370
    -2
100
AcDbLine
 10
251.1852315641472
 20
-35.57205810030209
 30
0.0
 11
251.1852315641472
 21
-9.528488987829292
 31
0.0
  0
LINE
  5
2B3
330
2AE
100
AcDbEntity
  8
치수문자_일반주서
 62
     0
370
    -2
100
AcDbLine
 10
229.0872315641471
 20
-9.528488987829292
 30
0.0
 11
247.8832315641472
 21
-9.528488987829292
 31
0.0
  0
SOLID
  5
2B4
330
2AE
100
AcDbEntity
  8
치수문자_일반주서
 62
     0
100
AcDbTrace
 10
229.0872315641471
 20
-8.978155654495959
 30
0.0
 11
229.0872315641471
 21
-10.07882232116262
 31
0.0
 12
225.7852315641471
 22
-9.528488987829292
 32
0.0
 13
225.7852315641471
 23
-9.528488987829292
 33
0.0
  0
SOLID
  5
2B5
330
2AE
100
AcDbEntity
  8
치수문자_일반주서
 62
     0
100
AcDbTrace
 10
247.8832315641472
 20
-10.07882232116262
 30
0.0
 11
247.8832315641472
 21
-8.978155654495959
 31
0.0
 12
251.1852315641472
 22
-9.528488987829292
 32
0.0
 13
251.1852315641472
 23
-9.528488987829292
 33
0.0
  0
MTEXT
  5
2B6
330
2AE
100
AcDbEntity
  8
치수문자_일반주서
 62
     0
100
AcDbMText
 10
238.1574699797248
 20
-5.153488987829292
 30
0.0
 40
3.5
 41
0.0
 71
     2
 72
     1
  1
\A1;25.40 [1]
  7
SLDTEXTSTYLE0
 73
     1
 44
1.0
  0
POINT
  5
2B7
330
2AE
100
AcDbEntity
  8
Defpoints
 62
     0
100
AcDbPoint
 10
225.7852315641471
 20
-26.14280256090506
 30
0.0
  0
POINT
  5
2B8
330
2AE
100
AcDbEntity
  8
Defpoints
 62
     0
100
AcDbPoint
 10
251.1852315641472
 20
-35.63455810030209
 30
0.0
  0
POINT
  5
2B9
330
2AE
100
AcDbEntity
  8
Defpoints
 62
     0
100
AcDbPoint
 10
251.1852315641472
 20
-9.528488987829292
 30
0.0
  0
ENDBLK
  5
2B0
330
2AE
100
AcDbEntity
  8
0
100
AcDbBlockEnd
  0
BLOCK
  5
2BB
330
2BA
100
AcDbEntity
  8
0
100
AcDbBlockBegin
  2
*D18
 70
     1
 10
0.0
 20
0.0
 30
0.0
  3
*D18
  1

  0
LINE
  5
2BD
330
2BA
100
AcDbEntity
  8
치수문자_일반주서
 62
     0
370
    -2
100
AcDbLine
 10
251.2477315641472
 20
-26.10955810030208
 30
0.0
 11
266.2802215766123
 21
-26.10955810030208
 31
0.0
  0
LINE
  5
2BE
330
2BA
100
AcDbEntity
  8
치수문자_일반주서
 62
     0
370
    -2
100
AcDbLine
 10
251.2477315641472
 20
-45.15955810030208
 30
0.0
 11
266.2802215766123
 21
-45.15955810030208
 31
0.0
  0
LINE
  5
2BF
330
2BA
100
AcDbEntity
  8
치수문자_일반주서
 62
     0
370
    -2
100
AcDbLine
 10
266.2802215766123
 20
-26.10955810030208
 30
0.0
 11
266.2802215766123
 21
8.056941899697918
 31
0.0
  0
LINE
  5
2C0
330
2BA
100
AcDbEntity
  8
치수문자_일반주서
 62
     0
370
    -2
100
AcDbLine
 10
266.2802215766123
 20
-26.10955810030208
 30
0.0
 11
266.2802215766123
 21
-45.15955810030208
 31
0.0
  0
LINE
  5
2C1
330
2BA
100
AcDbEntity
  8
치수문자_일반주서
 62
     0
370
    -2
100
AcDbLine
 10
266.2802215766123
 20
-22.80755810030208
 30
0.0
 11
266.2802215766123
 21
-19.50555810030208
 31
0.0
  0
LINE
  5
2C2
330
2BA
100
AcDbEntity
  8
치수문자_일반주서
 62
     0
370
    -2
100
AcDbLine
 10
266.2802215766123
 20
-48.46155810030208
 30
0.0
 11
266.2802215766123
 21
-51.76355810030208
 31
0.0
  0
SOLID
  5
2C3
330
2BA
100
AcDbEntity
  8
치수문자_일반주서
 62
     0
100
AcDbTrace
 10
265.729888243279
 20
-22.80755810030208
 30
0.0
 11
266.8305549099457
 21
-22.80755810030208
 31
0.0
 12
266.2802215766123
 22
-26.10955810030208
 32
0.0
 13
266.2802215766123
 23
-26.10955810030208
 33
0.0
  0
SOLID
  5
2C4
330
2BA
100
AcDbEntity
  8
치수문자_일반주서
 62
     0
100
AcDbTrace
 10
266.8305549099457
 20
-48.46155810030208
 30
0.0
 11
265.729888243279
 21
-48.46155810030208
 31
0.0
 12
266.2802215766123
 22
-45.15955810030208
 32
0.0
 13
266.2802215766123
 23
-45.15955810030208
 33
0.0
  0
MTEXT
  5
2C5
330
2BA
100
AcDbEntity
  8
치수문자_일반주서
 62
     0
100
AcDbMText
 10
263.6552215766123
 20
-5.724308100302082
 30
0.0
 40
3.5
 41
0.0
 71
     5
 72
     1
  1
\A1;{%%C19.05 [3/4]}
  7
SLDTEXTSTYLE0
 11
0.0
 21
1.0
 31
0.0
 73
     1
 44
1.0
  0
POINT
  5
2C6
330
2BA
100
AcDbEntity
  8
Defpoints
 62
     0
100
AcDbPoint
 10
251.1852315641472
 20
-26.10955810030208
 30
0.0
  0
POINT
  5
2C7
330
2BA
100
AcDbEntity
  8
Defpoints
 62
     0
100
AcDbPoint
 10
251.1852315641472
 20
-45.15955810030208
 30
0.0
  0
POINT
  5
2C8
330
2BA
100
AcDbEntity
  8
Defpoints
 62
     0
100
AcDbPoint
 10
266.2802215766123
 20
-45.15955810030208
 30
0.0
  0
ENDBLK
  5
2BC
330
2BA
100
AcDbEntity
  8
0
100
AcDbBlockEnd
  0
ENDSEC
  0
SECTION
  2
ENTITIES
  0
LINE
  5
95
330
1F
100
AcDbEntity
  8
0
  6
Continuous
 62
     4
370
    15
100
AcDbLine
 10
2.0
 20
6.350000000000004
 30
0.0
 11
-66.55
 21
6.349999999999999
 31
0.0
  0
LINE
  5
96
330
1F
100
AcDbEntity
  8
0
  6
Continuous
 62
     4
370
    15
100
AcDbLine
 10
-66.55
 20
-6.350000000000004
 30
0.0
 11
2.0
 21
-6.349999999999999
 31
0.0
  0
LINE
  5
97
330
1F
100
AcDbEntity
  8
0
  6
Continuous
 62
     4
370
    15
100
AcDbLine
 10
2.0
 20
-6.350000000000001
 30
0.0
 11
2.299999999999995
 21
-6.050000000000002
 31
0.0
  0
LINE
  5
98
330
1F
100
AcDbEntity
  8
0
  6
Continuous
 62
     4
370
    15
100
AcDbLine
 10
2.299999999999995
 20
6.050000000000008
 30
0.0
 11
2.0
 21
6.350000000000006
 31
0.0
  0
LINE
  5
99
330
1F
100
AcDbEntity
  8
0
  6
Continuous
 62
     4
370
    15
100
AcDbLine
 10
-66.55
 20
6.349999999999996
 30
0.0
 11
-67.55
 21
5.349999999999996
 31
0.0
  0
LINE
  5
9A
330
1F
100
AcDbEntity
  8
0
  6
Continuous
 62
     4
370
    15
100
AcDbLine
 10
-67.55
 20
-5.350000000000003
 30
0.0
 11
-66.55
 21
-6.350000000000003
 31
0.0
  0
LINE
  5
9B
330
1F
100
AcDbEntity
  8
0
  6
Continuous
 62
     4
370
    15
100
AcDbLine
 10
67.25704323164224
 20
6.05000000000001
 30
0.0
 11
2.299999999999995
 21
6.050000000000005
 31
0.0
  0
LINE
  5
9C
330
1F
100
AcDbEntity
  8
0
  6
Continuous
 62
     4
370
    15
100
AcDbLine
 10
2.299999999999995
 20
-6.05
 30
0.0
 11
66.94507180952584
 21
-6.049999999999994
 31
0.0
  0
LINE
  5
9D
330
1F
100
AcDbEntity
  8
0
  6
Continuous
 62
     1
370
    15
100
AcDbLine
 10
78.13942863244738
 20
-0.4913141661409189
 30
0.0
 11
78.0475645461345
 21
-0.42353594482756
 31
0.0
  0
ARC
  5
9E
330
1F
100
AcDbEntity
  8
0
  6
Continuous
 62
     1
370
    15
100
AcDbCircle
 10
78.5
 20
0.0000000000000078
 30
0.0
 40
6.349999999999999
100
AcDbArc
 50
353.5800701243586
 51
0.0
  0
ARC
  5
9F
330
1F
100
AcDbEntity
  8
0
  6
Continuous
 62
     1
370
    15
100
AcDbCircle
 10
78.5
 20
0.0000000000000078
 30
0.0
 40
6.349999999999995
100
AcDbArc
 50
0.0
 51
60.09596523570372
  0
LINE
  5
A0
330
1F
100
AcDbEntity
  8
0
  6
Continuous
 62
     1
370
    15
100
AcDbLine
 10
73.07256389379764
 20
-6.349999999999992
 30
0.0
 11
76.03673162480762
 21
-6.349999999999992
 31
0.0
  0
LINE
  5
A1
330
1F
100
AcDbEntity
  8
0
  6
Continuous
 62
     4
370
    15
100
AcDbLine
 10
2.0
 20
6.350000000000006
 30
0.0
 11
2.0
 21
-6.350000000000005
 31
0.0
  0
LINE
  5
A2
330
1F
100
AcDbEntity
  8
0
  6
Continuous
 62
     4
370
    15
100
AcDbLine
 10
-66.55
 20
6.349999999999997
 30
0.0
 11
-66.55
 21
-6.350000000000007
 31
0.0
  0
LINE
  5
A3
330
1F
100
AcDbEntity
  8
0
  6
Continuous
 62
     4
370
    15
100
AcDbLine
 10
2.299999999999995
 20
6.050000000000008
 30
0.0
 11
2.299999999999995
 21
-6.050000000000002
 31
0.0
  0
LINE
  5
A4
330
1F
100
AcDbEntity
  8
0
  6
Continuous
 62
     4
370
    15
100
AcDbLine
 10
-67.55
 20
5.349999999999997
 30
0.0
 11
-67.55
 21
-5.350000000000005
 31
0.0
  0
SPLINE
  5
A5
330
1F
100
AcDbEntity
  8
0
  6
Continuous
 62
     4
370
    15
100
AcDbSpline
210
0.0
220
0.0
230
1.0
 70
     8
 71
     3
 72
    11
 73
     7
 74
     0
 42
0.000000001
 43
0.00000001
 40
0.0
 40
0.0
 40
0.0
 40
0.0
 40
0.2944706518392246
 40
0.5893021112179889
 40
0.8852233169539797
 40
1.0
 40
1.0
 40
1.0
 40
1.0
 10
68.97500000000001
 20
5.924688774109676
 30
0.0
 10
68.80623697609224
 20
5.94718890854805
 30
0.0
 10
68.46850414715595
 20
5.992216746277911
 30
0.0
 10
67.96152639966058
 20
6.031321121017446
 30
0.0
 10
67.55815700243001
 20
6.050467531199403
 30
0.0
 10
67.32281394954828
 20
6.048058382668216
 30
0.0
 10
67.25704323164223
 20
6.047385104122288
 30
0.0
  0
LINE
  5
A6
330
1F
100
AcDbEntity
  8
0
  6
Continuous
 62
     1
370
    15
100
AcDbLine
 10
68.97500000000001
 20
5.377327127053585
 30
0.0
 11
68.97500000000002
 21
5.10617284419946
 31
0.0
  0
SPLINE
  5
A7
330
1F
100
AcDbEntity
  8
0
  6
Continuous
 62
     4
370
    15
100
AcDbSpline
210
0.0
220
0.0
230
1.0
 70
     8
 71
     3
 72
    10
 73
     6
 74
     0
 42
0.000000001
 43
0.00000001
 40
0.0
 40
0.0
 40
0.0
 40
0.0
 40
0.5
 40
0.5
 40
1.0
 40
1.0
 40
1.0
 40
1.0
 10
68.975
 20
5.106172844199456
 30
0.0
 10
68.63581274770421
 20
5.236547154285835
 30
0.0
 10
68.29591052816008
 20
5.354602449265061
 30
0.0
 10
67.62203468208308
 20
5.563685178867193
 30
0.0
 10
67.28434109841167
 20
5.655136308553079
 30
0.0
 10
66.94502622366436
 20
5.732818448464338
 30
0.0
  0
SPLINE
  5
A8
330
1F
100
AcDbEntity
  8
0
  6
Continuous
 62
     4
370
    15
100
AcDbSpline
210
0.0
220
0.0
230
1.0
 70
     8
 71
     3
 72
    10
 73
     6
 74
     0
 42
0.000000001
 43
0.00000001
 40
0.0
 40
0.0
 40
0.0
 40
0.0
 40
0.5
 40
0.5
 40
1.0
 40
1.0
 40
1.0
 40
1.0
 10
68.97500000000002
 20
-4.023203565953812
 30
0.0
 10
68.63582034249042
 20
-3.841665661329952
 30
0.0
 10
68.2959257493463
 20
-3.650226224910991
 30
0.0
 10
67.62206472743267
 20
-3.251813986849273
 30
0.0
 10
67.2843790673929
 20
-3.04413383575794
 30
0.0
 10
66.94507180952586
 20
-2.829252124606963
 30
0.0
  0
SPLINE
  5
A9
330
1F
100
AcDbEntity
  8
0
  6
Continuous
 62
     4
370
    15
100
AcDbSpline
210
0.0
220
0.0
230
1.0
 70
     8
 71
     3
 72
    10
 73
     6
 74
     0
 42
0.000000001
 43
0.00000001
 40
0.0
 40
0.0
 40
0.0
 40
0.0
 40
0.5
 40
0.5
 40
1.0
 40
1.0
 40
1.0
 40
1.0
 10
68.975
 20
-5.363268651754963
 30
0.0
 10
68.63581274770421
 20
-5.250785719769855
 30
0.0
 10
68.29591052816008
 20
-5.125191794569261
 30
0.0
 10
67.62203468208308
 20
-4.850670568624201
 30
0.0
 10
67.28434109841167
 20
-4.701274606414758
 30
0.0
 10
66.94502622366436
 20
-4.540616343351634
 30
0.0
  0
LINE
  5
AA
330
1F
100
AcDbEntity
  8
0
  6
Continuous
 62
     4
370
    15
100
AcDbLine
 10
66.94507180952584
 20
-6.049999999999994
 30
0.0
 11
66.94507180952583
 21
-4.540393065886113
 31
0.0
  0
LINE
  5
AB
330
1F
100
AcDbEntity
  8
0
  6
Continuous
 62
     4
370
    15
100
AcDbLine
 10
66.94507180952586
 20
-2.829540844164693
 30
0.0
 11
66.94507180952583
 21
5.73292639613483
 31
0.0
  0
SPLINE
  5
AC
330
1F
100
AcDbEntity
  8
0
  6
Continuous
 62
     4
370
    15
100
AcDbSpline
210
0.0
220
0.0
230
1.0
 70
    24
 71
     3
 72
    14
 73
    10
 74
     0
 42
0.000000001
 43
0.00000001
 40
0.0
 40
0.0
 40
0.0
 40
0.0
 40
0.25
 40
0.25
 40
0.5
 40
0.5
 40
0.75
 40
0.75
 40
1.0
 40
1.0
 40
1.0
 40
1.0
 10
68.975
 20
0.6053155179849238
 30
0.0
 10
68.975
 20
0.3410271147826066
 30
0.0
 10
68.97500000000004
 20
0.0297081891316504
 30
0.0
 10
68.97500000000001
 20
-0.6832940579107828
 30
0.0
 10
68.975
 20
-1.085490667809637
 30
0.0
 10
68.975
 20
-1.938493066631552
 30
0.0
 10
68.975
 20
-2.388644451571937
 30
0.0
 10
68.97500000000001
 20
-3.254620355233627
 30
0.0
 10
68.975
 20
-3.668601675934996
 30
0.0
 10
68.975
 20
-4.023203565953793
 30
0.0
  0
SPLINE
  5
AD
330
1F
100
AcDbEntity
  8
0
  6
Continuous
 62
     4
370
    15
100
AcDbSpline
210
0.0
220
0.0
230
1.0
 70
     8
 71
     3
 72
    10
 73
     6
 74
     0
 42
0.000000001
 43
0.00000001
 40
0.0
 40
0.0
 40
0.0
 40
0.0
 40
0.5000000000000001
 40
0.5000000000000001
 40
1.0
 40
1.0
 40
1.0
 40
1.0
 10
68.97500000000002
 20
0.6053155179849417
 30
0.0
 10
68.6358203424904
 20
0.7796542924558553
 30
0.0
 10
68.29592574934628
 20
0.9526421468707109
 30
0.0
 10
67.62206472743269
 20
1.292193817061186
 30
0.0
 10
67.28437906739296
 20
1.459389781142923
 30
0.0
 10
66.94507180952587
 20
1.622915322994138
 30
0.0
  0
SPLINE
  5
AE
330
1F
100
AcDbEntity
  8
0
  6
Continuous
 62
     1
370
    15
100
AcDbSpline
210
0.0
220
0.0
230
1.0
 70
    24
 71
     3
 72
    14
 73
    10
 74
     0
 42
0.000000001
 43
0.00000001
 40
0.0
 40
0.0
 40
0.0
 40
0.0
 40
0.2500000000000002
 40
0.2500000000000002
 40
0.5000000000000001
 40
0.5000000000000001
 40
0.75
 40
0.75
 40
1.0
 40
1.0
 40
1.0
 40
1.0
 10
68.97500000000001
 20
5.106172844205497
 30
0.0
 10
68.97499999999998
 20
4.684676012168361
 30
0.0
 10
68.97499999999998
 20
4.223248999387834
 30
0.0
 10
68.975
 20
3.309516031099421
 30
0.0
 10
68.975
 20
2.858934854067509
 30
0.0
 10
68.975
 20
2.043394755267271
 30
0.0
 10
68.97500000000002
 20
1.67868998689892
 30
0.0
 10
68.97500000000002
 20
1.061597257318032
 30
0.0
 10
68.97500000000004
 20
0.8084572821911139
 30
0.0
 10
68.97500000000002
 20
0.6053155179849189
 30
0.0
  0
SPLINE
  5
AF
330
1F
100
AcDbEntity
  8
0
  6
Continuous
 62
     1
370
    15
100
AcDbSpline
210
0.0
220
0.0
230
1.0
 70
     8
 71
     3
 72
    34
 73
    30
 74
     0
 42
0.000000001
 43
0.00000001
 40
0.0
 40
0.0
 40
0.0
 40
0.0
 40
0.1249999999999948
 40
0.1249999999999948
 40
0.2499999999999897
 40
0.2499999999999897
 40
0.3749999999999845
 40
0.3749999999999845
 40
0.4374999999999838
 40
0.4374999999999838
 40
0.4999999999999832
 40
0.4999999999999832
 40
0.5624999999999827
 40
0.5624999999999827
 40
0.624999999999982
 40
0.624999999999982
 40
0.6562499999999836
 40
0.6562499999999836
 40
0.687499999999985
 40
0.687499999999985
 40
0.7187499999999866
 40
0.7187499999999866
 40
0.749999999999988
 40
0.749999999999988
 40
0.8124999999999909
 40
0.8124999999999909
 40
0.8749999999999937
 40
0.8749999999999937
 40
1.0
 40
1.0
 40
1.0
 40
1.0
 10
78.49999999999999
 20
1.455697675133975
 30
0.0
 10
78.78822443025992
 20
1.24462572198563
 30
0.0
 10
79.07260687846974
 20
1.02946714074523
 30
0.0
 10
79.64254136404553
 20
0.6029756970682658
 30
0.0
 10
79.93010941274271
 20
0.3906668750649124
 30
0.0
 10
80.50817592389194
 20
-0.0109102195067797
 30
0.0
 10
80.79393854180945
 20
-0.1973329786020762
 30
0.0
 10
81.22648478700177
 20
-0.4396943308267538
 30
0.0
 10
81.37257943844887
 20
-0.5141803713666548
 30
0.0
 10
81.66261786460274
 20
-0.6420223712101273
 30
0.0
 10
81.80665634702575
 20
-0.6956326608059422
 30
0.0
 10
82.09478343726924
 20
-0.7758692715526097
 30
0.0
 10
82.23993063865888
 20
-0.8024615327952106
 30
0.0
 10
82.52173117568562
 20
-0.8164155048771039
 30
0.0
 10
82.66129143882709
 20
-0.8040045243535027
 30
0.0
 10
82.85983500641346
 20
-0.7456567912064762
 30
0.0
 10
82.92375118702066
 20
-0.7197976911522146
 30
0.0
 10
83.0467553505822
 20
-0.6531836981342736
 30
0.0
 10
83.10635546541587
 20
-0.6118016038899986
 30
0.0
 10
83.2153913843946
 20
-0.515538215753853
 30
0.0
 10
83.26533789584474
 20
-0.4605611032524927
 30
0.0
 10
83.35580788633942
 20
-0.3363016556857091
 30
0.0
 10
83.39657755574106
 20
-0.2661626051854171
 30
0.0
 10
83.49894970044252
 20
-0.0435488253910316
 30
0.0
 10
83.54299671528473
 20
0.1261361554589167
 30
0.0
 10
83.58518322813407
 20
0.4736657232585063
 30
0.0
 10
83.58434906528315
 20
0.6548491307210347
 30
0.0
 10
83.53203936293313
 20
1.190762518303048
 30
0.0
 10
83.43343117120033
 20
1.540595807134464
 30
0.0
 10
83.29874943504761
 20
1.875241296535791
 30
0.0
  0
SPLINE
  5
B0
330
1F
100
AcDbEntity
  8
0
  6
Continuous
 62
     1
370
    15
100
AcDbSpline
210
0.0
220
0.0
230
1.0
 70
     8
 71
     3
 72
    22
 73
    18
 74
     0
 42
0.000000001
 43
0.00000001
 40
0.0
 40
0.0
 40
0.0
 40
0.0
 40
0.125
 40
0.125
 40
0.25
 40
0.25
 40
0.375
 40
0.375
 40
0.5
 40
0.5
 40
0.625
 40
0.625
 40
0.75
 40
0.75
 40
0.875
 40
0.875
 40
1.0
 40
1.0
 40
1.0
 40
1.0
 10
78.49999999999999
 20
1.455697675133998
 30
0.0
 10
78.10218241276417
 20
1.747026675451199
 30
0.0
 10
77.70303228390644
 20
2.033798374031295
 30
0.0
 10
76.9139383889511
 20
2.589788190709023
 30
0.0
 10
76.51526603335834
 20
2.861053329455363
 30
0.0
 10
75.71944555960192
 20
3.382364084687727
 30
0.0
 10
75.32569661565239
 20
3.631732243264557
 30
0.0
 10
74.53137865339615
 20
4.106132314320443
 30
0.0
 10
74.13182962123015
 20
4.330860397392771
 30
0.0
 10
73.33986207391163
 20
4.748754768779506
 30
0.0
 10
72.94429046370348
 20
4.942548708593007
 30
0.0
 10
72.14805354184354
 20
5.296758638504643
 30
0.0
 10
71.75276027180988
 20
5.45637970650914
 30
0.0
 10
70.96049738730363
 20
5.738632400392775
 30
0.0
 10
70.56092580329931
 20
5.861471459028701
 30
0.0
 10
69.76681518690124
 20
6.066822966199874
 30
0.0
 10
69.37295476969368
 20
6.149422418081063
 30
0.0
 10
68.97500000000004
 20
6.211581148931534
 30
0.0
  0
SPLINE
  5
B1
330
1F
100
AcDbEntity
  8
0
  6
Continuous
 62
     1
370
    15
100
AcDbSpline
210
0.0
220
0.0
230
1.0
 70
     8
 71
     3
 72
    11
 73
     7
 74
     0
 42
0.000000001
 43
0.00000001
 40
0.0
 40
0.0
 40
0.0
 40
0.0
 40
0.0585417203345022
 40
0.3935866215497738
 40
0.728599965200049
 40
1.0
 40
1.0
 40
1.0
 40
1.0
 10
80.76549188985811
 20
3.24447074647376
 30
0.0
 10
80.63515304434672
 20
3.289268327747571
 30
0.0
 10
79.75886130627666
 20
3.590450605385032
 30
0.0
 10
78.13519905908524
 20
4.032144520041317
 30
0.0
 10
76.03805342091985
 20
4.375248219233841
 30
0.0
 10
74.6872429682263
 20
4.358303906998252
 30
0.0
 10
74.08268835763033
 20
4.350720487677668
 30
0.0
  0
SPLINE
  5
B2
330
1F
100
AcDbEntity
  8
0
  6
Continuous
 62
     1
370
    15
100
AcDbSpline
210
0.0
220
0.0
230
1.0
 70
     8
 71
     3
 72
    10
 73
     6
 74
     0
 42
0.000000001
 43
0.00000001
 40
0.0
 40
0.0
 40
0.0
 40
0.0
 40
0.5
 40
0.5
 40
1.0
 40
1.0
 40
1.0
 40
1.0
 10
79.67998282728858
 20
2.92416805158152
 30
0.0
 10
79.85613865226328
 20
3.001197662784102
 30
0.0
 10
80.03770808475873
 20
3.062701240321858
 30
0.0
 10
80.40293912547844
 20
3.167068137280681
 30
0.0
 10
80.58454906874518
 20
3.209127660269438
 30
0.0
 10
80.76549188985815
 20
3.244470746473749
 30
0.0
  0
SPLINE
  5
B3
330
1F
100
AcDbEntity
  8
0
  6
Continuous
 62
     1
370
    15
100
AcDbSpline
210
0.0
220
0.0
230
1.0
 70
     8
 71
     3
 72
     8
 73
     4
 74
     0
 42
0.000000001
 43
0.00000001
 40
0.0
 40
0.0
 40
0.0
 40
0.0
 40
1.0
 40
1.0
 40
1.0
 40
1.0
 10
79.67998282728863
 20
2.92416805158152
 30
0.0
 10
80.87681779279961
 20
2.59794543905168
 30
0.0
 10
82.08579393149047
 20
2.241809922602769
 30
0.0
 10
83.29874943504741
 20
1.875241296535084
 30
0.0
  0
SPLINE
  5
B4
330
1F
100
AcDbEntity
  8
0
  6
Continuous
 62
     1
370
    15
100
AcDbSpline
210
0.0
220
0.0
230
1.0
 70
     8
 71
     3
 72
     8
 73
     4
 74
     0
 42
0.000000001
 43
0.00000001
 40
0.0
 40
0.0
 40
0.0
 40
0.0
 40
1.0
 40
1.0
 40
1.0
 40
1.0
 10
80.76549188985813
 20
-4.172085720569002
 30
0.0
 10
80.55867769902707
 20
-4.023337752360177
 30
0.0
 10
80.34768102592902
 20
-3.875125391561699
 30
0.0
 10
80.13137215812519
 20
-3.727593308805777
 30
0.0
  0
SPLINE
  5
B5
330
1F
100
AcDbEntity
  8
0
  6
Continuous
 62
     1
370
    15
100
AcDbSpline
210
0.0
220
0.0
230
1.0
 70
     8
 71
     3
 72
    28
 73
    24
 74
     0
 42
0.000000001
 43
0.00000001
 40
0.0
 40
0.0
 40
0.0
 40
0.0
 40
0.1250000000000013
 40
0.1250000000000013
 40
0.2500000000000027
 40
0.2500000000000027
 40
0.3125000000000033
 40
0.3125000000000033
 40
0.375000000000004
 40
0.375000000000004
 40
0.4375000000000047
 40
0.4375000000000047
 40
0.5000000000000053
 40
0.5000000000000053
 40
0.625000000000004
 40
0.625000000000004
 40
0.7500000000000027
 40
0.7500000000000027
 40
0.812500000000002
 40
0.812500000000002
 40
0.8750000000000013
 40
0.8750000000000013
 40
1.0
 40
1.0
 40
1.0
 40
1.0
 10
80.76549188985565
 20
-4.172085720568619
 30
0.0
 10
80.27483585457797
 20
-4.09413738902381
 30
0.0
 10
79.77926519100436
 20
-3.99451912322791
 30
0.0
 10
78.80085785850513
 20
-3.756599680780401
 30
0.0
 10
78.30774977553324
 20
-3.617528076347588
 30
0.0
 10
77.56989545644174
 20
-3.382488419942157
 30
0.0
 10
77.3259106398581
 20
-3.299945443519871
 30
0.0
 10
76.83595327154144
 20
-3.12646691693908
 30
0.0
 10
76.5895602045793
 20
-3.035465259315593
 30
0.0
 10
76.0967610228408
 20
-2.845933825236565
 30
0.0
 10
75.85035851118609
 20
-2.747405433819321
 30
0.0
 10
75.36036372288717
 20
-2.543992063185335
 30
0.0
 10
75.11640608682524
 20
-2.439069689232407
 30
0.0
 10
74.37858368552936
 20
-2.114528584777433
 30
0.0
 10
73.8853850032205
 20
-1.886031965288339
 30
0.0
 10
72.90706226445644
 20
-1.413473635851711
 30
0.0
 10
72.41149667964714
 20
-1.167722588360876
 30
0.0
 10
71.6754638494946
 20
-0.7932505284280124
 30
0.0
 10
71.43187398651675
 20
-0.6675577243302796
 30
0.0
 10
70.94046774487418
 20
-0.4140706124255336
 30
0.0
 10
70.69377249292924
 20
-0.2864660547103013
 30
0.0
 10
69.95495115204024
 20
0.0967394588247085
 30
0.0
 10
69.46759576730351
 20
0.3521206683533273
 30
0.0
 10
68.97500000000002
 20
0.6053155179849423
 30
0.0
  0
SPLINE
  5
B6
330
1F
100
AcDbEntity
  8
0
  6
Continuous
 62
     4
370
    15
100
AcDbSpline
210
0.0
220
0.0
230
1.0
 70
    24
 71
     3
 72
    14
 73
    10
 74
     0
 42
0.000000001
 43
0.00000001
 40
0.0
 40
0.0
 40
0.0
 40
0.0
 40
0.2500000000000002
 40
0.2500000000000002
 40
0.5000000000000001
 40
0.5000000000000001
 40
0.75
 40
0.75
 40
1.0
 40
1.0
 40
1.0
 40
1.0
 10
68.97500000000001
 20
5.377327127061372
 30
0.0
 10
68.975
 20
4.95274409513753
 30
0.0
 10
68.97499999999998
 20
4.474210332410355
 30
0.0
 10
68.97499999999998
 20
3.50962963949755
 30
0.0
 10
68.97500000000001
 20
3.025974653708436
 30
0.0
 10
68.97500000000001
 20
2.147419847655257
 30
0.0
 10
68.97500000000001
 20
1.753083141874578
 30
0.0
 10
68.975
 20
1.089640471612954
 30
0.0
 10
68.97500000000002
 20
0.8195904752352166
 30
0.0
 10
68.97500000000001
 20
0.6053155179849203
 30
0.0
  0
SPLINE
  5
B7
330
1F
100
AcDbEntity
  8
0
  6
Continuous
 62
     1
370
    15
100
AcDbSpline
210
0.0
220
0.0
230
1.0
 70
     8
 71
     3
 72
    22
 73
    18
 74
     0
 42
0.000000001
 43
0.00000001
 40
0.0
 40
0.0
 40
0.0
 40
0.0
 40
0.125
 40
0.125
 40
0.25
 40
0.25
 40
0.375
 40
0.375
 40
0.5
 40
0.5
 40
0.625
 40
0.625
 40
0.75
 40
0.75
 40
0.875
 40
0.875
 40
1.0
 40
1.0
 40
1.0
 40
1.0
 10
78.49999999999993
 20
-0.762272505935978
 30
0.0
 10
78.10218241276412
 20
-0.4651371972808902
 30
0.0
 10
77.70303228390635
 20
-0.1651250136611612
 30
0.0
 10
76.91393838895102
 20
0.43169954934225
 30
0.0
 10
76.51526603335816
 20
0.7307047135061302
 30
0.0
 10
75.7194455596017
 20
1.321483065511899
 30
0.0
 10
75.32569661565215
 20
1.61243034927289
 30
0.0
 10
74.53137865339588
 20
2.183352660116683
 30
0.0
 10
74.13182962122985
 20
2.463031408419639
 30
0.0
 10
73.33986207391126
 20
3.002530688326282
 30
0.0
 10
72.94429046370315
 20
3.263109657199371
 30
0.0
 10
72.14805354184315
 20
3.761916743833406
 30
0.0
 10
71.75276027180945
 20
3.99902059378886
 30
0.0
 10
70.96049738730312
 20
4.445489838108522
 30
0.0
 10
70.5609258032988
 20
4.655266212560631
 30
0.0
 10
69.76681518690069
 20
5.041577404290676
 30
0.0
 10
69.37295476969308
 20
5.218118980620385
 30
0.0
 10
68.97499999999944
 20
5.377327127053529
 30
0.0
  0
SPLINE
  5
B8
330
1F
100
AcDbEntity
  8
0
  6
Continuous
 62
     1
370
    15
100
AcDbSpline
210
0.0
220
0.0
230
1.0
 70
     8
 71
     3
 72
    20
 73
    16
 74
     0
 42
0.000000001
 43
0.00000001
 40
0.0
 40
0.0
 40
0.0
 40
0.0
 40
0.1250000000000002
 40
0.1250000000000002
 40
0.2500000000000002
 40
0.2500000000000002
 40
0.3750000000000002
 40
0.3750000000000002
 40
0.5000000000000001
 40
0.5000000000000001
 40
0.6250000000000001
 40
0.6250000000000001
 40
0.7500000000000001
 40
0.7500000000000001
 40
1.0
 40
1.0
 40
1.0
 40
1.0
 10
83.01881921490669
 20
-3.235960018813233
 30
0.0
 10
82.89160267047592
 20
-3.197028255868897
 30
0.0
 10
82.74845965245889
 20
-3.154887488965396
 30
0.0
 10
82.43928383692615
 20
-3.056103533985999
 30
0.0
 10
82.27462633551826
 20
-2.999911556665135
 30
0.0
 10
81.92897863033119
 20
-2.868607314968397
 30
0.0
 10
81.74796093601734
 20
-2.793546240130836
 30
0.0
 10
81.3711146648879
 20
-2.620821897419406
 30
0.0
 10
81.17698340455205
 20
-2.523634871949235
 30
0.0
 10
80.78441792475081
 20
-2.311156591493243
 30
0.0
 10
80.58475413055156
 20
-2.195792891581692
 30
0.0
 10
80.1785571946523
 20
-1.946987345984226
 30
0.0
 10
79.97105879054088
 20
-1.81288993894384
 30
0.0
 10
79.34317953586755
 20
-1.388414793194099
 30
0.0
 10
78.92619829941
 20
-1.08060575038455
 30
0.0
 10
78.5
 20
-0.7622725059360188
 30
0.0
  0
SPLINE
  5
B9
330
1F
100
AcDbEntity
  8
0
  6
Continuous
 62
     1
370
    15
100
AcDbSpline
210
0.0
220
0.0
230
1.0
 70
     8
 71
     3
 72
    12
 73
     8
 74
     0
 42
0.000000001
 43
0.00000001
 40
0.0
 40
0.0
 40
0.0
 40
0.0
 40
0.1243554112245528
 40
0.3384649608858313
 40
0.6289374391597958
 40
0.8121220256482206
 40
1.0
 40
1.0
 40
1.0
 40
1.0
 10
82.94245150625294
 20
-3.21541441454666
 30
0.0
 10
82.86099975731591
 20
-3.18894558007261
 30
0.0
 10
82.63930805329927
 20
-3.116903897794904
 30
0.0
 10
82.06426180742349
 20
-3.127280488945173
 30
0.0
 10
81.36903530955841
 20
-3.268833214365173
 30
0.0
 10
80.6903487366675
 20
-3.48913114292169
 30
0.0
 10
80.31926224781174
 20
-3.647438469668067
 30
0.0
 10
80.13137215812533
 20
-3.727593308805726
 30
0.0
  0
SPLINE
  5
BA
330
1F
100
AcDbEntity
  8
0
  6
Continuous
 62
     1
370
    15
100
AcDbSpline
210
0.0
220
0.0
230
1.0
 70
     8
 71
     3
 72
    12
 73
     8
 74
     0
 42
0.000000001
 43
0.00000001
 40
0.0
 40
0.0
 40
0.0
 40
0.0
 40
0.2192273486005454
 40
0.4442422343276249
 40
0.6146022269994679
 40
0.7888888447202816
 40
0.9999999999999999
 40
0.9999999999999999
 40
0.9999999999999999
 40
0.9999999999999999
 10
78.49999999999999
 20
-6.080659614061599
 30
0.0
 10
78.76383846543347
 20
-6.009196107163339
 30
0.0
 10
79.29848065370948
 20
-5.864382477933088
 30
0.0
 10
80.04092931264542
 20
-5.499351208548606
 30
0.0
 10
80.73025897011327
 20
-5.082542495266021
 30
0.0
 10
81.4042830514303
 20
-4.61112700201101
 30
0.0
 10
81.87159967519304
 20
-4.264239772175865
 30
0.0
 10
82.12758390560487
 20
-4.074223718704332
 30
0.0
  0
ARC
  5
BB
330
1F
100
AcDbEntity
  8
0
  6
Continuous
 62
     1
370
    15
100
AcDbCircle
 10
78.41922987560082
 20
0.0413550333117312
 30
0.0
 40
6.433938360498487
100
AcDbArc
 50
319.323630649712
 51
352.5506383077786
  0
ARC
  5
BC
330
1F
100
AcDbEntity
  8
0
  6
Continuous
 62
     1
370
    15
100
AcDbCircle
 10
80.69750634455431
 20
0.3084565127349446
 30
0.0
 40
4.236907125625428
100
AcDbArc
 50
303.2216318135959
 51
346.0908706421148
  0
ARC
  5
BD
330
1F
100
AcDbEntity
  8
0
  6
Continuous
 62
     1
370
    15
100
AcDbCircle
 10
81.3916815870017
 20
-1.40049536269044
 30
0.0
 40
3.790429848664109
100
AcDbArc
 50
25.3752581654993
 51
59.79289843897585
  0
ARC
  5
BE
330
1F
100
AcDbEntity
  8
0
  6
Continuous
 62
     1
370
    15
100
AcDbCircle
 10
78.93659928652119
 20
0.0419289544789418
 30
0.0
 40
5.882627518305162
100
AcDbArc
 50
1.772400298708735
 51
46.05679348160082
  0
SPLINE
  5
BF
330
1F
100
AcDbEntity
  8
0
  6
Continuous
 62
     1
370
    15
100
AcDbSpline
210
0.0
220
0.0
230
1.0
 70
     8
 71
     3
 72
    20
 73
    16
 74
     0
 42
0.000000001
 43
0.00000001
 40
0.0
 40
0.0
 40
0.0
 40
0.0
 40
0.125
 40
0.125
 40
0.2500000000000001
 40
0.2500000000000001
 40
0.3750000000000001
 40
0.3750000000000001
 40
0.5000000000000001
 40
0.5000000000000001
 40
0.6250000000000001
 40
0.6250000000000001
 40
0.7500000000000002
 40
0.7500000000000002
 40
1.0
 40
1.0
 40
1.0
 40
1.0
 10
83.01881921490669
 20
4.277585571275589
 30
0.0
 10
82.89160267047593
 20
4.45575713381743
 30
0.0
 10
82.74845965245893
 20
4.625868791585505
 30
0.0
 10
82.4392838369262
 20
4.941502244738801
 30
0.0
 10
82.27462633551826
 20
5.085851076896965
 30
0.0
 10
81.9289786303312
 20
5.346336160116111
 30
0.0
 10
81.7479609360173
 20
5.462491934615442
 30
0.0
 10
81.3711146648879
 20
5.664825660186229
 30
0.0
 10
81.17698340455205
 20
5.749874034291254
 30
0.0
 10
80.7844179247508
 20
5.885681289559053
 30
0.0
 10
80.58475413055157
 20
5.93712050519024
 30
0.0
 10
80.1785571946523
 20
6.007143806532679
 30
0.0
 10
79.97105879054094
 20
6.025725587211777
 30
0.0
 10
79.34317953586758
 20
6.030430530497322
 30
0.0
 10
78.92619829941
 20
5.966462352711114
 30
0.0
 10
78.5
 20
5.840630778106804
 30
0.0
  0
LINE
  5
C0
330
1F
100
AcDbEntity
  8
0
  6
Continuous
 62
     4
370
    15
100
AcDbLine
 10
68.97499999999951
 20
5.377327127053585
 30
0.0
 11
68.97499999999998
 21
6.211581148931598
 31
0.0
  0
SPLINE
  5
C1
330
1F
100
AcDbEntity
  8
0
  6
Continuous
 62
     1
370
    15
100
AcDbSpline
210
0.0
220
0.0
230
1.0
 70
     8
 71
     3
 72
    22
 73
    18
 74
     0
 42
0.000000001
 43
0.00000001
 40
0.0
 40
0.0
 40
0.0
 40
0.0
 40
0.1250000000000001
 40
0.1250000000000001
 40
0.2500000000000001
 40
0.2500000000000001
 40
0.3750000000000002
 40
0.3750000000000002
 40
0.5000000000000002
 40
0.5000000000000002
 40
0.6250000000000001
 40
0.6250000000000001
 40
0.7500000000000001
 40
0.7500000000000001
 40
0.875
 40
0.875
 40
1.0
 40
1.0
 40
1.0
 40
1.0
 10
78.49999999999997
 20
-6.08065961406161
 30
0.0
 10
78.10218241276417
 20
-6.166903890971833
 30
0.0
 10
77.70303228390642
 20
-6.232878480127344
 30
0.0
 10
76.91393838895114
 20
-6.32266096557407
 30
0.0
 10
76.51526603335834
 20
-6.346810934047022
 30
0.0
 10
75.7194455596019
 20
-6.352596047901453
 30
0.0
 10
75.32569661565239
 20
-6.334369938286445
 30
0.0
 10
74.53137865339616
 20
-6.255891887447402
 30
0.0
 10
74.13182962123015
 20
-6.195515790822642
 30
0.0
 10
73.33986207391162
 20
-6.034411513416132
 30
0.0
 10
72.9442904637035
 20
-5.933571751729326
 30
0.0
 10
72.14805354184352
 20
-5.692612394256723
 30
0.0
 10
71.7527602718099
 20
-5.553045729452237
 30
0.0
 10
70.96049738730362
 20
-5.237848230244496
 30
0.0
 10
70.56092580329934
 20
-5.061777407799392
 30
0.0
 10
69.76681518690123
 20
-4.677862365898288
 30
0.0
 10
69.37295476969366
 20
-4.470250025475709
 30
0.0
 10
68.97500000000004
 20
-4.247749296433811
 30
0.0
  0
SPLINE
  5
C2
330
1F
100
AcDbEntity
  8
0
  6
Continuous
 62
     1
370
    15
100
AcDbSpline
210
0.0
220
0.0
230
1.0
 70
     8
 71
     3
 72
    12
 73
     8
 74
     0
 42
0.000000001
 43
0.00000001
 40
0.0
 40
0.0
 40
0.0
 40
0.0
 40
0.0507408357321161
 40
0.3458817074514211
 40
0.6414404009344643
 40
0.9370805660558704
 40
1.0
 40
1.0
 40
1.0
 40
1.0
 10
80.3862311871174
 20
-3.903895872922664
 30
0.0
 10
80.43512930059279
 20
-3.910396527580888
 30
0.0
 10
80.76844984480528
 20
-3.954709111327221
 30
0.0
 10
81.3903346459095
 20
-4.015471653171371
 30
0.0
 10
82.25120529513774
 20
-4.087039295271091
 30
0.0
 10
82.8880709299432
 20
-4.128413072992797
 30
0.0
 10
83.23744233065916
 20
-4.148643741828901
 30
0.0
 10
83.29874943504741
 20
-4.152193785489136
 30
0.0
  0
SPLINE
  5
C3
330
1F
100
AcDbEntity
  8
0
  6
Continuous
 62
     4
370
    15
100
AcDbSpline
210
0.0
220
0.0
230
1.0
 70
    24
 71
     3
 72
    14
 73
    10
 74
     0
 42
0.000000001
 43
0.00000001
 40
0.0
 40
0.0
 40
0.0
 40
0.0
 40
0.25
 40
0.25
 40
0.5
 40
0.5
 40
0.75
 40
0.75
 40
1.0
 40
1.0
 40
1.0
 40
1.0
 10
68.97500000000004
 20
0.6053155179849149
 30
0.0
 10
68.97500000000004
 20
0.3265427775827448
 30
0.0
 10
68.97500000000002
 20
-0.0047271851742997
 30
0.0
 10
68.97500000000001
 20
-0.7668735089114121
 30
0.0
 10
68.97500000000001
 20
-1.19836441329399
 30
0.0
 10
68.97500000000001
 20
-2.107641525706581
 30
0.0
 10
68.97500000000002
 20
-2.584351900890236
 30
0.0
 10
68.97500000000002
 20
-3.482729234359217
 30
0.0
 10
68.97500000000001
 20
-3.901965226396908
 30
0.0
 10
68.97500000000002
 20
-4.247749296432989
 30
0.0
  0
SPLINE
  5
C4
330
1F
100
AcDbEntity
  8
0
  6
Continuous
 62
     1
370
    15
100
AcDbSpline
210
0.0
220
0.0
230
1.0
 70
     8
 71
     3
 72
    10
 73
     6
 74
     0
 42
0.000000001
 43
0.00000001
 40
0.0
 40
0.0
 40
0.0
 40
0.0
 40
0.4338266029635349
 40
0.8676489653237287
 40
1.0
 40
1.0
 40
1.0
 40
1.0
 10
68.97499999999944
 20
-5.613580609613835
 30
0.0
 10
69.56754561348353
 20
-5.794338561750453
 30
0.0
 10
70.75263104838893
 20
-6.155852699136246
 30
0.0
 10
72.11848125944822
 20
-6.364335340334581
 30
0.0
 10
72.89179165722288
 20
-6.32846418425156
 30
0.0
 10
73.07256389379764
 20
-6.320078794462016
 30
0.0
  0
LINE
  5
C5
330
1F
100
AcDbEntity
  8
0
  6
Continuous
 62
     4
370
    15
100
AcDbLine
 10
68.97499999999951
 20
-5.613580609613792
 30
0.0
 11
68.97499999999998
 21
-4.247749296433844
 31
0.0
  0
SPLINE
  5
C6
330
1F
100
AcDbEntity
  8
0
  6
Continuous
 62
     1
370
    15
100
AcDbSpline
210
0.0
220
0.0
230
1.0
 70
     8
 71
     3
 72
     9
 73
     5
 74
     0
 42
0.000000001
 43
0.00000001
 40
0.0
 40
0.0
 40
0.0
 40
0.0
 40
0.3915681428518696
 40
1.0
 40
1.0
 40
1.0
 40
1.0
 10
75.05500667551584
 20
4.337365949961161
 30
0.0
 10
75.50465888695446
 20
4.587155416784648
 30
0.0
 10
76.65299595075061
 20
5.22507622669584
 30
0.0
 10
77.80132190627118
 20
5.60778100133415
 30
0.0
 10
78.49999999999994
 20
5.840630778106794
 30
0.0
  0
SPLINE
  5
C7
330
1F
100
AcDbEntity
  8
0
  6
Continuous
 62
     1
370
    15
100
AcDbSpline
210
0.0
220
0.0
230
1.0
 70
     8
 71
     3
 72
    16
 73
    12
 74
     0
 42
0.000000001
 43
0.00000001
 40
0.0
 40
0.0
 40
0.0
 40
0.0
 40
0.1250000000000036
 40
0.1250000000000036
 40
0.2500000000000072
 40
0.2500000000000072
 40
0.5000000000000048
 40
0.5000000000000048
 40
0.7500000000000023
 40
0.7500000000000023
 40
1.0
 40
1.0
 40
1.0
 40
1.0
 10
83.01881921490669
 20
4.27758557127561
 30
0.0
 10
82.94312445320973
 20
4.162416158117293
 30
0.0
 10
82.85699861451306
 20
4.056119721187587
 30
0.0
 10
82.66299630977504
 20
3.862028560947535
 30
0.0
 10
82.55564322925218
 20
3.775204670248893
 30
0.0
 10
82.21738268426573
 20
3.55262176596121
 30
0.0
 10
81.96339290768911
 20
3.450146622309936
 30
0.0
 10
81.44742647953214
 20
3.328704374568193
 30
0.0
 10
81.17810572905996
 20
3.307433330120376
 30
0.0
 10
80.65023576660141
 20
3.329260558819281
 30
0.0
 10
80.38941463613835
 20
3.371109063216164
 30
0.0
 10
80.13137215812517
 20
3.440562393427687
 30
0.0
  0
LINE
  5
C8
330
1F
100
AcDbEntity
  8
중심선
100
AcDbLine
 10
-70.55
 20
-0.0000000000000104
 30
0.0
 11
87.81641240959512
 21
-0.0000000000000104
 31
0.0
  0
CIRCLE
  5
C9
330
1F
100
AcDbEntity
  8
외형선
100
AcDbCircle
 10
0.0
 20
0.0
 30
0.0
 40
3.000000000000004
  0
INSERT
  5
CA
330
1F
100
AcDbEntity
  8
0
  6
Continuous
 62
     7
100
AcDbBlockReference
 66
     1
  2
블럭10
 10
-8.640786299681437
 20
-51.95764267978461
 30
0.0
  0
ATTRIB
  5
CB
330
CA
100
AcDbEntity
  8
FORMAT
 62
     2
100
AcDbText
 10
-17.82208158842272
 20
-49.88227576695243
 30
0.0
 40
4.233333333333333
  1
E5978901 [ 3 FLUTE ]
 41
0.75
  7
SLDTEXTSTYLE0
 11
-17.82208158842272
 21
-51.99894243361909
 31
0.0
100
AcDbAttribute
  2
AUTOATTR0
 70
     0
 74
     1
  0
SEQEND
  5
CC
330
CA
100
AcDbEntity
  8
0
  6
Continuous
 62
     7
  0
HATCH
  5
CD
330
1F
100
AcDbEntity
  8
중심선
100
AcDbHatch
 10
0.0
 20
0.0
 30
0.0
210
0.0
220
0.0
230
1.0
  2
SOLID
 70
     1
 71
     0
 91
        1
 92
        0
 93
        4
 72
     1
 10
-2.925876995300587
 20
-35.71046837814068
 11
-6.37215223913787
 21
-35.71046837814068
 72
     1
 10
-6.37215223913787
 20
-35.71046837814068
 11
-8.500382098341893
 21
-38.24679395871328
 72
     1
 10
-8.500382098341893
 20
-38.24679395871328
 11
-5.054073769391461
 21
-38.24675452941079
 72
     1
 10
-5.054073769391461
 20
-38.24675452941079
 11
-2.925876995300587
 21
-35.71046837814068
 97
        0
 75
     0
 76
     1
 98
        1
 10
-9.858856814308677
 20
0.0
  0
HATCH
  5
CE
330
1F
100
AcDbEntity
  8
중심선
100
AcDbHatch
 10
0.0
 20
0.0
 30
0.0
210
0.0
220
0.0
230
1.0
  2
SOLID
 70
     1
 71
     0
 91
        1
 92
        0
 93
        4
 72
     1
 10
2.086886995735364
 20
-35.71046837814068
 11
-1.359388248101919
 21
-35.71046837814068
 72
     1
 10
-1.359388248101919
 20
-35.71046837814068
 11
-5.890526256459307
 21
-41.11046837814069
 72
     1
 10
-5.890526256459307
 20
-41.11046837814069
 11
-2.444251012622025
 21
-41.11046837814069
 72
     1
 10
-2.444251012622025
 20
-41.11046837814069
 11
2.086886995735365
 21
-35.71046837814068
 97
        0
 75
     0
 76
     1
 98
        1
 10
-9.858856814308677
 20
0.0
  0
HATCH
  5
CF
330
1F
100
AcDbEntity
  8
중심선
100
AcDbHatch
 10
0.0
 20
0.0
 30
0.0
210
0.0
220
0.0
230
1.0
  2
SOLID
 70
     1
 71
     0
 91
        1
 92
        0
 93
        4
 72
     1
 10
7.099650986771259
 20
-35.71046837814071
 11
3.653375742934143
 21
-35.71046837814068
 72
     1
 10
3.653375742934143
 20
-35.71046837814068
 11
-3.395061158955105
 21
-44.1104683781407
 72
     1
 10
-3.395061158955105
 20
-44.1104683781407
 11
0.0512140848821776
 21
-44.1104683781407
 72
     1
 10
0.0512140848821776
 20
-44.1104683781407
 11
7.099650986771259
 21
-35.71046837814071
 97
        0
 75
     0
 76
     1
 98
        1
 10
-9.858856814308677
 20
0.0
  0
HATCH
  5
D0
330
1F
100
AcDbEntity
  8
중심선
100
AcDbHatch
 10
0.0
 20
0.0
 30
0.0
210
0.0
220
0.0
230
1.0
  2
SOLID
 70
     1
 71
     0
 91
        1
 92
        0
 93
        6
 72
     3
 10
11.89954141778346
 20
-39.91046837819196
 11
3.960054785062283
 21
1.540882976769353E-10
 40
0.3939339440162628
 50
17.09539180608436
 51
320.0019657685081
 73
     0
 72
     1
 10
13.58254107348406
 20
-38.49836238277899
 11
15.88784294718509
 21
-36.56403567273106
 72
     3
 10
11.89954141773061
 20
-39.91046837814083
 11
6.600054785286829
 21
-1.278976924368180E-13
 40
0.636358354079598
 50
39.99873849337411
 51
368.4976242363724
 73
     1
 72
     1
 10
18.32487390963122
 20
-38.9504683780707
 11
10.57960872456653
 21
-38.95046837807067
 72
     1
 10
10.57960872456653
 20
-38.95046837807067
 11
10.5795836801206
 21
-40.8704683780706
 72
     1
 10
10.5795836801206
 20
-40.8704683780706
 11
15.02096344959264
 21
-40.87046837807057
 97
        0
 75
     0
 76
     1
 98
        1
 10
-9.858856814308677
 20
0.0
  0
POINT
  5
D1
330
1F
100
AcDbEntity
  8
치수문자_일반주서
100
AcDbPoint
 10
-67.55000000000001
 20
-0.0000000000000104
 30
0.0
  0
DIMENSION
  5
D2
330
1F
100
AcDbEntity
  8
치수문자_일반주서
100
AcDbDimension
  2
_D
 10
-79.04645802161205
 20
-6.350000000000049
 30
0.0
 11
-79.04645802161208
 21
-0.0000000000000026
 31
0.0
 70
   160
  1
%%c<>
 71
     2
 42
12.7
 52
-270.0
  3
SLDDIMSTYLE0
100
AcDbAlignedDimension
 13
-66.55
 23
6.349999999999997
 33
0.0
 14
-66.55
 24
-6.350000000000002
 34
0.0
 50
90.0000000000002
100
AcDbRotatedDimension
1001
PE_URL
1000

1001
ACAD
1000
DSTYLE
1002
{
1070
   171
1070
     6
1070
   273
1070
     7
1002
}
  0
DIMENSION
  5
E7
330
1F
100
AcDbEntity
  8
치수문자_일반주서
100
AcDbDimension
  2
_D_1
 10
84.85000000000001
 20
46.35000000000005
 30
0.0
 11
14.48205120299134
 21
46.35000000000005
 31
0.0
 70
   160
  1
<>
 71
     2
 42
152.4
  3
SLDDIMSTYLE0
100
AcDbAlignedDimension
 13
-67.55
 23
5.349999999999997
 33
0.0
 14
84.85
 24
0.0000000000000078
 34
0.0
 50
-0.0000000000000053
100
AcDbRotatedDimension
1001
PE_URL
1000

1001
ACAD
1000
DSTYLE
1002
{
1070
   171
1070
     6
1070
   273
1070
     7
1002
}
  0
DIMENSION
  5
FB
330
1F
100
AcDbEntity
  8
치수문자_일반주서
100
AcDbDimension
  2
_D_2
 10
84.85
 20
33.99541034598419
 30
0.0
 11
43.17669746294824
 21
33.99541034598419
 31
0.0
 70
   160
  1
<>
 71
     2
 42
82.55
  3
SLDDIMSTYLE0
100
AcDbAlignedDimension
 13
2.299999999999995
 23
6.050000000000008
 33
0.0
 14
84.85
 24
0.0000000000000078
 34
0.0
100
AcDbRotatedDimension
1001
PE_URL
1000

1001
ACAD
1000
DSTYLE
1002
{
1070
   171
1070
     6
1070
   273
1070
     7
1002
}
  0
DIMENSION
  5
10F
330
1F
100
AcDbEntity
  8
치수문자_일반주서
100
AcDbDimension
  2
_D_3
 10
84.85
 20
25.56612234586108
 30
0.0
 11
76.12057577143077
 21
25.56612234586108
 31
0.0
 70
   160
  1
<>
 71
     2
 42
15.87500000000026
  3
SLDDIMSTYLE0
100
AcDbAlignedDimension
 13
68.97499999999998
 23
6.211581148931598
 33
0.0
 14
84.85
 24
0.0000000000000078
 34
0.0
 50
-0.0000000000022358
100
AcDbRotatedDimension
1001
PE_URL
1000

1001
ACAD
1000
DSTYLE
1002
{
1070
   171
1070
     6
1070
   273
1070
     7
1002
}
  0
INSERT
  5
12B
330
1F
100
AcDbEntity
  8
외형선
100
AcDbBlockReference
  2
SW_DOWELSYMBOL_0
 10
0.0
 20
0.0
 30
0.0
  0
DIMENSION
  5
154
330
1F
100
AcDbEntity
  8
치수문자_일반주서
100
AcDbDimension
  2
*D7
 10
104.8935781391155
 20
6.350000000000001
 30
0.0
 11
104.8935781391155
 21
26.29775
 31
0.0
 70
   160
  1
{%%C<>[]}
 71
     5
 42
12.7
  3
SLDDIMSTYLE0
100
AcDbAlignedDimension
 13
84.85
 23
-6.349999999999994
 33
0.0
 14
84.85
 24
6.350000000000005
 34
0.0
 50
90.0
100
AcDbRotatedDimension
1001
ACAD
1000
DSTYLE
1002
{
1070
   171
1070
     6
1070
   273
1070
     7
1002
}
1001
PE_URL
1000

  0
ENDSEC
  0
SECTION
  2
OBJECTS
  0
DICTIONARY
  5
C
330
0
100
AcDbDictionary
281
     1
  3
ACAD_GROUP
350
D
  3
ACAD_IMAGE_VARS
350
14F
  3
ACAD_LAYOUT
350
1A
  3
ACAD_MLINESTYLE
350
17
  3
ACAD_PLOTSETTINGS
350
19
  3
ACAD_PLOTSTYLENAME
350
E
  3
ACAD_SCALELIST
350
47
  3
APPDATA
350
14D
  3
DWGPROPS
350
2CC
  0
DICTIONARY
  5
2CA
330
1F
100
AcDbDictionary
280
     1
281
     1
  3
DIM_BOUNDING_BOXES_V1
360
2CB
  0
DICTIONARY
  5
D
102
{ACAD_REACTORS
330
C
102
}
330
C
100
AcDbDictionary
281
     1
  0
RASTERVARIABLES
  5
14F
102
{ACAD_REACTORS
330
C
102
}
330
C
100
AcDbRasterVariables
 90
        0
 70
     1
 71
     1
 72
     1
  0
DICTIONARY
  5
1A
102
{ACAD_REACTORS
330
C
102
}
330
C
100
AcDbDictionary
281
     1
  3
Layout1
350
1E
  3
Layout2
350
26
  3
Model
350
22
  0
DICTIONARY
  5
17
102
{ACAD_REACTORS
330
C
102
}
330
C
100
AcDbDictionary
281
     1
  3
Standard
350
18
  0
DICTIONARY
  5
19
102
{ACAD_REACTORS
330
C
102
}
330
C
100
AcDbDictionary
281
     1
  0
ACDBDICTIONARYWDFLT
  5
E
102
{ACAD_REACTORS
330
C
102
}
330
C
100
AcDbDictionary
281
     1
  3
Normal
350
F
100
AcDbDictionaryWithDefault
340
F
  0
DICTIONARY
  5
47
102
{ACAD_REACTORS
330
C
102
}
330
C
100
AcDbDictionary
281
     1
  3
A0
350
48
  3
A1
350
49
  3
A2
350
4A
  3
A3
350
4B
  3
A4
350
4C
  3
A5
350
4D
  3
A6
350
4E
  3
A7
350
4F
  3
A8
350
50
  3
A9
350
51
  3
B0
350
52
  3
B1
350
53
  3
B2
350
54
  3
B3
350
55
  3
B4
350
56
  3
B5
350
57
  3
B6
350
58
  3
B7
350
59
  3
B8
350
5A
  3
B9
350
5B
  3
C0
350
5C
  3
C1
350
5D
  3
C2
350
5E
  3
C3
350
5F
  3
C4
350
60
  3
C5
350
61
  3
C6
350
62
  3
C7
350
63
  3
C8
350
64
  3
C9
350
65
  3
D0
350
66
  3
D1
350
67
  3
D2
350
68
  0
DICTIONARY
  5
14D
102
{ACAD_REACTORS
330
C
102
}
330
C
100
AcDbDictionary
281
     1
  0
XRECORD
  5
2CC
102
{ACAD_REACTORS
330
C
102
}
330
C
100
AcDbXrecord
280
     1
  1
DWGPROPS COOKIE
  2

  3

  4

  6

  7

  8
12014102
  9

300
=
301
=
302
=
303
=
304
=
305
=
306
=
307
=
308
=
309
=
 40
0.0
 41
2458269.361687998
 42
2459723.984033715
  1

 90
        0
  0
DICTIONARY
  5
2CB
102
{ACAD_REACTORS
330
2CA
102
}
330
2CA
100
AcDbDictionary
281
     1
  0
LAYOUT
  5
1E
102
{ACAD_REACTORS
330
1A
102
}
330
1A
100
AcDbPlotSettings
  1

  2
none_device
  4

  6

 40
0.0
 41
0.0
 42
0.0
 43
0.0
 44
0.0
 45
0.0
 46
0.0
 47
0.0
 48
0.0
 49
0.0
140
0.0
141
0.0
142
1.0
143
1.0
 70
   688
 72
     1
 73
     0
 74
     5
  7

 75
    16
147
1.0
148
0.0
149
0.0
100
AcDbLayout
  1
Layout1
 70
     1
 71
     1
 10
0.0
 20
0.0
 11
420.0
 21
297.0
 12
0.0
 22
0.0
 32
0.0
 14
1.000000000000000E+20
 24
1.000000000000000E+20
 34
1.000000000000000E+20
 15
-1.000000000000000E+20
 25
-1.000000000000000E+20
 35
-1.000000000000000E+20
146
0.0
 13
0.0
 23
0.0
 33
0.0
 16
1.0
 26
0.0
 36
0.0
 17
0.0
 27
1.0
 37
0.0
 76
     0
330
1B
  0
LAYOUT
  5
26
102
{ACAD_REACTORS
330
1A
102
}
330
1A
100
AcDbPlotSettings
  1

  2
none_device
  4

  6

 40
0.0
 41
0.0
 42
0.0
 43
0.0
 44
0.0
 45
0.0
 46
0.0
 47
0.0
 48
0.0
 49
0.0
140
0.0
141
0.0
142
1.0
143
1.0
 70
   688
 72
     1
 73
     0
 74
     5
  7

 75
    16
147
1.0
148
0.0
149
0.0
100
AcDbLayout
  1
Layout2
 70
     1
 71
     2
 10
0.0
 20
0.0
 11
0.0
 21
0.0
 12
0.0
 22
0.0
 32
0.0
 14
0.0
 24
0.0
 34
0.0
 15
0.0
 25
0.0
 35
0.0
146
0.0
 13
0.0
 23
0.0
 33
0.0
 16
1.0
 26
0.0
 36
0.0
 17
0.0
 27
1.0
 37
0.0
 76
     0
330
23
  0
LAYOUT
  5
22
102
{ACAD_REACTORS
330
1A
102
}
330
1A
100
AcDbPlotSettings
  1

  2
none_device
  4
ANSI_A_(11.00_x_8.50_Inches)
  6

 40
6.35
 41
19.05
 42
6.35000508
 43
19.05000254
 44
279.4
 45
215.9
 46
117.2700826219433
 47
83.92075978073915
 48
0.0
 49
0.0
140
0.0
141
0.0
142
0.060163833860599
143
1.0
 70
  1696
 72
     0
 73
     0
 74
     0
  7

 75
     0
147
0.0235690232323232
148
0.0
149
0.0
100
AcDbLayout
  1
Model
 70
     1
 71
     0
 10
0.0
 20
0.0
 11
420.0
 21
297.0
 12
0.0
 22
0.0
 32
0.0
 14
-83.42145802161212
 24
-49.88227576695243
 34
0.0
 15
105.4439114724488
 25
50.72500000000007
 35
0.0
146
0.0
 13
0.0
 23
0.0
 33
0.0
 16
1.0
 26
0.0
 36
0.0
 17
0.0
 27
1.0
 37
0.0
 76
     0
330
1F
331
29
  0
MLINESTYLE
  5
18
102
{ACAD_REACTORS
330
17
102
}
330
17
100
AcDbMlineStyle
  2
Standard
 70
     0
  3

 62
   256
 51
90.0
 52
90.0
 71
     2
 49
0.5
 62
   256
  6
BYLAYER
 49
-0.5
 62
   256
  6
BYLAYER
  0
ACDBPLACEHOLDER
  5
F
102
{ACAD_REACTORS
330
E
102
}
330
E
  0
SCALE
  5
48
102
{ACAD_REACTORS
330
47
102
}
330
47
100
AcDbScale
 70
     0
300
1:1
140
1.0
141
1.0
290
     1
  0
SCALE
  5
49
102
{ACAD_REACTORS
330
47
102
}
330
47
100
AcDbScale
 70
     0
300
1:2
140
1.0
141
2.0
290
     0
  0
SCALE
  5
4A
102
{ACAD_REACTORS
330
47
102
}
330
47
100
AcDbScale
 70
     0
300
1:4
140
1.0
141
4.0
290
     0
  0
SCALE
  5
4B
102
{ACAD_REACTORS
330
47
102
}
330
47
100
AcDbScale
 70
     0
300
1:5
140
1.0
141
5.0
290
     0
  0
SCALE
  5
4C
102
{ACAD_REACTORS
330
47
102
}
330
47
100
AcDbScale
 70
     0
300
1:8
140
1.0
141
8.0
290
     0
  0
SCALE
  5
4D
102
{ACAD_REACTORS
330
47
102
}
330
47
100
AcDbScale
 70
     0
300
1:10
140
1.0
141
10.0
290
     0
  0
SCALE
  5
4E
102
{ACAD_REACTORS
330
47
102
}
330
47
100
AcDbScale
 70
     0
300
1:16
140
1.0
141
16.0
290
     0
  0
SCALE
  5
4F
102
{ACAD_REACTORS
330
47
102
}
330
47
100
AcDbScale
 70
     0
300
1:20
140
1.0
141
20.0
290
     0
  0
SCALE
  5
50
102
{ACAD_REACTORS
330
47
102
}
330
47
100
AcDbScale
 70
     0
300
1:30
140
1.0
141
30.0
290
     0
  0
SCALE
  5
51
102
{ACAD_REACTORS
330
47
102
}
330
47
100
AcDbScale
 70
     0
300
1:40
140
1.0
141
40.0
290
     0
  0
SCALE
  5
52
102
{ACAD_REACTORS
330
47
102
}
330
47
100
AcDbScale
 70
     0
300
1:50
140
1.0
141
50.0
290
     0
  0
SCALE
  5
53
102
{ACAD_REACTORS
330
47
102
}
330
47
100
AcDbScale
 70
     0
300
1:100
140
1.0
141
100.0
290
     0
  0
SCALE
  5
54
102
{ACAD_REACTORS
330
47
102
}
330
47
100
AcDbScale
 70
     0
300
2:1
140
2.0
141
1.0
290
     0
  0
SCALE
  5
55
102
{ACAD_REACTORS
330
47
102
}
330
47
100
AcDbScale
 70
     0
300
4:1
140
4.0
141
1.0
290
     0
  0
SCALE
  5
56
102
{ACAD_REACTORS
330
47
102
}
330
47
100
AcDbScale
 70
     0
300
8:1
140
8.0
141
1.0
290
     0
  0
SCALE
  5
57
102
{ACAD_REACTORS
330
47
102
}
330
47
100
AcDbScale
 70
     0
300
10:1
140
10.0
141
1.0
290
     0
  0
SCALE
  5
58
102
{ACAD_REACTORS
330
47
102
}
330
47
100
AcDbScale
 70
     0
300
100:1
140
100.0
141
1.0
290
     0
  0
SCALE
  5
59
102
{ACAD_REACTORS
330
47
102
}
330
47
100
AcDbScale
 70
     0
300
1/128" = 1'-0"
140
0.0078125
141
12.0
290
     0
  0
SCALE
  5
5A
102
{ACAD_REACTORS
330
47
102
}
330
47
100
AcDbScale
 70
     0
300
1/64" = 1'-0"
140
0.015625
141
12.0
290
     0
  0
SCALE
  5
5B
102
{ACAD_REACTORS
330
47
102
}
330
47
100
AcDbScale
 70
     0
300
1/32" = 1'-0"
140
0.03125
141
12.0
290
     0
  0
SCALE
  5
5C
102
{ACAD_REACTORS
330
47
102
}
330
47
100
AcDbScale
 70
     0
300
1/16" = 1'-0"
140
0.0625
141
12.0
290
     0
  0
SCALE
  5
5D
102
{ACAD_REACTORS
330
47
102
}
330
47
100
AcDbScale
 70
     0
300
3/32" = 1'-0"
140
0.09375
141
12.0
290
     0
  0
SCALE
  5
5E
102
{ACAD_REACTORS
330
47
102
}
330
47
100
AcDbScale
 70
     0
300
1/8" = 1'-0"
140
0.125
141
12.0
290
     0
  0
SCALE
  5
5F
102
{ACAD_REACTORS
330
47
102
}
330
47
100
AcDbScale
 70
     0
300
3/16" = 1'-0"
140
0.1875
141
12.0
290
     0
  0
SCALE
  5
60
102
{ACAD_REACTORS
330
47
102
}
330
47
100
AcDbScale
 70
     0
300
1/4" = 1'-0"
140
0.25
141
12.0
290
     0
  0
SCALE
  5
61
102
{ACAD_REACTORS
330
47
102
}
330
47
100
AcDbScale
 70
     0
300
3/8" = 1'-0"
140
0.375
141
12.0
290
     0
  0
SCALE
  5
62
102
{ACAD_REACTORS
330
47
102
}
330
47
100
AcDbScale
 70
     0
300
1/2" = 1'-0"
140
0.5
141
12.0
290
     0
  0
SCALE
  5
63
102
{ACAD_REACTORS
330
47
102
}
330
47
100
AcDbScale
 70
     0
300
3/4" = 1'-0"
140
0.75
141
12.0
290
     0
  0
SCALE
  5
64
102
{ACAD_REACTORS
330
47
102
}
330
47
100
AcDbScale
 70
     0
300
1" = 1'-0"
140
1.0
141
12.0
290
     0
  0
SCALE
  5
65
102
{ACAD_REACTORS
330
47
102
}
330
47
100
AcDbScale
 70
     0
300
1-1/2" = 1'-0"
140
1.5
141
12.0
290
     0
  0
SCALE
  5
66
102
{ACAD_REACTORS
330
47
102
}
330
47
100
AcDbScale
 70
     0
300
3" = 1'-0"
140
3.0
141
12.0
290
     0
  0
SCALE
  5
67
102
{ACAD_REACTORS
330
47
102
}
330
47
100
AcDbScale
 70
     0
300
6" = 1'-0"
140
6.0
141
12.0
290
     0
  0
SCALE
  5
68
102
{ACAD_REACTORS
330
47
102
}
330
47
100
AcDbScale
 70
     0
300
1'-0" = 1'-0"
140
12.0
141
12.0
290
     0
  0
ENDSEC
  0
EOF
