  0
SECTION
  2
HEADER
  9
$ACADVER
  1
AC1015
  9
$ACADMAINTVER
 70
     6
  9
$DWGCODEPAGE
  3
ANSI_949
  9
$INSBASE
 10
0.0
 20
0.0
 30
0.0
  9
$EXTMIN
 10
-58.01895802161211
 20
-49.88227576695243
 30
0.0
  9
$EXTMAX
 10
79.03935950827525
 20
49.13750000000005
 30
0.0
  9
$LIMMIN
 10
0.0
 20
0.0
  9
$LIMMAX
 10
420.0
 20
297.0
  9
$ORTHOMODE
 70
     1
  9
$REGENMODE
 70
     1
  9
$FILLMODE
 70
     1
  9
$QTEXTMODE
 70
     0
  9
$MIRRTEXT
 70
     1
  9
$LTSCALE
 40
1.0
  9
$ATTMODE
 70
     1
  9
$TEXTSIZE
 40
3.5
  9
$TRACEWID
 40
1.0
  9
$TEXTSTYLE
  7
Standard
  9
$CLAYER
  8
0
  9
$CELTYPE
  6
ByLayer
  9
$CECOLOR
 62
   256
  9
$CELTSCALE
 40
1.0
  9
$DISPSILH
 70
     0
  9
$DIMSCALE
 40
1.0
  9
$DIMASZ
 40
3.302
  9
$DIMEXO
 40
1.0
  9
$DIMDLI
 40
3.75
  9
$DIMRND
 40
0.0
  9
$DIMDLE
 40
0.0
  9
$DIMEXE
 40
1.0
  9
$DIMTP
 40
0.0
  9
$DIMTM
 40
0.0
  9
$DIMTXT
 40
3.5
  9
$DIMCEN
 40
2.5
  9
$DIMTSZ
 40
0.0
  9
$DIMTOL
 70
     0
  9
$DIMLIM
 70
     0
  9
$DIMTIH
 70
     1
  9
$DIMTOH
 70
     1
  9
$DIMSE1
 70
     0
  9
$DIMSE2
 70
     0
  9
$DIMTAD
 70
     1
  9
$DIMZIN
 70
     0
  9
$DIMBLK
  1

  9
$DIMASO
 70
     1
  9
$DIMSHO
 70
     1
  9
$DIMPOST
  1

  9
$DIMAPOST
  1

  9
$DIMALT
 70
     0
  9
$DIMALTD
 70
     3
  9
$DIMALTF
 40
0.0393700787401575
  9
$DIMLFAC
 40
1.0
  9
$DIMTOFL
 70
     1
  9
$DIMTVP
 40
0.0
  9
$DIMTIX
 70
     0
  9
$DIMSOXD
 70
     0
  9
$DIMSAH
 70
     0
  9
$DIMBLK1
  1

  9
$DIMBLK2
  1

  9
$DIMSTYLE
  2
ISO-25
  9
$DIMCLRD
 70
     0
  9
$DIMCLRE
 70
     0
  9
$DIMCLRT
 70
     0
  9
$DIMTFAC
 40
1.0
  9
$DIMGAP
 40
1.524
  9
$DIMJUST
 70
     0
  9
$DIMSD1
 70
     0
  9
$DIMSD2
 70
     0
  9
$DIMTOLJ
 70
     0
  9
$DIMTZIN
 70
     0
  9
$DIMALTZ
 70
     0
  9
$DIMALTTZ
 70
     0
  9
$DIMUPT
 70
     0
  9
$DIMDEC
 70
     2
  9
$DIMTDEC
 70
     2
  9
$DIMALTU
 70
     2
  9
$DIMALTTD
 70
     3
  9
$DIMTXSTY
  7
Standard
  9
$DIMAUNIT
 70
     0
  9
$DIMADEC
 70
     2
  9
$DIMALTRND
 40
0.0
  9
$DIMAZIN
 70
     0
  9
$DIMDSEP
 70
    44
  9
$DIMATFIT
 70
     3
  9
$DIMFRAC
 70
     0
  9
$DIMLDRBLK
  1

  9
$DIMLUNIT
 70
     2
  9
$DIMLWD
 70
    -2
  9
$DIMLWE
 70
    -2
  9
$DIMTMOVE
 70
     0
  9
$LUNITS
 70
     2
  9
$LUPREC
 70
     2
  9
$SKETCHINC
 40
1.0
  9
$FILLETRAD
 40
10.0
  9
$AUNITS
 70
     0
  9
$AUPREC
 70
     2
  9
$MENU
  1
.
  9
$ELEVATION
 40
0.0
  9
$PELEVATION
 40
0.0
  9
$THICKNESS
 40
0.0
  9
$LIMCHECK
 70
     0
  9
$CHAMFERA
 40
0.0
  9
$CHAMFERB
 40
0.0
  9
$CHAMFERC
 40
0.0
  9
$CHAMFERD
 40
0.0
  9
$SKPOLY
 70
     0
  9
$TDCREATE
 40
2458269.736102454
  9
$TDUCREATE
 40
2458269.361102454
  9
$TDUPDATE
 40
2458275.40470331
  9
$TDUUPDATE
 40
2458275.02970331
  9
$TDINDWG
 40
0.0032526273
  9
$TDUSRTIMER
 40
2458275.025631597
  9
$USRTIMER
 70
     1
  9
$ANGBASE
 50
0.0
  9
$ANGDIR
 70
     0
  9
$PDMODE
 70
     0
  9
$PDSIZE
 40
-1.0
  9
$PLINEWID
 40
0.0
  9
$SPLFRAME
 70
     0
  9
$SPLINETYPE
 70
     6
  9
$SPLINESEGS
 70
     8
  9
$HANDSEED
  5
16D
  9
$SURFTAB1
 70
     6
  9
$SURFTAB2
 70
     6
  9
$SURFTYPE
 70
     6
  9
$SURFU
 70
     6
  9
$SURFV
 70
     6
  9
$UCSBASE
  2

  9
$UCSNAME
  2

  9
$UCSORG
 10
0.0
 20
0.0
 30
0.0
  9
$UCSXDIR
 10
1.0
 20
0.0
 30
0.0
  9
$UCSYDIR
 10
0.0
 20
1.0
 30
0.0
  9
$UCSORTHOREF
  2

  9
$UCSORTHOVIEW
 70
     0
  9
$UCSORGTOP
 10
0.0
 20
0.0
 30
0.0
  9
$UCSORGBOTTOM
 10
0.0
 20
0.0
 30
0.0
  9
$UCSORGLEFT
 10
0.0
 20
0.0
 30
0.0
  9
$UCSORGRIGHT
 10
0.0
 20
0.0
 30
0.0
  9
$UCSORGFRONT
 10
0.0
 20
0.0
 30
0.0
  9
$UCSORGBACK
 10
0.0
 20
0.0
 30
0.0
  9
$PUCSBASE
  2

  9
$PUCSNAME
  2

  9
$PUCSORG
 10
0.0
 20
0.0
 30
0.0
  9
$PUCSXDIR
 10
1.0
 20
0.0
 30
0.0
  9
$PUCSYDIR
 10
0.0
 20
1.0
 30
0.0
  9
$PUCSORTHOREF
  2

  9
$PUCSORTHOVIEW
 70
     0
  9
$PUCSORGTOP
 10
0.0
 20
0.0
 30
0.0
  9
$PUCSORGBOTTOM
 10
0.0
 20
0.0
 30
0.0
  9
$PUCSORGLEFT
 10
0.0
 20
0.0
 30
0.0
  9
$PUCSORGRIGHT
 10
0.0
 20
0.0
 30
0.0
  9
$PUCSORGFRONT
 10
0.0
 20
0.0
 30
0.0
  9
$PUCSORGBACK
 10
0.0
 20
0.0
 30
0.0
  9
$USERI1
 70
     0
  9
$USERI2
 70
     0
  9
$USERI3
 70
     0
  9
$USERI4
 70
     0
  9
$USERI5
 70
     0
  9
$USERR1
 40
0.0
  9
$USERR2
 40
0.0
  9
$USERR3
 40
0.0
  9
$USERR4
 40
0.0
  9
$USERR5
 40
0.0
  9
$WORLDVIEW
 70
     1
  9
$SHADEDGE
 70
     3
  9
$SHADEDIF
 70
    70
  9
$TILEMODE
 70
     1
  9
$MAXACTVP
 70
    64
  9
$PINSBASE
 10
0.0
 20
0.0
 30
0.0
  9
$PLIMCHECK
 70
     0
  9
$PEXTMIN
 10
1.000000000000000E+20
 20
1.000000000000000E+20
 30
1.000000000000000E+20
  9
$PEXTMAX
 10
-1.000000000000000E+20
 20
-1.000000000000000E+20
 30
-1.000000000000000E+20
  9
$PLIMMIN
 10
0.0
 20
0.0
  9
$PLIMMAX
 10
0.0
 20
0.0
  9
$UNITMODE
 70
     0
  9
$VISRETAIN
 70
     1
  9
$PLINEGEN
 70
     0
  9
$PSLTSCALE
 70
     1
  9
$TREEDEPTH
 70
  3020
  9
$CMLSTYLE
  2
Standard
  9
$CMLJUST
 70
     0
  9
$CMLSCALE
 40
20.0
  9
$PROXYGRAPHICS
 70
     1
  9
$MEASUREMENT
 70
     1
  9
$CELWEIGHT
370
    -1
  9
$ENDCAPS
280
     0
  9
$JOINSTYLE
280
     0
  9
$LWDISPLAY
290
     1
  9
$INSUNITS
 70
     4
  9
$HYPERLINKBASE
  1

  9
$STYLESHEET
  1

  9
$XEDIT
290
     1
  9
$CEPSNTYPE
380
     0
  9
$PSTYLEMODE
290
     1
  9
$FINGERPRINTGUID
  2
{502E3621-6DC9-461C-A210-D2D60B0010EE}
  9
$VERSIONGUID
  2
{FAEB1C32-E019-11D5-929B-00C0DF256EC4}
  9
$EXTNAMES
290
     1
  9
$PSVPSCALE
 40
0.0
  9
$OLESTARTUP
290
     0
  0
ENDSEC
  0
SECTION
  2
CLASSES
  0
CLASS
  1
ACDBDICTIONARYWDFLT
  2
AcDbDictionaryWithDefault
  3
ObjectDBX Classes
 90
        0
280
     0
281
     0
  0
CLASS
  1
VISUALSTYLE
  2
AcDbVisualStyle
  3
ObjectDBX Classes
 90
     4095
280
     0
281
     0
  0
CLASS
  1
MATERIAL
  2
AcDbMaterial
  3
ObjectDBX Classes
 90
     1153
280
     0
281
     0
  0
CLASS
  1
SCALE
  2
AcDbScale
  3
ObjectDBX Classes
 90
     1153
280
     0
281
     0
  0
CLASS
  1
SUN
  2
AcDbSun
  3
SCENEOE
 90
     1153
280
     0
281
     0
  0
CLASS
  1
ACDBPLACEHOLDER
  2
AcDbPlaceHolder
  3
ObjectDBX Classes
 90
        0
280
     0
281
     0
  0
CLASS
  1
LAYOUT
  2
AcDbLayout
  3
ObjectDBX Classes
 90
        0
280
     0
281
     0
  0
CLASS
  1
TABLESTYLE
  2
AcDbTableStyle
  3
ObjectDBX Classes
 90
     4095
280
     0
281
     0
  0
CLASS
  1
MLEADERSTYLE
  2
AcDbMLeaderStyle
  3
ACDB_MLEADERSTYLE_CLASS
 90
     4095
280
     0
281
     0
  0
CLASS
  1
RASTERVARIABLES
  2
AcDbRasterVariables
  3
ISM
 90
        0
280
     0
281
     0
  0
CLASS
  1
DIMASSOC
  2
AcDbDimAssoc
  3
"AcDbDimAssoc|Product Desc:     AcDim ARX App For Dimension|Company:          Autodesk, Inc.|WEB Address:      www.autodesk.com"
 90
        0
280
     0
281
     0
  0
ENDSEC
  0
SECTION
  2
TABLES
  0
TABLE
  2
VPORT
  5
8
330
0
100
AcDbSymbolTable
 70
     1
  0
VPORT
  5
29
330
8
100
AcDbSymbolTableRecord
100
AcDbViewportTableRecord
  2
*Active
 70
     0
 10
0.0
 20
0.0
 11
1.0
 21
1.0
 12
17.72102790135569
 22
-3.569471408624016
 13
0.0
 23
0.0
 14
10.0
 24
10.0
 15
10.0
 25
10.0
 16
0.0
 26
0.0
 36
1.0
 17
0.0
 27
0.0
 37
0.0
 40
23.00689213190937
 41
1.515444015444015
 42
50.0
 43
0.0
 44
0.0
 50
0.0
 51
0.0
 71
    16
 72
  2000
 73
     1
 74
     3
 75
     0
 76
     0
 77
     0
 78
     0
281
     0
 65
     1
110
0.0
120
0.0
130
0.0
111
1.0
121
0.0
131
0.0
112
0.0
122
1.0
132
0.0
 79
     0
146
0.0
  0
ENDTAB
  0
TABLE
  2
LTYPE
  5
5
330
0
100
AcDbSymbolTable
 70
     6
  0
LTYPE
  5
14
330
5
100
AcDbSymbolTableRecord
100
AcDbLinetypeTableRecord
  2
ByBlock
 70
     0
  3

 72
    65
 73
     0
 40
0.0
  0
LTYPE
  5
15
330
5
100
AcDbSymbolTableRecord
100
AcDbLinetypeTableRecord
  2
ByLayer
 70
     0
  3

 72
    65
 73
     0
 40
0.0
  0
LTYPE
  5
16
330
5
100
AcDbSymbolTableRecord
100
AcDbLinetypeTableRecord
  2
Continuous
 70
     0
  3
Solid line
 72
    65
 73
     0
 40
0.0
  0
LTYPE
  5
6A
330
5
100
AcDbSymbolTableRecord
100
AcDbLinetypeTableRecord
  2
HIDDEN
 70
     0
  3
Hidden __ __ __ __ __ __ __ __ __ __ __ __ __ __
 72
    65
 73
     2
 40
1.905
 49
1.27
 74
     0
 49
-0.635
 74
     0
  0
LTYPE
  5
6B
330
5
100
AcDbSymbolTableRecord
100
AcDbLinetypeTableRecord
  2
PHANTOM
 70
     0
  3
Phantom ______  __  __  ______  __  __  ______
 72
    65
 73
     6
 40
12.7
 49
6.35
 74
     0
 49
-1.27
 74
     0
 49
1.27
 74
     0
 49
-1.27
 74
     0
 49
1.27
 74
     0
 49
-1.27
 74
     0
  0
LTYPE
  5
6C
330
5
100
AcDbSymbolTableRecord
100
AcDbLinetypeTableRecord
  2
CENTER
 70
     0
  3
Center ____ _ ____ _ ____ _ ____ _ ____ _ ____
 72
    65
 73
     4
 40
10.16
 49
6.35
 74
     0
 49
-1.27
 74
     0
 49
1.27
 74
     0
 49
-1.27
 74
     0
  0
LTYPE
  5
6D
330
5
100
AcDbSymbolTableRecord
100
AcDbLinetypeTableRecord
  2
CENTERX2
 70
     0
  3
Center (2x) ________  __  ________  __  _____
 72
    65
 73
     4
 40
20.32
 49
12.7
 74
     0
 49
-2.54
 74
     0
 49
2.54
 74
     0
 49
-2.54
 74
     0
  0
LTYPE
  5
6E
330
5
100
AcDbSymbolTableRecord
100
AcDbLinetypeTableRecord
  2
DOT2
 70
     0
  3
Dot (.5x) ........................................
 72
    65
 73
     2
 40
0.635
 49
0.0
 74
     0
 49
-0.635
 74
     0
  0
ENDTAB
  0
TABLE
  2
LAYER
  5
2
330
0
100
AcDbSymbolTable
 70
    17
  0
LAYER
  5
10
330
2
100
AcDbSymbolTableRecord
100
AcDbLayerTableRecord
  2
0
 70
     0
 62
     7
  6
Continuous
370
    -3
390
F
  0
LAYER
  5
6F
330
2
100
AcDbSymbolTableRecord
100
AcDbLayerTableRecord
  2
FORMAT
 70
     0
 62
     2
  6
Continuous
370
    -3
390
F
  0
LAYER
  5
70
330
2
100
AcDbSymbolTableRecord
100
AcDbLayerTableRecord
  2
외형선
 70
     0
 62
   100
  6
Continuous
370
    30
390
F
  0
LAYER
  5
71
330
2
100
AcDbSymbolTableRecord
100
AcDbLayerTableRecord
  2
숨은선
 70
     0
 62
     2
  6
HIDDEN
370
    15
390
F
  0
LAYER
  5
72
330
2
100
AcDbSymbolTableRecord
100
AcDbLayerTableRecord
  2
중심선
 70
     0
 62
     1
  6
CENTERX2
370
    -3
390
F
  0
LAYER
  5
73
330
2
100
AcDbSymbolTableRecord
100
AcDbLayerTableRecord
  2
파단선
 70
     0
 62
     4
  6
Continuous
370
    -3
390
F
  0
LAYER
  5
74
330
2
100
AcDbSymbolTableRecord
100
AcDbLayerTableRecord
  2
해칭선
 70
     0
 62
     4
  6
Continuous
370
    -3
390
F
  0
LAYER
  5
75
330
2
100
AcDbSymbolTableRecord
100
AcDbLayerTableRecord
  2
가는실선
 70
     0
 62
     4
  6
Continuous
370
    -3
390
F
  0
LAYER
  5
76
330
2
100
AcDbSymbolTableRecord
100
AcDbLayerTableRecord
  2
치수_보조선
 70
     0
 62
     4
  6
Continuous
370
    -3
390
F
  0
LAYER
  5
77
330
2
100
AcDbSymbolTableRecord
100
AcDbLayerTableRecord
  2
치수문자_일반주서
 70
     0
 62
     7
  6
Continuous
370
    15
390
F
  0
LAYER
  5
78
330
2
100
AcDbSymbolTableRecord
100
AcDbLayerTableRecord
  2
개별주서
 70
     0
 62
   100
  6
Continuous
370
    30
390
F
  0
LAYER
  5
79
330
2
100
AcDbSymbolTableRecord
100
AcDbLayerTableRecord
  2
중간선
 70
     0
 62
     2
  6
Continuous
370
    15
390
F
  0
LAYER
  5
7A
330
2
100
AcDbSymbolTableRecord
100
AcDbLayerTableRecord
  2
윤곽선
 70
     0
 62
     3
  6
Continuous
370
    40
390
F
  0
LAYER
  5
7B
330
2
100
AcDbSymbolTableRecord
100
AcDbLayerTableRecord
  2
중심마크
 70
     0
 62
   100
  6
Continuous
370
    30
390
F
  0
LAYER
  5
7C
330
2
100
AcDbSymbolTableRecord
100
AcDbLayerTableRecord
  2
가상선
 70
     0
 62
     4
  6
PHANTOM
370
    -3
390
F
  0
LAYER
  5
7D
330
2
100
AcDbSymbolTableRecord
100
AcDbLayerTableRecord
  2
특수지정선
 70
     0
 62
     5
  6
CENTERX2
370
    60
390
F
  0
LAYER
  5
150
330
2
100
AcDbSymbolTableRecord
100
AcDbLayerTableRecord
  2
Defpoints
 70
     0
 62
     7
  6
Continuous
290
     0
370
    -3
390
F
  0
ENDTAB
  0
TABLE
  2
STYLE
  5
3
330
0
100
AcDbSymbolTable
 70
     2
  0
STYLE
  5
11
330
3
100
AcDbSymbolTableRecord
100
AcDbTextStyleTableRecord
  2
Standard
 70
     0
 40
0.0
 41
1.0
 50
0.0
 71
     0
 42
3.5
  3
txt
  4

  0
STYLE
  5
93
330
3
100
AcDbSymbolTableRecord
100
AcDbTextStyleTableRecord
  2
SLDTEXTSTYLE0
 70
     0
 40
0.0
 41
0.75
 50
0.0
 71
     0
 42
3.5
  3
TXT
  4

  0
ENDTAB
  0
TABLE
  2
VIEW
  5
6
330
0
100
AcDbSymbolTable
 70
     0
  0
ENDTAB
  0
TABLE
  2
UCS
  5
7
330
0
100
AcDbSymbolTable
 70
     0
  0
ENDTAB
  0
TABLE
  2
APPID
  5
9
330
0
100
AcDbSymbolTable
 70
     2
  0
APPID
  5
12
330
9
100
AcDbSymbolTableRecord
100
AcDbRegAppTableRecord
  2
ACAD
 70
     0
  0
APPID
  5
168
330
9
100
AcDbSymbolTableRecord
100
AcDbRegAppTableRecord
  2
PE_DIMMEASUREMENT
 70
     0
  0
ENDTAB
  0
TABLE
  2
DIMSTYLE
  5
A
330
0
100
AcDbSymbolTable
 70
     3
100
AcDbDimStyleTable
  0
DIMSTYLE
105
27
330
A
100
AcDbSymbolTableRecord
100
AcDbDimStyleTableRecord
  2
ISO-25
 70
     0
 41
2.5
 42
0.625
 43
3.75
 44
1.25
 73
     0
 74
     0
 77
     1
 78
     8
140
2.5
141
2.5
143
0.03937007874016
147
0.625
171
     3
172
     1
178
     0
271
     2
272
     2
274
     3
278
    44
283
     0
284
     8
340
11
  0
DIMSTYLE
105
D5
102
{ACAD_REACTORS
330
D4
330
110
330
156
102
}
330
A
100
AcDbSymbolTableRecord
100
AcDbDimStyleTableRecord
  2
SLDDIMSTYLE0
 70
     0
 41
3.302
 44
0.0
 45
0.000000001
 73
     0
 74
     0
 77
     1
 78
    12
 79
     3
140
3.5
143
0.0393700787401575
147
0.875
148
0.000000001
170
     1
172
     1
173
     1
178
     0
271
     2
272
     2
276
     2
284
    12
289
     0
340
93
  0
DIMSTYLE
105
EA
102
{ACAD_REACTORS
330
E9
330
FD
102
}
330
A
100
AcDbSymbolTableRecord
100
AcDbDimStyleTableRecord
  2
SLDDIMSTYLE1
 70
     0
 41
3.302
 44
0.0
 45
0.000000001
 73
     0
 74
     0
 77
     1
 78
    12
 79
     3
140
3.5
143
0.0393700787401575
147
0.875
148
0.000000001
170
     1
173
     1
178
     0
271
     2
272
     2
276
     2
284
    12
340
93
  0
ENDTAB
  0
TABLE
  2
BLOCK_RECORD
  5
1
330
0
100
AcDbSymbolTable
 70
     8
  0
BLOCK_RECORD
  5
1F
330
1
100
AcDbSymbolTableRecord
100
AcDbBlockTableRecord
  2
*Model_Space
340
22
  0
BLOCK_RECORD
  5
1B
330
1
100
AcDbSymbolTableRecord
100
AcDbBlockTableRecord
  2
*Paper_Space
340
1E
  0
BLOCK_RECORD
  5
23
330
1
100
AcDbSymbolTableRecord
100
AcDbBlockTableRecord
  2
*Paper_Space0
340
26
  0
BLOCK_RECORD
  5
7E
330
1
100
AcDbSymbolTableRecord
100
AcDbBlockTableRecord
  2
블럭10
340
0
102
{BLKREFS
331
CC
102
}
  0
BLOCK_RECORD
  5
D6
330
1
100
AcDbSymbolTableRecord
100
AcDbBlockTableRecord
  2
_D
340
0
  0
BLOCK_RECORD
  5
EB
330
1
100
AcDbSymbolTableRecord
100
AcDbBlockTableRecord
  2
_D_1
340
0
  0
BLOCK_RECORD
  5
FE
330
1
100
AcDbSymbolTableRecord
100
AcDbBlockTableRecord
  2
_D_2
340
0
  0
BLOCK_RECORD
  5
111
330
1
100
AcDbSymbolTableRecord
100
AcDbBlockTableRecord
  2
_D_3
340
0
  0
BLOCK_RECORD
  5
125
330
1
100
AcDbSymbolTableRecord
100
AcDbBlockTableRecord
  2
SW_DOWELSYMBOL_0
340
0
102
{BLKREFS
331
12B
102
}
  0
BLOCK_RECORD
  5
159
330
1
100
AcDbSymbolTableRecord
100
AcDbBlockTableRecord
  2
*D7
340
0
  0
ENDTAB
  0
ENDSEC
  0
SECTION
  2
BLOCKS
  0
BLOCK
  5
20
330
1F
100
AcDbEntity
  8
0
100
AcDbBlockBegin
  2
*Model_Space
 70
     0
 10
0.0
 20
0.0
 30
0.0
  3
*Model_Space
  1
*Model_Space
  0
ENDBLK
  5
21
330
1F
100
AcDbEntity
  8
0
100
AcDbBlockEnd
  0
BLOCK
  5
1C
330
1B
100
AcDbEntity
 67
     1
  8
0
100
AcDbBlockBegin
  2
*Paper_Space
 70
     0
 10
0.0
 20
0.0
 30
0.0
  3
*Paper_Space
  1
*Paper_Space
  0
ENDBLK
  5
1D
330
1B
100
AcDbEntity
 67
     1
  8
0
100
AcDbBlockEnd
  0
BLOCK
  5
24
330
23
100
AcDbEntity
  8
0
100
AcDbBlockBegin
  2
*Paper_Space0
 70
     0
 10
0.0
 20
0.0
 30
0.0
  3
*Paper_Space0
  1
*Paper_Space0
  0
ENDBLK
  5
25
330
23
100
AcDbEntity
  8
0
100
AcDbBlockEnd
  0
BLOCK
  5
7F
330
7E
100
AcDbEntity
  8
0
100
AcDbBlockBegin
  2
블럭10
 70
     2
 10
0.0
 20
0.0
 30
0.0
  3
블럭10
  1
블럭10
  0
ELLIPSE
  5
81
330
7E
100
AcDbEntity
  8
중심선
100
AcDbEllipse
 10
20.54032771741204
 20
12.0471743016438
 30
0.0
 11
6.600054785286829
 21
-1.261213355974178E-13
 31
0.0
210
0.0
220
0.0
230
1.0
 40
0.636358354079598
 41
0.9219305317359503
 42
6.513795318482858
  0
ELLIPSE
  5
82
330
7E
100
AcDbEntity
  8
중심선
100
AcDbEllipse
 10
20.54032771746488
 20
12.04717430159265
 30
0.0
 11
3.960054785062283
 21
1.540847449632565E-10
 31
0.0
210
0.0
220
0.0
230
1.0
 40
0.3939339440162632
 41
1.131841032648279
 42
5.62031148352944
  0
LINE
  5
83
330
7E
100
AcDbEntity
  8
중심선
100
AcDbLine
 10
2.268634060543552
 20
16.24717430164393
 30
0.0
 11
5.714909304380834
 21
16.24717430164393
 31
0.0
  0
LINE
  5
84
330
7E
100
AcDbEntity
  8
중심선
100
AcDbLine
 10
5.245725140726316
 20
7.84717430164391
 30
0.0
 11
8.692000384563599
 21
7.84717430164391
 31
0.0
  0
LINE
  5
85
330
7E
100
AcDbEntity
  8
중심선
100
AcDbLine
 10
15.74043728645272
 20
16.24717430164393
 30
0.0
 11
8.692000384563599
 21
7.84717430164391
 31
0.0
  0
LINE
  5
86
330
7E
100
AcDbEntity
  8
중심선
100
AcDbLine
 10
0.1404042013395286
 20
13.71084872107135
 30
0.0
 11
3.58671253028996
 21
13.71088815037384
 31
0.0
  0
LINE
  5
87
330
7E
100
AcDbEntity
  8
중심선
100
AcDbLine
 10
2.750260043222114
 20
10.84717430164391
 30
0.0
 11
6.196535287059397
 21
10.84717430164391
 31
0.0
  0
LINE
  5
88
330
7E
100
AcDbEntity
  8
중심선
100
AcDbLine
 10
12.29416204261559
 20
16.24717430164393
 30
0.0
 11
5.245725140726316
 21
7.84717430164391
 31
0.0
  0
LINE
  5
89
330
7E
100
AcDbEntity
  8
중심선
100
AcDbLine
 10
10.72767329541681
 20
16.24717430164393
 30
0.0
 11
6.196535287059397
 21
10.84717430164391
 31
0.0
  0
LINE
  5
8A
330
7E
100
AcDbEntity
  8
중심선
100
AcDbLine
 10
7.28139805157953
 20
16.24717430164393
 30
0.0
 11
2.750260043222114
 21
10.84717430164391
 31
0.0
  0
LINE
  5
8B
330
7E
100
AcDbEntity
  8
중심선
100
AcDbLine
 10
5.714909304380834
 20
16.24717430164393
 30
0.0
 11
3.58671253028996
 21
13.71088815037384
 31
0.0
  0
LINE
  5
8C
330
7E
100
AcDbEntity
  8
중심선
100
AcDbLine
 10
2.268634060543552
 20
16.24717430164393
 30
0.0
 11
0.1404042013395286
 21
13.71084872107135
 31
0.0
  0
LINE
  5
8D
330
7E
100
AcDbEntity
  8
중심선
100
AcDbLine
 10
7.28139805157953
 20
16.24717430164393
 30
0.0
 11
10.72767329541681
 21
16.24717430164393
 31
0.0
  0
LINE
  5
8E
330
7E
100
AcDbEntity
  8
중심선
100
AcDbLine
 10
12.29416204261559
 20
16.24717430164393
 30
0.0
 11
15.74043728645272
 21
16.24717430164393
 31
0.0
  0
LINE
  5
8F
330
7E
100
AcDbEntity
  8
중심선
100
AcDbLine
 10
19.22036997980202
 20
11.08717430171403
 30
0.0
 11
23.66174974927406
 21
11.08717430171406
 31
0.0
  0
LINE
  5
90
330
7E
100
AcDbEntity
  8
중심선
100
AcDbLine
 10
19.22039502424796
 20
13.00717430171391
 30
0.0
 11
19.22036997980202
 21
11.08717430171403
 31
0.0
  0
LINE
  5
91
330
7E
100
AcDbEntity
  8
중심선
100
AcDbLine
 10
19.22039502424796
 20
13.00717430171391
 30
0.0
 11
26.96566020931264
 21
13.00717430171391
 31
0.0
  0
LINE
  5
92
330
7E
100
AcDbEntity
  8
중심선
100
AcDbLine
 10
22.22332737316547
 20
13.45928029700563
 30
0.0
 11
24.52862924686651
 21
15.39360700705356
 31
0.0
  0
ATTDEF
  5
94
330
7E
100
AcDbEntity
  8
FORMAT
 62
     2
100
AcDbText
 10
-9.18129528874128
 20
2.075366912832191
 30
0.0
 40
4.233333333333333
  1
E5978024 [ 3 FLUTE ]
 41
0.75
  7
SLDTEXTSTYLE0
 11
-9.18129528874128
 21
-0.0412997538344756
 31
0.0
100
AcDbAttributeDefinition
  3

  2
AUTOATTR0
 70
     0
 74
     1
  0
ENDBLK
  5
80
330
7E
100
AcDbEntity
  8
0
100
AcDbBlockEnd
  0
BLOCK
  5
D7
330
D6
100
AcDbEntity
  8
0
100
AcDbBlockBegin
  2
_D
 70
     0
 10
0.0
 20
0.0
 30
0.0
  3
_D
  1
_D
  0
LINE
  5
D9
330
D6
100
AcDbEntity
  8
치수문자_일반주서
 62
     0
370
    -2
100
AcDbLine
 10
-41.21
 20
4.762499999999995
 30
0.0
 11
-53.64395802161209
 21
4.762499999999948
 31
0.0
  0
LINE
  5
DA
330
D6
100
AcDbEntity
  8
치수문자_일반주서
 62
     0
370
    -2
100
AcDbLine
 10
-41.21
 20
-4.762500000000004
 30
0.0
 11
-53.64395802161205
 21
-4.762500000000051
 31
0.0
  0
LINE
  5
DB
330
D6
100
AcDbEntity
  8
치수문자_일반주서
 62
     0
370
    -2
100
AcDbLine
 10
-53.64395802161207
 20
1.460499999999948
 30
0.0
 11
-53.64395802161206
 21
-1.460500000000051
 31
0.0
  0
SOLID
  5
DC
330
D6
100
AcDbEntity
  8
치수문자_일반주서
 62
     0
100
AcDbTrace
 10
-53.09362468827874
 20
1.46049999999995
 30
0.0
 11
-54.19429135494541
 21
1.460499999999946
 31
0.0
 12
-53.64395802161209
 22
4.762499999999948
 32
0.0
 13
-53.64395802161209
 23
4.762499999999948
 33
0.0
  0
SOLID
  5
DD
330
D6
100
AcDbEntity
  8
치수문자_일반주서
 62
     0
100
AcDbTrace
 10
-54.1942913549454
 20
-1.460500000000053
 30
0.0
 11
-53.09362468827873
 21
-1.460500000000049
 31
0.0
 12
-53.64395802161205
 22
-4.762500000000051
 32
0.0
 13
-53.64395802161205
 23
-4.762500000000051
 33
0.0
  0
MTEXT
  5
DE
330
D6
100
AcDbEntity
  8
치수문자_일반주서
 62
     0
100
AcDbMText
 10
-58.01895802161207
 20
-0.0000000000000208
 30
0.0
 40
3.5
 41
0.0
 71
     2
 72
     1
  1
\A1;%%c9.53 [3/8]
  7
SLDTEXTSTYLE0
 11
-3.729883127349608E-15
 21
1.0
 31
0.0
 73
     1
 44
1.0
  0
POINT
  5
DF
330
D6
100
AcDbEntity
  8
Defpoints
 62
     0
100
AcDbPoint
 10
-41.1475
 20
4.762499999999995
 30
0.0
  0
POINT
  5
E0
330
D6
100
AcDbEntity
  8
Defpoints
 62
     0
100
AcDbPoint
 10
-41.1475
 20
-4.762500000000004
 30
0.0
  0
POINT
  5
E1
330
D6
100
AcDbEntity
  8
Defpoints
 62
     0
100
AcDbPoint
 10
-53.64395802161205
 20
-4.762500000000051
 30
0.0
  0
ENDBLK
  5
D8
330
D6
100
AcDbEntity
  8
0
100
AcDbBlockEnd
  0
BLOCK
  5
EC
330
EB
100
AcDbEntity
  8
0
100
AcDbBlockBegin
  2
_D_1
 70
     0
 10
0.0
 20
0.0
 30
0.0
  3
_D_1
  1
_D_1
  0
LINE
  5
EE
330
EB
100
AcDbEntity
  8
치수문자_일반주서
 62
     0
370
    -2
100
AcDbLine
 10
-42.1475
 20
3.824999999999996
 30
0.0
 11
-42.1475
 21
44.76250000000005
 31
0.0
  0
LINE
  5
EF
330
EB
100
AcDbEntity
  8
치수문자_일반주서
 62
     0
370
    -2
100
AcDbLine
 10
59.45250000000001
 20
0.0625000000000025
 30
0.0
 11
59.45250000000001
 21
44.76250000000005
 31
0.0
  0
LINE
  5
F0
330
EB
100
AcDbEntity
  8
치수문자_일반주서
 62
     0
370
    -2
100
AcDbLine
 10
-38.8455
 20
44.76250000000005
 30
0.0
 11
56.15050000000001
 21
44.76250000000005
 31
0.0
  0
SOLID
  5
F1
330
EB
100
AcDbEntity
  8
치수문자_일반주서
 62
     0
100
AcDbTrace
 10
-38.8455
 20
45.31283333333339
 30
0.0
 11
-38.8455
 21
44.21216666666672
 31
0.0
 12
-42.1475
 22
44.76250000000005
 32
0.0
 13
-42.1475
 23
44.76250000000005
 33
0.0
  0
SOLID
  5
F2
330
EB
100
AcDbEntity
  8
치수문자_일반주서
 62
     0
100
AcDbTrace
 10
56.15050000000001
 20
44.21216666666672
 30
0.0
 11
56.15050000000001
 21
45.31283333333339
 31
0.0
 12
59.45250000000001
 22
44.76250000000005
 32
0.0
 13
59.45250000000001
 23
44.76250000000005
 33
0.0
  0
MTEXT
  5
F3
330
EB
100
AcDbEntity
  8
치수문자_일반주서
 62
     0
100
AcDbMText
 10
12.53902720930829
 20
49.13750000000005
 30
0.0
 40
3.5
 41
0.0
 71
     2
 72
     1
  1
\A1;101.6 [4]
  7
SLDTEXTSTYLE0
 73
     1
 44
1.0
  0
POINT
  5
F4
330
EB
100
AcDbEntity
  8
Defpoints
 62
     0
100
AcDbPoint
 10
-42.1475
 20
3.762499999999996
 30
0.0
  0
POINT
  5
F5
330
EB
100
AcDbEntity
  8
Defpoints
 62
     0
100
AcDbPoint
 10
59.45250000000001
 20
0.0000000000000025
 30
0.0
  0
POINT
  5
F6
330
EB
100
AcDbEntity
  8
Defpoints
 62
     0
100
AcDbPoint
 10
59.45250000000001
 20
44.76250000000005
 30
0.0
  0
ENDBLK
  5
ED
330
EB
100
AcDbEntity
  8
0
100
AcDbBlockEnd
  0
BLOCK
  5
FF
330
FE
100
AcDbEntity
  8
0
100
AcDbBlockBegin
  2
_D_2
 70
     0
 10
0.0
 20
0.0
 30
0.0
  3
_D_2
  1
_D_2
  0
LINE
  5
101
330
FE
100
AcDbEntity
  8
치수문자_일반주서
 62
     0
370
    -2
100
AcDbLine
 10
2.302499999999998
 20
4.522500000000002
 30
0.0
 11
2.302500000000002
 21
36.56045759345145
 31
0.0
  0
LINE
  5
102
330
FE
100
AcDbEntity
  8
치수문자_일반주서
 62
     0
370
    -2
100
AcDbLine
 10
59.45250000000001
 20
0.0625000000000025
 30
0.0
 11
59.45250000000001
 21
36.56045759345145
 31
0.0
  0
LINE
  5
103
330
FE
100
AcDbEntity
  8
치수문자_일반주서
 62
     0
370
    -2
100
AcDbLine
 10
5.604500000000002
 20
36.56045759345145
 30
0.0
 11
56.15050000000002
 21
36.56045759345145
 31
0.0
  0
SOLID
  5
104
330
FE
100
AcDbEntity
  8
치수문자_일반주서
 62
     0
100
AcDbTrace
 10
5.604500000000002
 20
37.11079092678478
 30
0.0
 11
5.604500000000002
 21
36.01012426011811
 31
0.0
 12
2.302500000000002
 22
36.56045759345145
 32
0.0
 13
2.302500000000002
 23
36.56045759345145
 33
0.0
  0
SOLID
  5
105
330
FE
100
AcDbEntity
  8
치수문자_일반주서
 62
     0
100
AcDbTrace
 10
56.15050000000002
 20
36.01012426011811
 30
0.0
 11
56.15050000000002
 21
37.11079092678478
 31
0.0
 12
59.45250000000001
 22
36.56045759345145
 32
0.0
 13
59.45250000000001
 23
36.56045759345145
 33
0.0
  0
MTEXT
  5
106
330
FE
100
AcDbEntity
  8
치수문자_일반주서
 62
     0
100
AcDbMText
 10
30.40522950577692
 20
40.93545759345145
 30
0.0
 40
3.5
 41
0.0
 71
     2
 72
     1
  1
\A1;57.15 [2 1/4]
  7
SLDTEXTSTYLE0
 73
     1
 44
1.0
  0
POINT
  5
107
330
FE
100
AcDbEntity
  8
Defpoints
 62
     0
100
AcDbPoint
 10
2.302499999999998
 20
4.460000000000002
 30
0.0
  0
POINT
  5
108
330
FE
100
AcDbEntity
  8
Defpoints
 62
     0
100
AcDbPoint
 10
59.45250000000001
 20
0.0000000000000025
 30
0.0
  0
POINT
  5
109
330
FE
100
AcDbEntity
  8
Defpoints
 62
     0
100
AcDbPoint
 10
59.45250000000001
 20
36.56045759345145
 30
0.0
  0
ENDBLK
  5
100
330
FE
100
AcDbEntity
  8
0
100
AcDbBlockEnd
  0
BLOCK
  5
112
330
111
100
AcDbEntity
  8
0
100
AcDbBlockBegin
  2
_D_3
 70
     0
 10
0.0
 20
0.0
 30
0.0
  3
_D_3
  1
_D_3
  0
LINE
  5
114
330
111
100
AcDbEntity
  8
치수문자_일반주서
 62
     0
370
    -2
100
AcDbLine
 10
46.7525
 20
4.808308000556957
 30
0.0
 11
46.7525
 21
28.03558238386002
 31
0.0
  0
LINE
  5
115
330
111
100
AcDbEntity
  8
치수문자_일반주서
 62
     0
370
    -2
100
AcDbLine
 10
59.45250000000001
 20
0.0625000000000025
 30
0.0
 11
59.45250000000001
 21
28.03558238386002
 31
0.0
  0
LINE
  5
116
330
111
100
AcDbEntity
  8
치수문자_일반주서
 62
     0
370
    -2
100
AcDbLine
 10
50.0545
 20
28.03558238386002
 30
0.0
 11
56.15050000000001
 21
28.03558238386002
 31
0.0
  0
SOLID
  5
117
330
111
100
AcDbEntity
  8
치수문자_일반주서
 62
     0
100
AcDbTrace
 10
50.0545
 20
28.58591571719336
 30
0.0
 11
50.0545
 21
27.48524905052669
 31
0.0
 12
46.7525
 22
28.03558238386002
 32
0.0
 13
46.7525
 23
28.03558238386002
 33
0.0
  0
SOLID
  5
118
330
111
100
AcDbEntity
  8
치수문자_일반주서
 62
     0
100
AcDbTrace
 10
56.15050000000001
 20
27.48524905052669
 30
0.0
 11
56.15050000000001
 21
28.58591571719336
 31
0.0
 12
59.45250000000001
 22
28.03558238386002
 32
0.0
 13
59.45250000000001
 23
28.03558238386002
 33
0.0
  0
MTEXT
  5
119
330
111
100
AcDbEntity
  8
치수문자_일반주서
 62
     0
100
AcDbMText
 10
53.10250000000001
 20
32.41058238386002
 30
0.0
 40
3.5
 41
0.0
 71
     2
 72
     1
  1
\A1;12.7 [1/2]
  7
SLDTEXTSTYLE0
 73
     1
 44
1.0
  0
POINT
  5
11A
330
111
100
AcDbEntity
  8
Defpoints
 62
     0
100
AcDbPoint
 10
46.7525
 20
4.745808000556957
 30
0.0
  0
POINT
  5
11B
330
111
100
AcDbEntity
  8
Defpoints
 62
     0
100
AcDbPoint
 10
59.45250000000001
 20
0.0000000000000025
 30
0.0
  0
POINT
  5
11C
330
111
100
AcDbEntity
  8
Defpoints
 62
     0
100
AcDbPoint
 10
59.45250000000001
 20
28.03558238386002
 30
0.0
  0
ENDBLK
  5
113
330
111
100
AcDbEntity
  8
0
100
AcDbBlockEnd
  0
BLOCK
  5
126
330
125
100
AcDbEntity
  8
0
100
AcDbBlockBegin
  2
SW_DOWELSYMBOL_0
 70
     0
 10
0.0
 20
0.0
 30
0.0
  3
SW_DOWELSYMBOL_0
  1
SW_DOWELSYMBOL_0
  0
CIRCLE
  5
128
330
125
100
AcDbEntity
  8
외형선
 62
     0
100
AcDbCircle
 10
0.0
 20
0.0
 30
0.0
 40
3.000000000000004
  0
HATCH
  5
129
330
125
100
AcDbEntity
  8
0
  6
Continuous
 62
     0
370
    30
100
AcDbHatch
 10
0.0
 20
0.0
 30
0.0
210
0.0
220
0.0
230
1.0
  2
SOLID
 70
     1
 71
     0
 91
        1
 92
        0
 93
        3
 72
     2
 10
0.0
 20
0.0
 40
3.000000000000004
 50
0.0
 51
90.0
 73
     1
 72
     1
 10
0.0
 20
3.000000000000004
 11
0.0
 21
0.0
 72
     1
 10
0.0
 20
0.0
 11
3.000000000000006
 21
0.0
 97
        0
 75
     0
 76
     1
 98
        1
 10
0.0
 20
0.0
  0
HATCH
  5
12A
330
125
100
AcDbEntity
  8
0
  6
Continuous
 62
     0
370
    30
100
AcDbHatch
 10
0.0
 20
0.0
 30
0.0
210
0.0
220
0.0
230
1.0
  2
SOLID
 70
     1
 71
     0
 91
        1
 92
        0
 93
        3
 72
     2
 10
0.0
 20
0.0
 40
3.000000000000004
 50
180.0
 51
270.0000000000008
 73
     1
 72
     1
 10
0.0
 20
-3.000000000000004
 11
0.0
 21
0.0
 72
     1
 10
0.0
 20
0.0
 11
-3.000000000000006
 21
0.0
 97
        0
 75
     0
 76
     1
 98
        1
 10
0.0
 20
0.0
  0
ENDBLK
  5
127
330
125
100
AcDbEntity
  8
0
100
AcDbBlockEnd
  0
BLOCK
  5
15A
330
159
100
AcDbEntity
  8
0
100
AcDbBlockBegin
  2
*D7
 70
     1
 10
0.0
 20
0.0
 30
0.0
  3
*D7
  1
*D7
  0
LINE
  5
15C
330
159
100
AcDbEntity
  8
치수문자_일반주서
 62
     0
370
    -2
100
AcDbLine
 10
48.48373138284759
 20
4.762499999999989
 30
0.0
 11
78.48902617494193
 21
4.762499999999989
 31
0.0
  0
LINE
  5
15D
330
159
100
AcDbEntity
  8
치수문자_일반주서
 62
     0
370
    -2
100
AcDbLine
 10
48.48373138284759
 20
-4.762500000000012
 30
0.0
 11
78.48902617494193
 21
-4.76250000000001
 31
0.0
  0
LINE
  5
15E
330
159
100
AcDbEntity
  8
치수문자_일반주서
 62
     0
370
    -2
100
AcDbLine
 10
78.48902617494193
 20
4.762499999999989
 30
0.0
 11
78.48902617494193
 21
37.83524999999999
 31
0.0
  0
LINE
  5
15F
330
159
100
AcDbEntity
  8
치수문자_일반주서
 62
     0
370
    -2
100
AcDbLine
 10
78.48902617494193
 20
4.762499999999989
 30
0.0
 11
78.48902617494193
 21
-4.76250000000001
 31
0.0
  0
LINE
  5
160
330
159
100
AcDbEntity
  8
치수문자_일반주서
 62
     0
370
    -2
100
AcDbLine
 10
78.48902617494193
 20
8.064499999999988
 30
0.0
 11
78.48902617494193
 21
11.36649999999999
 31
0.0
  0
LINE
  5
161
330
159
100
AcDbEntity
  8
치수문자_일반주서
 62
     0
370
    -2
100
AcDbLine
 10
78.48902617494193
 20
-8.06450000000001
 30
0.0
 11
78.48902617494193
 21
-11.36650000000001
 31
0.0
  0
SOLID
  5
162
330
159
100
AcDbEntity
  8
치수문자_일반주서
 62
     0
100
AcDbTrace
 10
77.9386928416086
 20
8.064499999999988
 30
0.0
 11
79.03935950827525
 21
8.064499999999988
 31
0.0
 12
78.48902617494193
 22
4.762499999999989
 32
0.0
 13
78.48902617494193
 23
4.762499999999989
 33
0.0
  0
SOLID
  5
163
330
159
100
AcDbEntity
  8
치수문자_일반주서
 62
     0
100
AcDbTrace
 10
79.03935950827525
 20
-8.06450000000001
 30
0.0
 11
77.9386928416086
 21
-8.06450000000001
 31
0.0
 12
78.48902617494193
 22
-4.76250000000001
 32
0.0
 13
78.48902617494193
 23
-4.76250000000001
 33
0.0
  0
MTEXT
  5
164
330
159
100
AcDbEntity
  8
치수문자_일반주서
 62
     0
100
AcDbMText
 10
75.86402617494193
 20
24.71024999999999
 30
0.0
 40
3.5
 41
0.0
 71
     5
 72
     1
  1
\A1;{%%C9.53 [3/8]}
  7
SLDTEXTSTYLE0
 11
0.0
 21
1.0
 31
0.0
 73
     1
 44
1.0
  0
POINT
  5
165
330
159
100
AcDbEntity
  8
Defpoints
 62
     0
100
AcDbPoint
 10
48.42123138284759
 20
4.762499999999989
 30
0.0
  0
POINT
  5
166
330
159
100
AcDbEntity
  8
Defpoints
 62
     0
100
AcDbPoint
 10
48.42123138284759
 20
-4.762500000000012
 30
0.0
  0
POINT
  5
169
330
159
100
AcDbEntity
  8
Defpoints
 62
     0
100
AcDbPoint
 10
78.48902617494193
 20
-4.762500000000014
 30
0.0
  0
ENDBLK
  5
15B
330
159
100
AcDbEntity
  8
0
100
AcDbBlockEnd
  0
ENDSEC
  0
SECTION
  2
ENTITIES
  0
LINE
  5
95
330
1F
100
AcDbEntity
  8
0
  6
Continuous
 62
     4
370
    15
100
AcDbLine
 10
2.0
 20
4.7625
 30
0.0
 11
-41.1475
 21
4.762499999999997
 31
0.0
  0
LINE
  5
96
330
1F
100
AcDbEntity
  8
0
  6
Continuous
 62
     4
370
    15
100
AcDbLine
 10
-41.1475
 20
-4.762500000000006
 30
0.0
 11
2.0
 21
-4.762500000000002
 31
0.0
  0
LINE
  5
97
330
1F
100
AcDbEntity
  8
0
  6
Continuous
 62
     4
370
    15
100
AcDbLine
 10
2.0
 20
-4.762500000000003
 30
0.0
 11
2.302499999999998
 21
-4.460000000000004
 31
0.0
  0
LINE
  5
98
330
1F
100
AcDbEntity
  8
0
  6
Continuous
 62
     4
370
    15
100
AcDbLine
 10
2.302499999999998
 20
4.460000000000002
 30
0.0
 11
2.0
 21
4.762500000000001
 31
0.0
  0
LINE
  5
99
330
1F
100
AcDbEntity
  8
0
  6
Continuous
 62
     4
370
    15
100
AcDbLine
 10
-41.1475
 20
4.762499999999995
 30
0.0
 11
-42.1475
 21
3.762499999999995
 31
0.0
  0
LINE
  5
9A
330
1F
100
AcDbEntity
  8
0
  6
Continuous
 62
     4
370
    15
100
AcDbLine
 10
-42.1475
 20
-3.762500000000005
 30
0.0
 11
-41.1475
 21
-4.762500000000004
 31
0.0
  0
LINE
  5
9B
330
1F
100
AcDbEntity
  8
0
  6
Continuous
 62
     4
370
    15
100
AcDbLine
 10
46.27582909407105
 20
4.460000000000004
 30
0.0
 11
2.302499999999998
 21
4.46
 31
0.0
  0
LINE
  5
9C
330
1F
100
AcDbEntity
  8
0
  6
Continuous
 62
     4
370
    15
100
AcDbLine
 10
2.302499999999998
 20
-4.460000000000003
 30
0.0
 11
45.23225002237996
 21
-4.459999999999999
 31
0.0
  0
ARC
  5
9D
330
1F
100
AcDbEntity
  8
0
  6
Continuous
 62
     1
370
    15
100
AcDbCircle
 10
54.69
 20
0.0000000000000025
 30
0.0
 40
4.762500000000003
100
AcDbArc
 50
353.5800701243586
 51
0.0
  0
ARC
  5
9E
330
1F
100
AcDbEntity
  8
0
  6
Continuous
 62
     1
370
    15
100
AcDbCircle
 10
54.69
 20
0.0000000000000025
 30
0.0
 40
4.762500000000003
100
AcDbArc
 50
0.0
 51
60.04853410452041
  0
LINE
  5
9F
330
1F
100
AcDbEntity
  8
0
  6
Continuous
 62
     1
370
    15
100
AcDbLine
 10
50.62039771806139
 20
-4.762499999999997
 30
0.0
 11
52.8420537451895
 21
-4.762499999999997
 31
0.0
  0
LINE
  5
A0
330
1F
100
AcDbEntity
  8
0
  6
Continuous
 62
     4
370
    15
100
AcDbLine
 10
2.0
 20
4.762500000000001
 30
0.0
 11
2.0
 21
-4.762500000000002
 31
0.0
  0
LINE
  5
A1
330
1F
100
AcDbEntity
  8
0
  6
Continuous
 62
     4
370
    15
100
AcDbLine
 10
-41.1475
 20
4.762499999999995
 30
0.0
 11
-41.1475
 21
-4.762500000000006
 31
0.0
  0
LINE
  5
A2
330
1F
100
AcDbEntity
  8
0
  6
Continuous
 62
     4
370
    15
100
AcDbLine
 10
2.302499999999998
 20
4.460000000000002
 30
0.0
 11
2.302499999999998
 21
-4.460000000000002
 31
0.0
  0
LINE
  5
A3
330
1F
100
AcDbEntity
  8
0
  6
Continuous
 62
     4
370
    15
100
AcDbLine
 10
-42.1475
 20
3.762499999999996
 30
0.0
 11
-42.1475
 21
-3.762500000000009
 31
0.0
  0
LINE
  5
A4
330
1F
100
AcDbEntity
  8
0
  6
Continuous
 62
     4
370
    15
100
AcDbLine
 10
46.75250000000011
 20
4.447274060335104
 30
0.0
 11
46.27582909407105
 21
4.450053432446246
 31
0.0
  0
LINE
  5
A5
330
1F
100
AcDbEntity
  8
0
  6
Continuous
 62
     1
370
    15
100
AcDbLine
 10
46.7525
 20
4.3182004718781
 30
0.0
 11
46.7525
 21
4.028383500383499
 31
0.0
  0
SPLINE
  5
A6
330
1F
100
AcDbEntity
  8
0
  6
Continuous
 62
     4
370
    15
100
AcDbSpline
210
0.0
220
0.0
230
1.0
 70
     8
 71
     3
 72
    10
 73
     6
 74
     0
 42
0.000000001
 43
0.00000001
 40
0.0
 40
0.0
 40
0.0
 40
0.0
 40
0.5
 40
0.5
 40
1.0
 40
1.0
 40
1.0
 40
1.0
 10
45.23240874298872
 20
4.368414820972863
 30
0.0
 10
45.48680460606536
 20
4.332312572791318
 30
0.0
 10
45.74176340209223
 20
4.285583377225538
 30
0.0
 10
46.24729405643772
 20
4.172015794057536
 30
0.0
 10
46.49838968985281
 20
4.105204375200786
 30
0.0
 10
46.75250000000003
 20
4.028383500383495
 30
0.0
  0
SPLINE
  5
A7
330
1F
100
AcDbEntity
  8
0
  6
Continuous
 62
     4
370
    15
100
AcDbSpline
210
0.0
220
0.0
230
1.0
 70
     8
 71
     3
 72
    10
 73
     6
 74
     0
 42
0.000000001
 43
0.00000001
 40
0.0
 40
0.0
 40
0.0
 40
0.0
 40
0.4999999999999999
 40
0.4999999999999999
 40
1.0
 40
1.0
 40
1.0
 40
1.0
 10
46.75250000000011
 20
-2.515210475808525
 30
0.0
 10
46.49836326609917
 20
-2.367375275974021
 30
0.0
 10
46.24724194340347
 20
-2.214065275423371
 30
0.0
 10
45.74165781161365
 20
-1.896879691232963
 30
0.0
 10
45.48667210325608
 20
-1.732861584695208
 30
0.0
 10
45.23225002237997
 20
-1.565165992559043
 30
0.0
  0
LINE
  5
A8
330
1F
100
AcDbEntity
  8
0
  6
Continuous
 62
     1
370
    15
100
AcDbLine
 10
46.7525
 20
-2.51521047580846
 30
0.0
 11
46.7525
 21
-2.717917773753165
 31
0.0
  0
SPLINE
  5
A9
330
1F
100
AcDbEntity
  8
0
  6
Continuous
 62
     4
370
    15
100
AcDbSpline
210
0.0
220
0.0
230
1.0
 70
     8
 71
     3
 72
    10
 73
     6
 74
     0
 42
0.000000001
 43
0.00000001
 40
0.0
 40
0.0
 40
0.0
 40
0.0
 40
0.5
 40
0.5
 40
1.0
 40
1.0
 40
1.0
 40
1.0
 10
45.23240874298872
 20
-2.962933269777451
 30
0.0
 10
45.48680460606537
 20
-3.096774105622011
 30
0.0
 10
45.74176340209223
 20
-3.223521649748357
 30
0.0
 10
46.24729405643772
 20
-3.460183676127232
 30
0.0
 10
46.4983896898528
 20
-3.570233064912555
 30
0.0
 10
46.75250000000003
 20
-3.671839113287582
 30
0.0
  0
LINE
  5
AA
330
1F
100
AcDbEntity
  8
0
  6
Continuous
 62
     4
370
    15
100
AcDbLine
 10
45.23225002237996
 20
-4.459999999999999
 30
0.0
 11
45.23225002237996
 21
-2.962761145804894
 31
0.0
  0
LINE
  5
AB
330
1F
100
AcDbEntity
  8
0
  6
Continuous
 62
     4
370
    15
100
AcDbLine
 10
45.23225002237996
 20
-1.565358367330565
 30
0.0
 11
45.23225002237996
 21
4.368461242832146
 31
0.0
  0
SPLINE
  5
AC
330
1F
100
AcDbEntity
  8
0
  6
Continuous
 62
     4
370
    15
100
AcDbSpline
210
0.0
220
0.0
230
1.0
 70
    24
 71
     3
 72
    14
 73
    10
 74
     0
 42
0.000000001
 43
0.00000001
 40
0.0
 40
0.0
 40
0.0
 40
0.0
 40
0.2500000000000001
 40
0.2500000000000001
 40
0.5000000000000001
 40
0.5000000000000001
 40
0.7500000000000002
 40
0.7500000000000002
 40
1.0
 40
1.0
 40
1.0
 40
1.0
 10
46.75250000000001
 20
0.8575557381526719
 30
0.0
 10
46.75250000000002
 20
0.6474485933379812
 30
0.0
 10
46.75249999999999
 20
0.4052684349098079
 30
0.0
 10
46.7525
 20
-0.13621281130788
 30
0.0
 10
46.7525
 20
-0.435791192826364
 30
0.0
 10
46.75249999999999
 20
-1.058580632085731
 30
0.0
 10
46.75249999999998
 20
-1.381271019435877
 30
0.0
 10
46.75249999999999
 20
-1.990738385993275
 30
0.0
 10
46.75249999999999
 20
-2.276259325435992
 30
0.0
 10
46.7525
 20
-2.515210475808459
 30
0.0
  0
SPLINE
  5
AD
330
1F
100
AcDbEntity
  8
0
  6
Continuous
 62
     4
370
    15
100
AcDbSpline
210
0.0
220
0.0
230
1.0
 70
     8
 71
     3
 72
    10
 73
     6
 74
     0
 42
0.000000001
 43
0.00000001
 40
0.0
 40
0.0
 40
0.0
 40
0.0
 40
0.5
 40
0.5
 40
1.0
 40
1.0
 40
1.0
 40
1.0
 10
46.75250000000009
 20
0.857555738152632
 30
0.0
 10
46.49836326609915
 20
0.9848788883584767
 30
0.0
 10
46.24724194340347
 20
1.109630946871113
 30
0.0
 10
45.74165781161365
 20
1.353754651086699
 30
0.0
 10
45.4866721032561
 20
1.473191728827883
 30
0.0
 10
45.23225002237996
 20
1.588689062112476
 30
0.0
  0
LINE
  5
AE
330
1F
100
AcDbEntity
  8
0
  6
Continuous
 62
     4
370
    15
100
AcDbLine
 10
45.7937201256881
 20
-3.244929854616609
 30
0.0
 11
45.23225002237996
 21
-3.285364920350606
 31
0.0
  0
SPLINE
  5
AF
330
1F
100
AcDbEntity
  8
0
  6
Continuous
 62
     1
370
    15
100
AcDbSpline
210
0.0
220
0.0
230
1.0
 70
    24
 71
     3
 72
    14
 73
    10
 74
     0
 42
0.000000001
 43
0.00000001
 40
0.0
 40
0.0
 40
0.0
 40
0.0
 40
0.2500000000000001
 40
0.2500000000000001
 40
0.5000000000000001
 40
0.5000000000000001
 40
0.75
 40
0.75
 40
1.0
 40
1.0
 40
1.0
 40
1.0
 10
46.7525
 20
4.028383500383503
 30
0.0
 10
46.7525
 20
3.700469540647489
 30
0.0
 10
46.7525
 20
3.353304662533306
 30
0.0
 10
46.75249999999999
 20
2.684668475923028
 30
0.0
 10
46.7525
 20
2.364262997470302
 30
0.0
 10
46.7525
 20
1.797435582795175
 30
0.0
 10
46.75250000000003
 20
1.551017605724286
 30
0.0
 10
46.75250000000003
 20
1.143927447087698
 30
0.0
 10
46.75250000000002
 20
0.9826767687570235
 30
0.0
 10
46.75250000000001
 20
0.8575557381526755
 30
0.0
  0
SPLINE
  5
B0
330
1F
100
AcDbEntity
  8
0
  6
Continuous
 62
     1
370
    15
100
AcDbSpline
210
0.0
220
0.0
230
1.0
 70
     8
 71
     3
 72
     8
 73
     4
 74
     0
 42
0.000000001
 43
0.00000001
 40
0.0
 40
0.0
 40
0.0
 40
0.0
 40
1.0
 40
1.0
 40
1.0
 40
1.0
 10
56.38898571481885
 20
-3.129263329936197
 30
0.0
 10
56.23386537589119
 20
-3.017658000109238
 30
0.0
 10
56.07592457966238
 20
-2.906412392913554
 30
0.0
 10
55.91374488681864
 20
-2.795707416857139
 30
0.0
  0
SPLINE
  5
B1
330
1F
100
AcDbEntity
  8
0
  6
Continuous
 62
     1
370
    15
100
AcDbSpline
210
0.0
220
0.0
230
1.0
 70
     8
 71
     3
 72
    28
 73
    24
 74
     0
 42
0.000000001
 43
0.00000001
 40
0.0
 40
0.0
 40
0.0
 40
0.0
 40
0.0624999999999996
 40
0.0624999999999996
 40
0.1249999999999991
 40
0.1249999999999991
 40
0.2499999999999982
 40
0.2499999999999982
 40
0.3749999999999973
 40
0.3749999999999973
 40
0.4999999999999964
 40
0.4999999999999964
 40
0.5624999999999969
 40
0.5624999999999969
 40
0.6249999999999973
 40
0.6249999999999973
 40
0.6874999999999978
 40
0.6874999999999978
 40
0.7499999999999982
 40
0.7499999999999982
 40
0.8749999999999992
 40
0.8749999999999992
 40
1.0
 40
1.0
 40
1.0
 40
1.0
 10
56.38898572823432
 20
-3.129263332067332
 30
0.0
 10
56.18863390619173
 20
-3.09743609974135
 30
0.0
 10
55.99010642920556
 20
-3.06099292574806
 30
0.0
 10
55.58854125958421
 20
-2.97869038602481
 30
0.0
 10
55.38668253424982
 20
-2.932884085546739
 30
0.0
 10
54.78199752874641
 20
-2.782383717976462
 30
0.0
 10
54.38472947788113
 20
-2.665090954776792
 30
0.0
 10
53.57977465340029
 20
-2.398745141944423
 30
0.0
 10
53.17572769546177
 20
-2.249950278493744
 30
0.0
 10
52.37816330526361
 20
-1.928410374675178
 30
0.0
 10
51.97238833348025
 20
-1.754003282609614
 30
0.0
 10
51.36966027696896
 20
-1.478875850078385
 30
0.0
 10
51.17098629517391
 20
-1.385136669564296
 30
0.0
 10
50.77061643180606
 20
-1.193295310934146
 30
0.0
 10
50.56902774958887
 20
-1.095198675066782
 30
0.0
 10
50.16577709787244
 20
-0.8959625899655425
 30
0.0
 10
49.96411929059402
 20
-0.7948251940916522
 30
0.0
 10
49.56347604315545
 20
-0.590903927824335
 30
0.0
 10
49.36492701126282
 20
-0.488199904155406
 30
0.0
 10
48.7625063714592
 20
-0.1771822068455492
 30
0.0
 10
48.35666021606023
 20
0.0332261953142949
 30
0.0
 10
47.55841375633841
 20
0.4487994411516989
 30
0.0
 10
47.15511644353835
 20
0.6558438756874871
 30
0.0
 10
46.75250000000006
 20
0.8575557381526397
 30
0.0
  0
SPLINE
  5
B2
330
1F
100
AcDbEntity
  8
0
  6
Continuous
 62
     4
370
    15
100
AcDbSpline
210
0.0
220
0.0
230
1.0
 70
    24
 71
     3
 72
    14
 73
    10
 74
     0
 42
0.000000001
 43
0.00000001
 40
0.0
 40
0.0
 40
0.0
 40
0.0
 40
0.2499999999999999
 40
0.2499999999999999
 40
0.4999999999999998
 40
0.4999999999999998
 40
0.7499999999999999
 40
0.7499999999999999
 40
1.0
 40
1.0
 40
1.0
 40
1.0
 10
46.7525
 20
4.318200471883343
 30
0.0
 10
46.75249999999999
 20
3.980806211431271
 30
0.0
 10
46.7525
 20
3.610658794502233
 30
0.0
 10
46.7525
 20
2.882834065495891
 30
0.0
 10
46.7525
 20
2.526891932907732
 30
0.0
 10
46.7525
 20
1.89518424282222
 30
0.0
 10
46.75250000000002
 20
1.619654550254075
 30
0.0
 10
46.7525
 20
1.168505056805794
 30
0.0
 10
46.75250000000001
 20
0.9920821868805704
 30
0.0
 10
46.75250000000001
 20
0.857555738152673
 30
0.0
  0
SPLINE
  5
B3
330
1F
100
AcDbEntity
  8
0
  6
Continuous
 62
     1
370
    15
100
AcDbSpline
210
0.0
220
0.0
230
1.0
 70
     8
 71
     3
 72
    22
 73
    18
 74
     0
 42
0.000000001
 43
0.00000001
 40
0.0
 40
0.0
 40
0.0
 40
0.0
 40
0.125
 40
0.125
 40
0.25
 40
0.25
 40
0.375
 40
0.375
 40
0.5
 40
0.5
 40
0.625
 40
0.625
 40
0.75
 40
0.75
 40
0.875
 40
0.875
 40
1.0
 40
1.0
 40
1.0
 40
1.0
 10
46.75250000000001
 20
4.318200471878097
 30
0.0
 10
47.08412863366577
 20
4.212993366994992
 30
0.0
 10
47.41754398767316
 20
4.089722024450007
 30
0.0
 10
48.07570416197529
 20
3.811843283011978
 30
0.0
 10
48.40601102612952
 20
3.656528905407499
 30
0.0
 10
49.07029560193295
 20
3.316492079099365
 30
0.0
 10
49.3992754838057
 20
3.132663488048447
 30
0.0
 10
50.05875866807263
 20
2.74064576680901
 30
0.0
 10
50.3923440920067
 20
2.531766866067801
 30
0.0
 10
51.05493807573432
 20
2.095850583903004
 30
0.0
 10
51.38184847531165
 20
1.869375967756405
 30
0.0
 10
52.04508553149553
 20
1.400806899901377
 30
0.0
 10
52.37850812893598
 20
1.159336210788938
 30
0.0
 10
53.03671661298466
 20
0.670978970618872
 30
0.0
 10
53.36697230730113
 20
0.4227613140923303
 30
0.0
 10
54.0312595900884
 20
-0.07606479090385
 30
0.0
 10
54.36027992959064
 20
-0.3254038278480216
 30
0.0
 10
54.68999999999998
 20
-0.5725683967506495
 30
0.0
  0
SPLINE
  5
B4
330
1F
100
AcDbEntity
  8
0
  6
Continuous
 62
     1
370
    15
100
AcDbSpline
210
0.0
220
0.0
230
1.0
 70
     8
 71
     3
 72
    14
 73
    10
 74
     0
 42
0.000000001
 43
0.00000001
 40
0.0
 40
0.0
 40
0.0
 40
0.0
 40
0.25
 40
0.25
 40
0.5
 40
0.5
 40
0.75
 40
0.75
 40
1.0
 40
1.0
 40
1.0
 40
1.0
 10
58.07887771293388
 20
-2.427156879933429
 30
0.0
 10
57.88793331310804
 20
-2.368944522295142
 30
0.0
 10
57.65057298907437
 20
-2.298993199513096
 30
0.0
 10
57.13237652981314
 20
-2.101714598664119
 30
0.0
 10
56.84495834220969
 20
-1.97240468731427
 30
0.0
 10
56.25551743407014
 20
-1.654806792576061
 30
0.0
 10
55.95101701514351
 20
-1.465307604840607
 30
0.0
 10
55.32311239809763
 20
-1.040993436408611
 30
0.0
 10
55.0091738665983
 20
-0.8118273264385543
 30
0.0
 10
54.69000000000002
 20
-0.5725683967506735
 30
0.0
  0
LINE
  5
B5
330
1F
100
AcDbEntity
  8
0
  6
Continuous
 62
     1
370
    15
100
AcDbLine
 10
58.0788777129339
 20
-2.427156879933437
 30
0.0
 11
58.02171374505405
 21
-2.411756239701136
 31
0.0
  0
SPLINE
  5
B6
330
1F
100
AcDbEntity
  8
0
  6
Continuous
 62
     1
370
    15
100
AcDbSpline
210
0.0
220
0.0
230
1.0
 70
     8
 71
     3
 72
    12
 73
     8
 74
     0
 42
0.000000001
 43
0.00000001
 40
0.0
 40
0.0
 40
0.0
 40
0.0
 40
0.0842823622020712
 40
0.3091336368291366
 40
0.6131352006027534
 40
0.804106957448823
 40
1.0
 40
1.0
 40
1.0
 40
1.0
 10
57.95412385761107
 20
-2.393546735034854
 30
0.0
 10
57.91407126000276
 20
-2.381093249934632
 30
0.0
 10
57.76716501723015
 20
-2.335415945221706
 30
0.0
 10
57.36030237898792
 20
-2.34681316039548
 30
0.0
 10
56.84018876567705
 20
-2.451994751079297
 30
0.0
 10
56.33154377024427
 20
-2.617160965803513
 30
0.0
 10
56.05418726022801
 20
-2.735689335558579
 30
0.0
 10
55.91374488681199
 20
-2.795707416852422
 30
0.0
  0
SPLINE
  5
B7
330
1F
100
AcDbEntity
  8
0
  6
Continuous
 62
     1
370
    15
100
AcDbSpline
210
0.0
220
0.0
230
1.0
 70
     8
 71
     3
 72
    26
 73
    22
 74
     0
 42
0.000000001
 43
0.00000001
 40
0.0
 40
0.0
 40
0.0
 40
0.0
 40
0.1249999999999998
 40
0.1249999999999998
 40
0.2499999999999997
 40
0.2499999999999997
 40
0.3749999999999995
 40
0.3749999999999995
 40
0.4999999999999993
 40
0.4999999999999993
 40
0.6249999999999993
 40
0.6249999999999993
 40
0.6874999999999994
 40
0.6874999999999994
 40
0.7499999999999994
 40
0.7499999999999994
 40
0.8124999999999994
 40
0.8124999999999994
 40
0.8749999999999994
 40
0.8749999999999994
 40
1.0
 40
1.0
 40
1.0
 40
1.0
 10
54.69
 20
1.090926095187048
 30
0.0
 10
54.90589218356404
 20
0.932241234832846
 30
0.0
 10
55.11966027738652
 20
0.7715190268717217
 30
0.0
 10
55.54785500945204
 20
0.4526433833510111
 30
0.0
 10
55.76356206087576
 20
0.2934239149046831
 30
0.0
 10
56.19637045715429
 20
-0.0086898448838089
 30
0.0
 10
56.41022329931193
 20
-0.1492221594301664
 30
0.0
 10
56.84340998685725
 20
-0.3902949525860088
 30
0.0
 10
57.06241022597035
 20
-0.4912102770695351
 30
0.0
 10
57.49452555115632
 20
-0.6115830326002142
 30
0.0
 10
57.7121430517854
 20
-0.6325327542790532
 30
0.0
 10
58.0098537571014
 20
-0.5450618250702886
 30
0.0
 10
58.10418315498831
 20
-0.4950712154187056
 30
0.0
 10
58.26758820104498
 20
-0.3504869801891146
 30
0.0
 10
58.33699311260089
 20
-0.2550812106200648
 30
0.0
 10
58.4392556043563
 20
-0.0324881420857349
 30
0.0
 10
58.47227756018967
 20
0.0947893783309878
 30
0.0
 10
58.50388789693984
 20
0.3553910434145465
 30
0.0
 10
58.50325522524954
 20
0.4913088118799288
 30
0.0
 10
58.46401615521518
 20
0.8931172023123857
 30
0.0
 10
58.39003495766746
 20
1.155554694168997
 30
0.0
 10
58.28900283902981
 20
1.406472858118043
 30
0.0
  0
SPLINE
  5
B8
330
1F
100
AcDbEntity
  8
0
  6
Continuous
 62
     1
370
    15
100
AcDbSpline
210
0.0
220
0.0
230
1.0
 70
     8
 71
     3
 72
    22
 73
    18
 74
     0
 42
0.000000001
 43
0.00000001
 40
0.0
 40
0.0
 40
0.0
 40
0.0
 40
0.125
 40
0.125
 40
0.25
 40
0.25
 40
0.375
 40
0.375
 40
0.5
 40
0.5
 40
0.625
 40
0.625
 40
0.75
 40
0.75
 40
0.875
 40
0.875
 40
1.0
 40
1.0
 40
1.0
 40
1.0
 10
54.69
 20
1.090926095187051
 30
0.0
 10
54.36027992959065
 20
1.333276616938865
 30
0.0
 10
54.03125959008843
 20
1.570989134337421
 30
0.0
 10
53.36697230730118
 20
2.033034842616434
 30
0.0
 10
53.03671661298468
 20
2.25617827239454
 30
0.0
 10
52.37850812893603
 20
2.681717450483085
 30
0.0
 10
52.04508553149558
 20
2.885241498429266
 30
0.0
 10
51.3818484753117
 20
3.266143939887414
 30
0.0
 10
51.05493807573437
 20
3.443088464389148
 30
0.0
 10
50.39234409200678
 20
3.768874392702996
 30
0.0
 10
50.05875866807269
 20
3.917216512398615
 30
0.0
 10
49.39927548380576
 20
4.179490280787064
 30
0.0
 10
49.070295601933
 20
4.293941125029678
 30
0.0
 10
48.40601102612962
 20
4.487309119992481
 30
0.0
 10
48.07570416197536
 20
4.565695983186002
 30
0.0
 10
47.41754398767326
 20
4.68438833106549
 30
0.0
 10
47.08412863366588
 20
4.724941324696694
 30
0.0
 10
46.75250000000013
 20
4.745808000556949
 30
0.0
  0
SPLINE
  5
B9
330
1F
100
AcDbEntity
  8
0
  6
Continuous
 62
     1
370
    15
100
AcDbSpline
210
0.0
220
0.0
230
1.0
 70
     8
 71
     3
 72
    11
 73
     7
 74
     0
 42
0.000000001
 43
0.00000001
 40
0.0
 40
0.0
 40
0.0
 40
0.0
 40
0.0978916044586024
 40
0.4523911500883342
 40
0.8069353284072323
 40
1.0
 40
1.0
 40
1.0
 40
1.0
 10
56.38898572824987
 20
2.43291475976627
 30
0.0
 10
56.22563743996115
 20
2.48876344812322
 30
0.0
 10
55.47074818860415
 20
2.746859660729585
 30
0.0
 10
54.12115481500759
 20
3.085113385993955
 30
0.0
 10
52.61381824245022
 20
3.304400845061481
 30
0.0
 10
51.69857797659601
 20
3.263147679911038
 30
0.0
 10
51.37590137744294
 20
3.248603486946996
 30
0.0
  0
SPLINE
  5
BA
330
1F
100
AcDbEntity
  8
0
  6
Continuous
 62
     1
370
    15
100
AcDbSpline
210
0.0
220
0.0
230
1.0
 70
     8
 71
     3
 72
    10
 73
     6
 74
     0
 42
0.000000001
 43
0.00000001
 40
0.0
 40
0.0
 40
0.0
 40
0.0
 40
0.5
 40
0.5
 40
1.0
 40
1.0
 40
1.0
 40
1.0
 10
55.57445792747279
 20
2.193192579058332
 30
0.0
 10
55.70660404038181
 20
2.251077115992481
 30
0.0
 10
55.84294576374482
 20
2.297242174890151
 30
0.0
 10
56.11698768430927
 20
2.375220746595862
 30
0.0
 10
56.25322404846116
 20
2.406423320826769
 30
0.0
 10
56.38898571481885
 20
2.432914764466553
 30
0.0
  0
SPLINE
  5
BB
330
1F
100
AcDbEntity
  8
0
  6
Continuous
 62
     1
370
    15
100
AcDbSpline
210
0.0
220
0.0
230
1.0
 70
     8
 71
     3
 72
     8
 73
     4
 74
     0
 42
0.000000001
 43
0.00000001
 40
0.0
 40
0.0
 40
0.0
 40
0.0
 40
1.0
 40
1.0
 40
1.0
 40
1.0
 10
55.57445792747277
 20
2.193192579058335
 30
0.0
 10
56.47228137058359
 20
1.94839968850379
 30
0.0
 10
57.37903042350317
 20
1.681646885164116
 30
0.0
 10
58.28900283902967
 20
1.406472858117393
 30
0.0
  0
SPLINE
  5
BC
330
1F
100
AcDbEntity
  8
0
  6
Continuous
 62
     1
370
    15
100
AcDbSpline
210
0.0
220
0.0
230
1.0
 70
     8
 71
     3
 72
    12
 73
     8
 74
     0
 42
0.000000001
 43
0.00000001
 40
0.0
 40
0.0
 40
0.0
 40
0.0
 40
0.218800544222204
 40
0.443372141451069
 40
0.6133260438380616
 40
0.7872477481570135
 40
1.0
 40
1.0
 40
1.0
 40
1.0
 10
54.69
 20
-4.560243848413095
 30
0.0
 10
54.88763199314175
 20
-4.506798600085739
 30
0.0
 10
55.28810869364529
 20
-4.398498438925172
 30
0.0
 10
55.84445543419978
 20
-4.125895740137901
 30
0.0
 10
56.35883342564988
 20
-3.81342781627311
 30
0.0
 10
56.86611115723392
 20
-3.460301848419109
 30
0.0
 10
57.21768635392272
 20
-3.199244350839656
 30
0.0
 10
57.41112688332924
 20
-3.055607652309942
 30
0.0
  0
ARC
  5
BD
330
1F
100
AcDbEntity
  8
0
  6
Continuous
 62
     1
370
    15
100
AcDbCircle
 10
54.62942218328127
 20
0.0310163591242635
 30
0.0
 40
4.825454002816174
100
AcDbArc
 50
319.322552388155
 51
352.5506376620684
  0
ARC
  5
BE
330
1F
100
AcDbEntity
  8
0
  6
Continuous
 62
     1
370
    15
100
AcDbCircle
 10
56.33789704426295
 20
0.2314627272595647
 30
0.0
 40
3.177935163661622
100
AcDbArc
 50
303.2185371643417
 51
346.0897731372103
  0
ARC
  5
BF
330
1F
100
AcDbEntity
  8
0
  6
Continuous
 62
     1
370
    15
100
AcDbCircle
 10
56.85868306957301
 20
-1.050428640290454
 30
0.0
 40
2.842917447935709
100
AcDbArc
 50
25.37562354099005
 51
59.7935734382813
  0
ARC
  5
C0
330
1F
100
AcDbEntity
  8
0
  6
Continuous
 62
     1
370
    15
100
AcDbCircle
 10
55.01747498134936
 20
0.031454277549137
 30
0.0
 40
4.411944900605619
100
AcDbArc
 50
1.772312394738307
 51
46.06120051427089
  0
SPLINE
  5
C1
330
1F
100
AcDbEntity
  8
0
  6
Continuous
 62
     1
370
    15
100
AcDbSpline
210
0.0
220
0.0
230
1.0
 70
     8
 71
     3
 72
    14
 73
    10
 74
     0
 42
0.000000001
 43
0.00000001
 40
0.0
 40
0.0
 40
0.0
 40
0.0
 40
0.2499999999999999
 40
0.2499999999999999
 40
0.4999999999999999
 40
0.4999999999999999
 40
0.7499999999999999
 40
0.7499999999999999
 40
1.0
 40
1.0
 40
1.0
 40
1.0
 10
58.07887771293391
 20
3.208413691993524
 30
0.0
 10
57.88793331310809
 20
3.475714601623366
 30
0.0
 10
57.65057298907436
 20
3.716742724724099
 30
0.0
 10
57.13237652981316
 20
4.107279841574719
 30
0.0
 10
56.84495834220969
 20
4.26146783174037
 30
0.0
 10
56.25551743407011
 20
4.465549975245226
 30
0.0
 10
55.95101701514353
 20
4.517827272590833
 30
0.0
 10
55.32311239809766
 20
4.522637636986857
 30
0.0
 10
55.0091738665983
 20
4.475351003575332
 30
0.0
 10
54.69000000000002
 20
4.380814545165036
 30
0.0
  0
LINE
  5
C2
330
1F
100
AcDbEntity
  8
0
  6
Continuous
 62
     4
370
    15
100
AcDbLine
 10
46.75250000000001
 20
4.3182004718781
 30
0.0
 11
46.7525
 21
4.745808000556957
 31
0.0
  0
SPLINE
  5
C3
330
1F
100
AcDbEntity
  8
0
  6
Continuous
 62
     1
370
    15
100
AcDbSpline
210
0.0
220
0.0
230
1.0
 70
     8
 71
     3
 72
    22
 73
    18
 74
     0
 42
0.000000001
 43
0.00000001
 40
0.0
 40
0.0
 40
0.0
 40
0.0
 40
0.125
 40
0.125
 40
0.25
 40
0.25
 40
0.375
 40
0.375
 40
0.5
 40
0.5
 40
0.625
 40
0.625
 40
0.75
 40
0.75
 40
0.875
 40
0.875
 40
1.0
 40
1.0
 40
1.0
 40
1.0
 10
54.68999999999998
 20
-4.56024384841315
 30
0.0
 10
54.36027992959063
 20
-4.632029144778302
 30
0.0
 10
54.0312595900884
 20
-4.685080005240112
 30
0.0
 10
53.36697230730118
 20
-4.752537861630231
 30
0.0
 10
53.03671661298467
 20
-4.766733291901184
 30
0.0
 10
52.37850812893603
 20
-4.756086422817218
 30
0.0
 10
52.04508553149557
 20
-4.731124757501365
 30
0.0
 10
51.38184847531171
 20
-4.642548720753427
 30
0.0
 10
51.05493807573437
 20
-4.57926162614744
 30
0.0
 10
50.39234409200677
 20
-4.415125184414965
 30
0.0
 10
50.05875866807268
 20
-4.314262624644202
 30
0.0
 10
49.39927548380575
 20
-4.078825870764889
 30
0.0
 10
49.07029560193301
 20
-3.944002509404748
 30
0.0
 10
48.40601102612959
 20
-3.642158851474469
 30
0.0
 10
48.07570416197535
 20
-3.475869141452089
 30
0.0
 10
47.41754398767324
 20
-3.116702909837686
 30
0.0
 10
47.08412863366588
 20
-2.922756792007486
 30
0.0
 10
46.75250000000013
 20
-2.717917773753238
 30
0.0
  0
SPLINE
  5
C4
330
1F
100
AcDbEntity
  8
0
  6
Continuous
 62
     1
370
    15
100
AcDbSpline
210
0.0
220
0.0
230
1.0
 70
     8
 71
     3
 72
    12
 73
     8
 74
     0
 42
0.000000001
 43
0.00000001
 40
0.0
 40
0.0
 40
0.0
 40
0.0
 40
0.0498277824199936
 40
0.3444230150477159
 40
0.6394282803721476
 40
0.9345081586974395
 40
1.0
 40
1.0
 40
1.0
 40
1.0
 10
56.10481548190476
 20
-2.928070353198548
 30
0.0
 10
56.14082077152937
 20
-2.932884259007331
 30
0.0
 10
56.3896990038708
 20
-2.966159268897222
 30
0.0
 10
56.85467390673831
 20
-3.011185260896136
 30
0.0
 10
57.49905937212339
 20
-3.064654886082861
 30
0.0
 10
57.97764951954303
 20
-3.096399399554393
 30
0.0
 10
58.24114354276806
 20
-3.111475885209497
 30
0.0
 10
58.28900283902966
 20
-3.114214277468721
 30
0.0
  0
SPLINE
  5
C5
330
1F
100
AcDbEntity
  8
0
  6
Continuous
 62
     4
370
    15
100
AcDbSpline
210
0.0
220
0.0
230
1.0
 70
    24
 71
     3
 72
    14
 73
    10
 74
     0
 42
0.000000001
 43
0.00000001
 40
0.0
 40
0.0
 40
0.0
 40
0.0
 40
0.2500000000000001
 40
0.2500000000000001
 40
0.5000000000000001
 40
0.5000000000000001
 40
0.75
 40
0.75
 40
1.0
 40
1.0
 40
1.0
 40
1.0
 10
46.75250000000001
 20
0.8575557381526719
 30
0.0
 10
46.75250000000002
 20
0.6316547212915337
 30
0.0
 10
46.7525
 20
0.3685009946501957
 30
0.0
 10
46.7525
 20
-0.2224828197438161
 30
0.0
 10
46.7525
 20
-0.550649187337387
 30
0.0
 10
46.7525
 20
-1.225881434990018
 30
0.0
 10
46.7525
 20
-1.571985077573377
 30
0.0
 10
46.7525
 20
-2.206018933739812
 30
0.0
 10
46.75250000000002
 20
-2.492158685239199
 30
0.0
 10
46.7525
 20
-2.717917773752606
 30
0.0
  0
SPLINE
  5
C6
330
1F
100
AcDbEntity
  8
0
  6
Continuous
 62
     1
370
    15
100
AcDbSpline
210
0.0
220
0.0
230
1.0
 70
     8
 71
     3
 72
    11
 73
     7
 74
     0
 42
0.000000001
 43
0.00000001
 40
0.0
 40
0.0
 40
0.0
 40
0.0
 40
0.3074129380160718
 40
0.6188190966893415
 40
0.8442613037938453
 40
1.0
 40
1.0
 40
1.0
 40
1.0
 10
46.7525
 20
-3.898615456051783
 30
0.0
 10
47.14879904252312
 20
-4.057115007563258
 30
0.0
 10
47.94654495749887
 20
-4.376172981911981
 30
0.0
 10
49.03637851824346
 20
-4.630272573183587
 30
0.0
 10
49.9275829188059
 20
-4.751971862584288
 30
0.0
 10
50.41944011911087
 20
-4.752442981612015
 30
0.0
 10
50.6203977180614
 20
-4.752635466236764
 30
0.0
  0
LINE
  5
C7
330
1F
100
AcDbEntity
  8
0
  6
Continuous
 62
     4
370
    15
100
AcDbLine
 10
46.75250000000001
 20
-3.898615456051787
 30
0.0
 11
46.7525
 21
-2.717917773753165
 31
0.0
  0
SPLINE
  5
C8
330
1F
100
AcDbEntity
  8
0
  6
Continuous
 62
     1
370
    15
100
AcDbSpline
210
0.0
220
0.0
230
1.0
 70
     8
 71
     3
 72
    10
 73
     6
 74
     0
 42
0.000000001
 43
0.00000001
 40
0.0
 40
0.0
 40
0.0
 40
0.0
 40
0.2304804731593127
 40
0.6135040572325068
 40
0.9999999999999999
 40
0.9999999999999999
 40
0.9999999999999999
 40
0.9999999999999999
 10
52.09845955546065
 20
3.264994651123608
 30
0.0
 10
52.2976823979874
 20
3.37383306053835
 30
0.0
 10
52.82798338404565
 20
3.663544396355169
 30
0.0
 10
53.69156012988886
 20
4.052013646812995
 30
0.0
 10
54.35618702859913
 20
4.270885035973906
 30
0.0
 10
54.68999999999998
 20
4.380814545165025
 30
0.0
  0
SPLINE
  5
C9
330
1F
100
AcDbEntity
  8
0
  6
Continuous
 62
     1
370
    15
100
AcDbSpline
210
0.0
220
0.0
230
1.0
 70
     8
 71
     3
 72
    12
 73
     8
 74
     0
 42
0.000000001
 43
0.00000001
 40
0.0
 40
0.0
 40
0.0
 40
0.0
 40
0.1610876629650101
 40
0.3757342653678159
 40
0.66593899245853
 40
0.8482436684266709
 40
0.9999999999999999
 40
0.9999999999999999
 40
0.9999999999999999
 40
0.9999999999999999
 10
58.07887771293388
 20
3.208413691993513
 30
0.0
 10
58.00025199535975
 20
3.106222583191871
 30
0.0
 10
57.81685883111633
 20
2.867863540134379
 30
0.0
 10
57.36296834336232
 20
2.591512225754521
 30
0.0
 10
56.8397950720131
 20
2.478454327111661
 30
0.0
 10
56.35861554916283
 20
2.484825265315981
 30
0.0
 10
56.10756447578857
 20
2.540310511624297
 30
0.0
 10
55.9935176727414
 20
2.565516199346316
 30
0.0
  0
LINE
  5
CA
330
1F
100
AcDbEntity
  8
중심선
100
AcDbLine
 10
-45.14750000000002
 20
-0.0000000000000123
 30
0.0
 11
62.42730930719635
 21
-0.0000000000000123
 31
0.0
  0
CIRCLE
  5
CB
330
1F
100
AcDbEntity
  8
외형선
100
AcDbCircle
 10
0.0
 20
0.0
 30
0.0
 40
3.000000000000004
  0
INSERT
  5
CC
330
1F
100
AcDbEntity
  8
0
  6
Continuous
 62
     7
100
AcDbBlockReference
 66
     1
  2
블럭10
 10
-8.638286299681434
 20
-51.95764267978462
 30
0.0
  0
ATTRIB
  5
CD
330
CC
100
AcDbEntity
  8
FORMAT
 62
     2
100
AcDbText
 10
-17.81958158842271
 20
-49.88227576695243
 30
0.0
 40
4.233333333333333
  1
E5978024 [ 3 FLUTE ]
 41
0.75
  7
SLDTEXTSTYLE0
 11
-17.81958158842271
 21
-51.9989424336191
 31
0.0
100
AcDbAttribute
  2
AUTOATTR0
 70
     0
 74
     1
  0
SEQEND
  5
CE
330
CC
100
AcDbEntity
  8
0
  6
Continuous
 62
     7
  0
HATCH
  5
CF
330
1F
100
AcDbEntity
  8
중심선
100
AcDbHatch
 10
0.0
 20
0.0
 30
0.0
210
0.0
220
0.0
230
1.0
  2
SOLID
 70
     1
 71
     0
 91
        1
 92
        0
 93
        4
 72
     1
 10
-2.923376995300584
 20
-35.71046837814069
 11
-6.369652239137867
 21
-35.71046837814069
 72
     1
 10
-6.369652239137867
 20
-35.71046837814069
 11
-8.49788209834189
 21
-38.24679395871328
 72
     1
 10
-8.49788209834189
 20
-38.24679395871328
 11
-5.051573769391458
 21
-38.24675452941079
 72
     1
 10
-5.051573769391458
 20
-38.24675452941079
 11
-2.923376995300584
 21
-35.71046837814069
 97
        0
 75
     0
 76
     1
 98
        1
 10
-9.856356814308674
 20
-0.0000000000000053
  0
HATCH
  5
D0
330
1F
100
AcDbEntity
  8
중심선
100
AcDbHatch
 10
0.0
 20
0.0
 30
0.0
210
0.0
220
0.0
230
1.0
  2
SOLID
 70
     1
 71
     0
 91
        1
 92
        0
 93
        4
 72
     1
 10
2.089386995735367
 20
-35.71046837814069
 11
-1.356888248101916
 21
-35.71046837814069
 72
     1
 10
-1.356888248101916
 20
-35.71046837814069
 11
-5.888026256459304
 21
-41.1104683781407
 72
     1
 10
-5.888026256459304
 20
-41.1104683781407
 11
-2.441751012622022
 21
-41.1104683781407
 72
     1
 10
-2.441751012622022
 20
-41.1104683781407
 11
2.089386995735367
 21
-35.71046837814069
 97
        0
 75
     0
 76
     1
 98
        1
 10
-9.856356814308674
 20
-0.0000000000000053
  0
HATCH
  5
D1
330
1F
100
AcDbEntity
  8
중심선
100
AcDbHatch
 10
0.0
 20
0.0
 30
0.0
210
0.0
220
0.0
230
1.0
  2
SOLID
 70
     1
 71
     0
 91
        1
 92
        0
 93
        4
 72
     1
 10
7.102150986771262
 20
-35.71046837814072
 11
3.655875742934146
 21
-35.71046837814069
 72
     1
 10
3.655875742934146
 20
-35.71046837814069
 11
-3.392561158955102
 21
-44.11046837814071
 72
     1
 10
-3.392561158955102
 20
-44.11046837814071
 11
0.0537140848821807
 21
-44.11046837814071
 72
     1
 10
0.0537140848821807
 20
-44.11046837814071
 11
7.102150986771262
 21
-35.71046837814072
 97
        0
 75
     0
 76
     1
 98
        1
 10
-9.856356814308674
 20
-0.0000000000000053
  0
HATCH
  5
D2
330
1F
100
AcDbEntity
  8
중심선
100
AcDbHatch
 10
0.0
 20
0.0
 30
0.0
210
0.0
220
0.0
230
1.0
  2
SOLID
 70
     1
 71
     0
 91
        1
 92
        0
 93
        6
 72
     3
 10
11.90204141778346
 20
-39.91046837819196
 11
3.960054785062283
 21
1.540882976769353E-10
 40
0.3939339440162628
 50
17.09539180608437
 51
320.0019657685081
 73
     0
 72
     1
 10
13.58504107348406
 20
-38.49836238277899
 11
15.8903429471851
 21
-36.56403567273107
 72
     3
 10
11.90204141773062
 20
-39.91046837814083
 11
6.600054785286828
 21
-1.278976924368180E-13
 40
0.6363583540795982
 50
39.99873849337411
 51
368.4976242363725
 73
     1
 72
     1
 10
18.32737390963123
 20
-38.95046837807071
 11
10.58210872456654
 21
-38.95046837807068
 72
     1
 10
10.58210872456654
 20
-38.95046837807068
 11
10.5820836801206
 21
-40.8704683780706
 72
     1
 10
10.5820836801206
 20
-40.8704683780706
 11
15.02346344959264
 21
-40.87046837807058
 97
        0
 75
     0
 76
     1
 98
        1
 10
-9.856356814308674
 20
-0.0000000000000053
  0
POINT
  5
D3
330
1F
100
AcDbEntity
  8
치수문자_일반주서
100
AcDbPoint
 10
-42.14750000000002
 20
-0.0000000000000123
 30
0.0
  0
DIMENSION
  5
D4
330
1F
100
AcDbEntity
  8
치수문자_일반주서
100
AcDbDimension
  2
_D
 10
-53.64395802161205
 20
-4.762500000000051
 30
0.0
 11
-53.64395802161207
 21
-0.0000000000000045
 31
0.0
 70
   160
  1
%%c<>
 71
     2
 42
9.524999999999999
 52
-270.0
  3
SLDDIMSTYLE0
100
AcDbAlignedDimension
 13
-41.1475
 23
4.762499999999995
 33
0.0
 14
-41.1475
 24
-4.762500000000004
 34
0.0
 50
90.0000000000002
100
AcDbRotatedDimension
1001
ACAD
1000
DSTYLE
1002
{
1070
   171
1070
     6
1070
   273
1070
     7
1002
}
  0
DIMENSION
  5
E9
330
1F
100
AcDbEntity
  8
치수문자_일반주서
100
AcDbDimension
  2
_D_1
 10
59.45250000000001
 20
44.76250000000005
 30
0.0
 11
12.53902720930829
 21
44.76250000000005
 31
0.0
 70
   160
  1
<>
 71
     2
 42
101.6
  3
SLDDIMSTYLE1
100
AcDbAlignedDimension
 13
-42.1475
 23
3.762499999999996
 33
0.0
 14
59.45250000000001
 24
0.0000000000000025
 34
0.0
100
AcDbRotatedDimension
1001
ACAD
1000
DSTYLE
1002
{
1070
   171
1070
     6
1070
   273
1070
     7
1002
}
  0
DIMENSION
  5
FD
330
1F
100
AcDbEntity
  8
치수문자_일반주서
100
AcDbDimension
  2
_D_2
 10
59.45250000000001
 20
36.56045759345145
 30
0.0
 11
30.40522950577692
 21
36.56045759345145
 31
0.0
 70
   160
  1
<>
 71
     2
 42
57.15000000000001
  3
SLDDIMSTYLE1
100
AcDbAlignedDimension
 13
2.302499999999998
 23
4.460000000000002
 33
0.0
 14
59.45250000000001
 24
0.0000000000000025
 34
0.0
100
AcDbRotatedDimension
1001
ACAD
1000
DSTYLE
1002
{
1070
   171
1070
     6
1070
   273
1070
     7
1002
}
  0
DIMENSION
  5
110
330
1F
100
AcDbEntity
  8
치수문자_일반주서
100
AcDbDimension
  2
_D_3
 10
59.45250000000001
 20
28.03558238386002
 30
0.0
 11
53.10250000000001
 21
28.03558238386002
 31
0.0
 70
   160
  1
<>
 71
     2
 42
12.7
  3
SLDDIMSTYLE0
100
AcDbAlignedDimension
 13
46.7525
 23
4.745808000556957
 33
0.0
 14
59.45250000000001
 24
0.0000000000000025
 34
0.0
 50
0.0000000000000964
100
AcDbRotatedDimension
1001
ACAD
1000
DSTYLE
1002
{
1070
   171
1070
     6
1070
   273
1070
     7
1002
}
  0
INSERT
  5
12B
330
1F
100
AcDbEntity
  8
외형선
100
AcDbBlockReference
  2
SW_DOWELSYMBOL_0
 10
0.0
 20
0.0
 30
0.0
  0
DIMENSION
  5
156
102
{ACAD_XDICTIONARY
360
157
102
}
330
1F
100
AcDbEntity
  8
치수문자_일반주서
100
AcDbDimension
  2
*D7
 10
78.48902617494193
 20
-4.76250000000001
 30
0.0
 11
78.48902617494193
 21
24.71024999999999
 31
0.0
 70
   160
  1
{%%C<>[]}
 71
     5
 42
9.525
  3
SLDDIMSTYLE0
100
AcDbAlignedDimension
 13
48.42123138284759
 23
4.762499999999989
 33
0.0
 14
48.42123138284759
 24
-4.762500000000012
 34
0.0
 50
90.0
100
AcDbRotatedDimension
1001
ACAD
1000
DSTYLE
1002
{
1070
   171
1070
     6
1070
   273
1070
     7
1070
   283
1070
     1
1070
   170
1070
     1
1002
}
  0
ENDSEC
  0
SECTION
  2
OBJECTS
  0
DICTIONARY
  5
C
330
0
100
AcDbDictionary
281
     1
  3
ACAD_GROUP
350
D
  3
ACAD_IMAGE_VARS
350
14F
  3
ACAD_LAYOUT
350
1A
  3
ACAD_MLINESTYLE
350
17
  3
ACAD_PLOTSETTINGS
350
19
  3
ACAD_PLOTSTYLENAME
350
E
  3
ACAD_SCALELIST
350
47
  3
APPDATA
350
14D
  3
DWGPROPS
350
16C
  0
DICTIONARY
  5
157
330
156
100
AcDbDictionary
280
     1
281
     1
  0
DICTIONARY
  5
D
102
{ACAD_REACTORS
330
C
102
}
330
C
100
AcDbDictionary
281
     1
  0
RASTERVARIABLES
  5
14F
102
{ACAD_REACTORS
330
C
102
}
330
C
100
AcDbRasterVariables
 90
        0
 70
     1
 71
     1
 72
     1
  0
DICTIONARY
  5
1A
102
{ACAD_REACTORS
330
C
102
}
330
C
100
AcDbDictionary
281
     1
  3
Layout1
350
1E
  3
Layout2
350
26
  3
Model
350
22
  0
DICTIONARY
  5
17
102
{ACAD_REACTORS
330
C
102
}
330
C
100
AcDbDictionary
281
     1
  3
Standard
350
18
  0
DICTIONARY
  5
19
102
{ACAD_REACTORS
330
C
102
}
330
C
100
AcDbDictionary
281
     1
  0
ACDBDICTIONARYWDFLT
  5
E
102
{ACAD_REACTORS
330
C
102
}
330
C
100
AcDbDictionary
281
     1
  3
Normal
350
F
100
AcDbDictionaryWithDefault
340
F
  0
DICTIONARY
  5
47
102
{ACAD_REACTORS
330
C
102
}
330
C
100
AcDbDictionary
281
     1
  3
A0
350
48
  3
A1
350
49
  3
A2
350
4A
  3
A3
350
4B
  3
A4
350
4C
  3
A5
350
4D
  3
A6
350
4E
  3
A7
350
4F
  3
A8
350
50
  3
A9
350
51
  3
B0
350
52
  3
B1
350
53
  3
B2
350
54
  3
B3
350
55
  3
B4
350
56
  3
B5
350
57
  3
B6
350
58
  3
B7
350
59
  3
B8
350
5A
  3
B9
350
5B
  3
C0
350
5C
  3
C1
350
5D
  3
C2
350
5E
  3
C3
350
5F
  3
C4
350
60
  3
C5
350
61
  3
C6
350
62
  3
C7
350
63
  3
C8
350
64
  3
C9
350
65
  3
D0
350
66
  3
D1
350
67
  3
D2
350
68
  0
DICTIONARY
  5
14D
102
{ACAD_REACTORS
330
C
102
}
330
C
100
AcDbDictionary
281
     1
  0
XRECORD
  5
16C
102
{ACAD_REACTORS
330
C
102
}
330
C
100
AcDbXrecord
280
     1
  1
DWGPROPS COOKIE
  2

  3

  4

  6

  7

  8
12016016
  9

300
=
301
=
302
=
303
=
304
=
305
=
306
=
307
=
308
=
309
=
 40
0.0
 41
2458269.361102454
 42
2458275.02970331
  1

 90
        0
  0
LAYOUT
  5
1E
102
{ACAD_REACTORS
330
1A
102
}
330
1A
100
AcDbPlotSettings
  1

  2
none_device
  4

  6

 40
0.0
 41
0.0
 42
0.0
 43
0.0
 44
0.0
 45
0.0
 46
0.0
 47
0.0
 48
0.0
 49
0.0
140
0.0
141
0.0
142
1.0
143
1.0
 70
   688
 72
     1
 73
     0
 74
     5
  7

 75
    16
147
1.0
148
0.0
149
0.0
100
AcDbLayout
  1
Layout1
 70
     1
 71
     1
 10
0.0
 20
0.0
 11
420.0
 21
297.0
 12
0.0
 22
0.0
 32
0.0
 14
1.000000000000000E+20
 24
1.000000000000000E+20
 34
1.000000000000000E+20
 15
-1.000000000000000E+20
 25
-1.000000000000000E+20
 35
-1.000000000000000E+20
146
0.0
 13
0.0
 23
0.0
 33
0.0
 16
1.0
 26
0.0
 36
0.0
 17
0.0
 27
1.0
 37
0.0
 76
     0
330
1B
  0
LAYOUT
  5
26
102
{ACAD_REACTORS
330
1A
102
}
330
1A
100
AcDbPlotSettings
  1

  2
none_device
  4

  6

 40
0.0
 41
0.0
 42
0.0
 43
0.0
 44
0.0
 45
0.0
 46
0.0
 47
0.0
 48
0.0
 49
0.0
140
0.0
141
0.0
142
1.0
143
1.0
 70
   688
 72
     1
 73
     0
 74
     5
  7

 75
    16
147
1.0
148
0.0
149
0.0
100
AcDbLayout
  1
Layout2
 70
     1
 71
     2
 10
0.0
 20
0.0
 11
0.0
 21
0.0
 12
0.0
 22
0.0
 32
0.0
 14
0.0
 24
0.0
 34
0.0
 15
0.0
 25
0.0
 35
0.0
146
0.0
 13
0.0
 23
0.0
 33
0.0
 16
1.0
 26
0.0
 36
0.0
 17
0.0
 27
1.0
 37
0.0
 76
     0
330
23
  0
LAYOUT
  5
22
102
{ACAD_REACTORS
330
1A
102
}
330
1A
100
AcDbPlotSettings
  1

  2
none_device
  4
ANSI_A_(11.00_x_8.50_Inches)
  6

 40
6.35
 41
19.05
 42
6.35000508
 43
19.05000254
 44
279.4
 45
215.9
 46
112.1602270766762
 47
83.93887963082186
 48
0.0
 49
0.0
140
0.0
141
0.0
142
0.0792510016775302
143
1.0
 70
  1696
 72
     0
 73
     0
 74
     0
  7

 75
     0
147
0.0235690232323232
148
0.0
149
0.0
100
AcDbLayout
  1
Model
 70
     1
 71
     0
 10
0.0
 20
0.0
 11
420.0
 21
297.0
 12
0.0
 22
0.0
 32
0.0
 14
-58.01895802161211
 24
-49.88227576695243
 34
0.0
 15
79.03935950827525
 25
49.13750000000005
 35
0.0
146
0.0
 13
0.0
 23
0.0
 33
0.0
 16
1.0
 26
0.0
 36
0.0
 17
0.0
 27
1.0
 37
0.0
 76
     0
330
1F
331
29
  0
MLINESTYLE
  5
18
102
{ACAD_REACTORS
330
17
102
}
330
17
100
AcDbMlineStyle
  2
Standard
 70
     0
  3

 62
   256
 51
90.0
 52
90.0
 71
     2
 49
0.5
 62
   256
  6
BYLAYER
 49
-0.5
 62
   256
  6
BYLAYER
  0
ACDBPLACEHOLDER
  5
F
102
{ACAD_REACTORS
330
E
102
}
330
E
  0
SCALE
  5
48
102
{ACAD_REACTORS
330
47
102
}
330
47
100
AcDbScale
 70
     0
300
1:1
140
1.0
141
1.0
290
     1
  0
SCALE
  5
49
102
{ACAD_REACTORS
330
47
102
}
330
47
100
AcDbScale
 70
     0
300
1:2
140
1.0
141
2.0
290
     0
  0
SCALE
  5
4A
102
{ACAD_REACTORS
330
47
102
}
330
47
100
AcDbScale
 70
     0
300
1:4
140
1.0
141
4.0
290
     0
  0
SCALE
  5
4B
102
{ACAD_REACTORS
330
47
102
}
330
47
100
AcDbScale
 70
     0
300
1:5
140
1.0
141
5.0
290
     0
  0
SCALE
  5
4C
102
{ACAD_REACTORS
330
47
102
}
330
47
100
AcDbScale
 70
     0
300
1:8
140
1.0
141
8.0
290
     0
  0
SCALE
  5
4D
102
{ACAD_REACTORS
330
47
102
}
330
47
100
AcDbScale
 70
     0
300
1:10
140
1.0
141
10.0
290
     0
  0
SCALE
  5
4E
102
{ACAD_REACTORS
330
47
102
}
330
47
100
AcDbScale
 70
     0
300
1:16
140
1.0
141
16.0
290
     0
  0
SCALE
  5
4F
102
{ACAD_REACTORS
330
47
102
}
330
47
100
AcDbScale
 70
     0
300
1:20
140
1.0
141
20.0
290
     0
  0
SCALE
  5
50
102
{ACAD_REACTORS
330
47
102
}
330
47
100
AcDbScale
 70
     0
300
1:30
140
1.0
141
30.0
290
     0
  0
SCALE
  5
51
102
{ACAD_REACTORS
330
47
102
}
330
47
100
AcDbScale
 70
     0
300
1:40
140
1.0
141
40.0
290
     0
  0
SCALE
  5
52
102
{ACAD_REACTORS
330
47
102
}
330
47
100
AcDbScale
 70
     0
300
1:50
140
1.0
141
50.0
290
     0
  0
SCALE
  5
53
102
{ACAD_REACTORS
330
47
102
}
330
47
100
AcDbScale
 70
     0
300
1:100
140
1.0
141
100.0
290
     0
  0
SCALE
  5
54
102
{ACAD_REACTORS
330
47
102
}
330
47
100
AcDbScale
 70
     0
300
2:1
140
2.0
141
1.0
290
     0
  0
SCALE
  5
55
102
{ACAD_REACTORS
330
47
102
}
330
47
100
AcDbScale
 70
     0
300
4:1
140
4.0
141
1.0
290
     0
  0
SCALE
  5
56
102
{ACAD_REACTORS
330
47
102
}
330
47
100
AcDbScale
 70
     0
300
8:1
140
8.0
141
1.0
290
     0
  0
SCALE
  5
57
102
{ACAD_REACTORS
330
47
102
}
330
47
100
AcDbScale
 70
     0
300
10:1
140
10.0
141
1.0
290
     0
  0
SCALE
  5
58
102
{ACAD_REACTORS
330
47
102
}
330
47
100
AcDbScale
 70
     0
300
100:1
140
100.0
141
1.0
290
     0
  0
SCALE
  5
59
102
{ACAD_REACTORS
330
47
102
}
330
47
100
AcDbScale
 70
     0
300
1/128" = 1'-0"
140
0.0078125
141
12.0
290
     0
  0
SCALE
  5
5A
102
{ACAD_REACTORS
330
47
102
}
330
47
100
AcDbScale
 70
     0
300
1/64" = 1'-0"
140
0.015625
141
12.0
290
     0
  0
SCALE
  5
5B
102
{ACAD_REACTORS
330
47
102
}
330
47
100
AcDbScale
 70
     0
300
1/32" = 1'-0"
140
0.03125
141
12.0
290
     0
  0
SCALE
  5
5C
102
{ACAD_REACTORS
330
47
102
}
330
47
100
AcDbScale
 70
     0
300
1/16" = 1'-0"
140
0.0625
141
12.0
290
     0
  0
SCALE
  5
5D
102
{ACAD_REACTORS
330
47
102
}
330
47
100
AcDbScale
 70
     0
300
3/32" = 1'-0"
140
0.09375
141
12.0
290
     0
  0
SCALE
  5
5E
102
{ACAD_REACTORS
330
47
102
}
330
47
100
AcDbScale
 70
     0
300
1/8" = 1'-0"
140
0.125
141
12.0
290
     0
  0
SCALE
  5
5F
102
{ACAD_REACTORS
330
47
102
}
330
47
100
AcDbScale
 70
     0
300
3/16" = 1'-0"
140
0.1875
141
12.0
290
     0
  0
SCALE
  5
60
102
{ACAD_REACTORS
330
47
102
}
330
47
100
AcDbScale
 70
     0
300
1/4" = 1'-0"
140
0.25
141
12.0
290
     0
  0
SCALE
  5
61
102
{ACAD_REACTORS
330
47
102
}
330
47
100
AcDbScale
 70
     0
300
3/8" = 1'-0"
140
0.375
141
12.0
290
     0
  0
SCALE
  5
62
102
{ACAD_REACTORS
330
47
102
}
330
47
100
AcDbScale
 70
     0
300
1/2" = 1'-0"
140
0.5
141
12.0
290
     0
  0
SCALE
  5
63
102
{ACAD_REACTORS
330
47
102
}
330
47
100
AcDbScale
 70
     0
300
3/4" = 1'-0"
140
0.75
141
12.0
290
     0
  0
SCALE
  5
64
102
{ACAD_REACTORS
330
47
102
}
330
47
100
AcDbScale
 70
     0
300
1" = 1'-0"
140
1.0
141
12.0
290
     0
  0
SCALE
  5
65
102
{ACAD_REACTORS
330
47
102
}
330
47
100
AcDbScale
 70
     0
300
1-1/2" = 1'-0"
140
1.5
141
12.0
290
     0
  0
SCALE
  5
66
102
{ACAD_REACTORS
330
47
102
}
330
47
100
AcDbScale
 70
     0
300
3" = 1'-0"
140
3.0
141
12.0
290
     0
  0
SCALE
  5
67
102
{ACAD_REACTORS
330
47
102
}
330
47
100
AcDbScale
 70
     0
300
6" = 1'-0"
140
6.0
141
12.0
290
     0
  0
SCALE
  5
68
102
{ACAD_REACTORS
330
47
102
}
330
47
100
AcDbScale
 70
     0
300
1'-0" = 1'-0"
140
12.0
141
12.0
290
     0
  0
ENDSEC
  0
EOF
