  0
SECTION
  2
HEADER
  9
$ACADVER
  1
AC1015
  9
$ACADMAINTVER
 70
     6
  9
$DWGCODEPAGE
  3
ANSI_949
  9
$INSBASE
 10
0.0
 20
0.0
 30
0.0
  9
$EXTMIN
 10
-51.34303282517395
 20
-49.67520481585412
 30
0.0
  9
$EXTMAX
 10
101.1730027901686
 20
53.13671894357547
 30
0.0
  9
$LIMMIN
 10
0.0
 20
0.0
  9
$LIMMAX
 10
420.0
 20
297.0
  9
$ORTHOMODE
 70
     1
  9
$REGENMODE
 70
     1
  9
$FILLMODE
 70
     1
  9
$QTEXTMODE
 70
     0
  9
$MIRRTEXT
 70
     1
  9
$LTSCALE
 40
1.0
  9
$ATTMODE
 70
     1
  9
$TEXTSIZE
 40
3.5
  9
$TRACEWID
 40
1.0
  9
$TEXTSTYLE
  7
Standard
  9
$CLAYER
  8
0
  9
$CELTYPE
  6
ByLayer
  9
$CECOLOR
 62
   256
  9
$CELTSCALE
 40
1.0
  9
$DISPSILH
 70
     0
  9
$DIMSCALE
 40
1.0
  9
$DIMASZ
 40
3.302
  9
$DIMEXO
 40
1.0
  9
$DIMDLI
 40
3.75
  9
$DIMRND
 40
0.0
  9
$DIMDLE
 40
0.0
  9
$DIMEXE
 40
1.0
  9
$DIMTP
 40
0.0
  9
$DIMTM
 40
0.0
  9
$DIMTXT
 40
3.5
  9
$DIMCEN
 40
2.5
  9
$DIMTSZ
 40
0.0
  9
$DIMTOL
 70
     0
  9
$DIMLIM
 70
     0
  9
$DIMTIH
 70
     1
  9
$DIMTOH
 70
     1
  9
$DIMSE1
 70
     0
  9
$DIMSE2
 70
     0
  9
$DIMTAD
 70
     1
  9
$DIMZIN
 70
     0
  9
$DIMBLK
  1

  9
$DIMASO
 70
     1
  9
$DIMSHO
 70
     1
  9
$DIMPOST
  1

  9
$DIMAPOST
  1

  9
$DIMALT
 70
     0
  9
$DIMALTD
 70
     3
  9
$DIMALTF
 40
0.0393700787401575
  9
$DIMLFAC
 40
1.0
  9
$DIMTOFL
 70
     1
  9
$DIMTVP
 40
0.0
  9
$DIMTIX
 70
     0
  9
$DIMSOXD
 70
     0
  9
$DIMSAH
 70
     0
  9
$DIMBLK1
  1

  9
$DIMBLK2
  1

  9
$DIMSTYLE
  2
ISO-25
  9
$DIMCLRD
 70
     0
  9
$DIMCLRE
 70
     0
  9
$DIMCLRT
 70
     0
  9
$DIMTFAC
 40
1.0
  9
$DIMGAP
 40
1.524
  9
$DIMJUST
 70
     0
  9
$DIMSD1
 70
     0
  9
$DIMSD2
 70
     0
  9
$DIMTOLJ
 70
     0
  9
$DIMTZIN
 70
     0
  9
$DIMALTZ
 70
     0
  9
$DIMALTTZ
 70
     0
  9
$DIMUPT
 70
     0
  9
$DIMDEC
 70
     2
  9
$DIMTDEC
 70
     2
  9
$DIMALTU
 70
     2
  9
$DIMALTTD
 70
     3
  9
$DIMTXSTY
  7
Standard
  9
$DIMAUNIT
 70
     0
  9
$DIMADEC
 70
     2
  9
$DIMALTRND
 40
0.0
  9
$DIMAZIN
 70
     0
  9
$DIMDSEP
 70
    44
  9
$DIMATFIT
 70
     3
  9
$DIMFRAC
 70
     0
  9
$DIMLDRBLK
  1

  9
$DIMLUNIT
 70
     2
  9
$DIMLWD
 70
    -2
  9
$DIMLWE
 70
    -2
  9
$DIMTMOVE
 70
     0
  9
$LUNITS
 70
     2
  9
$LUPREC
 70
     2
  9
$SKETCHINC
 40
1.0
  9
$FILLETRAD
 40
0.889
  9
$AUNITS
 70
     0
  9
$AUPREC
 70
     2
  9
$MENU
  1
.
  9
$ELEVATION
 40
0.0
  9
$PELEVATION
 40
0.0
  9
$THICKNESS
 40
0.0
  9
$LIMCHECK
 70
     0
  9
$CHAMFERA
 40
0.0
  9
$CHAMFERB
 40
0.0
  9
$CHAMFERC
 40
0.0
  9
$CHAMFERD
 40
0.0
  9
$SKPOLY
 70
     0
  9
$TDCREATE
 40
2458290.679829479
  9
$TDUCREATE
 40
2458290.304829479
  9
$TDUPDATE
 40
2458299.767247963
  9
$TDUUPDATE
 40
2458299.392247963
  9
$TDINDWG
 40
0.0053380324
  9
$TDUSRTIMER
 40
0.0000303472
  9
$USRTIMER
 70
     1
  9
$ANGBASE
 50
0.0
  9
$ANGDIR
 70
     0
  9
$PDMODE
 70
     0
  9
$PDSIZE
 40
-1.0
  9
$PLINEWID
 40
0.0
  9
$SPLFRAME
 70
     0
  9
$SPLINETYPE
 70
     6
  9
$SPLINESEGS
 70
     8
  9
$HANDSEED
  5
21E
  9
$SURFTAB1
 70
     6
  9
$SURFTAB2
 70
     6
  9
$SURFTYPE
 70
     6
  9
$SURFU
 70
     6
  9
$SURFV
 70
     6
  9
$UCSBASE
  2

  9
$UCSNAME
  2

  9
$UCSORG
 10
0.0
 20
0.0
 30
0.0
  9
$UCSXDIR
 10
1.0
 20
0.0
 30
0.0
  9
$UCSYDIR
 10
0.0
 20
1.0
 30
0.0
  9
$UCSORTHOREF
  2

  9
$UCSORTHOVIEW
 70
     0
  9
$UCSORGTOP
 10
0.0
 20
0.0
 30
0.0
  9
$UCSORGBOTTOM
 10
0.0
 20
0.0
 30
0.0
  9
$UCSORGLEFT
 10
0.0
 20
0.0
 30
0.0
  9
$UCSORGRIGHT
 10
0.0
 20
0.0
 30
0.0
  9
$UCSORGFRONT
 10
0.0
 20
0.0
 30
0.0
  9
$UCSORGBACK
 10
0.0
 20
0.0
 30
0.0
  9
$PUCSBASE
  2

  9
$PUCSNAME
  2

  9
$PUCSORG
 10
0.0
 20
0.0
 30
0.0
  9
$PUCSXDIR
 10
1.0
 20
0.0
 30
0.0
  9
$PUCSYDIR
 10
0.0
 20
1.0
 30
0.0
  9
$PUCSORTHOREF
  2

  9
$PUCSORTHOVIEW
 70
     0
  9
$PUCSORGTOP
 10
0.0
 20
0.0
 30
0.0
  9
$PUCSORGBOTTOM
 10
0.0
 20
0.0
 30
0.0
  9
$PUCSORGLEFT
 10
0.0
 20
0.0
 30
0.0
  9
$PUCSORGRIGHT
 10
0.0
 20
0.0
 30
0.0
  9
$PUCSORGFRONT
 10
0.0
 20
0.0
 30
0.0
  9
$PUCSORGBACK
 10
0.0
 20
0.0
 30
0.0
  9
$USERI1
 70
     0
  9
$USERI2
 70
     0
  9
$USERI3
 70
     0
  9
$USERI4
 70
     0
  9
$USERI5
 70
     0
  9
$USERR1
 40
0.0
  9
$USERR2
 40
0.0
  9
$USERR3
 40
0.0
  9
$USERR4
 40
0.0
  9
$USERR5
 40
0.0
  9
$WORLDVIEW
 70
     1
  9
$SHADEDGE
 70
     3
  9
$SHADEDIF
 70
    70
  9
$TILEMODE
 70
     1
  9
$MAXACTVP
 70
    64
  9
$PINSBASE
 10
0.0
 20
0.0
 30
0.0
  9
$PLIMCHECK
 70
     0
  9
$PEXTMIN
 10
1.000000000000000E+20
 20
1.000000000000000E+20
 30
1.000000000000000E+20
  9
$PEXTMAX
 10
-1.000000000000000E+20
 20
-1.000000000000000E+20
 30
-1.000000000000000E+20
  9
$PLIMMIN
 10
0.0
 20
0.0
  9
$PLIMMAX
 10
0.0
 20
0.0
  9
$UNITMODE
 70
     0
  9
$VISRETAIN
 70
     1
  9
$PLINEGEN
 70
     0
  9
$PSLTSCALE
 70
     1
  9
$TREEDEPTH
 70
  3020
  9
$CMLSTYLE
  2
Standard
  9
$CMLJUST
 70
     0
  9
$CMLSCALE
 40
20.0
  9
$PROXYGRAPHICS
 70
     1
  9
$MEASUREMENT
 70
     1
  9
$CELWEIGHT
370
    -1
  9
$ENDCAPS
280
     0
  9
$JOINSTYLE
280
     0
  9
$LWDISPLAY
290
     1
  9
$INSUNITS
 70
     4
  9
$HYPERLINKBASE
  1

  9
$STYLESHEET
  1

  9
$XEDIT
290
     1
  9
$CEPSNTYPE
380
     0
  9
$PSTYLEMODE
290
     1
  9
$FINGERPRINTGUID
  2
{A93C4C7E-6CAA-4AF6-A711-D87CDCA0D5E1}
  9
$VERSIONGUID
  2
{FAEB1C32-E019-11D5-929B-00C0DF256EC4}
  9
$EXTNAMES
290
     1
  9
$PSVPSCALE
 40
0.0
  9
$OLESTARTUP
290
     0
  0
ENDSEC
  0
SECTION
  2
CLASSES
  0
CLASS
  1
ACDBDICTIONARYWDFLT
  2
AcDbDictionaryWithDefault
  3
ObjectDBX Classes
 90
        0
280
     0
281
     0
  0
CLASS
  1
VISUALSTYLE
  2
AcDbVisualStyle
  3
ObjectDBX Classes
 90
     4095
280
     0
281
     0
  0
CLASS
  1
MATERIAL
  2
AcDbMaterial
  3
ObjectDBX Classes
 90
     1153
280
     0
281
     0
  0
CLASS
  1
SCALE
  2
AcDbScale
  3
ObjectDBX Classes
 90
     1153
280
     0
281
     0
  0
CLASS
  1
SUN
  2
AcDbSun
  3
SCENEOE
 90
     1153
280
     0
281
     0
  0
CLASS
  1
ACDBPLACEHOLDER
  2
AcDbPlaceHolder
  3
ObjectDBX Classes
 90
        0
280
     0
281
     0
  0
CLASS
  1
LAYOUT
  2
AcDbLayout
  3
ObjectDBX Classes
 90
        0
280
     0
281
     0
  0
CLASS
  1
TABLESTYLE
  2
AcDbTableStyle
  3
ObjectDBX Classes
 90
     4095
280
     0
281
     0
  0
CLASS
  1
MLEADERSTYLE
  2
AcDbMLeaderStyle
  3
ACDB_MLEADERSTYLE_CLASS
 90
     4095
280
     0
281
     0
  0
CLASS
  1
DICTIONARYVAR
  2
AcDbDictionaryVar
  3
ObjectDBX Classes
 90
        0
280
     0
281
     0
  0
ENDSEC
  0
SECTION
  2
TABLES
  0
TABLE
  2
VPORT
  5
8
330
0
100
AcDbSymbolTable
 70
     1
  0
VPORT
  5
29
330
8
100
AcDbSymbolTableRecord
100
AcDbViewportTableRecord
  2
*Active
 70
     0
 10
0.0
 20
0.0
 11
1.0
 21
1.0
 12
24.91498498249733
 22
1.730757063860679
 13
0.0
 23
0.0
 14
10.0
 24
10.0
 15
10.0
 25
10.0
 16
0.0
 26
0.0
 36
1.0
 17
0.0
 27
0.0
 37
0.0
 40
104.8681622346182
 41
2.148876404494382
 42
50.0
 43
0.0
 44
0.0
 50
0.0
 51
0.0
 71
    16
 72
  2000
 73
     1
 74
     3
 75
     0
 76
     0
 77
     0
 78
     0
281
     0
 65
     1
110
0.0
120
0.0
130
0.0
111
1.0
121
0.0
131
0.0
112
0.0
122
1.0
132
0.0
 79
     0
146
0.0
  0
ENDTAB
  0
TABLE
  2
LTYPE
  5
5
330
0
100
AcDbSymbolTable
 70
     6
  0
LTYPE
  5
14
330
5
100
AcDbSymbolTableRecord
100
AcDbLinetypeTableRecord
  2
ByBlock
 70
     0
  3

 72
    65
 73
     0
 40
0.0
  0
LTYPE
  5
15
330
5
100
AcDbSymbolTableRecord
100
AcDbLinetypeTableRecord
  2
ByLayer
 70
     0
  3

 72
    65
 73
     0
 40
0.0
  0
LTYPE
  5
16
330
5
100
AcDbSymbolTableRecord
100
AcDbLinetypeTableRecord
  2
Continuous
 70
     0
  3
Solid line
 72
    65
 73
     0
 40
0.0
  0
LTYPE
  5
6A
330
5
100
AcDbSymbolTableRecord
100
AcDbLinetypeTableRecord
  2
HIDDEN
 70
     0
  3
Hidden __ __ __ __ __ __ __ __ __ __ __ __ __ __
 72
    65
 73
     2
 40
1.905
 49
1.27
 74
     0
 49
-0.635
 74
     0
  0
LTYPE
  5
6B
330
5
100
AcDbSymbolTableRecord
100
AcDbLinetypeTableRecord
  2
PHANTOM
 70
     0
  3
Phantom ______  __  __  ______  __  __  ______
 72
    65
 73
     6
 40
12.7
 49
6.35
 74
     0
 49
-1.27
 74
     0
 49
1.27
 74
     0
 49
-1.27
 74
     0
 49
1.27
 74
     0
 49
-1.27
 74
     0
  0
LTYPE
  5
6C
330
5
100
AcDbSymbolTableRecord
100
AcDbLinetypeTableRecord
  2
CENTER
 70
     0
  3
Center ____ _ ____ _ ____ _ ____ _ ____ _ ____
 72
    65
 73
     4
 40
10.16
 49
6.35
 74
     0
 49
-1.27
 74
     0
 49
1.27
 74
     0
 49
-1.27
 74
     0
  0
LTYPE
  5
6D
330
5
100
AcDbSymbolTableRecord
100
AcDbLinetypeTableRecord
  2
CENTERX2
 70
     0
  3
Center (2x) ________  __  ________  __  _____
 72
    65
 73
     4
 40
20.32
 49
12.7
 74
     0
 49
-2.54
 74
     0
 49
2.54
 74
     0
 49
-2.54
 74
     0
  0
LTYPE
  5
6E
330
5
100
AcDbSymbolTableRecord
100
AcDbLinetypeTableRecord
  2
DOT2
 70
     0
  3
Dot (.5x) ........................................
 72
    65
 73
     2
 40
0.635
 49
0.0
 74
     0
 49
-0.635
 74
     0
  0
ENDTAB
  0
TABLE
  2
LAYER
  5
2
102
{ACAD_XDICTIONARY
360
1EA
102
}
330
0
100
AcDbSymbolTable
 70
    18
  0
LAYER
  5
10
330
2
100
AcDbSymbolTableRecord
100
AcDbLayerTableRecord
  2
0
 70
     0
 62
     7
  6
Continuous
370
    -3
390
F
  0
LAYER
  5
6F
330
2
100
AcDbSymbolTableRecord
100
AcDbLayerTableRecord
  2
FORMAT
 70
     0
 62
     2
  6
Continuous
370
    -3
390
F
  0
LAYER
  5
70
330
2
100
AcDbSymbolTableRecord
100
AcDbLayerTableRecord
  2
외형선
 70
     0
 62
     4
  6
Continuous
370
    30
390
F
  0
LAYER
  5
71
330
2
100
AcDbSymbolTableRecord
100
AcDbLayerTableRecord
  2
숨은선
 70
     0
 62
     2
  6
HIDDEN
370
    15
390
F
  0
LAYER
  5
72
330
2
100
AcDbSymbolTableRecord
100
AcDbLayerTableRecord
  2
중심선
 70
     0
 62
     1
  6
CENTERX2
370
    -3
390
F
  0
LAYER
  5
73
330
2
100
AcDbSymbolTableRecord
100
AcDbLayerTableRecord
  2
파단선
 70
     0
 62
     4
  6
Continuous
370
    -3
390
F
  0
LAYER
  5
74
330
2
100
AcDbSymbolTableRecord
100
AcDbLayerTableRecord
  2
해칭선
 70
     0
 62
   100
  6
Continuous
370
    -3
390
F
  0
LAYER
  5
75
330
2
100
AcDbSymbolTableRecord
100
AcDbLayerTableRecord
  2
가는실선
 70
     0
 62
     4
  6
Continuous
370
    -3
390
F
  0
LAYER
  5
76
330
2
100
AcDbSymbolTableRecord
100
AcDbLayerTableRecord
  2
치수_보조선
 70
     0
 62
     4
  6
Continuous
370
    -3
390
F
  0
LAYER
  5
77
330
2
100
AcDbSymbolTableRecord
100
AcDbLayerTableRecord
  2
치수문자_일반주서
 70
     0
 62
     7
  6
Continuous
370
    15
390
F
  0
LAYER
  5
78
330
2
100
AcDbSymbolTableRecord
100
AcDbLayerTableRecord
  2
개별주서
 70
     0
 62
   100
  6
Continuous
370
    30
390
F
  0
LAYER
  5
79
330
2
100
AcDbSymbolTableRecord
100
AcDbLayerTableRecord
  2
중간선
 70
     0
 62
     2
  6
Continuous
370
    15
390
F
  0
LAYER
  5
7A
330
2
100
AcDbSymbolTableRecord
100
AcDbLayerTableRecord
  2
윤곽선
 70
     0
 62
     3
  6
Continuous
370
    40
390
F
  0
LAYER
  5
7B
330
2
100
AcDbSymbolTableRecord
100
AcDbLayerTableRecord
  2
중심마크
 70
     0
 62
   100
  6
Continuous
370
    30
390
F
  0
LAYER
  5
7C
330
2
100
AcDbSymbolTableRecord
100
AcDbLayerTableRecord
  2
가상선
 70
     0
 62
     4
  6
PHANTOM
370
    -3
390
F
  0
LAYER
  5
7D
330
2
100
AcDbSymbolTableRecord
100
AcDbLayerTableRecord
  2
특수지정선
 70
     0
 62
     5
  6
CENTERX2
370
    60
390
F
  0
LAYER
  5
7E
330
2
100
AcDbSymbolTableRecord
100
AcDbLayerTableRecord
  2
참조1
 70
     0
 62
    -4
  6
Continuous
370
    -3
390
F
  0
LAYER
  5
152
330
2
100
AcDbSymbolTableRecord
100
AcDbLayerTableRecord
  2
Defpoints
 70
     0
 62
     7
  6
Continuous
290
     0
370
    -3
390
F
  0
ENDTAB
  0
TABLE
  2
STYLE
  5
3
330
0
100
AcDbSymbolTable
 70
     2
  0
STYLE
  5
11
330
3
100
AcDbSymbolTableRecord
100
AcDbTextStyleTableRecord
  2
Standard
 70
     0
 40
0.0
 41
1.0
 50
0.0
 71
     0
 42
3.5
  3
txt
  4

  0
STYLE
  5
94
330
3
100
AcDbSymbolTableRecord
100
AcDbTextStyleTableRecord
  2
SLDTEXTSTYLE0
 70
     0
 40
0.0
 41
0.75
 50
0.0
 71
     0
 42
3.5
  3
TXT
  4

  0
ENDTAB
  0
TABLE
  2
VIEW
  5
6
330
0
100
AcDbSymbolTable
 70
     0
  0
ENDTAB
  0
TABLE
  2
UCS
  5
7
330
0
100
AcDbSymbolTable
 70
     0
  0
ENDTAB
  0
TABLE
  2
APPID
  5
9
330
0
100
AcDbSymbolTable
 70
     4
  0
APPID
  5
12
330
9
100
AcDbSymbolTableRecord
100
AcDbRegAppTableRecord
  2
ACAD
 70
     0
  0
APPID
  5
16A
330
9
100
AcDbSymbolTableRecord
100
AcDbRegAppTableRecord
  2
PE_URL
 70
     0
  0
APPID
  5
19A
330
9
100
AcDbSymbolTableRecord
100
AcDbRegAppTableRecord
  2
ACAD_DSTYLE_DIMFLIPARROW_SYMBOL
 70
     0
  0
APPID
  5
19B
330
9
100
AcDbSymbolTableRecord
100
AcDbRegAppTableRecord
  2
ACAD_DSTYLE_DIMFLIPARROW_WHICH_SYMBOL
 70
     0
  0
ENDTAB
  0
TABLE
  2
DIMSTYLE
  5
A
330
0
100
AcDbSymbolTable
 70
     5
100
AcDbDimStyleTable
  0
DIMSTYLE
105
27
102
{ACAD_REACTORS
330
196
102
}
330
A
100
AcDbSymbolTableRecord
100
AcDbDimStyleTableRecord
  2
ISO-25
 70
     0
 41
2.5
 42
0.625
 43
3.75
 44
1.25
 73
     0
 74
     0
 77
     1
 78
     8
140
2.5
141
2.5
143
0.03937007874016
147
0.625
171
     3
172
     1
178
     0
271
     2
272
     2
274
     3
278
    44
283
     0
284
     8
340
11
  0
DIMSTYLE
105
D1
102
{ACAD_REACTORS
330
D0
102
}
330
A
100
AcDbSymbolTableRecord
100
AcDbDimStyleTableRecord
  2
SLDDIMSTYLE0
 70
     0
 41
3.302
 44
0.0
 45
0.000000001
 73
     0
 74
     0
 77
     1
 78
     4
 79
     1
140
3.5
143
0.0393700787401575
147
0.875
148
0.000000001
170
     1
173
     1
178
     0
271
     2
272
     2
276
     2
284
    12
340
94
  0
DIMSTYLE
105
E5
102
{ACAD_REACTORS
330
E4
102
}
330
A
100
AcDbSymbolTableRecord
100
AcDbDimStyleTableRecord
  2
SLDDIMSTYLE1
 70
     0
 41
3.302
 44
0.0
 45
0.000000001
 73
     0
 74
     0
 77
     1
 78
     4
 79
     1
140
3.5
143
0.0393700787401575
147
0.875
148
0.000000001
170
     1
172
     1
173
     1
178
     0
271
     2
272
     2
276
     2
284
    12
289
     0
340
94
  0
DIMSTYLE
105
FA
102
{ACAD_REACTORS
330
F9
102
}
330
A
100
AcDbSymbolTableRecord
100
AcDbDimStyleTableRecord
  2
SLDDIMSTYLE2
 70
     0
 41
3.302
 44
0.0
 45
0.000000001
 73
     0
 74
     0
 77
     1
 78
    12
 79
     3
140
3.5
143
0.0393700787401575
147
0.875
148
0.000000001
170
     1
173
     1
178
     0
271
     2
272
     2
276
     2
284
    12
340
94
  0
DIMSTYLE
105
10E
102
{ACAD_REACTORS
330
10D
102
}
330
A
100
AcDbSymbolTableRecord
100
AcDbDimStyleTableRecord
  2
SLDDIMSTYLE3
 70
     0
 41
3.302
 44
0.0
 45
0.000000001
 73
     0
 74
     0
 77
     1
 78
    12
 79
     3
140
3.5
143
0.0393700787401575
147
0.875
148
0.000000001
170
     1
172
     1
173
     1
178
     0
271
     2
272
     2
276
     2
284
    12
289
     0
340
94
  0
ENDTAB
  0
TABLE
  2
BLOCK_RECORD
  5
1
330
0
100
AcDbSymbolTable
 70
     7
  0
BLOCK_RECORD
  5
1F
330
1
100
AcDbSymbolTableRecord
100
AcDbBlockTableRecord
  2
*Model_Space
340
22
  0
BLOCK_RECORD
  5
1B
330
1
100
AcDbSymbolTableRecord
100
AcDbBlockTableRecord
  2
*Paper_Space
340
1E
  0
BLOCK_RECORD
  5
23
330
1
100
AcDbSymbolTableRecord
100
AcDbBlockTableRecord
  2
*Paper_Space0
340
26
  0
BLOCK_RECORD
  5
7F
330
1
100
AcDbSymbolTableRecord
100
AcDbBlockTableRecord
  2
블럭10
340
0
102
{BLKREFS
331
C9
102
}
  0
BLOCK_RECORD
  5
D2
330
1
100
AcDbSymbolTableRecord
100
AcDbBlockTableRecord
  2
_D
340
0
  0
BLOCK_RECORD
  5
E6
330
1
100
AcDbSymbolTableRecord
100
AcDbBlockTableRecord
  2
_D_1
340
0
  0
BLOCK_RECORD
  5
FB
330
1
100
AcDbSymbolTableRecord
100
AcDbBlockTableRecord
  2
_D_2
340
0
  0
BLOCK_RECORD
  5
10F
330
1
100
AcDbSymbolTableRecord
100
AcDbBlockTableRecord
  2
_D_3
340
0
  0
BLOCK_RECORD
  5
129
330
1
100
AcDbSymbolTableRecord
100
AcDbBlockTableRecord
  2
SW_DOWELSYMBOL_0
340
0
102
{BLKREFS
331
12F
102
}
  0
ENDTAB
  0
ENDSEC
  0
SECTION
  2
BLOCKS
  0
BLOCK
  5
20
330
1F
100
AcDbEntity
  8
0
100
AcDbBlockBegin
  2
*Model_Space
 70
     0
 10
0.0
 20
0.0
 30
0.0
  3
*Model_Space
  1

  0
ENDBLK
  5
21
330
1F
100
AcDbEntity
  8
0
100
AcDbBlockEnd
  0
BLOCK
  5
1C
330
1B
100
AcDbEntity
 67
     1
  8
0
100
AcDbBlockBegin
  2
*Paper_Space
 70
     0
 10
0.0
 20
0.0
 30
0.0
  3
*Paper_Space
  1

  0
ENDBLK
  5
1D
330
1B
100
AcDbEntity
 67
     1
  8
0
100
AcDbBlockEnd
  0
BLOCK
  5
24
330
23
100
AcDbEntity
  8
0
100
AcDbBlockBegin
  2
*Paper_Space0
 70
     0
 10
0.0
 20
0.0
 30
0.0
  3
*Paper_Space0
  1

  0
ENDBLK
  5
25
330
23
100
AcDbEntity
  8
0
100
AcDbBlockEnd
  0
BLOCK
  5
80
330
7F
100
AcDbEntity
  8
0
100
AcDbBlockBegin
  2
블럭10
 70
     2
 10
0.0
 20
0.0
 30
0.0
  3
블럭10
  1

  0
ELLIPSE
  5
82
330
7F
100
AcDbEntity
  8
중심선
100
AcDbEllipse
 10
20.54032771741204
 20
12.0471743016438
 30
0.0
 11
6.600054785286829
 21
-1.261213355974178E-13
 31
0.0
210
0.0
220
0.0
230
1.0
 40
0.636358354079598
 41
0.9219305317359503
 42
6.513795318482858
  0
ELLIPSE
  5
83
330
7F
100
AcDbEntity
  8
중심선
100
AcDbEllipse
 10
20.54032771746488
 20
12.04717430159265
 30
0.0
 11
3.960054785062283
 21
1.540847449632565E-10
 31
0.0
210
0.0
220
0.0
230
1.0
 40
0.3939339440162632
 41
1.131841032648279
 42
5.62031148352944
  0
LINE
  5
84
330
7F
100
AcDbEntity
  8
중심선
100
AcDbLine
 10
2.268634060543552
 20
16.24717430164393
 30
0.0
 11
5.714909304380834
 21
16.24717430164393
 31
0.0
  0
LINE
  5
85
330
7F
100
AcDbEntity
  8
중심선
100
AcDbLine
 10
5.245725140726316
 20
7.84717430164391
 30
0.0
 11
8.692000384563599
 21
7.84717430164391
 31
0.0
  0
LINE
  5
86
330
7F
100
AcDbEntity
  8
중심선
100
AcDbLine
 10
15.74043728645272
 20
16.24717430164393
 30
0.0
 11
8.692000384563599
 21
7.84717430164391
 31
0.0
  0
LINE
  5
87
330
7F
100
AcDbEntity
  8
중심선
100
AcDbLine
 10
0.1404042013395286
 20
13.71084872107135
 30
0.0
 11
3.58671253028996
 21
13.71088815037384
 31
0.0
  0
LINE
  5
88
330
7F
100
AcDbEntity
  8
중심선
100
AcDbLine
 10
2.750260043222114
 20
10.84717430164391
 30
0.0
 11
6.196535287059397
 21
10.84717430164391
 31
0.0
  0
LINE
  5
89
330
7F
100
AcDbEntity
  8
중심선
100
AcDbLine
 10
12.29416204261559
 20
16.24717430164393
 30
0.0
 11
5.245725140726316
 21
7.84717430164391
 31
0.0
  0
LINE
  5
8A
330
7F
100
AcDbEntity
  8
중심선
100
AcDbLine
 10
10.72767329541681
 20
16.24717430164393
 30
0.0
 11
6.196535287059397
 21
10.84717430164391
 31
0.0
  0
LINE
  5
8B
330
7F
100
AcDbEntity
  8
중심선
100
AcDbLine
 10
7.28139805157953
 20
16.24717430164393
 30
0.0
 11
2.750260043222114
 21
10.84717430164391
 31
0.0
  0
LINE
  5
8C
330
7F
100
AcDbEntity
  8
중심선
100
AcDbLine
 10
5.714909304380834
 20
16.24717430164393
 30
0.0
 11
3.58671253028996
 21
13.71088815037384
 31
0.0
  0
LINE
  5
8D
330
7F
100
AcDbEntity
  8
중심선
100
AcDbLine
 10
2.268634060543552
 20
16.24717430164393
 30
0.0
 11
0.1404042013395286
 21
13.71084872107135
 31
0.0
  0
LINE
  5
8E
330
7F
100
AcDbEntity
  8
중심선
100
AcDbLine
 10
7.28139805157953
 20
16.24717430164393
 30
0.0
 11
10.72767329541681
 21
16.24717430164393
 31
0.0
  0
LINE
  5
8F
330
7F
100
AcDbEntity
  8
중심선
100
AcDbLine
 10
12.29416204261559
 20
16.24717430164393
 30
0.0
 11
15.74043728645272
 21
16.24717430164393
 31
0.0
  0
LINE
  5
90
330
7F
100
AcDbEntity
  8
중심선
100
AcDbLine
 10
19.22036997980202
 20
11.08717430171403
 30
0.0
 11
23.66174974927406
 21
11.08717430171406
 31
0.0
  0
LINE
  5
91
330
7F
100
AcDbEntity
  8
중심선
100
AcDbLine
 10
19.22039502424796
 20
13.00717430171391
 30
0.0
 11
19.22036997980202
 21
11.08717430171403
 31
0.0
  0
LINE
  5
92
330
7F
100
AcDbEntity
  8
중심선
100
AcDbLine
 10
19.22039502424796
 20
13.00717430171391
 30
0.0
 11
26.96566020931264
 21
13.00717430171391
 31
0.0
  0
LINE
  5
93
330
7F
100
AcDbEntity
  8
중심선
100
AcDbLine
 10
22.22332737316547
 20
13.45928029700563
 30
0.0
 11
24.52862924686651
 21
15.39360700705356
 31
0.0
  0
ATTDEF
  5
95
330
7F
100
AcDbEntity
  8
FORMAT
 62
     2
100
AcDbText
 10
4.408487351596664
 20
2.075366912832191
 30
0.0
 40
4.233333333333333
  1
E5105064
 41
0.75
  7
SLDTEXTSTYLE0
 11
4.408487351596664
 21
-0.0412997538344756
 31
0.0
100
AcDbAttributeDefinition
  3

  2
AUTOATTR0
 70
     0
 74
     1
  0
ENDBLK
  5
81
330
7F
100
AcDbEntity
  8
0
100
AcDbBlockEnd
  0
BLOCK
  5
D3
330
D2
100
AcDbEntity
  8
0
100
AcDbBlockBegin
  2
_D
 70
     0
 10
0.0
 20
0.0
 30
0.0
  3
_D
  1

  0
LINE
  5
D5
330
D2
100
AcDbEntity
  8
치수문자_일반주서
 62
     0
370
    -2
100
AcDbLine
 10
-32.44999999999998
 20
12.83800179002429
 30
0.0
 11
-32.44999999999998
 21
48.76171894357548
 31
0.0
  0
LINE
  5
D6
330
D2
100
AcDbEntity
  8
치수문자_일반주서
 62
     0
370
    -2
100
AcDbLine
 10
43.75000000000001
 20
12.83800179002443
 30
0.0
 11
43.75000000000001
 21
48.76171894357548
 31
0.0
  0
LINE
  5
D7
330
D2
100
AcDbEntity
  8
치수문자_일반주서
 62
     0
370
    -2
100
AcDbLine
 10
-29.14799999999998
 20
48.76171894357548
 30
0.0
 11
40.44800000000001
 21
48.76171894357548
 31
0.0
  0
SOLID
  5
D8
330
D2
100
AcDbEntity
  8
치수문자_일반주서
 62
     0
100
AcDbTrace
 10
-29.14799999999998
 20
49.31205227690882
 30
0.0
 11
-29.14799999999998
 21
48.21138561024215
 31
0.0
 12
-32.44999999999998
 22
48.76171894357548
 32
0.0
 13
-32.44999999999998
 23
48.76171894357548
 33
0.0
  0
SOLID
  5
D9
330
D2
100
AcDbEntity
  8
치수문자_일반주서
 62
     0
100
AcDbTrace
 10
40.44800000000001
 20
48.21138561024215
 30
0.0
 11
40.44800000000001
 21
49.31205227690882
 31
0.0
 12
43.75000000000001
 22
48.76171894357548
 32
0.0
 13
43.75000000000001
 23
48.76171894357548
 33
0.0
  0
MTEXT
  5
DA
330
D2
100
AcDbEntity
  8
치수문자_일반주서
 62
     0
100
AcDbMText
 10
5.65000000000002
 20
53.13671894357548
 30
0.0
 40
3.5
 41
0.0
 71
     2
 72
     1
  1
\A1;76.20 [3]
  7
SLDTEXTSTYLE0
 73
     1
 44
1.0
  0
POINT
  5
DB
330
D2
100
AcDbEntity
  8
Defpoints
 62
     0
100
AcDbPoint
 10
-32.44999999999998
 20
12.77550179002429
 30
0.0
  0
POINT
  5
DC
330
D2
100
AcDbEntity
  8
Defpoints
 62
     0
100
AcDbPoint
 10
43.75000000000001
 20
12.77550179002443
 30
0.0
  0
POINT
  5
DD
330
D2
100
AcDbEntity
  8
Defpoints
 62
     0
100
AcDbPoint
 10
43.75000000000001
 20
48.76171894357548
 30
0.0
  0
ENDBLK
  5
D4
330
D2
100
AcDbEntity
  8
0
100
AcDbBlockEnd
  0
BLOCK
  5
E7
330
E6
100
AcDbEntity
  8
0
100
AcDbBlockBegin
  2
_D_1
 70
     0
 10
0.0
 20
0.0
 30
0.0
  3
_D_1
  1

  0
LINE
  5
E9
330
E6
100
AcDbEntity
  8
치수문자_일반주서
 62
     0
370
    -2
100
AcDbLine
 10
-32.51249999999998
 20
12.77550179002429
 30
0.0
 11
-46.96803282517385
 21
12.77550179002423
 31
0.0
  0
LINE
  5
EA
330
E6
100
AcDbEntity
  8
치수문자_일반주서
 62
     0
370
    -2
100
AcDbLine
 10
-32.50465541674753
 20
-12.62449820997571
 30
0.0
 11
-46.96803282517376
 21
-12.62449820997576
 31
0.0
  0
LINE
  5
EB
330
E6
100
AcDbEntity
  8
치수문자_일반주서
 62
     0
370
    -2
100
AcDbLine
 10
-46.96803282517385
 20
12.77550179002423
 30
0.0
 11
-46.96803282517394
 21
41.69200179002424
 31
0.0
  0
LINE
  5
EC
330
E6
100
AcDbEntity
  8
치수문자_일반주서
 62
     0
370
    -2
100
AcDbLine
 10
-46.96803282517385
 20
12.77550179002423
 30
0.0
 11
-46.96803282517376
 21
-12.62449820997576
 31
0.0
  0
LINE
  5
ED
330
E6
100
AcDbEntity
  8
치수문자_일반주서
 62
     0
370
    -2
100
AcDbLine
 10
-46.96803282517386
 20
16.07750179002423
 30
0.0
 11
-46.96803282517388
 21
19.37950179002423
 31
0.0
  0
LINE
  5
EE
330
E6
100
AcDbEntity
  8
치수문자_일반주서
 62
     0
370
    -2
100
AcDbLine
 10
-46.96803282517375
 20
-15.92649820997576
 30
0.0
 11
-46.96803282517374
 21
-19.22849820997576
 31
0.0
  0
SOLID
  5
EF
330
E6
100
AcDbEntity
  8
치수문자_일반주서
 62
     0
100
AcDbTrace
 10
-47.5183661585072
 20
16.07750179002423
 30
0.0
 11
-46.41769949184053
 21
16.07750179002424
 31
0.0
 12
-46.96803282517385
 22
12.77550179002423
 32
0.0
 13
-46.96803282517385
 23
12.77550179002423
 33
0.0
  0
SOLID
  5
F0
330
E6
100
AcDbEntity
  8
치수문자_일반주서
 62
     0
100
AcDbTrace
 10
-46.41769949184042
 20
-15.92649820997576
 30
0.0
 11
-47.51836615850709
 21
-15.92649820997576
 31
0.0
 12
-46.96803282517376
 22
-12.62449820997576
 32
0.0
 13
-46.96803282517376
 23
-12.62449820997576
 33
0.0
  0
MTEXT
  5
F1
330
E6
100
AcDbEntity
  8
치수문자_일반주서
 62
     0
100
AcDbMText
 10
-51.34303282517391
 20
30.53575179002422
 30
0.0
 40
3.5
 41
0.0
 71
     2
 72
     1
  1
\A1;%%c25.40 [1]
  7
SLDTEXTSTYLE0
 11
-3.356894814614647E-15
 21
1.0
 31
0.0
 73
     1
 44
1.0
  0
POINT
  5
15F
330
E6
100
AcDbEntity
  8
Defpoints
 62
     0
100
AcDbPoint
 10
-32.44999999999998
 20
12.77550179002429
 30
0.0
  0
POINT
  5
160
330
E6
100
AcDbEntity
  8
Defpoints
 62
     0
100
AcDbPoint
 10
-32.44215541674753
 20
-12.62449820997571
 30
0.0
  0
POINT
  5
161
330
E6
100
AcDbEntity
  8
Defpoints
 62
     0
100
AcDbPoint
 10
-46.96803282517376
 20
-12.62449820997576
 30
0.0
  0
ENDBLK
  5
E8
330
E6
100
AcDbEntity
  8
0
100
AcDbBlockEnd
  0
BLOCK
  5
FC
330
FB
100
AcDbEntity
  8
0
100
AcDbBlockBegin
  2
_D_2
 70
     0
 10
0.0
 20
0.0
 30
0.0
  3
_D_2
  1

  0
LINE
  5
FE
330
FB
100
AcDbEntity
  8
치수문자_일반주서
 62
     0
370
    -2
100
AcDbLine
 10
43.75000000000002
 20
12.83800179002443
 30
0.0
 11
43.75000000000002
 21
31.38931074373997
 31
0.0
  0
LINE
  5
FF
330
FB
100
AcDbEntity
  8
치수문자_일반주서
 62
     0
370
    -2
100
AcDbLine
 10
12.00000000000001
 20
12.83800179002432
 30
0.0
 11
12.00000000000001
 21
31.38931074373997
 31
0.0
  0
LINE
  5
100
330
FB
100
AcDbEntity
  8
치수문자_일반주서
 62
     0
370
    -2
100
AcDbLine
 10
12.00000000000001
 20
31.38931074373997
 30
0.0
 11
-20.17699999999999
 21
31.38931074373997
 31
0.0
  0
LINE
  5
101
330
FB
100
AcDbEntity
  8
치수문자_일반주서
 62
     0
370
    -2
100
AcDbLine
 10
43.75000000000002
 20
31.38931074373997
 30
0.0
 11
12.00000000000001
 21
31.38931074373997
 31
0.0
  0
LINE
  5
102
330
FB
100
AcDbEntity
  8
치수문자_일반주서
 62
     0
370
    -2
100
AcDbLine
 10
47.05200000000002
 20
31.38931074373997
 30
0.0
 11
50.35400000000002
 21
31.38931074373997
 31
0.0
  0
LINE
  5
103
330
FB
100
AcDbEntity
  8
치수문자_일반주서
 62
     0
370
    -2
100
AcDbLine
 10
8.698000000000015
 20
31.38931074373997
 30
0.0
 11
5.396000000000015
 21
31.38931074373997
 31
0.0
  0
SOLID
  5
104
330
FB
100
AcDbEntity
  8
치수문자_일반주서
 62
     0
100
AcDbTrace
 10
47.05200000000002
 20
31.9396440770733
 30
0.0
 11
47.05200000000002
 21
30.83897741040663
 31
0.0
 12
43.75000000000002
 22
31.38931074373997
 32
0.0
 13
43.75000000000002
 23
31.38931074373997
 33
0.0
  0
SOLID
  5
105
330
FB
100
AcDbEntity
  8
치수문자_일반주서
 62
     0
100
AcDbTrace
 10
8.698000000000015
 20
30.83897741040663
 30
0.0
 11
8.698000000000015
 21
31.9396440770733
 31
0.0
 12
12.00000000000001
 22
31.38931074373997
 32
0.0
 13
12.00000000000001
 23
31.38931074373997
 33
0.0
  0
MTEXT
  5
106
330
FB
100
AcDbEntity
  8
치수문자_일반주서
 62
     0
100
AcDbMText
 10
-5.739499999999985
 20
35.76431074373997
 30
0.0
 40
3.5
 41
0.0
 71
     2
 72
     1
  1
\A1;31.75 [1 1/4]
  7
SLDTEXTSTYLE0
 73
     1
 44
1.0
  0
POINT
  5
162
330
FB
100
AcDbEntity
  8
Defpoints
 62
     0
100
AcDbPoint
 10
43.75000000000002
 20
12.77550179002443
 30
0.0
  0
POINT
  5
163
330
FB
100
AcDbEntity
  8
Defpoints
 62
     0
100
AcDbPoint
 10
12.00000000000001
 20
12.77550179002432
 30
0.0
  0
POINT
  5
164
330
FB
100
AcDbEntity
  8
Defpoints
 62
     0
100
AcDbPoint
 10
12.00000000000001
 20
31.38931074373997
 30
0.0
  0
ENDBLK
  5
FD
330
FB
100
AcDbEntity
  8
0
100
AcDbBlockEnd
  0
BLOCK
  5
110
330
10F
100
AcDbEntity
  8
0
100
AcDbBlockBegin
  2
_D_3
 70
     0
 10
0.0
 20
0.0
 30
0.0
  3
_D_3
  1

  0
LINE
  5
112
330
10F
100
AcDbEntity
  8
치수문자_일반주서
 62
     0
370
    -2
100
AcDbLine
 10
43.81250000000001
 20
12.77550179002443
 30
0.0
 11
58.74999999999999
 21
12.77550179002449
 31
0.0
  0
LINE
  5
113
330
10F
100
AcDbEntity
  8
치수문자_일반주서
 62
     0
370
    -2
100
AcDbLine
 10
43.84712063578206
 20
-12.62449820997556
 30
0.0
 11
58.75000000000008
 21
-12.62449820997551
 31
0.0
  0
LINE
  5
114
330
10F
100
AcDbEntity
  8
치수문자_일반주서
 62
     0
370
    -2
100
AcDbLine
 10
58.74999999999999
 20
12.77550179002449
 30
0.0
 11
58.7499999999999
 21
39.50450179002449
 31
0.0
  0
LINE
  5
115
330
10F
100
AcDbEntity
  8
치수문자_일반주서
 62
     0
370
    -2
100
AcDbLine
 10
58.74999999999999
 20
12.77550179002449
 30
0.0
 11
58.75000000000008
 21
-12.62449820997551
 31
0.0
  0
LINE
  5
116
330
10F
100
AcDbEntity
  8
치수문자_일반주서
 62
     0
370
    -2
100
AcDbLine
 10
58.74999999999998
 20
16.07750179002449
 30
0.0
 11
58.74999999999996
 21
19.37950179002449
 31
0.0
  0
LINE
  5
117
330
10F
100
AcDbEntity
  8
치수문자_일반주서
 62
     0
370
    -2
100
AcDbLine
 10
58.75000000000009
 20
-15.92649820997551
 30
0.0
 11
58.75000000000011
 21
-19.22849820997551
 31
0.0
  0
SOLID
  5
118
330
10F
100
AcDbEntity
  8
치수문자_일반주서
 62
     0
100
AcDbTrace
 10
58.19966666666664
 20
16.07750179002448
 30
0.0
 11
59.30033333333331
 21
16.07750179002449
 31
0.0
 12
58.74999999999999
 22
12.77550179002449
 32
0.0
 13
58.74999999999999
 23
12.77550179002449
 33
0.0
  0
SOLID
  5
119
330
10F
100
AcDbEntity
  8
치수문자_일반주서
 62
     0
100
AcDbTrace
 10
59.30033333333343
 20
-15.9264982099755
 30
0.0
 11
58.19966666666676
 21
-15.92649820997551
 31
0.0
 12
58.75000000000008
 22
-12.62449820997551
 32
0.0
 13
58.75000000000008
 23
-12.62449820997551
 33
0.0
  0
MTEXT
  5
11A
330
10F
100
AcDbEntity
  8
치수문자_일반주서
 62
     0
100
AcDbMText
 10
54.37499999999994
 20
29.44200179002448
 30
0.0
 40
3.5
 41
0.0
 71
     2
 72
     1
  1
\A1;%%c25.4 [1]
  7
SLDTEXTSTYLE0
 11
-3.356894814614647E-15
 21
1.0
 31
0.0
 73
     1
 44
1.0
  0
POINT
  5
153
330
10F
100
AcDbEntity
  8
Defpoints
 62
     0
100
AcDbPoint
 10
43.75000000000001
 20
12.77550179002443
 30
0.0
  0
POINT
  5
154
330
10F
100
AcDbEntity
  8
Defpoints
 62
     0
100
AcDbPoint
 10
43.78462063578206
 20
-12.62449820997556
 30
0.0
  0
POINT
  5
155
330
10F
100
AcDbEntity
  8
Defpoints
 62
     0
100
AcDbPoint
 10
58.75000000000008
 20
-12.62449820997551
 30
0.0
  0
ENDBLK
  5
111
330
10F
100
AcDbEntity
  8
0
100
AcDbBlockEnd
  0
BLOCK
  5
12A
330
129
100
AcDbEntity
  8
0
100
AcDbBlockBegin
  2
SW_DOWELSYMBOL_0
 70
     0
 10
0.0
 20
0.0
 30
0.0
  3
SW_DOWELSYMBOL_0
  1

  0
CIRCLE
  5
12C
330
129
100
AcDbEntity
  8
해칭선
 62
     0
100
AcDbCircle
 10
0.0
 20
0.0
 30
0.0
 40
3.000000000000002
  0
HATCH
  5
12D
330
129
100
AcDbEntity
  8
0
  6
Continuous
 62
     0
370
     0
100
AcDbHatch
 10
0.0
 20
0.0
 30
0.0
210
0.0
220
0.0
230
1.0
  2
SOLID
 70
     1
 71
     0
 91
        1
 92
        0
 93
        3
 72
     2
 10
0.0000000000000069
 20
0.0
 40
3.000000000000002
 50
0.0
 51
90.0
 73
     1
 72
     1
 10
0.0000000000000069
 20
3.000000000000002
 11
0.0000000000000069
 21
0.0
 72
     1
 10
0.0000000000000069
 20
0.0
 11
3.000000000000009
 21
0.0
 97
        0
 75
     0
 76
     1
 98
        1
 10
0.0
 20
0.0
  0
HATCH
  5
12E
330
129
100
AcDbEntity
  8
0
  6
Continuous
 62
     0
370
     0
100
AcDbHatch
 10
0.0
 20
0.0
 30
0.0
210
0.0
220
0.0
230
1.0
  2
SOLID
 70
     1
 71
     0
 91
        1
 92
        0
 93
        3
 72
     2
 10
0.0000000000000069
 20
0.0
 40
3.000000000000002
 50
180.0
 51
270.0000000000007
 73
     1
 72
     1
 10
0.0000000000000069
 20
-3.000000000000002
 11
0.0000000000000069
 21
0.0
 72
     1
 10
0.0000000000000069
 20
0.0
 11
-2.999999999999995
 21
0.0
 97
        0
 75
     0
 76
     1
 98
        1
 10
0.0
 20
0.0
  0
ENDBLK
  5
12B
330
129
100
AcDbEntity
  8
0
100
AcDbBlockEnd
  0
ENDSEC
  0
SECTION
  2
ENTITIES
  0
LINE
  5
97
330
1F
100
AcDbEntity
  8
외형선
  6
Continuous
370
    15
100
AcDbLine
 10
-31.94999999999998
 20
-12.6244982099757
 30
0.0
 11
8.949924521702112
 21
-12.6244982099757
 31
0.0
  0
LINE
  5
99
330
1F
100
AcDbEntity
  8
외형선
  6
Continuous
370
    15
100
AcDbLine
 10
-32.44999999999998
 20
-12.1244982099757
 30
0.0
 11
-31.94999999999998
 21
-12.6244982099757
 31
0.0
  0
LINE
  5
9A
330
1F
100
AcDbEntity
  8
외형선
  6
Continuous
 62
     1
370
    15
100
AcDbLine
 10
19.33705721805545
 20
-12.6244982099757
 30
0.0
 11
21.81507406997522
 21
-12.6244982099757
 31
0.0
  0
LINE
  5
9D
330
1F
100
AcDbEntity
  8
외형선
  6
Continuous
370
    15
100
AcDbLine
 10
12.00000000000002
 20
12.74885473083795
 30
0.0
 11
10.57600376171321
 21
12.77022153218868
 31
0.0
  0
LINE
  5
9E
330
1F
100
AcDbEntity
  8
외형선
  6
Continuous
370
    15
100
AcDbLine
 10
12.00000000000002
 20
12.74885473083786
 30
0.0
 11
12.00000000000002
 21
9.67585687100489
 31
0.0
  0
SPLINE
  5
9F
330
1F
100
AcDbEntity
  8
외형선
  6
Continuous
370
    15
100
AcDbSpline
210
0.0
220
0.0
230
1.0
 70
     8
 71
     3
 72
    10
 73
     6
 74
     0
 42
0.000000001
 43
0.00000001
 40
0.0
 40
0.0
 40
0.0
 40
0.0
 40
0.5
 40
0.5
 40
1.0
 40
1.0
 40
1.0
 40
1.0
 10
12.00000000000002
 20
9.675856871004886
 30
0.0
 10
11.49121400341106
 20
9.868077362095146
 30
0.0
 10
10.98488138577563
 20
10.0523021204871
 30
0.0
 10
9.968793443439274
 20
10.40490431974535
 30
0.0
 10
9.459210672885987
 20
10.57324061218106
 30
0.0
 10
8.949924521702112
 20
10.73298509654456
 30
0.0
  0
SPLINE
  5
A0
330
1F
100
AcDbEntity
  8
외형선
  6
Continuous
370
    15
100
AcDbSpline
210
0.0
220
0.0
230
1.0
 70
     8
 71
     3
 72
    10
 73
     6
 74
     0
 42
0.000000001
 43
0.00000001
 40
0.0
 40
0.0
 40
0.0
 40
0.0
 40
0.5
 40
0.5
 40
1.0
 40
1.0
 40
1.0
 40
1.0
 10
12.00000000000002
 20
-6.97327995924064
 30
0.0
 10
11.49121400341106
 20
-6.72903308439297
 30
0.0
 10
10.98488138577563
 20
-6.479535239117603
 30
0.0
 10
9.968793443439274
 20
-5.96988927478478
 30
0.0
 10
9.459210672885987
 20
-5.709756555976687
 30
0.0
 10
8.949924521702112
 20
-5.445240003095249
 30
0.0
  0
LINE
  5
A1
330
1F
100
AcDbEntity
  8
외형선
  6
Continuous
370
    15
100
AcDbLine
 10
12.00000000000002
 20
-6.97327995924064
 30
0.0
 11
12.00000000000002
 21
-11.92484149434426
 31
0.0
  0
SPLINE
  5
A2
330
1F
100
AcDbEntity
  8
외형선
  6
Continuous
370
    15
100
AcDbSpline
210
0.0
220
0.0
230
1.0
 70
     8
 71
     3
 72
    10
 73
     6
 74
     0
 42
0.000000001
 43
0.00000001
 40
0.0
 40
0.0
 40
0.0
 40
0.0
 40
0.5
 40
0.5
 40
1.0
 40
1.0
 40
1.0
 40
1.0
 10
12.00000000000002
 20
-11.92484149434424
 30
0.0
 10
11.49121400341106
 20
-11.82872856399832
 30
0.0
 10
10.98488138577563
 20
-11.72316193858941
 30
0.0
 10
9.968793443439274
 20
-11.49307962380989
 30
0.0
 10
9.459210672885987
 20
-11.36855231300187
 30
0.0
 10
8.949924521702112
 20
-11.2349651309518
 30
0.0
  0
LINE
  5
A3
330
1F
100
AcDbEntity
  8
외형선
  6
Continuous
370
    15
100
AcDbLine
 10
8.949924521702112
 20
-11.23496512310346
 30
0.0
 11
8.949924521702112
 21
-12.6244982099757
 31
0.0
  0
LINE
  5
A4
330
1F
100
AcDbEntity
  8
외형선
  6
Continuous
370
    15
100
AcDbLine
 10
-31.94999999999998
 20
10.87050179002429
 30
0.0
 11
-31.94999999999998
 21
-12.6244982099757
 31
0.0
  0
LINE
  5
A5
330
1F
100
AcDbEntity
  8
외형선
  6
Continuous
370
    15
100
AcDbLine
 10
8.949924521702112
 20
10.73298510592967
 30
0.0
 11
8.949924521702112
 21
-5.445254752495366
 31
0.0
  0
LINE
  5
A6
330
1F
100
AcDbEntity
  8
외형선
  6
Continuous
370
    15
100
AcDbLine
 10
-32.44999999999998
 20
10.87050179002429
 30
0.0
 11
-32.44999999999998
 21
-12.1244982099757
 31
0.0
  0
SPLINE
  5
A7
330
1F
100
AcDbEntity
  8
외형선
  6
Continuous
370
    15
100
AcDbSpline
210
0.0
220
0.0
230
1.0
 70
    24
 71
     3
 72
    22
 73
    18
 74
     0
 42
0.000000001
 43
0.00000001
 40
0.0
 40
0.0
 40
0.0
 40
0.0
 40
0.125
 40
0.125
 40
0.25
 40
0.25
 40
0.375
 40
0.375
 40
0.5
 40
0.5
 40
0.625
 40
0.625
 40
0.75
 40
0.75
 40
0.875
 40
0.875
 40
1.0
 40
1.0
 40
1.0
 40
1.0
 10
12.00000000000002
 20
9.67585687100489
 30
0.0
 10
12.00000000000002
 20
9.251201350236416
 30
0.0
 10
12.00000000000002
 20
8.785281417224454
 30
0.0
 10
12.00000000000002
 20
7.76182053753958
 30
0.0
 10
12.00000000000002
 20
7.204146267867555
 30
0.0
 10
12.00000000000002
 20
5.993179026493845
 30
0.0
 10
12.00000000000002
 20
5.3397130834687
 30
0.0
 10
12.00000000000002
 20
3.943083532105596
 30
0.0
 10
12.00000000000002
 20
3.199751911358265
 30
0.0
 10
12.00000000000002
 20
1.644568821500881
 30
0.0
 10
12.00000000000002
 20
0.8326497509458237
 30
0.0
 10
12.00000000000002
 20
-0.8193195171419898
 30
0.0
 10
12.00000000000002
 20
-1.659216268491534
 30
0.0
 10
12.00000000000002
 20
-3.30837507421977
 30
0.0
 10
12.00000000000002
 20
-4.117208518286256
 30
0.0
 10
12.00000000000002
 20
-5.635755869108742
 30
0.0
 10
12.00000000000002
 20
-6.344886222110826
 30
0.0
 10
12.00000000000002
 20
-6.973279959247406
 30
0.0
  0
SPLINE
  5
A8
330
1F
100
AcDbEntity
  8
외형선
  6
Continuous
 62
     1
370
    15
100
AcDbSpline
210
0.0
220
0.0
230
1.0
 70
     8
 71
     3
 72
    22
 73
    18
 74
     0
 42
0.000000001
 43
0.00000001
 40
0.0
 40
0.0
 40
0.0
 40
0.0
 40
0.2499999999999996
 40
0.2499999999999996
 40
0.4999999999999992
 40
0.4999999999999992
 40
0.6249999999999993
 40
0.6249999999999993
 40
0.7499999999999994
 40
0.7499999999999994
 40
0.8124999999999997
 40
0.8124999999999997
 40
0.8749999999999998
 40
0.8749999999999998
 40
0.9374999999999999
 40
0.9374999999999999
 40
1.0
 40
1.0
 40
1.0
 40
1.0
 10
43.75000000000002
 20
-1.997593305838413
 30
0.0
 10
43.75000000000002
 20
-2.308694309586889
 30
0.0
 10
43.74900187395285
 20
-2.619764876904038
 30
0.0
 10
43.73454153783389
 20
-3.241688002754212
 30
0.0
 10
43.72156740771376
 20
-3.552859370000857
 30
0.0
 10
43.67561893070793
 20
-4.018277130990019
 30
0.0
 10
43.65584926256022
 20
-4.172901934794512
 30
0.0
 10
43.60012226462545
 20
-4.4803086714529
 30
0.0
 10
43.5648960759641
 20
-4.632098761143904
 30
0.0
 10
43.48734161241342
 20
-4.85297587879205
 30
0.0
 10
43.45709204599485
 20
-4.925830384040231
 30
0.0
 10
43.38299995409674
 20
-5.06384917540309
 30
0.0
 10
43.33919231241669
 20
-5.129551501544323
 30
0.0
 10
43.22844775911107
 20
-5.23934884879437
 30
0.0
 10
43.15901936774352
 20
-5.282579589854733
 30
0.0
 10
43.00845531985295
 20
-5.308684999981093
 30
0.0
 10
42.92951948298771
 20
-5.290736397979872
 30
0.0
 10
42.86100000000001
 20
-5.254838599506555
 30
0.0
  0
SPLINE
  5
A9
330
1F
100
AcDbEntity
  8
외형선
  6
Continuous
 62
     1
370
    15
100
AcDbSpline
210
0.0
220
0.0
230
1.0
 70
     8
 71
     3
 72
    14
 73
    10
 74
     0
 42
0.000000001
 43
0.00000001
 40
0.0
 40
0.0
 40
0.0
 40
0.0
 40
0.25
 40
0.25
 40
0.5
 40
0.5
 40
0.75
 40
0.75
 40
1.0
 40
1.0
 40
1.0
 40
1.0
 10
42.86100000000003
 20
-5.254838599506562
 30
0.0
 10
40.28925000000002
 20
-3.907215330864574
 30
0.0
 10
37.71750000000003
 20
-2.449545711134516
 30
0.0
 10
32.57400000000002
 20
0.5098314191187313
 30
0.0
 10
30.00225000000003
 20
2.010797003652217
 30
0.0
 10
24.85875000000003
 20
4.873998188527459
 30
0.0
 10
22.28700000000002
 20
6.235515974518666
 30
0.0
 10
17.14350000000002
 20
8.653944174129359
 30
0.0
 10
14.57175000000002
 20
9.710248279510129
 30
0.0
 10
12.00000000000002
 20
10.54985310052065
 30
0.0
  0
SPLINE
  5
AA
330
1F
100
AcDbEntity
  8
외형선
  6
Continuous
 62
     1
370
    15
100
AcDbSpline
210
0.0
220
0.0
230
1.0
 70
     8
 71
     3
 72
    36
 73
    32
 74
     0
 42
0.000000001
 43
0.00000001
 40
0.0
 40
0.0
 40
0.0
 40
0.0
 40
0.0625
 40
0.0625
 40
0.125
 40
0.125
 40
0.1875
 40
0.1875
 40
0.25
 40
0.25
 40
0.375
 40
0.375
 40
0.4375
 40
0.4375
 40
0.5
 40
0.5
 40
0.5625
 40
0.5625
 40
0.625
 40
0.625
 40
0.6875
 40
0.6875
 40
0.75
 40
0.75
 40
0.8125
 40
0.8125
 40
0.875
 40
0.875
 40
0.9375
 40
0.9375
 40
1.0
 40
1.0
 40
1.0
 40
1.0
 10
12.00000000000002
 20
11.9747485533253
 30
0.0
 10
12.66172078136416
 20
11.95526180039323
 30
0.0
 10
13.32513887068904
 20
11.91958704046537
 30
0.0
 10
14.64728718916093
 20
11.81632751922904
 30
0.0
 10
15.3059730757091
 20
11.74879719091116
 30
0.0
 10
16.63032187727808
 20
11.58203174758296
 30
0.0
 10
17.29351853570981
 20
11.48284829988302
 30
0.0
 10
18.6138828409176
 20
11.25418130463845
 30
0.0
 10
19.27406213058787
 20
11.12455618282186
 30
0.0
 10
21.26127274295777
 20
10.6907983211484
 30
0.0
 10
22.58002638676581
 20
10.34283173003652
 30
0.0
 10
24.56725018369259
 20
9.73956693392388
 30
0.0
 10
25.22750834182336
 20
9.525307955781086
 30
0.0
 10
26.54779384333686
 20
9.071839182003394
 30
0.0
 10
27.21097725684331
 20
8.832242728187074
 30
0.0
 10
28.53535241758594
 20
8.330169618849206
 30
0.0
 10
29.19407775716373
 20
8.068044100347818
 30
0.0
 10
30.51616469280691
 20
7.52225721361488
 30
0.0
 10
31.17957836651284
 20
7.238554303405899
 30
0.0
 10
32.50306382808694
 20
6.652965196283446
 30
0.0
 10
33.16126499539232
 20
6.351390427889964
 30
0.0
 10
34.48470695382156
 20
5.730986584495928
 30
0.0
 10
35.14812500518076
 20
5.412412996426405
 30
0.0
 10
36.47027277762368
 20
4.762418438987672
 30
0.0
 10
37.12895901023337
 20
4.43102741252764
 30
0.0
 10
38.45330805062197
 20
3.75616924584769
 30
0.0
 10
39.11650459211024
 20
3.41310478271169
 30
0.0
 10
40.43686819544985
 20
2.719912103893471
 30
0.0
 10
41.09704818375489
 20
2.369265380793057
 30
0.0
 10
42.42185534033649
 20
1.661912178084723
 30
0.0
 10
43.08460473626804
 20
1.305537382970983
 30
0.0
 10
43.74367221893733
 20
0.9486428125140003
 30
0.0
  0
SPLINE
  5
AB
330
1F
100
AcDbEntity
  8
외형선
  6
Continuous
 62
     1
370
    15
100
AcDbSpline
210
0.0
220
0.0
230
1.0
 70
     8
 71
     3
 72
     8
 73
     4
 74
     0
 42
0.000000001
 43
0.00000001
 40
0.0
 40
0.0
 40
0.0
 40
0.0
 40
1.0
 40
1.0
 40
1.0
 40
1.0
 10
43.74367221891827
 20
0.9486428125137845
 30
0.0
 10
43.74906589416003
 20
0.665104534199142
 30
0.0
 10
43.75000000000001
 20
0.3815506267316097
 30
0.0
 10
43.75000000000001
 20
0.0979835229702632
 30
0.0
  0
LINE
  5
AC
330
1F
100
AcDbEntity
  8
외형선
  6
Continuous
 62
     1
370
    15
100
AcDbLine
 10
43.75000000000002
 20
-1.997593305838411
 30
0.0
 11
43.75000000000002
 21
0.0979835229702602
 31
0.0
  0
SPLINE
  5
AD
330
1F
100
AcDbEntity
  8
외형선
  6
Continuous
 62
     1
370
    15
100
AcDbSpline
210
0.0
220
0.0
230
1.0
 70
     8
 71
     3
 72
    36
 73
    32
 74
     0
 42
0.000000001
 43
0.00000001
 40
0.0
 40
0.0
 40
0.0
 40
0.0
 40
0.0625000000000001
 40
0.0625000000000001
 40
0.1250000000000001
 40
0.1250000000000001
 40
0.1875000000000002
 40
0.1875000000000002
 40
0.2500000000000002
 40
0.2500000000000002
 40
0.3125000000000003
 40
0.3125000000000003
 40
0.3750000000000003
 40
0.3750000000000003
 40
0.4375000000000004
 40
0.4375000000000004
 40
0.5000000000000004
 40
0.5000000000000004
 40
0.6250000000000003
 40
0.6250000000000003
 40
0.6875000000000002
 40
0.6875000000000002
 40
0.7500000000000002
 40
0.7500000000000002
 40
0.8125000000000001
 40
0.8125000000000001
 40
0.8750000000000001
 40
0.8750000000000001
 40
0.9375
 40
0.9375
 40
1.0
 40
1.0
 40
1.0
 40
1.0
 10
42.86100000000001
 20
-6.517230654650786
 30
0.0
 10
42.2178713318338
 20
-6.199948041639381
 30
0.0
 10
41.57295498896711
 20
-5.873907038595179
 30
0.0
 10
40.28697425242532
 20
-5.208066534667759
 30
0.0
 10
39.64700456127372
 20
-4.868481842073098
 30
0.0
 10
38.3600278219574
 20
-4.176280263296387
 30
0.0
 10
37.71517605052273
 20
-3.824030118482515
 30
0.0
 10
36.43017053490243
 20
-3.111303448971128
 30
0.0
 10
35.78967715316566
 20
-2.75077824200661
 30
0.0
 10
34.50217430830062
 20
-2.022190410097208
 30
0.0
 10
33.85748443994777
 20
-1.654557520263512
 30
0.0
 10
32.57364645590636
 20
-0.9168601827081895
 30
0.0
 10
31.93217943857608
 20
-0.5463556178669107
 30
0.0
 10
30.64434404927403
 20
0.1962403318883302
 30
0.0
 10
29.99991333405001
 20
0.5679573256573904
 30
0.0
 10
28.7174346086606
 20
1.307954856987114
 30
0.0
 10
28.07454449756771
 20
1.677167187953251
 30
0.0
 10
26.14258318872845
 20
2.777852054841717
 30
0.0
 10
24.86076509151204
 20
3.500361547683772
 30
0.0
 10
22.9288862539811
 20
4.554020637625993
 30
0.0
 10
22.28685871830729
 20
4.8995933079033
 30
0.0
 10
21.00358526915346
 20
5.577385491854686
 30
0.0
 10
20.35899558393506
 20
5.910181485821483
 30
0.0
 10
19.07132510967554
 20
6.55969294499325
 30
0.0
 10
18.43046572225273
 20
6.876054940502204
 30
0.0
 10
17.14594172141602
 20
7.491038410688722
 30
0.0
 10
16.50114804896271
 20
7.789814638930117
 30
0.0
 10
15.21391997061716
 20
8.366455149228244
 30
0.0
 10
14.5737789694705
 20
8.64401057034975
 30
0.0
 10
13.28819648684718
 20
9.177248791107349
 30
0.0
 10
12.64329612952268
 20
9.432818149887702
 30
0.0
 10
12.00000000000002
 20
9.675856871004886
 30
0.0
  0
SPLINE
  5
AE
330
1F
100
AcDbEntity
  8
외형선
  6
Continuous
 62
     1
370
    15
100
AcDbSpline
210
0.0
220
0.0
230
1.0
 70
     8
 71
     3
 72
    12
 73
     8
 74
     0
 42
0.000000001
 43
0.00000001
 40
0.0
 40
0.0
 40
0.0
 40
0.0
 40
0.25
 40
0.25
 40
0.5
 40
0.5
 40
1.0
 40
1.0
 40
1.0
 40
1.0
 10
42.86100000000003
 20
-6.517230654650792
 30
0.0
 10
42.97405466777304
 20
-6.573005310920487
 30
0.0
 10
43.0823186722344
 20
-6.617566573448904
 30
0.0
 10
43.29010537799703
 20
-6.684317371111671
 30
0.0
 10
43.38704796074952
 20
-6.705295930916302
 30
0.0
 10
43.63809263997425
 20
-6.725187755805002
 30
0.0
 10
43.75000000000001
 20
-6.678320232941627
 30
0.0
 10
43.75000000000001
 20
-6.578723458421751
 30
0.0
  0
SPLINE
  5
AF
330
1F
100
AcDbEntity
  8
외형선
  6
Continuous
 62
     1
370
    15
100
AcDbSpline
210
0.0
220
0.0
230
1.0
 70
     8
 71
     3
 72
    13
 73
     9
 74
     0
 42
0.000000001
 43
0.00000001
 40
0.0
 40
0.0
 40
0.0
 40
0.0
 40
0.1096544060620951
 40
0.3058875896315295
 40
0.5021654784998809
 40
0.7039302420543158
 40
0.9057245105481352
 40
1.0
 40
1.0
 40
1.0
 40
1.0
 10
40.89856217377799
 20
-5.515345821078763
 30
0.0
 10
40.7747036695535
 20
-5.532273879570292
 30
0.0
 10
40.42919289006746
 20
-5.5794957213099
 30
0.0
 10
39.82325995360169
 20
-5.724778940762261
 30
0.0
 10
39.09821797369347
 20
-5.922909611058834
 30
0.0
 10
38.3528189973853
 20
-6.164753189357752
 30
0.0
 10
37.72974275916968
 20
-6.391203530100698
 30
0.0
 10
37.35854678578887
 20
-6.538563932923465
 30
0.0
 10
37.24034936395203
 20
-6.585486908773259
 30
0.0
  0
SPLINE
  5
B0
330
1F
100
AcDbEntity
  8
외형선
  6
Continuous
 62
     1
370
    15
100
AcDbSpline
210
0.0
220
0.0
230
1.0
 70
     8
 71
     3
 72
    10
 73
     6
 74
     0
 42
0.000000001
 43
0.00000001
 40
0.0
 40
0.0
 40
0.0
 40
0.0
 40
0.5
 40
0.5
 40
1.0
 40
1.0
 40
1.0
 40
1.0
 10
43.75000000000002
 20
-7.349022026474005
 30
0.0
 10
42.6417118764985
 20
-7.338372786764814
 30
0.0
 10
41.54438923965918
 20
-7.272954890844511
 30
0.0
 10
39.37319511042719
 20
-7.024989079377878
 30
0.0
 10
38.29975879546267
 20
-6.840267609324854
 30
0.0
 10
37.24034936395199
 20
-6.585486908773238
 30
0.0
  0
LINE
  5
B1
330
1F
100
AcDbEntity
  8
외형선
  6
Continuous
 62
     1
370
    15
100
AcDbLine
 10
43.75000000000002
 20
-10.56628891568842
 30
0.0
 11
43.75000000000002
 21
-7.349022026474014
 31
0.0
  0
SPLINE
  5
B2
330
1F
100
AcDbEntity
  8
외형선
  6
Continuous
 62
     1
370
    15
100
AcDbSpline
210
0.0
220
0.0
230
1.0
 70
     8
 71
     3
 72
     8
 73
     4
 74
     0
 42
0.000000001
 43
0.00000001
 40
0.0
 40
0.0
 40
0.0
 40
0.0
 40
1.0
 40
1.0
 40
1.0
 40
1.0
 10
43.75000000000002
 20
-10.56628891568841
 30
0.0
 10
43.75000000000002
 20
-10.59495570580467
 30
0.0
 10
43.74788985817991
 20
-10.62407189166501
 30
0.0
 10
43.74367221891804
 20
-10.65365126513884
 30
0.0
  0
SPLINE
  5
B3
330
1F
100
AcDbEntity
  8
외형선
  6
Continuous
 62
     1
370
    15
100
AcDbSpline
210
0.0
220
0.0
230
1.0
 70
     8
 71
     3
 72
    36
 73
    32
 74
     0
 42
0.000000001
 43
0.00000001
 40
0.0
 40
0.0
 40
0.0
 40
0.0
 40
0.0625
 40
0.0625
 40
0.125
 40
0.125
 40
0.1875
 40
0.1875
 40
0.25
 40
0.25
 40
0.375
 40
0.375
 40
0.4375
 40
0.4375
 40
0.5000000000000001
 40
0.5000000000000001
 40
0.5625000000000002
 40
0.5625000000000002
 40
0.6250000000000002
 40
0.6250000000000002
 40
0.6875000000000002
 40
0.6875000000000002
 40
0.7500000000000002
 40
0.7500000000000002
 40
0.8125000000000002
 40
0.8125000000000002
 40
0.8750000000000002
 40
0.8750000000000002
 40
0.9375000000000002
 40
0.9375000000000002
 40
1.0
 40
1.0
 40
1.0
 40
1.0
 10
12.00000000000002
 20
-6.435353902434328
 30
0.0
 10
12.66172078136416
 20
-6.735479109737447
 30
0.0
 10
13.32513887068904
 20
-7.02701146423406
 30
0.0
 10
14.64728718916093
 20
-7.589356913309546
 30
0.0
 10
15.30597307570909
 20
-7.860196900413666
 30
0.0
 10
16.63032187727807
 20
-8.380578470590939
 30
0.0
 10
17.29351853570981
 20
-8.629758567315703
 30
0.0
 10
18.6138828409176
 20
-9.103132349540497
 30
0.0
 10
19.27406213058787
 20
-9.327711290632132
 30
0.0
 10
21.26127274295776
 20
-9.96301582226017
 30
0.0
 10
22.5800263867658
 20
-10.33366967137493
 30
0.0
 10
24.56725018369259
 20
-10.80300004233599
 30
0.0
 10
25.22750834182336
 20
-10.94472175170196
 30
0.0
 10
26.54779384333685
 20
-11.19796189988462
 30
0.0
 10
27.21097725684331
 20
-11.30965122032522
 30
0.0
 10
28.53535241758594
 20
-11.50171331478403
 30
0.0
 10
29.19407775716371
 20
-11.58201763527453
 30
0.0
 10
30.5161646928069
 20
-11.7110421571484
 30
0.0
 10
31.17957836651283
 20
-11.75971160294052
 30
0.0
 10
32.50306382808692
 20
-11.82473812479987
 30
0.0
 10
33.16126499539229
 20
-11.84112446696318
 30
0.0
 10
34.48470695382154
 20
-11.84162777138933
 30
0.0
 10
35.14812500518075
 20
-11.82568426118383
 30
0.0
 10
36.47027277762367
 20
-11.7616326764255
 30
0.0
 10
37.12895901023335
 20
-11.71357891323578
 30
0.0
 10
38.45330805062197
 20
-11.58546834889382
 30
0.0
 10
39.11650459211023
 20
-11.50543850648259
 30
0.0
 10
40.43686819544985
 20
-11.31449912691775
 30
0.0
 10
41.09704818375487
 20
-11.20347716568165
 30
0.0
 10
42.42185534033649
 20
-10.95087901006483
 30
0.0
 10
43.08460473626804
 20
-10.8093914730446
 30
0.0
 10
43.74367221893733
 20
-10.65365126513419
 30
0.0
  0
SPLINE
  5
B4
330
1F
100
AcDbEntity
  8
외형선
  6
Continuous
370
    15
100
AcDbSpline
210
0.0
220
0.0
230
1.0
 70
    24
 71
     3
 72
    20
 73
    16
 74
     0
 42
0.000000001
 43
0.00000001
 40
0.0
 40
0.0
 40
0.0
 40
0.0
 40
0.25
 40
0.25
 40
0.375
 40
0.375
 40
0.5
 40
0.5
 40
0.625
 40
0.625
 40
0.75
 40
0.75
 40
0.875
 40
0.875
 40
1.0
 40
1.0
 40
1.0
 40
1.0
 10
12.00000000000002
 20
9.675856871004743
 30
0.0
 10
12.00000000000002
 20
8.85584117155477
 30
0.0
 10
12.00000000000002
 20
7.879841286591305
 30
0.0
 10
12.00000000000002
 20
6.145021342094388
 30
0.0
 10
12.00000000000002
 20
5.522062046173965
 30
0.0
 10
12.00000000000002
 20
4.191440646480046
 30
0.0
 10
12.00000000000002
 20
3.483633905532245
 30
0.0
 10
12.00000000000002
 20
2.000497051617101
 30
0.0
 10
12.00000000000002
 20
1.225092147436638
 30
0.0
 10
12.00000000000002
 20
-0.3596581039022728
 30
0.0
 10
12.00000000000002
 20
-1.168913054285476
 30
0.0
 10
12.00000000000002
 20
-2.771240821641445
 30
0.0
 10
12.00000000000002
 20
-3.563999021975097
 30
0.0
 10
12.00000000000002
 20
-5.072603957499648
 30
0.0
 10
12.00000000000002
 20
-5.787973541868976
 30
0.0
 10
12.00000000000002
 20
-6.435353902434212
 30
0.0
  0
LINE
  5
B5
330
1F
100
AcDbEntity
  8
외형선
  6
Continuous
370
    15
100
AcDbLine
 10
12.00000000000002
 20
9.675856871004891
 30
0.0
 11
12.00000000000002
 21
10.54985310052066
 31
0.0
  0
SPLINE
  5
B6
330
1F
100
AcDbEntity
  8
외형선
  6
Continuous
 62
     1
370
    15
100
AcDbSpline
210
0.0
220
0.0
230
1.0
 70
     8
 71
     3
 72
    15
 73
    11
 74
     0
 42
0.000000001
 43
0.00000001
 40
0.0
 40
0.0
 40
0.0
 40
0.0
 40
0.0168189581939139
 40
0.1572733927376408
 40
0.2977278272813674
 40
0.4381822618250938
 40
0.5786366963688206
 40
0.7190911309125472
 40
0.8595455654562737
 40
1.0
 40
1.0
 40
1.0
 40
1.0
 10
30.31020863352919
 20
-11.68079899702385
 30
0.0
 10
30.20755575568614
 20
-11.70583093186583
 30
0.0
 10
29.24765287784307
 20
-11.93990353457973
 30
0.0
 10
27.43050000000003
 20
-12.23100529282223
 30
0.0
 10
24.85875000000002
 20
-12.53449004927576
 30
0.0
 10
22.28700000000002
 20
-12.64968037698944
 30
0.0
 10
19.71525000000002
 20
-12.59622291811859
 30
0.0
 10
17.14350000000002
 20
-12.36562105171021
 30
0.0
 10
14.57175000000001
 20
-11.9767093675181
 30
0.0
 10
12.85725000000002
 20
-11.57975500861366
 30
0.0
 10
12.00000000000002
 20
-11.38127782916144
 30
0.0
  0
SPLINE
  5
B7
330
1F
100
AcDbEntity
  8
외형선
  6
Continuous
 62
     1
370
    15
100
AcDbSpline
210
0.0
220
0.0
230
1.0
 70
     8
 71
     3
 72
    14
 73
    10
 74
     0
 42
0.000000001
 43
0.00000001
 40
0.0
 40
0.0
 40
0.0
 40
0.0
 40
0.0356283784551929
 40
0.2044159687016168
 40
0.3635893912151463
 40
0.5226388659324525
 40
0.6816811282630061
 40
0.8408347548715829
 40
1.0
 40
1.0
 40
1.0
 40
1.0
 10
25.7925750624332
 20
9.32329219757798
 30
0.0
 10
25.99526944820966
 20
9.407366614019102
 30
0.0
 10
27.1582179464407
 20
9.889739206458273
 30
0.0
 10
29.22702603904172
 20
10.59547660988797
 30
0.0
 10
31.99815393948269
 20
11.41961716627623
 30
0.0
 10
34.71318835944405
 20
12.04398030248758
 30
0.0
 10
37.42808380622309
 20
12.48560022534974
 30
0.0
 10
40.14423728624391
 20
12.75120601937807
 30
0.0
 10
41.9553903932775
 20
12.76531415986964
 30
0.0
 10
42.86100000000002
 20
12.77550179002445
 30
0.0
  0
LINE
  5
B9
330
1F
100
AcDbEntity
  8
외형선
  6
Continuous
 62
     1
370
    15
100
AcDbLine
 10
43.75000000000002
 20
8.298802140402284
 30
0.0
 11
43.75000000000002
 21
11.88650179002445
 31
0.0
  0
SPLINE
  5
BA
330
1F
100
AcDbEntity
  8
외형선
  6
Continuous
 62
     1
370
    15
100
AcDbSpline
210
0.0
220
0.0
230
1.0
 70
     8
 71
     3
 72
    20
 73
    16
 74
     0
 42
0.000000001
 43
0.00000001
 40
0.0
 40
0.0
 40
0.0
 40
0.0
 40
0.2500000000000014
 40
0.2500000000000014
 40
0.3750000000000012
 40
0.3750000000000012
 40
0.500000000000001
 40
0.500000000000001
 40
0.6250000000000008
 40
0.6250000000000008
 40
0.7500000000000006
 40
0.7500000000000006
 40
0.8750000000000003
 40
0.8750000000000003
 40
1.0
 40
1.0
 40
1.0
 40
1.0
 10
43.75000000000002
 20
8.29880214040229
 30
0.0
 10
43.41321777152772
 20
7.703745020576117
 30
0.0
 10
43.00195038930458
 20
7.182695241077368
 30
0.0
 10
42.27630463835217
 20
6.509167665242986
 30
0.0
 10
42.01750780156512
 20
6.30450351998255
 30
0.0
 10
41.4820860708803
 20
5.941522159403209
 30
0.0
 10
41.20361189829308
 20
5.781423402653465
 30
0.0
 10
40.62706679092461
 20
5.500174181621106
 30
0.0
 10
40.32788147168133
 20
5.378912537804145
 30
0.0
 10
39.72622683666259
 20
5.17731724882852
 30
0.0
 10
39.42203449629939
 20
5.095981035634042
 30
0.0
 10
38.80775342751907
 20
4.967410056983772
 30
0.0
 10
38.49766056807777
 20
4.92019918308753
 30
0.0
 10
37.87206156471719
 20
4.857084879111857
 30
0.0
 10
37.55509166566166
 20
4.841247948002875
 30
0.0
 10
37.24034936395203
 20
4.840282270681493
 30
0.0
  0
SPLINE
  5
BB
330
1F
100
AcDbEntity
  8
외형선
  6
Continuous
 62
     1
370
    15
100
AcDbSpline
210
0.0
220
0.0
230
1.0
 70
     8
 71
     3
 72
    10
 73
     6
 74
     0
 42
0.000000001
 43
0.00000001
 40
0.0
 40
0.0
 40
0.0
 40
0.0
 40
0.5
 40
0.5
 40
1.0
 40
1.0
 40
1.0
 40
1.0
 10
43.75000000000002
 20
2.525337025081978
 30
0.0
 10
42.64171187649851
 20
2.970093629166783
 30
0.0
 10
41.5443892396592
 20
3.387170429567485
 30
0.0
 10
39.37319511042723
 20
4.162127106926632
 30
0.0
 10
38.29975879546271
 20
4.518908480357643
 30
0.0
 10
37.24034936395205
 20
4.840282270681509
 30
0.0
  0
LINE
  5
BC
330
1F
100
AcDbEntity
  8
외형선
  6
Continuous
 62
     1
370
    15
100
AcDbLine
 10
43.75000000000002
 20
0.9591672996277296
 30
0.0
 11
43.75000000000002
 21
2.52533702508198
 31
0.0
  0
SPLINE
  5
BD
330
1F
100
AcDbEntity
  8
외형선
  6
Continuous
 62
     1
370
    15
100
AcDbSpline
210
0.0
220
0.0
230
1.0
 70
     8
 71
     3
 72
     8
 73
     4
 74
     0
 42
0.000000001
 43
0.00000001
 40
0.0
 40
0.0
 40
0.0
 40
0.0
 40
1.0
 40
1.0
 40
1.0
 40
1.0
 10
43.75000000000002
 20
0.9591672996277294
 30
0.0
 10
43.75000000000002
 20
0.9543416248183083
 30
0.0
 10
43.7478898581799
 20
0.950825164960025
 30
0.0
 10
43.74367221891803
 20
0.948642812524622
 30
0.0
  0
LINE
  5
BE
330
1F
100
AcDbEntity
  8
외형선
  6
Continuous
 62
     1
370
    15
100
AcDbLine
 10
43.75000000000002
 20
0.0979835229702606
 30
0.0
 11
43.75000000000002
 21
0.9591672996277296
 31
0.0
  0
LINE
  5
BF
330
1F
100
AcDbEntity
  8
외형선
  6
Continuous
 62
     1
370
    15
100
AcDbLine
 10
43.75000000000002
 20
-6.578723458421755
 30
0.0
 11
43.75000000000002
 21
-1.997593305838412
 31
0.0
  0
LINE
  5
C0
330
1F
100
AcDbEntity
  8
외형선
  6
Continuous
 62
     1
370
    15
100
AcDbLine
 10
43.75000000000002
 20
2.525337025081978
 30
0.0
 11
43.75000000000002
 21
8.298802140402284
 31
0.0
  0
SPLINE
  5
C1
330
1F
100
AcDbEntity
  8
외형선
  6
Continuous
 62
     1
370
    15
100
AcDbSpline
210
0.0
220
0.0
230
1.0
 70
     8
 71
     3
 72
    10
 73
     6
 74
     0
 42
0.000000001
 43
0.00000001
 40
0.0
 40
0.0
 40
0.0
 40
0.0
 40
0.39262149457881
 40
0.7853848716143524
 40
1.0
 40
1.0
 40
1.0
 40
1.0
 10
12.00000000000002
 20
-11.92484149434424
 30
0.0
 10
12.96018189369925
 20
-12.08448421186086
 30
0.0
 10
14.88089266405171
 20
-12.40382733731929
 30
0.0
 10
17.32689601838145
 20
-12.6123795880722
 30
0.0
 10
18.81222224829306
 20
-12.60140871966818
 30
0.0
 10
19.33705721805545
 20
-12.59753220064419
 30
0.0
  0
LINE
  5
C2
330
1F
100
AcDbEntity
  8
외형선
  6
Continuous
370
    15
100
AcDbLine
 10
12.00000000000002
 20
-11.92484149434425
 30
0.0
 11
12.00000000000002
 21
-11.38127782916144
 31
0.0
  0
LINE
  5
C3
330
1F
100
AcDbEntity
  8
외형선
  6
Continuous
 62
     1
370
    15
100
AcDbLine
 10
43.75000000000002
 20
-6.578723458421755
 30
0.0
 11
43.75000000000002
 21
-7.349022026474007
 31
0.0
  0
LINE
  5
C5
330
1F
100
AcDbEntity
  8
중심선
 62
     1
100
AcDbLine
 10
-35.44999999999999
 20
-0.0000000000000041
 30
0.0
 11
50.75000000000002
 21
0.0000000000000058
 31
0.0
  0
LINE
  5
C6
330
1F
100
AcDbEntity
  8
참조1
100
AcDbLine
 10
5.650000000000007
 20
0.2966025729576235
 30
0.0
 11
5.650000000000013
 21
-39.70339742704238
 31
0.0
  0
LINE
  5
C7
330
1F
100
AcDbEntity
  8
참조1
100
AcDbLine
 10
5.650000000000013
 20
-39.70339742704238
 30
0.0
 11
-9.499337839485703
 21
-39.70339742704237
 31
0.0
  0
CIRCLE
  5
C8
330
1F
100
AcDbEntity
  8
해칭선
100
AcDbCircle
 10
0.0
 20
0.0
 30
0.0
 40
3.000000000000001
  0
INSERT
  5
C9
330
1F
100
AcDbEntity
  8
0
  6
Continuous
 62
     7
100
AcDbBlockReference
 66
     1
  2
블럭10
 10
-8.290272932125198
 20
-51.7505717286863
 30
0.0
  0
ATTRIB
  5
CA
330
C9
100
AcDbEntity
  8
FORMAT
 62
     2
100
AcDbText
 10
-17.47156822086648
 20
-49.67520481585412
 30
0.0
 40
4.233333333333333
  1
E5105064 [ 3 FLUTE ]
 41
0.75
  7
SLDTEXTSTYLE0
 11
-17.47156822086648
 21
-51.79187148252078
 31
0.0
100
AcDbAttribute
  2
AUTOATTR0
 70
     0
 74
     1
  0
SEQEND
  5
CB
330
C9
100
AcDbEntity
  8
0
  6
Continuous
 62
     7
  0
HATCH
  5
CC
330
1F
100
AcDbEntity
  8
중심선
100
AcDbHatch
 10
0.0
 20
0.0
 30
0.0
210
0.0
220
0.0
230
1.0
  2
SOLID
 70
     1
 71
     0
 91
        1
 92
        0
 93
        4
 72
     1
 10
-2.575363627744355
 20
-35.50339742704237
 11
-6.021638871581638
 21
-35.50339742704237
 72
     1
 10
-6.021638871581638
 20
-35.50339742704237
 11
-8.149868730785661
 21
-38.03972300761497
 72
     1
 10
-8.149868730785661
 20
-38.03972300761497
 11
-4.703560401835229
 21
-38.03968357831248
 72
     1
 10
-4.703560401835229
 20
-38.03968357831248
 11
-2.575363627744355
 21
-35.50339742704237
 97
        0
 75
     0
 76
     1
 98
        1
 10
2.0
 20
0.2955276442337343
  0
HATCH
  5
CD
330
1F
100
AcDbEntity
  8
중심선
100
AcDbHatch
 10
0.0
 20
0.0
 30
0.0
210
0.0
220
0.0
230
1.0
  2
SOLID
 70
     1
 71
     0
 91
        1
 92
        0
 93
        4
 72
     1
 10
2.437400363291596
 20
-35.50339742704237
 11
-1.008874880545687
 21
-35.50339742704237
 72
     1
 10
-1.008874880545687
 20
-35.50339742704237
 11
-5.540012888903075
 21
-40.90339742704239
 72
     1
 10
-5.540012888903075
 20
-40.90339742704239
 11
-2.093737645065793
 21
-40.90339742704239
 72
     1
 10
-2.093737645065793
 20
-40.90339742704239
 11
2.437400363291595
 21
-35.50339742704237
 97
        0
 75
     0
 76
     1
 98
        1
 10
2.0
 20
0.2955276442337343
  0
HATCH
  5
CE
330
1F
100
AcDbEntity
  8
중심선
100
AcDbHatch
 10
0.0
 20
0.0
 30
0.0
210
0.0
220
0.0
230
1.0
  2
SOLID
 70
     1
 71
     0
 91
        1
 92
        0
 93
        4
 72
     1
 10
7.450164354327491
 20
-35.50339742704237
 11
4.003889110490404
 21
-35.50339742704237
 72
     1
 10
4.003889110490404
 20
-35.50339742704237
 11
-3.044547791398873
 21
-43.90339742704239
 72
     1
 10
-3.044547791398873
 20
-43.90339742704239
 11
0.4017274524384087
 21
-43.90339742704239
 72
     1
 10
0.4017274524384089
 20
-43.90339742704239
 11
7.450164354327491
 21
-35.50339742704237
 97
        0
 75
     0
 76
     1
 98
        1
 10
2.0
 20
0.2955276442337343
  0
HATCH
  5
CF
330
1F
100
AcDbEntity
  8
중심선
100
AcDbHatch
 10
0.0
 20
0.0
 30
0.0
210
0.0
220
0.0
230
1.0
  2
SOLID
 70
     1
 71
     0
 91
        1
 92
        0
 93
        6
 72
     3
 10
12.25005478533969
 20
-39.70339742709364
 11
3.960054785062285
 21
1.540882976769353E-10
 40
0.3939339440162626
 50
17.09539180608438
 51
320.0019657685086
 73
     0
 72
     1
 10
13.93305444104029
 20
-38.2912914316807
 11
16.23835631474132
 21
-36.35696472163275
 72
     3
 10
12.25005478528684
 20
-39.70339742704252
 11
6.600054785286828
 21
-1.278976924368180E-13
 40
0.6363583540795982
 50
39.99873849337411
 51
368.4976242363724
 73
     1
 72
     1
 10
18.67538727718745
 20
-38.74339742697239
 11
10.93012209212279
 21
-38.74339742697236
 72
     1
 10
10.93012209212279
 20
-38.74339742697236
 11
10.93009704767683
 21
-40.66339742697228
 72
     1
 10
10.93009704767683
 20
-40.66339742697228
 11
15.37147681714887
 21
-40.66339742697225
 97
        0
 75
     0
 76
     1
 98
        1
 10
2.0
 20
0.2955276442337343
  0
DIMENSION
  5
D0
330
1F
100
AcDbEntity
  8
치수문자_일반주서
100
AcDbDimension
  2
_D
 10
43.75000000000001
 20
48.76171894357548
 30
0.0
 11
5.65000000000002
 21
48.76171894357548
 31
0.0
 70
   160
  1
<>
 71
     2
 42
76.19999999999999
  3
SLDDIMSTYLE0
100
AcDbAlignedDimension
 13
-32.44999999999998
 23
12.77550179002429
 33
0.0
 14
43.75000000000001
 24
12.77550179002443
 34
0.0
100
AcDbRotatedDimension
1001
ACAD
1000
DSTYLE
1002
{
1070
   273
1070
     7
1002
}
  0
DIMENSION
  5
E4
330
1F
100
AcDbEntity
  8
치수문자_일반주서
100
AcDbDimension
  2
_D_1
 10
-46.96803282517376
 20
-12.62449820997576
 30
0.0
 11
-46.96803282517391
 21
30.53575179002424
 31
0.0
 70
   160
  1
%%c<>
 71
     2
 42
25.39999999999999
 52
-270.0
  3
SLDDIMSTYLE1
100
AcDbAlignedDimension
 13
-32.44999999999998
 23
12.77550179002429
 33
0.0
 14
-32.44215541674753
 24
-12.62449820997571
 34
0.0
 50
90.0000000000002
100
AcDbRotatedDimension
1001
ACAD
1000
DSTYLE
1002
{
1070
   273
1070
     7
1002
}
  0
DIMENSION
  5
F9
330
1F
100
AcDbEntity
  8
치수문자_일반주서
100
AcDbDimension
  2
_D_2
 10
12.00000000000001
 20
31.38931074373997
 30
0.0
 11
-5.739499999999985
 21
31.38931074373997
 31
0.0
 70
   160
  1
<>
 71
     2
 42
31.75000000000001
  3
SLDDIMSTYLE2
100
AcDbAlignedDimension
 13
43.75000000000002
 23
12.77550179002443
 33
0.0
 14
12.00000000000001
 24
12.77550179002432
 34
0.0
 50
0.0000000000000128
100
AcDbRotatedDimension
1001
ACAD
1000
DSTYLE
1002
{
1070
   273
1070
     7
1002
}
1001
ACAD_DSTYLE_DIMFLIPARROW_SYMBOL
1070
   385
1070
     0
1001
ACAD_DSTYLE_DIMFLIPARROW_WHICH_SYMBOL
1070
   386
1070
     3
  0
DIMENSION
  5
10D
330
1F
100
AcDbEntity
  8
치수문자_일반주서
100
AcDbDimension
  2
_D_3
 10
58.75000000000008
 20
-12.62449820997551
 30
0.0
 11
58.74999999999994
 21
29.44200179002449
 31
0.0
 70
   160
  1
%%c<>
 71
     2
 42
25.4
 52
-270.0
  3
SLDDIMSTYLE3
100
AcDbAlignedDimension
 13
43.75000000000001
 23
12.77550179002443
 33
0.0
 14
43.78462063578206
 24
-12.62449820997556
 34
0.0
 50
90.0000000000002
100
AcDbRotatedDimension
1001
ACAD
1000
DSTYLE
1002
{
1070
   273
1070
     7
1002
}
  0
LINE
  5
122
330
1F
100
AcDbEntity
  8
참조1
100
AcDbLine
 10
88.47300279016856
 20
7.73660257295763
 30
0.0
 11
88.47300279016856
 21
-7.143397427042374
 31
0.0
  0
LINE
  5
123
330
1F
100
AcDbEntity
  8
참조1
100
AcDbLine
 10
101.1730027901686
 20
5.73660257295763
 30
0.0
 11
88.47300279016856
 21
5.73660257295763
 31
0.0
  0
SOLID
  5
124
330
1F
100
AcDbEntity
  8
참조1
100
AcDbTrace
 10
88.47300279016856
 20
5.73660257295763
 30
0.0
 11
94.82300279016856
 21
4.72060257295763
 31
0.0
 12
94.82300279016856
 22
6.75260257295763
 32
0.0
 13
94.82300279016856
 23
6.75260257295763
 33
0.0
  0
LINE
  5
125
330
1F
100
AcDbEntity
  8
참조1
100
AcDbLine
 10
101.1730027901686
 20
-5.143397427042374
 30
0.0
 11
88.47300279016856
 21
-5.143397427042374
 31
0.0
  0
SOLID
  5
126
330
1F
100
AcDbEntity
  8
참조1
100
AcDbTrace
 10
88.47300279016856
 20
-5.143397427042374
 30
0.0
 11
94.82300279016856
 21
-6.159397427042374
 31
0.0
 12
94.82300279016856
 22
-4.127397427042374
 32
0.0
 13
94.82300279016856
 23
-4.127397427042374
 33
0.0
  0
MTEXT
  5
127
330
1F
100
AcDbEntity
  8
참조1
100
AcDbMText
 10
97.87049288263884
 20
11.28481921760756
 30
0.0
 40
3.5
 41
0.0
 71
     1
 72
     1
  1
A
  7
SLDTEXTSTYLE0
 73
     1
 44
1.0
  0
MTEXT
  5
128
330
1F
100
AcDbEntity
  8
참조1
100
AcDbMText
 10
97.87049288263884
 20
0.4048192176075602
 30
0.0
 40
3.5
 41
0.0
 71
     1
 72
     1
  1
A
  7
SLDTEXTSTYLE0
 73
     1
 44
1.0
  0
INSERT
  5
12F
330
1F
100
AcDbEntity
  8
해칭선
100
AcDbBlockReference
  2
SW_DOWELSYMBOL_0
 10
0.0
 20
0.0
 30
0.0
  0
ARC
  5
169
330
1F
100
AcDbEntity
  8
외형선
  6
Continuous
 62
     1
370
    15
100
AcDbCircle
 10
42.86100000000002
 20
11.88650179002445
 30
0.0
 40
0.8889999999999998
100
AcDbArc
 50
0.0
 51
90.00000000000006
1001
PE_URL
1000

  0
MTEXT
  5
195
102
{ACAD_REACTORS
330
196
102
}
330
1F
100
AcDbEntity
  8
0
100
AcDbMText
 10
52.96826852342281
 20
-28.38826105821962
 30
0.0
 40
3.5
 41
0.0
 71
     7
 72
     1
  1
{R0.89[.035"]}
 73
     1
 44
1.0
1001
ACAD
1000
ACAD_MTEXT_DEFINED_HEIGHT_BEGIN
1070
    46
1040
3.5
1000
ACAD_MTEXT_DEFINED_HEIGHT_END
  0
LEADER
  5
196
102
{ACAD_XDICTIONARY
360
197
102
}
330
1F
100
AcDbEntity
  8
0
100
AcDbLeader
  3
ISO-25
 73
     0
 74
     0
 75
     1
 40
3.5
 41
31.5
 76
     3
 10
42.58543932771513
 20
-10.91186077829698
 30
0.0
 10
48.14226852342281
 20
-26.63826105821962
 30
0.0
 10
51.44426852342281
 20
-26.63826105821962
 30
0.0
340
195
213
0.0
223
1.75
233
0.0
1001
ACAD
1000
DSTYLE
1002
{
1070
    77
1070
     0
1070
   179
1070
     2
1070
   143
1040
0.0393700787401575
1070
    41
1040
3.302
1070
    44
1040
1.0
1070
    42
1040
1.0
1070
   147
1040
1.524
1070
    73
1070
     1
1070
    74
1070
     1
1070
   140
1040
3.5
1070
   284
1070
     0
1070
    78
1070
     0
1002
}
  0
LINE
  5
1F2
330
1F
100
AcDbEntity
  8
외형선
  6
Continuous
370
    15
100
AcDbLine
 10
-17.845
 20
12.7755017900243
 30
0.0
 11
-11.93632499999987
 21
12.7755017900243
 31
0.0
1001
PE_URL
1000

  0
LINE
  5
1F4
330
1F
100
AcDbEntity
  8
외형선
  6
Continuous
370
    15
100
AcDbLine
 10
-10.0313249999999
 20
10.87050179002429
 30
0.0
 11
3.075074999999998
 21
10.87050179002429
 31
0.0
1001
PE_URL
1000

  0
LINE
  5
1F5
330
1F
100
AcDbEntity
  8
외형선
  6
Continuous
370
    15
100
AcDbLine
 10
-10.0313249999999
 20
10.8705017900243
 30
0.0
 11
-11.93632499999987
 21
12.7755017900243
 31
0.0
1001
PE_URL
1000

  0
LINE
  5
1F6
330
1F
100
AcDbEntity
  8
외형선
  6
Continuous
370
    15
100
AcDbLine
 10
3.075074999999998
 20
10.8705017900243
 30
0.0
 11
4.980075000000028
 21
12.7755017900243
 31
0.0
1001
PE_URL
1000

  0
LINE
  5
1F8
330
1F
100
AcDbEntity
  8
외형선
  6
Continuous
370
    15
100
AcDbLine
 10
-32.44999999999999
 20
10.87050179002429
 30
0.0
 11
-19.74999999999997
 21
10.87050179002429
 31
0.0
1001
PE_URL
1000

  0
LINE
  5
1F9
330
1F
100
AcDbEntity
  8
외형선
  6
Continuous
370
    15
100
AcDbLine
 10
-19.74999999999997
 20
10.8705017900243
 30
0.0
 11
-17.845
 21
12.77550179002428
 31
0.0
1001
PE_URL
1000

  0
LINE
  5
1FA
330
1F
100
AcDbEntity
  8
외형선
  6
Continuous
370
    15
100
AcDbLine
 10
4.980075000000028
 20
12.7755017900243
 30
0.0
 11
10.57600376171321
 21
12.77022153218868
 31
0.0
1001
PE_URL
1000

  0
ENDSEC
  0
SECTION
  2
OBJECTS
  0
DICTIONARY
  5
C
330
0
100
AcDbDictionary
281
     1
  3
ACAD_DETAILVIEWSTYLE
350
15B
  3
ACAD_GROUP
350
D
  3
ACAD_LAYOUT
350
1A
  3
ACAD_MLINESTYLE
350
17
  3
ACAD_PLOTSETTINGS
350
19
  3
ACAD_PLOTSTYLENAME
350
E
  3
ACAD_SCALELIST
350
47
  3
ACAD_SECTIONVIEWSTYLE
350
15C
  3
AcDbVariableDictionary
350
156
  3
APPDATA
350
151
  3
DWGPROPS
350
21D
  0
DICTIONARY
  5
1EA
330
2
100
AcDbDictionary
280
     1
281
     1
  3
ACAD_LAYERSTATES
360
1EB
  0
DICTIONARY
  5
197
330
196
100
AcDbDictionary
280
     1
281
     1
  3
*A1
360
198
  0
DICTIONARY
  5
15B
102
{ACAD_REACTORS
330
C
102
}
330
C
100
AcDbDictionary
281
     1
  0
DICTIONARY
  5
D
102
{ACAD_REACTORS
330
C
102
}
330
C
100
AcDbDictionary
281
     1
  0
DICTIONARY
  5
1A
102
{ACAD_REACTORS
330
C
102
}
330
C
100
AcDbDictionary
281
     1
  3
Layout1
350
1E
  3
Layout2
350
26
  3
Model
350
22
  0
DICTIONARY
  5
17
102
{ACAD_REACTORS
330
C
102
}
330
C
100
AcDbDictionary
281
     1
  3
Standard
350
18
  0
DICTIONARY
  5
19
102
{ACAD_REACTORS
330
C
102
}
330
C
100
AcDbDictionary
281
     1
  0
ACDBDICTIONARYWDFLT
  5
E
102
{ACAD_REACTORS
330
C
102
}
330
C
100
AcDbDictionary
281
     1
  3
Normal
350
F
100
AcDbDictionaryWithDefault
340
F
  0
DICTIONARY
  5
47
102
{ACAD_REACTORS
330
C
102
}
330
C
100
AcDbDictionary
281
     1
  3
A0
350
48
  3
A1
350
49
  3
A2
350
4A
  3
A3
350
4B
  3
A4
350
4C
  3
A5
350
4D
  3
A6
350
4E
  3
A7
350
4F
  3
A8
350
50
  3
A9
350
51
  3
B0
350
52
  3
B1
350
53
  3
B2
350
54
  3
B3
350
55
  3
B4
350
56
  3
B5
350
57
  3
B6
350
58
  3
B7
350
59
  3
B8
350
5A
  3
B9
350
5B
  3
C0
350
5C
  3
C1
350
5D
  3
C2
350
5E
  3
C3
350
5F
  3
C4
350
60
  3
C5
350
61
  3
C6
350
62
  3
C7
350
63
  3
C8
350
64
  3
C9
350
65
  3
D0
350
66
  3
D1
350
67
  3
D2
350
68
  0
DICTIONARY
  5
15C
102
{ACAD_REACTORS
330
C
102
}
330
C
100
AcDbDictionary
281
     1
  0
DICTIONARY
  5
156
102
{ACAD_REACTORS
330
C
102
}
330
C
100
AcDbDictionary
281
     1
  0
DICTIONARY
  5
151
102
{ACAD_REACTORS
330
C
102
}
330
C
100
AcDbDictionary
281
     1
  0
XRECORD
  5
21D
102
{ACAD_REACTORS
330
C
102
}
330
C
100
AcDbXrecord
280
     1
  1
DWGPROPS COOKIE
  2

  3

  4

  6

  7

  8
12017103
  9

300
=
301
=
302
=
303
=
304
=
305
=
306
=
307
=
308
=
309
=
 40
0.0
 41
2458290.304829479
 42
2458299.392247963
  1

 90
        0
  0
DICTIONARY
  5
1EB
102
{ACAD_REACTORS
330
1EA
102
}
330
1EA
100
AcDbDictionary
281
     1
  0
SPLINE
  5
198
102
{ACAD_REACTORS
330
197
102
}
330
197
100
AcDbEntity
  8
외형선
  6
Continuous
 62
     1
370
    15
100
AcDbSpline
210
0.0
220
0.0
230
1.0
 70
     8
 71
     3
 72
    29
 73
    25
 74
     0
 42
0.000000001
 43
0.00000001
 40
0.0
 40
0.0
 40
0.0
 40
0.0
 40
0.0422644495549575
 40
0.0894133481135558
 40
0.1360887908804358
 40
0.183088732683559
 40
0.2297638819666308
 40
0.2767625414519669
 40
0.323437633749297
 40
0.3704354120323877
 40
0.4171106810586105
 40
0.464107897037571
 40
0.5107833946634068
 40
0.5577805359514474
 40
0.6044561394422602
 40
0.651453806121575
 40
0.6980998941979074
 40
0.7450685450090514
 40
0.7915976398774139
 40
0.8384484734548767
 40
0.8795785645527328
 40
0.920930788652952
 40
0.9603675209920361
 40
1.0
 40
1.0
 40
1.0
 40
1.0
 10
12.38189177007194
 20
1.248479460924195
 30
0.0
 10
12.52654344348548
 20
1.258273475674198
 30
0.0
 10
12.8325640013379
 20
1.278993387077104
 30
0.0
 10
13.29773257188337
 20
1.254108412177238
 30
0.0
 10
13.78025596066385
 20
1.187861475668798
 30
0.0
 10
14.25966703328228
 20
1.076843206459327
 30
0.0
 10
14.7418375996466
 20
0.9278143507748849
 30
0.0
 10
15.22126826210304
 20
0.7422259995311946
 30
0.0
 10
15.70321466955698
 20
0.5287568400491983
 30
0.0
 10
16.18301476867187
 20
0.291415106865743
 30
0.0
 10
16.66438564818222
 20
0.0386509998105593
 30
0.0
 10
17.14481199956303
 20
-0.2211140264741509
 30
0.0
 10
17.62559449395425
 20
-0.4827611477767423
 30
0.0
 10
18.10652182376923
 20
-0.7336501666871716
 30
0.0
 10
18.58700798445997
 20
-0.9720014204249832
 30
0.0
 10
19.06797035806053
 20
-1.184275237010919
 30
0.0
 10
19.54830862416817
 20
-1.369853183592872
 30
0.0
 10
20.02843114246354
 20
-1.518172522965445
 30
0.0
 10
20.50823986679071
 20
-1.62831800107122
 30
0.0
 10
20.96857053986777
 20
-1.692379933129987
 30
0.0
 10
21.41107311362818
 20
-1.715381820442324
 30
0.0
 10
21.82821005632637
 20
-1.70162911792889
 30
0.0
 10
22.2401103516564
 20
-1.656726206160658
 30
0.0
 10
22.51072264209905
 20
-1.601263250205901
 30
0.0
 10
22.64636375622617
 20
-1.573463119154277
 30
0.0
  0
LAYOUT
  5
1E
102
{ACAD_REACTORS
330
1A
102
}
330
1A
100
AcDbPlotSettings
  1

  2
none_device
  4

  6

 40
0.0
 41
0.0
 42
0.0
 43
0.0
 44
0.0
 45
0.0
 46
0.0
 47
0.0
 48
0.0
 49
0.0
140
0.0
141
0.0
142
1.0
143
1.0
 70
   688
 72
     1
 73
     0
 74
     5
  7

 75
    16
147
1.0
148
0.0
149
0.0
100
AcDbLayout
  1
Layout1
 70
     1
 71
     1
 10
0.0
 20
0.0
 11
420.0
 21
297.0
 12
0.0
 22
0.0
 32
0.0
 14
1.000000000000000E+20
 24
1.000000000000000E+20
 34
1.000000000000000E+20
 15
-1.000000000000000E+20
 25
-1.000000000000000E+20
 35
-1.000000000000000E+20
146
0.0
 13
0.0
 23
0.0
 33
0.0
 16
1.0
 26
0.0
 36
0.0
 17
0.0
 27
1.0
 37
0.0
 76
     0
330
1B
  0
LAYOUT
  5
26
102
{ACAD_REACTORS
330
1A
102
}
330
1A
100
AcDbPlotSettings
  1

  2
none_device
  4

  6

 40
0.0
 41
0.0
 42
0.0
 43
0.0
 44
0.0
 45
0.0
 46
0.0
 47
0.0
 48
0.0
 49
0.0
140
0.0
141
0.0
142
1.0
143
1.0
 70
   688
 72
     1
 73
     0
 74
     5
  7

 75
    16
147
1.0
148
0.0
149
0.0
100
AcDbLayout
  1
Layout2
 70
     1
 71
     2
 10
0.0
 20
0.0
 11
0.0
 21
0.0
 12
0.0
 22
0.0
 32
0.0
 14
0.0
 24
0.0
 34
0.0
 15
0.0
 25
0.0
 35
0.0
146
0.0
 13
0.0
 23
0.0
 33
0.0
 16
1.0
 26
0.0
 36
0.0
 17
0.0
 27
1.0
 37
0.0
 76
     0
330
23
  0
LAYOUT
  5
22
102
{ACAD_REACTORS
330
1A
102
}
330
1A
100
AcDbPlotSettings
  1

  2
none_device
  4
ANSI_A_(11.00_x_8.50_Inches)
  6

 40
6.35
 41
19.05
 42
6.35000508
 43
19.05000254
 44
279.4
 45
215.9
 46
106.8138795406196
 47
73.03566658026418
 48
0.0
 49
0.0
140
0.0
141
0.0
142
0.0654384647974727
143
1.0
 70
  1696
 72
     0
 73
     0
 74
     0
  7

 75
     0
147
0.0235690232323232
148
0.0
149
0.0
100
AcDbLayout
  1
Model
 70
     1
 71
     0
 10
0.0
 20
0.0
 11
420.0
 21
297.0
 12
0.0
 22
0.0
 32
0.0
 14
-51.34303282517395
 24
-49.67520481585412
 34
0.0
 15
101.1730027901686
 25
53.13671894357547
 35
0.0
146
0.0
 13
0.0
 23
0.0
 33
0.0
 16
1.0
 26
0.0
 36
0.0
 17
0.0
 27
1.0
 37
0.0
 76
     0
330
1F
331
29
  0
MLINESTYLE
  5
18
102
{ACAD_REACTORS
330
17
102
}
330
17
100
AcDbMlineStyle
  2
Standard
 70
     0
  3

 62
   256
 51
90.0
 52
90.0
 71
     2
 49
0.5
 62
   256
  6
BYLAYER
 49
-0.5
 62
   256
  6
BYLAYER
  0
ACDBPLACEHOLDER
  5
F
102
{ACAD_REACTORS
330
E
102
}
330
E
  0
SCALE
  5
48
102
{ACAD_REACTORS
330
47
102
}
330
47
100
AcDbScale
 70
     0
300
1:1
140
1.0
141
1.0
290
     1
  0
SCALE
  5
49
102
{ACAD_REACTORS
330
47
102
}
330
47
100
AcDbScale
 70
     0
300
1:2
140
1.0
141
2.0
290
     0
  0
SCALE
  5
4A
102
{ACAD_REACTORS
330
47
102
}
330
47
100
AcDbScale
 70
     0
300
1:4
140
1.0
141
4.0
290
     0
  0
SCALE
  5
4B
102
{ACAD_REACTORS
330
47
102
}
330
47
100
AcDbScale
 70
     0
300
1:5
140
1.0
141
5.0
290
     0
  0
SCALE
  5
4C
102
{ACAD_REACTORS
330
47
102
}
330
47
100
AcDbScale
 70
     0
300
1:8
140
1.0
141
8.0
290
     0
  0
SCALE
  5
4D
102
{ACAD_REACTORS
330
47
102
}
330
47
100
AcDbScale
 70
     0
300
1:10
140
1.0
141
10.0
290
     0
  0
SCALE
  5
4E
102
{ACAD_REACTORS
330
47
102
}
330
47
100
AcDbScale
 70
     0
300
1:16
140
1.0
141
16.0
290
     0
  0
SCALE
  5
4F
102
{ACAD_REACTORS
330
47
102
}
330
47
100
AcDbScale
 70
     0
300
1:20
140
1.0
141
20.0
290
     0
  0
SCALE
  5
50
102
{ACAD_REACTORS
330
47
102
}
330
47
100
AcDbScale
 70
     0
300
1:30
140
1.0
141
30.0
290
     0
  0
SCALE
  5
51
102
{ACAD_REACTORS
330
47
102
}
330
47
100
AcDbScale
 70
     0
300
1:40
140
1.0
141
40.0
290
     0
  0
SCALE
  5
52
102
{ACAD_REACTORS
330
47
102
}
330
47
100
AcDbScale
 70
     0
300
1:50
140
1.0
141
50.0
290
     0
  0
SCALE
  5
53
102
{ACAD_REACTORS
330
47
102
}
330
47
100
AcDbScale
 70
     0
300
1:100
140
1.0
141
100.0
290
     0
  0
SCALE
  5
54
102
{ACAD_REACTORS
330
47
102
}
330
47
100
AcDbScale
 70
     0
300
2:1
140
2.0
141
1.0
290
     0
  0
SCALE
  5
55
102
{ACAD_REACTORS
330
47
102
}
330
47
100
AcDbScale
 70
     0
300
4:1
140
4.0
141
1.0
290
     0
  0
SCALE
  5
56
102
{ACAD_REACTORS
330
47
102
}
330
47
100
AcDbScale
 70
     0
300
8:1
140
8.0
141
1.0
290
     0
  0
SCALE
  5
57
102
{ACAD_REACTORS
330
47
102
}
330
47
100
AcDbScale
 70
     0
300
10:1
140
10.0
141
1.0
290
     0
  0
SCALE
  5
58
102
{ACAD_REACTORS
330
47
102
}
330
47
100
AcDbScale
 70
     0
300
100:1
140
100.0
141
1.0
290
     0
  0
SCALE
  5
59
102
{ACAD_REACTORS
330
47
102
}
330
47
100
AcDbScale
 70
     0
300
1/128" = 1'-0"
140
0.0078125
141
12.0
290
     0
  0
SCALE
  5
5A
102
{ACAD_REACTORS
330
47
102
}
330
47
100
AcDbScale
 70
     0
300
1/64" = 1'-0"
140
0.015625
141
12.0
290
     0
  0
SCALE
  5
5B
102
{ACAD_REACTORS
330
47
102
}
330
47
100
AcDbScale
 70
     0
300
1/32" = 1'-0"
140
0.03125
141
12.0
290
     0
  0
SCALE
  5
5C
102
{ACAD_REACTORS
330
47
102
}
330
47
100
AcDbScale
 70
     0
300
1/16" = 1'-0"
140
0.0625
141
12.0
290
     0
  0
SCALE
  5
5D
102
{ACAD_REACTORS
330
47
102
}
330
47
100
AcDbScale
 70
     0
300
3/32" = 1'-0"
140
0.09375
141
12.0
290
     0
  0
SCALE
  5
5E
102
{ACAD_REACTORS
330
47
102
}
330
47
100
AcDbScale
 70
     0
300
1/8" = 1'-0"
140
0.125
141
12.0
290
     0
  0
SCALE
  5
5F
102
{ACAD_REACTORS
330
47
102
}
330
47
100
AcDbScale
 70
     0
300
3/16" = 1'-0"
140
0.1875
141
12.0
290
     0
  0
SCALE
  5
60
102
{ACAD_REACTORS
330
47
102
}
330
47
100
AcDbScale
 70
     0
300
1/4" = 1'-0"
140
0.25
141
12.0
290
     0
  0
SCALE
  5
61
102
{ACAD_REACTORS
330
47
102
}
330
47
100
AcDbScale
 70
     0
300
3/8" = 1'-0"
140
0.375
141
12.0
290
     0
  0
SCALE
  5
62
102
{ACAD_REACTORS
330
47
102
}
330
47
100
AcDbScale
 70
     0
300
1/2" = 1'-0"
140
0.5
141
12.0
290
     0
  0
SCALE
  5
63
102
{ACAD_REACTORS
330
47
102
}
330
47
100
AcDbScale
 70
     0
300
3/4" = 1'-0"
140
0.75
141
12.0
290
     0
  0
SCALE
  5
64
102
{ACAD_REACTORS
330
47
102
}
330
47
100
AcDbScale
 70
     0
300
1" = 1'-0"
140
1.0
141
12.0
290
     0
  0
SCALE
  5
65
102
{ACAD_REACTORS
330
47
102
}
330
47
100
AcDbScale
 70
     0
300
1-1/2" = 1'-0"
140
1.5
141
12.0
290
     0
  0
SCALE
  5
66
102
{ACAD_REACTORS
330
47
102
}
330
47
100
AcDbScale
 70
     0
300
3" = 1'-0"
140
3.0
141
12.0
290
     0
  0
SCALE
  5
67
102
{ACAD_REACTORS
330
47
102
}
330
47
100
AcDbScale
 70
     0
300
6" = 1'-0"
140
6.0
141
12.0
290
     0
  0
SCALE
  5
68
102
{ACAD_REACTORS
330
47
102
}
330
47
100
AcDbScale
 70
     0
300
1'-0" = 1'-0"
140
12.0
141
12.0
290
     0
  0
ENDSEC
  0
EOF
