  0
SECTION
  2
HEADER
  9
$ACADVER
  1
AC1015
  9
$ACADMAINTVER
 70
     6
  9
$DWGCODEPAGE
  3
ANSI_949
  9
$INSBASE
 10
0.0
 20
0.0
 30
0.0
  9
$EXTMIN
 10
-52.81278727533618
 20
-49.75070660587842
 30
0.0
  9
$EXTMAX
 10
99.17300279016857
 20
46.00479151699527
 30
0.0
  9
$LIMMIN
 10
0.0
 20
0.0
  9
$LIMMAX
 10
420.0
 20
297.0
  9
$ORTHOMODE
 70
     1
  9
$REGENMODE
 70
     1
  9
$FILLMODE
 70
     1
  9
$QTEXTMODE
 70
     0
  9
$MIRRTEXT
 70
     1
  9
$LTSCALE
 40
1.0
  9
$ATTMODE
 70
     1
  9
$TEXTSIZE
 40
3.5
  9
$TRACEWID
 40
1.0
  9
$TEXTSTYLE
  7
Standard
  9
$CLAYER
  8
0
  9
$CELTYPE
  6
ByLayer
  9
$CECOLOR
 62
   256
  9
$CELTSCALE
 40
1.0
  9
$DISPSILH
 70
     0
  9
$DIMSCALE
 40
1.0
  9
$DIMASZ
 40
3.302
  9
$DIMEXO
 40
1.0
  9
$DIMDLI
 40
3.75
  9
$DIMRND
 40
0.0
  9
$DIMDLE
 40
0.0
  9
$DIMEXE
 40
1.0
  9
$DIMTP
 40
0.0
  9
$DIMTM
 40
0.0
  9
$DIMTXT
 40
3.5
  9
$DIMCEN
 40
2.5
  9
$DIMTSZ
 40
0.0
  9
$DIMTOL
 70
     0
  9
$DIMLIM
 70
     0
  9
$DIMTIH
 70
     1
  9
$DIMTOH
 70
     1
  9
$DIMSE1
 70
     0
  9
$DIMSE2
 70
     0
  9
$DIMTAD
 70
     1
  9
$DIMZIN
 70
     0
  9
$DIMBLK
  1

  9
$DIMASO
 70
     1
  9
$DIMSHO
 70
     1
  9
$DIMPOST
  1

  9
$DIMAPOST
  1

  9
$DIMALT
 70
     0
  9
$DIMALTD
 70
     3
  9
$DIMALTF
 40
0.0393700787401575
  9
$DIMLFAC
 40
1.0
  9
$DIMTOFL
 70
     1
  9
$DIMTVP
 40
0.0
  9
$DIMTIX
 70
     0
  9
$DIMSOXD
 70
     0
  9
$DIMSAH
 70
     0
  9
$DIMBLK1
  1

  9
$DIMBLK2
  1

  9
$DIMSTYLE
  2
ISO-25
  9
$DIMCLRD
 70
     0
  9
$DIMCLRE
 70
     0
  9
$DIMCLRT
 70
     0
  9
$DIMTFAC
 40
1.0
  9
$DIMGAP
 40
1.524
  9
$DIMJUST
 70
     0
  9
$DIMSD1
 70
     0
  9
$DIMSD2
 70
     0
  9
$DIMTOLJ
 70
     0
  9
$DIMTZIN
 70
     0
  9
$DIMALTZ
 70
     0
  9
$DIMALTTZ
 70
     0
  9
$DIMUPT
 70
     0
  9
$DIMDEC
 70
     2
  9
$DIMTDEC
 70
     2
  9
$DIMALTU
 70
     2
  9
$DIMALTTD
 70
     3
  9
$DIMTXSTY
  7
Standard
  9
$DIMAUNIT
 70
     0
  9
$DIMADEC
 70
     2
  9
$DIMALTRND
 40
0.0
  9
$DIMAZIN
 70
     0
  9
$DIMDSEP
 70
    44
  9
$DIMATFIT
 70
     3
  9
$DIMFRAC
 70
     0
  9
$DIMLDRBLK
  1

  9
$DIMLUNIT
 70
     2
  9
$DIMLWD
 70
    -2
  9
$DIMLWE
 70
    -2
  9
$DIMTMOVE
 70
     0
  9
$LUNITS
 70
     2
  9
$LUPREC
 70
     2
  9
$SKETCHINC
 40
1.0
  9
$FILLETRAD
 40
0.508
  9
$AUNITS
 70
     0
  9
$AUPREC
 70
     2
  9
$MENU
  1
.
  9
$ELEVATION
 40
0.0
  9
$PELEVATION
 40
0.0
  9
$THICKNESS
 40
0.0
  9
$LIMCHECK
 70
     0
  9
$CHAMFERA
 40
0.0
  9
$CHAMFERB
 40
0.0
  9
$CHAMFERC
 40
0.0
  9
$CHAMFERD
 40
0.0
  9
$SKPOLY
 70
     0
  9
$TDCREATE
 40
2458290.679073299
  9
$TDUCREATE
 40
2458290.304073299
  9
$TDUPDATE
 40
2458299.767131655
  9
$TDUUPDATE
 40
2458299.392131655
  9
$TDINDWG
 40
0.0008850579
  9
$TDUSRTIMER
 40
0.0000224421
  9
$USRTIMER
 70
     1
  9
$ANGBASE
 50
0.0
  9
$ANGDIR
 70
     0
  9
$PDMODE
 70
     0
  9
$PDSIZE
 40
-1.0
  9
$PLINEWID
 40
0.0
  9
$SPLFRAME
 70
     0
  9
$SPLINETYPE
 70
     6
  9
$SPLINESEGS
 70
     8
  9
$HANDSEED
  5
252
  9
$SURFTAB1
 70
     6
  9
$SURFTAB2
 70
     6
  9
$SURFTYPE
 70
     6
  9
$SURFU
 70
     6
  9
$SURFV
 70
     6
  9
$UCSBASE
  2

  9
$UCSNAME
  2

  9
$UCSORG
 10
0.0
 20
0.0
 30
0.0
  9
$UCSXDIR
 10
1.0
 20
0.0
 30
0.0
  9
$UCSYDIR
 10
0.0
 20
1.0
 30
0.0
  9
$UCSORTHOREF
  2

  9
$UCSORTHOVIEW
 70
     0
  9
$UCSORGTOP
 10
0.0
 20
0.0
 30
0.0
  9
$UCSORGBOTTOM
 10
0.0
 20
0.0
 30
0.0
  9
$UCSORGLEFT
 10
0.0
 20
0.0
 30
0.0
  9
$UCSORGRIGHT
 10
0.0
 20
0.0
 30
0.0
  9
$UCSORGFRONT
 10
0.0
 20
0.0
 30
0.0
  9
$UCSORGBACK
 10
0.0
 20
0.0
 30
0.0
  9
$PUCSBASE
  2

  9
$PUCSNAME
  2

  9
$PUCSORG
 10
0.0
 20
0.0
 30
0.0
  9
$PUCSXDIR
 10
1.0
 20
0.0
 30
0.0
  9
$PUCSYDIR
 10
0.0
 20
1.0
 30
0.0
  9
$PUCSORTHOREF
  2

  9
$PUCSORTHOVIEW
 70
     0
  9
$PUCSORGTOP
 10
0.0
 20
0.0
 30
0.0
  9
$PUCSORGBOTTOM
 10
0.0
 20
0.0
 30
0.0
  9
$PUCSORGLEFT
 10
0.0
 20
0.0
 30
0.0
  9
$PUCSORGRIGHT
 10
0.0
 20
0.0
 30
0.0
  9
$PUCSORGFRONT
 10
0.0
 20
0.0
 30
0.0
  9
$PUCSORGBACK
 10
0.0
 20
0.0
 30
0.0
  9
$USERI1
 70
     0
  9
$USERI2
 70
     0
  9
$USERI3
 70
     0
  9
$USERI4
 70
     0
  9
$USERI5
 70
     0
  9
$USERR1
 40
0.0
  9
$USERR2
 40
0.0
  9
$USERR3
 40
0.0
  9
$USERR4
 40
0.0
  9
$USERR5
 40
0.0
  9
$WORLDVIEW
 70
     1
  9
$SHADEDGE
 70
     3
  9
$SHADEDIF
 70
    70
  9
$TILEMODE
 70
     1
  9
$MAXACTVP
 70
    64
  9
$PINSBASE
 10
0.0
 20
0.0
 30
0.0
  9
$PLIMCHECK
 70
     0
  9
$PEXTMIN
 10
1.000000000000000E+20
 20
1.000000000000000E+20
 30
1.000000000000000E+20
  9
$PEXTMAX
 10
-1.000000000000000E+20
 20
-1.000000000000000E+20
 30
-1.000000000000000E+20
  9
$PLIMMIN
 10
0.0
 20
0.0
  9
$PLIMMAX
 10
0.0
 20
0.0
  9
$UNITMODE
 70
     0
  9
$VISRETAIN
 70
     1
  9
$PLINEGEN
 70
     0
  9
$PSLTSCALE
 70
     1
  9
$TREEDEPTH
 70
  3020
  9
$CMLSTYLE
  2
Standard
  9
$CMLJUST
 70
     0
  9
$CMLSCALE
 40
20.0
  9
$PROXYGRAPHICS
 70
     1
  9
$MEASUREMENT
 70
     1
  9
$CELWEIGHT
370
    -1
  9
$ENDCAPS
280
     0
  9
$JOINSTYLE
280
     0
  9
$LWDISPLAY
290
     1
  9
$INSUNITS
 70
     4
  9
$HYPERLINKBASE
  1

  9
$STYLESHEET
  1

  9
$XEDIT
290
     1
  9
$CEPSNTYPE
380
     0
  9
$PSTYLEMODE
290
     1
  9
$FINGERPRINTGUID
  2
{93D652BC-EA60-4A5D-8146-F713D691C41F}
  9
$VERSIONGUID
  2
{FAEB1C32-E019-11D5-929B-00C0DF256EC4}
  9
$EXTNAMES
290
     1
  9
$PSVPSCALE
 40
0.0
  9
$OLESTARTUP
290
     0
  0
ENDSEC
  0
SECTION
  2
CLASSES
  0
CLASS
  1
ACDBDICTIONARYWDFLT
  2
AcDbDictionaryWithDefault
  3
ObjectDBX Classes
 90
        0
280
     0
281
     0
  0
CLASS
  1
VISUALSTYLE
  2
AcDbVisualStyle
  3
ObjectDBX Classes
 90
     4095
280
     0
281
     0
  0
CLASS
  1
MATERIAL
  2
AcDbMaterial
  3
ObjectDBX Classes
 90
     1153
280
     0
281
     0
  0
CLASS
  1
SCALE
  2
AcDbScale
  3
ObjectDBX Classes
 90
     1153
280
     0
281
     0
  0
CLASS
  1
SUN
  2
AcDbSun
  3
SCENEOE
 90
     1153
280
     0
281
     0
  0
CLASS
  1
ACDBPLACEHOLDER
  2
AcDbPlaceHolder
  3
ObjectDBX Classes
 90
        0
280
     0
281
     0
  0
CLASS
  1
LAYOUT
  2
AcDbLayout
  3
ObjectDBX Classes
 90
        0
280
     0
281
     0
  0
CLASS
  1
TABLESTYLE
  2
AcDbTableStyle
  3
ObjectDBX Classes
 90
     4095
280
     0
281
     0
  0
CLASS
  1
MLEADERSTYLE
  2
AcDbMLeaderStyle
  3
ACDB_MLEADERSTYLE_CLASS
 90
     4095
280
     0
281
     0
  0
CLASS
  1
DICTIONARYVAR
  2
AcDbDictionaryVar
  3
ObjectDBX Classes
 90
        0
280
     0
281
     0
  0
ENDSEC
  0
SECTION
  2
TABLES
  0
TABLE
  2
VPORT
  5
8
330
0
100
AcDbSymbolTable
 70
     1
  0
VPORT
  5
29
330
8
100
AcDbSymbolTableRecord
100
AcDbViewportTableRecord
  2
*Active
 70
     0
 10
0.0
 20
0.0
 11
1.0
 21
1.0
 12
23.1801077574162
 22
-1.872957544441576
 13
0.0
 23
0.0
 14
10.0
 24
10.0
 15
10.0
 25
10.0
 16
0.0
 26
0.0
 36
1.0
 17
0.0
 27
0.0
 37
0.0
 40
97.67060808533117
 41
2.148876404494382
 42
50.0
 43
0.0
 44
0.0
 50
0.0
 51
0.0
 71
    16
 72
  2000
 73
     1
 74
     3
 75
     0
 76
     0
 77
     0
 78
     0
281
     0
 65
     1
110
0.0
120
0.0
130
0.0
111
1.0
121
0.0
131
0.0
112
0.0
122
1.0
132
0.0
 79
     0
146
0.0
  0
ENDTAB
  0
TABLE
  2
LTYPE
  5
5
330
0
100
AcDbSymbolTable
 70
     6
  0
LTYPE
  5
14
330
5
100
AcDbSymbolTableRecord
100
AcDbLinetypeTableRecord
  2
ByBlock
 70
     0
  3

 72
    65
 73
     0
 40
0.0
  0
LTYPE
  5
15
330
5
100
AcDbSymbolTableRecord
100
AcDbLinetypeTableRecord
  2
ByLayer
 70
     0
  3

 72
    65
 73
     0
 40
0.0
  0
LTYPE
  5
16
330
5
100
AcDbSymbolTableRecord
100
AcDbLinetypeTableRecord
  2
Continuous
 70
     0
  3
Solid line
 72
    65
 73
     0
 40
0.0
  0
LTYPE
  5
6A
330
5
100
AcDbSymbolTableRecord
100
AcDbLinetypeTableRecord
  2
HIDDEN
 70
     0
  3
Hidden __ __ __ __ __ __ __ __ __ __ __ __ __ __
 72
    65
 73
     2
 40
1.905
 49
1.27
 74
     0
 49
-0.635
 74
     0
  0
LTYPE
  5
6B
330
5
100
AcDbSymbolTableRecord
100
AcDbLinetypeTableRecord
  2
PHANTOM
 70
     0
  3
Phantom ______  __  __  ______  __  __  ______
 72
    65
 73
     6
 40
12.7
 49
6.35
 74
     0
 49
-1.27
 74
     0
 49
1.27
 74
     0
 49
-1.27
 74
     0
 49
1.27
 74
     0
 49
-1.27
 74
     0
  0
LTYPE
  5
6C
330
5
100
AcDbSymbolTableRecord
100
AcDbLinetypeTableRecord
  2
CENTER
 70
     0
  3
Center ____ _ ____ _ ____ _ ____ _ ____ _ ____
 72
    65
 73
     4
 40
10.16
 49
6.35
 74
     0
 49
-1.27
 74
     0
 49
1.27
 74
     0
 49
-1.27
 74
     0
  0
LTYPE
  5
6D
330
5
100
AcDbSymbolTableRecord
100
AcDbLinetypeTableRecord
  2
CENTERX2
 70
     0
  3
Center (2x) ________  __  ________  __  _____
 72
    65
 73
     4
 40
20.32
 49
12.7
 74
     0
 49
-2.54
 74
     0
 49
2.54
 74
     0
 49
-2.54
 74
     0
  0
LTYPE
  5
6E
330
5
100
AcDbSymbolTableRecord
100
AcDbLinetypeTableRecord
  2
DOT2
 70
     0
  3
Dot (.5x) ........................................
 72
    65
 73
     2
 40
0.635
 49
0.0
 74
     0
 49
-0.635
 74
     0
  0
ENDTAB
  0
TABLE
  2
LAYER
  5
2
102
{ACAD_XDICTIONARY
360
1E6
102
}
330
0
100
AcDbSymbolTable
 70
    18
  0
LAYER
  5
10
330
2
100
AcDbSymbolTableRecord
100
AcDbLayerTableRecord
  2
0
 70
     0
 62
     7
  6
Continuous
370
    -3
390
F
  0
LAYER
  5
6F
330
2
100
AcDbSymbolTableRecord
100
AcDbLayerTableRecord
  2
FORMAT
 70
     0
 62
     2
  6
Continuous
370
    -3
390
F
  0
LAYER
  5
70
330
2
100
AcDbSymbolTableRecord
100
AcDbLayerTableRecord
  2
외형선
 70
     0
 62
     4
  6
Continuous
370
    30
390
F
  0
LAYER
  5
71
330
2
100
AcDbSymbolTableRecord
100
AcDbLayerTableRecord
  2
숨은선
 70
     0
 62
     2
  6
HIDDEN
370
    15
390
F
  0
LAYER
  5
72
330
2
100
AcDbSymbolTableRecord
100
AcDbLayerTableRecord
  2
중심선
 70
     0
 62
     1
  6
CENTERX2
370
    -3
390
F
  0
LAYER
  5
73
330
2
100
AcDbSymbolTableRecord
100
AcDbLayerTableRecord
  2
파단선
 70
     0
 62
     4
  6
Continuous
370
    -3
390
F
  0
LAYER
  5
74
330
2
100
AcDbSymbolTableRecord
100
AcDbLayerTableRecord
  2
해칭선
 70
     0
 62
   100
  6
Continuous
370
    -3
390
F
  0
LAYER
  5
75
330
2
100
AcDbSymbolTableRecord
100
AcDbLayerTableRecord
  2
가는실선
 70
     0
 62
     4
  6
Continuous
370
    -3
390
F
  0
LAYER
  5
76
330
2
100
AcDbSymbolTableRecord
100
AcDbLayerTableRecord
  2
치수_보조선
 70
     0
 62
     4
  6
Continuous
370
    -3
390
F
  0
LAYER
  5
77
330
2
100
AcDbSymbolTableRecord
100
AcDbLayerTableRecord
  2
치수문자_일반주서
 70
     0
 62
     7
  6
Continuous
370
    15
390
F
  0
LAYER
  5
78
330
2
100
AcDbSymbolTableRecord
100
AcDbLayerTableRecord
  2
개별주서
 70
     0
 62
   100
  6
Continuous
370
    30
390
F
  0
LAYER
  5
79
330
2
100
AcDbSymbolTableRecord
100
AcDbLayerTableRecord
  2
중간선
 70
     0
 62
     2
  6
Continuous
370
    15
390
F
  0
LAYER
  5
7A
330
2
100
AcDbSymbolTableRecord
100
AcDbLayerTableRecord
  2
윤곽선
 70
     0
 62
     3
  6
Continuous
370
    40
390
F
  0
LAYER
  5
7B
330
2
100
AcDbSymbolTableRecord
100
AcDbLayerTableRecord
  2
중심마크
 70
     0
 62
   100
  6
Continuous
370
    30
390
F
  0
LAYER
  5
7C
330
2
100
AcDbSymbolTableRecord
100
AcDbLayerTableRecord
  2
가상선
 70
     0
 62
     4
  6
PHANTOM
370
    -3
390
F
  0
LAYER
  5
7D
330
2
100
AcDbSymbolTableRecord
100
AcDbLayerTableRecord
  2
특수지정선
 70
     0
 62
     5
  6
CENTERX2
370
    60
390
F
  0
LAYER
  5
7E
330
2
100
AcDbSymbolTableRecord
100
AcDbLayerTableRecord
  2
참조1
 70
     0
 62
    -4
  6
Continuous
370
    -3
390
F
  0
LAYER
  5
151
330
2
100
AcDbSymbolTableRecord
100
AcDbLayerTableRecord
  2
Defpoints
 70
     0
 62
     7
  6
Continuous
290
     0
370
    -3
390
F
  0
ENDTAB
  0
TABLE
  2
STYLE
  5
3
330
0
100
AcDbSymbolTable
 70
     2
  0
STYLE
  5
11
330
3
100
AcDbSymbolTableRecord
100
AcDbTextStyleTableRecord
  2
Standard
 70
     0
 40
0.0
 41
1.0
 50
0.0
 71
     0
 42
3.5
  3
txt
  4

  0
STYLE
  5
94
330
3
100
AcDbSymbolTableRecord
100
AcDbTextStyleTableRecord
  2
SLDTEXTSTYLE0
 70
     0
 40
0.0
 41
0.75
 50
0.0
 71
     0
 42
3.5
  3
TXT
  4

  0
ENDTAB
  0
TABLE
  2
VIEW
  5
6
330
0
100
AcDbSymbolTable
 70
     0
  0
ENDTAB
  0
TABLE
  2
UCS
  5
7
330
0
100
AcDbSymbolTable
 70
     0
  0
ENDTAB
  0
TABLE
  2
APPID
  5
9
330
0
100
AcDbSymbolTable
 70
     2
  0
APPID
  5
12
330
9
100
AcDbSymbolTableRecord
100
AcDbRegAppTableRecord
  2
ACAD
 70
     0
  0
APPID
  5
15F
330
9
100
AcDbSymbolTableRecord
100
AcDbRegAppTableRecord
  2
PE_URL
 70
     0
  0
ENDTAB
  0
TABLE
  2
DIMSTYLE
  5
A
330
0
100
AcDbSymbolTable
 70
     3
100
AcDbDimStyleTable
  0
DIMSTYLE
105
27
102
{ACAD_REACTORS
330
18B
102
}
330
A
100
AcDbSymbolTableRecord
100
AcDbDimStyleTableRecord
  2
ISO-25
 70
     0
 41
2.5
 42
0.625
 43
3.75
 44
1.25
 73
     0
 74
     0
 77
     1
 78
     8
140
2.5
141
2.5
143
0.03937007874016
147
0.625
171
     3
172
     1
178
     0
271
     2
272
     2
274
     3
278
    44
283
     0
284
     8
340
11
  0
DIMSTYLE
105
D0
102
{ACAD_REACTORS
330
CF
102
}
330
A
100
AcDbSymbolTableRecord
100
AcDbDimStyleTableRecord
  2
SLDDIMSTYLE0
 70
     0
 41
3.302
 44
0.0
 45
0.000000001
 73
     0
 74
     0
 77
     1
 78
     4
 79
     1
140
3.5
143
0.0393700787401575
147
0.875
148
0.000000001
170
     1
173
     1
178
     0
271
     2
272
     2
276
     2
284
    12
340
94
  0
DIMSTYLE
105
E4
102
{ACAD_REACTORS
330
E3
330
F8
330
10D
102
}
330
A
100
AcDbSymbolTableRecord
100
AcDbDimStyleTableRecord
  2
SLDDIMSTYLE1
 70
     0
 41
3.302
 44
0.0
 45
0.000000001
 73
     0
 74
     0
 77
     1
 78
    12
 79
     3
140
3.5
143
0.0393700787401575
147
0.875
148
0.000000001
170
     1
172
     1
173
     1
178
     0
271
     2
272
     2
276
     2
284
    12
289
     0
340
94
  0
ENDTAB
  0
TABLE
  2
BLOCK_RECORD
  5
1
330
0
100
AcDbSymbolTable
 70
     7
  0
BLOCK_RECORD
  5
1F
330
1
100
AcDbSymbolTableRecord
100
AcDbBlockTableRecord
  2
*Model_Space
340
22
  0
BLOCK_RECORD
  5
1B
330
1
100
AcDbSymbolTableRecord
100
AcDbBlockTableRecord
  2
*Paper_Space
340
1E
  0
BLOCK_RECORD
  5
23
330
1
100
AcDbSymbolTableRecord
100
AcDbBlockTableRecord
  2
*Paper_Space0
340
26
  0
BLOCK_RECORD
  5
7F
330
1
100
AcDbSymbolTableRecord
100
AcDbBlockTableRecord
  2
블럭10
340
0
102
{BLKREFS
331
C8
102
}
  0
BLOCK_RECORD
  5
D1
330
1
100
AcDbSymbolTableRecord
100
AcDbBlockTableRecord
  2
_D
340
0
  0
BLOCK_RECORD
  5
E5
330
1
100
AcDbSymbolTableRecord
100
AcDbBlockTableRecord
  2
_D_1
340
0
  0
BLOCK_RECORD
  5
F9
330
1
100
AcDbSymbolTableRecord
100
AcDbBlockTableRecord
  2
_D_2
340
0
  0
BLOCK_RECORD
  5
10E
330
1
100
AcDbSymbolTableRecord
100
AcDbBlockTableRecord
  2
_D_3
340
0
  0
BLOCK_RECORD
  5
128
330
1
100
AcDbSymbolTableRecord
100
AcDbBlockTableRecord
  2
SW_DOWELSYMBOL_0
340
0
102
{BLKREFS
331
12E
102
}
  0
ENDTAB
  0
ENDSEC
  0
SECTION
  2
BLOCKS
  0
BLOCK
  5
20
330
1F
100
AcDbEntity
  8
0
100
AcDbBlockBegin
  2
*Model_Space
 70
     0
 10
0.0
 20
0.0
 30
0.0
  3
*Model_Space
  1

  0
ENDBLK
  5
21
330
1F
100
AcDbEntity
  8
0
100
AcDbBlockEnd
  0
BLOCK
  5
1C
330
1B
100
AcDbEntity
 67
     1
  8
0
100
AcDbBlockBegin
  2
*Paper_Space
 70
     0
 10
0.0
 20
0.0
 30
0.0
  3
*Paper_Space
  1

  0
ENDBLK
  5
1D
330
1B
100
AcDbEntity
 67
     1
  8
0
100
AcDbBlockEnd
  0
BLOCK
  5
24
330
23
100
AcDbEntity
  8
0
100
AcDbBlockBegin
  2
*Paper_Space0
 70
     0
 10
0.0
 20
0.0
 30
0.0
  3
*Paper_Space0
  1

  0
ENDBLK
  5
25
330
23
100
AcDbEntity
  8
0
100
AcDbBlockEnd
  0
BLOCK
  5
80
330
7F
100
AcDbEntity
  8
0
100
AcDbBlockBegin
  2
블럭10
 70
     2
 10
0.0
 20
0.0
 30
0.0
  3
블럭10
  1

  0
ELLIPSE
  5
82
330
7F
100
AcDbEntity
  8
중심선
100
AcDbEllipse
 10
20.54032771741204
 20
12.0471743016438
 30
0.0
 11
6.600054785286829
 21
-1.261213355974178E-13
 31
0.0
210
0.0
220
0.0
230
1.0
 40
0.636358354079598
 41
0.9219305317359503
 42
6.513795318482858
  0
ELLIPSE
  5
83
330
7F
100
AcDbEntity
  8
중심선
100
AcDbEllipse
 10
20.54032771746488
 20
12.04717430159265
 30
0.0
 11
3.960054785062283
 21
1.540847449632565E-10
 31
0.0
210
0.0
220
0.0
230
1.0
 40
0.3939339440162632
 41
1.131841032648279
 42
5.62031148352944
  0
LINE
  5
84
330
7F
100
AcDbEntity
  8
중심선
100
AcDbLine
 10
2.268634060543552
 20
16.24717430164393
 30
0.0
 11
5.714909304380834
 21
16.24717430164393
 31
0.0
  0
LINE
  5
85
330
7F
100
AcDbEntity
  8
중심선
100
AcDbLine
 10
5.245725140726316
 20
7.84717430164391
 30
0.0
 11
8.692000384563599
 21
7.84717430164391
 31
0.0
  0
LINE
  5
86
330
7F
100
AcDbEntity
  8
중심선
100
AcDbLine
 10
15.74043728645272
 20
16.24717430164393
 30
0.0
 11
8.692000384563599
 21
7.84717430164391
 31
0.0
  0
LINE
  5
87
330
7F
100
AcDbEntity
  8
중심선
100
AcDbLine
 10
0.1404042013395286
 20
13.71084872107135
 30
0.0
 11
3.58671253028996
 21
13.71088815037384
 31
0.0
  0
LINE
  5
88
330
7F
100
AcDbEntity
  8
중심선
100
AcDbLine
 10
2.750260043222114
 20
10.84717430164391
 30
0.0
 11
6.196535287059397
 21
10.84717430164391
 31
0.0
  0
LINE
  5
89
330
7F
100
AcDbEntity
  8
중심선
100
AcDbLine
 10
12.29416204261559
 20
16.24717430164393
 30
0.0
 11
5.245725140726316
 21
7.84717430164391
 31
0.0
  0
LINE
  5
8A
330
7F
100
AcDbEntity
  8
중심선
100
AcDbLine
 10
10.72767329541681
 20
16.24717430164393
 30
0.0
 11
6.196535287059397
 21
10.84717430164391
 31
0.0
  0
LINE
  5
8B
330
7F
100
AcDbEntity
  8
중심선
100
AcDbLine
 10
7.28139805157953
 20
16.24717430164393
 30
0.0
 11
2.750260043222114
 21
10.84717430164391
 31
0.0
  0
LINE
  5
8C
330
7F
100
AcDbEntity
  8
중심선
100
AcDbLine
 10
5.714909304380834
 20
16.24717430164393
 30
0.0
 11
3.58671253028996
 21
13.71088815037384
 31
0.0
  0
LINE
  5
8D
330
7F
100
AcDbEntity
  8
중심선
100
AcDbLine
 10
2.268634060543552
 20
16.24717430164393
 30
0.0
 11
0.1404042013395286
 21
13.71084872107135
 31
0.0
  0
LINE
  5
8E
330
7F
100
AcDbEntity
  8
중심선
100
AcDbLine
 10
7.28139805157953
 20
16.24717430164393
 30
0.0
 11
10.72767329541681
 21
16.24717430164393
 31
0.0
  0
LINE
  5
8F
330
7F
100
AcDbEntity
  8
중심선
100
AcDbLine
 10
12.29416204261559
 20
16.24717430164393
 30
0.0
 11
15.74043728645272
 21
16.24717430164393
 31
0.0
  0
LINE
  5
90
330
7F
100
AcDbEntity
  8
중심선
100
AcDbLine
 10
19.22036997980202
 20
11.08717430171403
 30
0.0
 11
23.66174974927406
 21
11.08717430171406
 31
0.0
  0
LINE
  5
91
330
7F
100
AcDbEntity
  8
중심선
100
AcDbLine
 10
19.22039502424796
 20
13.00717430171391
 30
0.0
 11
19.22036997980202
 21
11.08717430171403
 31
0.0
  0
LINE
  5
92
330
7F
100
AcDbEntity
  8
중심선
100
AcDbLine
 10
19.22039502424796
 20
13.00717430171391
 30
0.0
 11
26.96566020931264
 21
13.00717430171391
 31
0.0
  0
LINE
  5
93
330
7F
100
AcDbEntity
  8
중심선
100
AcDbLine
 10
22.22332737316547
 20
13.45928029700563
 30
0.0
 11
24.52862924686651
 21
15.39360700705356
 31
0.0
  0
ATTDEF
  5
95
330
7F
100
AcDbEntity
  8
FORMAT
 62
     2
100
AcDbText
 10
4.408487351596664
 20
2.075366912832191
 30
0.0
 40
4.233333333333333
  1
E5105028
 41
0.75
  7
SLDTEXTSTYLE0
 11
4.408487351596664
 21
-0.0412997538344756
 31
0.0
100
AcDbAttributeDefinition
  3

  2
AUTOATTR0
 70
     0
 74
     1
  0
ENDBLK
  5
81
330
7F
100
AcDbEntity
  8
0
100
AcDbBlockEnd
  0
BLOCK
  5
D2
330
D1
100
AcDbEntity
  8
0
100
AcDbBlockBegin
  2
_D
 70
     0
 10
0.0
 20
0.0
 30
0.0
  3
_D
  1

  0
LINE
  5
D4
330
D1
100
AcDbEntity
  8
치수문자_일반주서
 62
     0
370
    -2
100
AcDbLine
 10
-39.21249999999999
 20
5.618750000000008
 30
0.0
 11
-39.21249999999999
 21
41.62979151699526
 31
0.0
  0
LINE
  5
D5
330
D1
100
AcDbEntity
  8
치수문자_일반주서
 62
     0
370
    -2
100
AcDbLine
 10
24.28750000000002
 20
5.618483853983701
 30
0.0
 11
24.28750000000002
 21
41.62979151699526
 31
0.0
  0
LINE
  5
D6
330
D1
100
AcDbEntity
  8
치수문자_일반주서
 62
     0
370
    -2
100
AcDbLine
 10
-35.91049999999999
 20
41.62979151699526
 30
0.0
 11
20.98550000000002
 21
41.62979151699526
 31
0.0
  0
SOLID
  5
D7
330
D1
100
AcDbEntity
  8
치수문자_일반주서
 62
     0
100
AcDbTrace
 10
-35.91049999999999
 20
42.1801248503286
 30
0.0
 11
-35.91049999999999
 21
41.07945818366193
 31
0.0
 12
-39.21249999999999
 22
41.62979151699526
 32
0.0
 13
-39.21249999999999
 23
41.62979151699526
 33
0.0
  0
SOLID
  5
D8
330
D1
100
AcDbEntity
  8
치수문자_일반주서
 62
     0
100
AcDbTrace
 10
20.98550000000002
 20
41.07945818366193
 30
0.0
 11
20.98550000000002
 21
42.1801248503286
 31
0.0
 12
24.28750000000002
 22
41.62979151699526
 32
0.0
 13
24.28750000000002
 23
41.62979151699526
 33
0.0
  0
MTEXT
  5
D9
330
D1
100
AcDbEntity
  8
치수문자_일반주서
 62
     0
100
AcDbMText
 10
-7.462499999999991
 20
46.00479151699526
 30
0.0
 40
3.5
 41
0.0
 71
     2
 72
     1
  1
\A1;63.50 [2 1/2]
  7
SLDTEXTSTYLE0
 73
     1
 44
1.0
  0
POINT
  5
DA
330
D1
100
AcDbEntity
  8
Defpoints
 62
     0
100
AcDbPoint
 10
-39.21249999999999
 20
5.556250000000008
 30
0.0
  0
POINT
  5
DB
330
D1
100
AcDbEntity
  8
Defpoints
 62
     0
100
AcDbPoint
 10
24.28750000000002
 20
5.555983853983701
 30
0.0
  0
POINT
  5
DC
330
D1
100
AcDbEntity
  8
Defpoints
 62
     0
100
AcDbPoint
 10
24.28750000000002
 20
41.62979151699526
 30
0.0
  0
ENDBLK
  5
D3
330
D1
100
AcDbEntity
  8
0
100
AcDbBlockEnd
  0
BLOCK
  5
E6
330
E5
100
AcDbEntity
  8
0
100
AcDbBlockBegin
  2
_D_1
 70
     0
 10
0.0
 20
0.0
 30
0.0
  3
_D_1
  1

  0
LINE
  5
E8
330
E5
100
AcDbEntity
  8
치수문자_일반주서
 62
     0
370
    -2
100
AcDbLine
 10
-39.27499999999999
 20
5.55625000000001
 30
0.0
 11
-48.43778727533607
 21
5.556249999999974
 31
0.0
  0
LINE
  5
E9
330
E5
100
AcDbEntity
  8
치수문자_일반주서
 62
     0
370
    -2
100
AcDbLine
 10
-39.27492525220737
 20
-5.556250000000017
 30
0.0
 11
-48.43778727533604
 21
-5.556250000000052
 31
0.0
  0
LINE
  5
EA
330
E5
100
AcDbEntity
  8
치수문자_일반주서
 62
     0
370
    -2
100
AcDbLine
 10
-48.43778727533607
 20
5.556249999999974
 30
0.0
 11
-48.43778727533618
 21
39.28524999999998
 31
0.0
  0
LINE
  5
EB
330
E5
100
AcDbEntity
  8
치수문자_일반주서
 62
     0
370
    -2
100
AcDbLine
 10
-48.43778727533607
 20
5.556249999999974
 30
0.0
 11
-48.43778727533604
 21
-5.556250000000052
 31
0.0
  0
LINE
  5
EC
330
E5
100
AcDbEntity
  8
치수문자_일반주서
 62
     0
370
    -2
100
AcDbLine
 10
-48.43778727533608
 20
8.858249999999973
 30
0.0
 11
-48.43778727533608
 21
12.16024999999997
 31
0.0
  0
LINE
  5
ED
330
E5
100
AcDbEntity
  8
치수문자_일반주서
 62
     0
370
    -2
100
AcDbLine
 10
-48.43778727533603
 20
-8.858250000000051
 30
0.0
 11
-48.43778727533602
 21
-12.16025000000005
 31
0.0
  0
SOLID
  5
EE
330
E5
100
AcDbEntity
  8
치수문자_일반주서
 62
     0
100
AcDbTrace
 10
-48.98812060866941
 20
8.858249999999972
 30
0.0
 11
-47.88745394200274
 21
8.858249999999975
 31
0.0
 12
-48.43778727533607
 22
5.556249999999974
 32
0.0
 13
-48.43778727533607
 23
5.556249999999974
 33
0.0
  0
SOLID
  5
EF
330
E5
100
AcDbEntity
  8
치수문자_일반주서
 62
     0
100
AcDbTrace
 10
-47.88745394200269
 20
-8.85825000000005
 30
0.0
 11
-48.98812060866936
 21
-8.858250000000053
 31
0.0
 12
-48.43778727533604
 22
-5.556250000000052
 32
0.0
 13
-48.43778727533604
 23
-5.556250000000052
 33
0.0
  0
MTEXT
  5
F0
330
E5
100
AcDbEntity
  8
치수문자_일반주서
 62
     0
100
AcDbMText
 10
-52.81278727533613
 20
25.72274999999997
 30
0.0
 40
3.5
 41
0.0
 71
     2
 72
     1
  1
\A1;%%c11.11 [7/16]
  7
SLDTEXTSTYLE0
 11
-3.197042680585370E-15
 21
1.0
 31
0.0
 73
     1
 44
1.0
  0
POINT
  5
152
330
E5
100
AcDbEntity
  8
Defpoints
 62
     0
100
AcDbPoint
 10
-39.21249999999999
 20
5.55625000000001
 30
0.0
  0
POINT
  5
153
330
E5
100
AcDbEntity
  8
Defpoints
 62
     0
100
AcDbPoint
 10
-39.21242525220737
 20
-5.556250000000017
 30
0.0
  0
POINT
  5
154
330
E5
100
AcDbEntity
  8
Defpoints
 62
     0
100
AcDbPoint
 10
-48.43778727533604
 20
-5.556250000000052
 30
0.0
  0
ENDBLK
  5
E7
330
E5
100
AcDbEntity
  8
0
100
AcDbBlockEnd
  0
BLOCK
  5
FA
330
F9
100
AcDbEntity
  8
0
100
AcDbBlockBegin
  2
_D_2
 70
     0
 10
0.0
 20
0.0
 30
0.0
  3
_D_2
  1

  0
LINE
  5
FC
330
F9
100
AcDbEntity
  8
치수문자_일반주서
 62
     0
370
    -2
100
AcDbLine
 10
24.28750000000001
 20
5.618750000000063
 30
0.0
 11
24.2875
 21
23.82736495826316
 31
0.0
  0
LINE
  5
FD
330
F9
100
AcDbEntity
  8
치수문자_일반주서
 62
     0
370
    -2
100
AcDbLine
 10
10.00000000000001
 20
5.618749999999998
 30
0.0
 11
10.00000000000001
 21
23.82736495826316
 31
0.0
  0
LINE
  5
FE
330
F9
100
AcDbEntity
  8
치수문자_일반주서
 62
     0
370
    -2
100
AcDbLine
 10
10.00000000000001
 20
23.82736495826316
 30
0.0
 11
-23.72899999999999
 21
23.82736495826316
 31
0.0
  0
LINE
  5
FF
330
F9
100
AcDbEntity
  8
치수문자_일반주서
 62
     0
370
    -2
100
AcDbLine
 10
24.2875
 20
23.82736495826316
 30
0.0
 11
10.00000000000001
 21
23.82736495826316
 31
0.0
  0
LINE
  5
100
330
F9
100
AcDbEntity
  8
치수문자_일반주서
 62
     0
370
    -2
100
AcDbLine
 10
27.5895
 20
23.82736495826316
 30
0.0
 11
30.8915
 21
23.82736495826316
 31
0.0
  0
LINE
  5
101
330
F9
100
AcDbEntity
  8
치수문자_일반주서
 62
     0
370
    -2
100
AcDbLine
 10
6.698000000000011
 20
23.82736495826316
 30
0.0
 11
3.396000000000011
 21
23.82736495826316
 31
0.0
  0
SOLID
  5
102
330
F9
100
AcDbEntity
  8
치수문자_일반주서
 62
     0
100
AcDbTrace
 10
27.5895
 20
24.3776982915965
 30
0.0
 11
27.5895
 21
23.27703162492983
 31
0.0
 12
24.2875
 22
23.82736495826316
 32
0.0
 13
24.2875
 23
23.82736495826316
 33
0.0
  0
SOLID
  5
103
330
F9
100
AcDbEntity
  8
치수문자_일반주서
 62
     0
100
AcDbTrace
 10
6.698000000000011
 20
23.27703162492983
 30
0.0
 11
6.698000000000011
 21
24.3776982915965
 31
0.0
 12
10.00000000000001
 22
23.82736495826316
 32
0.0
 13
10.00000000000001
 23
23.82736495826316
 33
0.0
  0
MTEXT
  5
104
330
F9
100
AcDbEntity
  8
치수문자_일반주서
 62
     0
100
AcDbMText
 10
-10.16649999999999
 20
28.20236495826316
 30
0.0
 40
3.5
 41
0.0
 71
     2
 72
     1
  1
\A1;14.29 [9/16]
  7
SLDTEXTSTYLE0
 73
     1
 44
1.0
  0
POINT
  5
155
330
F9
100
AcDbEntity
  8
Defpoints
 62
     0
100
AcDbPoint
 10
24.28750000000001
 20
5.556250000000063
 30
0.0
  0
POINT
  5
156
330
F9
100
AcDbEntity
  8
Defpoints
 62
     0
100
AcDbPoint
 10
10.00000000000001
 20
5.556249999999998
 30
0.0
  0
POINT
  5
157
330
F9
100
AcDbEntity
  8
Defpoints
 62
     0
100
AcDbPoint
 10
10.00000000000001
 20
23.82736495826316
 30
0.0
  0
ENDBLK
  5
FB
330
F9
100
AcDbEntity
  8
0
100
AcDbBlockEnd
  0
BLOCK
  5
10F
330
10E
100
AcDbEntity
  8
0
100
AcDbBlockBegin
  2
_D_3
 70
     0
 10
0.0
 20
0.0
 30
0.0
  3
_D_3
  1

  0
LINE
  5
111
330
10E
100
AcDbEntity
  8
치수문자_일반주서
 62
     0
370
    -2
100
AcDbLine
 10
24.35000000000002
 20
5.556250000000063
 30
0.0
 11
34.28749999999998
 21
5.556250000000098
 31
0.0
  0
LINE
  5
112
330
10E
100
AcDbEntity
  8
치수문자_일반주서
 62
     0
370
    -2
100
AcDbLine
 10
24.35005727841114
 20
-5.55624999999994
 30
0.0
 11
34.28750000000002
 21
-5.556249999999903
 31
0.0
  0
LINE
  5
113
330
10E
100
AcDbEntity
  8
치수문자_일반주서
 62
     0
370
    -2
100
AcDbLine
 10
34.28749999999998
 20
5.556250000000098
 30
0.0
 11
34.28749999999987
 21
39.2852500000001
 31
0.0
  0
LINE
  5
114
330
10E
100
AcDbEntity
  8
치수문자_일반주서
 62
     0
370
    -2
100
AcDbLine
 10
34.28749999999998
 20
5.556250000000098
 30
0.0
 11
34.28750000000002
 21
-5.556249999999903
 31
0.0
  0
LINE
  5
115
330
10E
100
AcDbEntity
  8
치수문자_일반주서
 62
     0
370
    -2
100
AcDbLine
 10
34.28749999999997
 20
8.858250000000098
 30
0.0
 11
34.28749999999997
 21
12.1602500000001
 31
0.0
  0
LINE
  5
116
330
10E
100
AcDbEntity
  8
치수문자_일반주서
 62
     0
370
    -2
100
AcDbLine
 10
34.28750000000002
 20
-8.858249999999902
 30
0.0
 11
34.28750000000003
 21
-12.1602499999999
 31
0.0
  0
SOLID
  5
117
330
10E
100
AcDbEntity
  8
치수문자_일반주서
 62
     0
100
AcDbTrace
 10
33.73716666666664
 20
8.858250000000096
 30
0.0
 11
34.83783333333331
 21
8.8582500000001
 31
0.0
 12
34.28749999999998
 22
5.556250000000098
 32
0.0
 13
34.28749999999998
 23
5.556250000000098
 33
0.0
  0
SOLID
  5
118
330
10E
100
AcDbEntity
  8
치수문자_일반주서
 62
     0
100
AcDbTrace
 10
34.83783333333336
 20
-8.8582499999999
 30
0.0
 11
33.73716666666669
 21
-8.858249999999904
 31
0.0
 12
34.28750000000002
 22
-5.556249999999903
 32
0.0
 13
34.28750000000002
 23
-5.556249999999903
 33
0.0
  0
MTEXT
  5
119
330
10E
100
AcDbEntity
  8
치수문자_일반주서
 62
     0
100
AcDbMText
 10
29.91249999999992
 20
25.72275000000009
 30
0.0
 40
3.5
 41
0.0
 71
     2
 72
     1
  1
\A1;%%c11.11 [7/16]
  7
SLDTEXTSTYLE0
 11
-3.197042680585377E-15
 21
1.0
 31
0.0
 73
     1
 44
1.0
  0
POINT
  5
11A
330
10E
100
AcDbEntity
  8
Defpoints
 62
     0
100
AcDbPoint
 10
24.28750000000002
 20
5.556250000000063
 30
0.0
  0
POINT
  5
11B
330
10E
100
AcDbEntity
  8
Defpoints
 62
     0
100
AcDbPoint
 10
24.28755727841114
 20
-5.55624999999994
 30
0.0
  0
POINT
  5
11C
330
10E
100
AcDbEntity
  8
Defpoints
 62
     0
100
AcDbPoint
 10
34.28750000000002
 20
-5.556249999999903
 30
0.0
  0
ENDBLK
  5
110
330
10E
100
AcDbEntity
  8
0
100
AcDbBlockEnd
  0
BLOCK
  5
129
330
128
100
AcDbEntity
  8
0
100
AcDbBlockBegin
  2
SW_DOWELSYMBOL_0
 70
     0
 10
0.0
 20
0.0
 30
0.0
  3
SW_DOWELSYMBOL_0
  1

  0
CIRCLE
  5
12B
330
128
100
AcDbEntity
  8
해칭선
 62
     0
100
AcDbCircle
 10
0.0
 20
0.0
 30
0.0
 40
3.000000000000002
  0
HATCH
  5
12C
330
128
100
AcDbEntity
  8
0
  6
Continuous
 62
     0
370
     0
100
AcDbHatch
 10
0.0
 20
0.0
 30
0.0
210
0.0
220
0.0
230
1.0
  2
SOLID
 70
     1
 71
     0
 91
        1
 92
        0
 93
        3
 72
     2
 10
0.0000000000000069
 20
0.0
 40
3.000000000000002
 50
0.0
 51
90.0
 73
     1
 72
     1
 10
0.0000000000000069
 20
3.000000000000002
 11
0.0000000000000069
 21
0.0
 72
     1
 10
0.0000000000000069
 20
0.0
 11
3.000000000000009
 21
0.0
 97
        0
 75
     0
 76
     1
 98
        1
 10
0.0
 20
0.0
  0
HATCH
  5
12D
330
128
100
AcDbEntity
  8
0
  6
Continuous
 62
     0
370
     0
100
AcDbHatch
 10
0.0
 20
0.0
 30
0.0
210
0.0
220
0.0
230
1.0
  2
SOLID
 70
     1
 71
     0
 91
        1
 92
        0
 93
        3
 72
     2
 10
0.0000000000000069
 20
0.0
 40
3.000000000000002
 50
180.0
 51
270.0000000000007
 73
     1
 72
     1
 10
0.0000000000000069
 20
-3.000000000000002
 11
0.0000000000000069
 21
0.0
 72
     1
 10
0.0000000000000069
 20
0.0
 11
-2.999999999999995
 21
0.0
 97
        0
 75
     0
 76
     1
 98
        1
 10
0.0
 20
0.0
  0
ENDBLK
  5
12A
330
128
100
AcDbEntity
  8
0
100
AcDbBlockEnd
  0
ENDSEC
  0
SECTION
  2
ENTITIES
  0
LINE
  5
96
330
1F
100
AcDbEntity
  8
외형선
  6
Continuous
370
    15
100
AcDbLine
 10
-23.55340000000002
 20
5.556250000000006
 30
0.0
 11
-38.71249999999999
 21
5.556249999999998
 31
0.0
1001
PE_URL
1000

  0
LINE
  5
97
330
1F
100
AcDbEntity
  8
외형선
  6
Continuous
370
    15
100
AcDbLine
 10
-38.71249999999999
 20
-5.556250000000003
 30
0.0
 11
7.969931658776269
 21
-5.556250000000003
 31
0.0
  0
LINE
  5
98
330
1F
100
AcDbEntity
  8
외형선
  6
Continuous
370
    15
100
AcDbLine
 10
-38.71249999999999
 20
5.556249999999994
 30
0.0
 11
-39.21249999999999
 21
5.056249999999994
 31
0.0
  0
LINE
  5
99
330
1F
100
AcDbEntity
  8
외형선
  6
Continuous
370
    15
100
AcDbLine
 10
-39.21249999999999
 20
-5.056249999999999
 30
0.0
 11
-38.71249999999999
 21
-5.556249999999999
 31
0.0
  0
LINE
  5
9A
330
1F
100
AcDbEntity
  8
외형선
  6
Continuous
 62
     1
370
    15
100
AcDbLine
 10
13.60689211301617
 20
-5.556250000000003
 30
0.0
 11
14.69107370113314
 21
-5.556250000000003
 31
0.0
  0
LINE
  5
9E
330
1F
100
AcDbEntity
  8
외형선
  6
Continuous
370
    15
100
AcDbLine
 10
10.00000000000001
 20
5.554706819936541
 30
0.0
 11
10.00000000000001
 21
4.346484607403934
 31
0.0
  0
SPLINE
  5
9F
330
1F
100
AcDbEntity
  8
외형선
  6
Continuous
370
    15
100
AcDbSpline
210
0.0
220
0.0
230
1.0
 70
     8
 71
     3
 72
    10
 73
     6
 74
     0
 42
0.000000001
 43
0.00000001
 40
0.0
 40
0.0
 40
0.0
 40
0.0
 40
0.5
 40
0.5
 40
1.0
 40
1.0
 40
1.0
 40
1.0
 10
10.00000000000001
 20
4.346484607403933
 30
0.0
 10
9.660698026618693
 20
4.46830134713294
 30
0.0
 10
9.323685025108958
 20
4.581773418639056
 30
0.0
 10
8.649132212587597
 20
4.791437527427301
 30
0.0
 10
8.3093652573896
 20
4.887829811835008
 30
0.0
 10
7.969931658776269
 20
4.974922887511973
 30
0.0
  0
SPLINE
  5
A0
330
1F
100
AcDbEntity
  8
외형선
  6
Continuous
370
    15
100
AcDbSpline
210
0.0
220
0.0
230
1.0
 70
     8
 71
     3
 72
    10
 73
     6
 74
     0
 42
0.000000001
 43
0.00000001
 40
0.0
 40
0.0
 40
0.0
 40
0.0
 40
0.5
 40
0.5
 40
1.0
 40
1.0
 40
1.0
 40
1.0
 10
10.00000000000001
 20
-2.890753830108069
 30
0.0
 10
9.660698026618693
 20
-2.723752780559749
 30
0.0
 10
9.323685025108958
 20
-2.55176160900277
 30
0.0
 10
8.649132212587597
 20
-2.198904568292974
 30
0.0
 10
8.3093652573896
 20
-2.017634531811523
 30
0.0
 10
7.969931658776269
 20
-1.833007180705231
 30
0.0
  0
LINE
  5
A1
330
1F
100
AcDbEntity
  8
외형선
  6
Continuous
370
    15
100
AcDbLine
 10
10.00000000000001
 20
-2.890753830108066
 30
0.0
 11
10.00000000000001
 21
-5.170739462178616
 31
0.0
  0
SPLINE
  5
A2
330
1F
100
AcDbEntity
  8
외형선
  6
Continuous
370
    15
100
AcDbSpline
210
0.0
220
0.0
230
1.0
 70
     8
 71
     3
 72
    10
 73
     6
 74
     0
 42
0.000000001
 43
0.00000001
 40
0.0
 40
0.0
 40
0.0
 40
0.0
 40
0.5
 40
0.5
 40
1.0
 40
1.0
 40
1.0
 40
1.0
 10
10.00000000000001
 20
-5.170739462178616
 30
0.0
 10
9.660698026618693
 20
-5.099168661214143
 30
0.0
 10
9.323685025108958
 20
-5.018159312604062
 30
0.0
 10
8.649132212587597
 20
-4.837868720822752
 30
0.0
 10
8.3093652573896
 20
-4.738356663799906
 30
0.0
 10
7.969931658776269
 20
-4.630249871099487
 30
0.0
  0
LINE
  5
A3
330
1F
100
AcDbEntity
  8
외형선
  6
Continuous
370
    15
100
AcDbLine
 10
7.969931658776269
 20
-4.630251168271899
 30
0.0
 11
7.969931658776269
 21
-5.556250000000003
 31
0.0
  0
LINE
  5
A4
330
1F
100
AcDbEntity
  8
외형선
  6
Continuous
370
    15
100
AcDbLine
 10
-38.71249999999999
 20
5.556249999999994
 30
0.0
 11
-38.71249999999999
 21
-5.556250000000003
 31
0.0
  0
LINE
  5
A5
330
1F
100
AcDbEntity
  8
외형선
  6
Continuous
370
    15
100
AcDbLine
 10
7.969931658776269
 20
4.974921842482178
 30
0.0
 11
7.969931658776269
 21
-1.833046125983929
 31
0.0
  0
LINE
  5
A6
330
1F
100
AcDbEntity
  8
외형선
  6
Continuous
370
    15
100
AcDbLine
 10
-39.21249999999999
 20
5.056249999999994
 30
0.0
 11
-39.21249999999999
 21
-5.056249999999999
 31
0.0
  0
SPLINE
  5
A7
330
1F
100
AcDbEntity
  8
외형선
  6
Continuous
370
    15
100
AcDbSpline
210
0.0
220
0.0
230
1.0
 70
    24
 71
     3
 72
    18
 73
    14
 74
     0
 42
0.000000001
 43
0.00000001
 40
0.0
 40
0.0
 40
0.0
 40
0.0
 40
0.25
 40
0.25
 40
0.5
 40
0.5
 40
0.625
 40
0.625
 40
0.75
 40
0.75
 40
0.875
 40
0.875
 40
1.0
 40
1.0
 40
1.0
 40
1.0
 10
10.00000000000001
 20
4.346484607403936
 30
0.0
 10
10.00000000000001
 20
3.965009721369196
 30
0.0
 10
10.00000000000001
 20
3.510871245770436
 30
0.0
 10
10.00000000000001
 20
2.437798562454238
 30
0.0
 10
10.00000000000001
 20
1.816574969737462
 30
0.0
 10
10.00000000000001
 20
0.797531759400451
 30
0.0
 10
10.00000000000001
 20
0.4441496338917011
 30
0.0
 10
10.00000000000001
 20
-0.2716924252014314
 30
0.0
 10
10.00000000000001
 20
-0.6340781384836045
 30
0.0
 10
10.00000000000001
 20
-1.341901440985498
 30
0.0
 10
10.00000000000001
 20
-1.687146549736346
 30
0.0
 10
10.00000000000001
 20
-2.330896821198598
 30
0.0
 10
10.00000000000001
 20
-2.629147568741007
 30
0.0
 10
10.00000000000001
 20
-2.89075383010716
 30
0.0
  0
SPLINE
  5
A8
330
1F
100
AcDbEntity
  8
외형선
  6
Continuous
 62
     1
370
    15
100
AcDbSpline
210
0.0
220
0.0
230
1.0
 70
     8
 71
     3
 72
    22
 73
    18
 74
     0
 42
0.000000001
 43
0.00000001
 40
0.0
 40
0.0
 40
0.0
 40
0.0
 40
0.2500000000000001
 40
0.2500000000000001
 40
0.5000000000000001
 40
0.5000000000000001
 40
0.7500000000000003
 40
0.7500000000000003
 40
0.8125000000000003
 40
0.8125000000000003
 40
0.8750000000000001
 40
0.8750000000000001
 40
0.9374999999999999
 40
0.9374999999999999
 40
0.96875
 40
0.96875
 40
1.0
 40
1.0
 40
1.0
 40
1.0
 10
24.2598245559774
 20
0.3955122353541127
 30
0.0
 10
24.27290763905257
 20
0.1512293918016083
 30
0.0
 10
24.27662824916039
 20
-0.0932295006220633
 30
0.0
 10
24.27864362671176
 20
-0.5823371662628811
 30
0.0
 10
24.27712794096681
 20
-0.8268764469475932
 30
0.0
 10
24.25989605323412
 20
-1.315880632490339
 30
0.0
 10
24.24678518407485
 20
-1.561195331621279
 30
0.0
 10
24.18676078245646
 20
-1.861920108532011
 30
0.0
 10
24.17231704434813
 20
-1.921531832849732
 30
0.0
 10
24.13503233322573
 20
-2.037910278366431
 30
0.0
 10
24.11218340945869
 20
-2.095530069715867
 30
0.0
 10
24.04952019106681
 20
-2.201385254618311
 30
0.0
 10
24.00849645122467
 20
-2.251307893010802
 30
0.0
 10
23.9264790200646
 20
-2.290613399841201
 30
0.0
 10
23.89614845072931
 20
-2.296856371858633
 30
0.0
 10
23.83544860480238
 20
-2.292955701675371
 30
0.0
 10
23.80641797097869
 20
-2.283360192164388
 30
0.0
 10
23.77949999999912
 20
-2.269179037348164
 30
0.0
  0
SPLINE
  5
A9
330
1F
100
AcDbEntity
  8
외형선
  6
Continuous
 62
     1
370
    15
100
AcDbSpline
210
0.0
220
0.0
230
1.0
 70
     8
 71
     3
 72
    29
 73
    25
 74
     0
 42
0.000000001
 43
0.00000001
 40
0.0
 40
0.0
 40
0.0
 40
0.0
 40
0.020861305017007
 40
0.0417363941414841
 40
0.0626252703985155
 40
0.0900971044331245
 40
0.125043896469095
 40
0.1875319618632967
 40
0.2501268046127409
 40
0.2938406296012546
 40
0.3454081557719454
 40
0.3970408214422172
 40
0.448433651974823
 40
0.4999911855822563
 40
0.5625108262921126
 40
0.6249238224259919
 40
0.6875409025512081
 40
0.7499685980781092
 40
0.8124430467715794
 40
0.8750441299805453
 40
0.9062312367844668
 40
0.9373818731791186
 40
0.9540547506600808
 40
1.0
 40
1.0
 40
1.0
 40
1.0
 10
23.77950000000001
 20
-2.269179037348632
 30
0.0
 10
23.68367291911602
 20
-2.21851425323409
 30
0.0
 10
23.49195543960351
 20
-2.117151208248464
 30
0.0
 10
23.20421663198202
 20
-1.962734525921627
 30
0.0
 10
22.88598469570283
 20
-1.79044307697785
 30
0.0
 10
22.50326599879736
 20
-1.580282571940876
 30
0.0
 10
21.93011532458221
 20
-1.259814725127224
 30
0.0
 10
21.19500597880002
 20
-0.8432917984881744
 30
0.0
 10
20.41902119718795
 20
-0.3989493983779531
 30
0.0
 10
19.69474779840844
 20
0.0211357802566962
 30
0.0
 10
19.01972007736698
 20
0.4103069862393672
 30
0.0
 10
18.30911731339162
 20
0.8170736890352789
 30
0.0
 10
17.59987064951136
 20
1.221612238119604
 30
0.0
 10
16.83962372015904
 20
1.645714573757323
 30
0.0
 10
16.02859790069047
 20
2.086839010583091
 30
0.0
 10
15.16792788310355
 20
2.540711274305995
 30
0.0
 10
14.30607960436638
 20
2.971585021503616
 30
0.0
 10
13.44521244730382
 20
3.380720689181056
 30
0.0
 10
12.58409579294338
 20
3.762223317877068
 30
0.0
 10
11.86583198825424
 20
4.054353203178355
 30
0.0
 10
11.29215394780115
 20
4.272186067821902
 30
0.0
 10
10.9297208414077
 20
4.402969805405411
 30
0.0
 10
10.49883094004004
 20
4.551083656936687
 30
0.0
 10
10.21111089880456
 20
4.641659993321068
 30
0.0
 10
9.999999999999343
 20
4.708119221195782
 30
0.0
  0
LINE
  5
AA
330
1F
100
AcDbEntity
  8
외형선
  6
Continuous
370
    15
100
AcDbLine
 10
10.00000000000001
 20
5.213182105771203
 30
0.0
 11
10.00000000000001
 21
4.708119221195578
 31
0.0
  0
SPLINE
  5
AB
330
1F
100
AcDbEntity
  8
외형선
  6
Continuous
 62
     1
370
    15
100
AcDbSpline
210
0.0
220
0.0
230
1.0
 70
     8
 71
     3
 72
    32
 73
    28
 74
     0
 42
0.000000001
 43
0.00000001
 40
0.0
 40
0.0
 40
0.0
 40
0.0
 40
0.0625000000000002
 40
0.0625000000000002
 40
0.1250000000000002
 40
0.1250000000000002
 40
0.2500000000000003
 40
0.2500000000000003
 40
0.3750000000000004
 40
0.3750000000000004
 40
0.4375000000000004
 40
0.4375000000000004
 40
0.5000000000000003
 40
0.5000000000000003
 40
0.5625000000000003
 40
0.5625000000000003
 40
0.6250000000000003
 40
0.6250000000000003
 40
0.6875000000000003
 40
0.6875000000000003
 40
0.7500000000000003
 40
0.7500000000000003
 40
0.8125000000000003
 40
0.8125000000000003
 40
0.8750000000000003
 40
0.8750000000000003
 40
1.0
 40
1.0
 40
1.0
 40
1.0
 10
9.999999999999343
 20
5.213182105771205
 30
0.0
 10
10.29784684634662
 20
5.211058188926274
 30
0.0
 10
10.59623058485955
 20
5.201453123396075
 30
0.0
 10
11.19023877598486
 20
5.167446212041084
 30
0.0
 10
11.4847507126838
 20
5.143104095420668
 30
0.0
 10
12.37589772477206
 20
5.047958609006072
 30
0.0
 10
12.97390381739412
 20
4.954971824351481
 30
0.0
 10
14.1561869226987
 20
4.714446646838952
 30
0.0
 10
14.75594104630826
 20
4.565822715239822
 30
0.0
 10
15.64555063136807
 20
4.305902372968548
 30
0.0
 10
15.94037489813365
 20
4.213173719308354
 30
0.0
 10
16.53520976430085
 20
4.015400849375246
 30
0.0
 10
16.83368202592171
 20
3.910500293881511
 30
0.0
 10
17.42889936201665
 20
3.690012193550643
 30
0.0
 10
17.7242288386619
 20
3.574620929432121
 30
0.0
 10
18.31659870292463
 20
3.333769928344697
 30
0.0
 10
18.61464389750263
 20
3.208154996319496
 30
0.0
 10
19.21063616193113
 20
2.948101960963846
 30
0.0
 10
19.50857775413295
 20
2.813666256453052
 30
0.0
 10
20.10053761798457
 20
2.537757340119224
 30
0.0
 10
20.39623797530845
 20
2.396034422958803
 30
0.0
 10
20.99162986520193
 20
2.105501232523629
 30
0.0
 10
21.29008619546661
 20
1.95688319972465
 30
0.0
 10
21.8846834617089
 20
1.654862414366329
 30
0.0
 10
22.17933418922827
 20
1.501725359374441
 30
0.0
 10
23.0694654259376
 20
1.035485921595465
 30
0.0
 10
23.66915482460682
 20
0.7158277831700468
 30
0.0
 10
24.25982455597093
 20
0.3955122353577456
 30
0.0
  0
SPLINE
  5
AC
330
1F
100
AcDbEntity
  8
외형선
  6
Continuous
 62
     1
370
    15
100
AcDbSpline
210
0.0
220
0.0
230
1.0
 70
     8
 71
     3
 72
    25
 73
    21
 74
     0
 42
0.000000001
 43
0.00000001
 40
0.0
 40
0.0
 40
0.0
 40
0.0
 40
0.1804366511231689
 40
0.2569683580806765
 40
0.3334026048558663
 40
0.3920822539661534
 40
0.4851979259952419
 40
0.5642120658455996
 40
0.6332149246615572
 40
0.6691793390098882
 40
0.7134409622571599
 40
0.7546568890125198
 40
0.7834632500417155
 40
0.8077358409841671
 40
0.8413204628336307
 40
0.8729623567263073
 40
0.8983165028731255
 40
0.9137958570327177
 40
0.9476905376782536
 40
1.0
 40
1.0
 40
1.0
 40
1.0
 10
18.40703004536224
 20
-5.142053655466302
 30
0.0
 10
17.90138729344978
 20
-5.242734526231676
 30
0.0
 10
17.18127756560051
 20
-5.386118910111927
 30
0.0
 10
16.24662552314564
 20
-5.487356335250093
 30
0.0
 10
15.65360887372379
 20
-5.531795738388366
 30
0.0
 10
15.0145273427668
 20
-5.557242767506747
 30
0.0
 10
14.36712960457294
 20
-5.558349962274606
 30
0.0
 10
13.69139513710984
 20
-5.530234783505744
 30
0.0
 10
13.17632998308146
 20
-5.489466537709916
 30
0.0
 10
12.758079003392
 20
-5.445593507493295
 30
0.0
 10
12.41760823999555
 20
-5.403193579124248
 30
0.0
 10
12.09723300899993
 20
-5.356589963129157
 30
0.0
 10
11.83291005516843
 20
-5.313649682535247
 30
0.0
 10
11.5900865043661
 20
-5.271026318373155
 30
0.0
 10
11.33939405009998
 20
-5.22348638845347
 30
0.0
 10
11.08568519926275
 20
-5.171429305817581
 30
0.0
 10
10.88286073809307
 20
-5.126949851391243
 30
0.0
 10
10.67334624709555
 20
-5.079310693669359
 30
0.0
 10
10.38831869311629
 20
-5.011565750383559
 30
0.0
 10
10.1466479917547
 20
-4.947907378293404
 30
0.0
 10
9.999999999999343
 20
-4.909278895929424
 30
0.0
  0
LINE
  5
AD
330
1F
100
AcDbEntity
  8
외형선
  6
Continuous
370
    15
100
AcDbLine
 10
10.00000000000001
 20
-2.666127470207487
 30
0.0
 11
10.00000000000001
 21
-4.909278895929606
 31
0.0
  0
SPLINE
  5
AE
330
1F
100
AcDbEntity
  8
외형선
  6
Continuous
 62
     1
370
    15
100
AcDbSpline
210
0.0
220
0.0
230
1.0
 70
     8
 71
     3
 72
    32
 73
    28
 74
     0
 42
0.000000001
 43
0.00000001
 40
0.0
 40
0.0
 40
0.0
 40
0.0
 40
0.0624999999999999
 40
0.0624999999999999
 40
0.1249999999999999
 40
0.1249999999999999
 40
0.2499999999999998
 40
0.2499999999999998
 40
0.3749999999999996
 40
0.3749999999999996
 40
0.4374999999999997
 40
0.4374999999999997
 40
0.4999999999999997
 40
0.4999999999999997
 40
0.5624999999999998
 40
0.5624999999999998
 40
0.6249999999999998
 40
0.6249999999999998
 40
0.6874999999999998
 40
0.6874999999999998
 40
0.7499999999999998
 40
0.7499999999999998
 40
0.8124999999999999
 40
0.8124999999999999
 40
0.8749999999999999
 40
0.8749999999999999
 40
1.0
 40
1.0
 40
1.0
 40
1.0
 10
9.999999999999348
 20
-2.666127470207177
 30
0.0
 10
10.29784684634662
 20
-2.804547770563429
 30
0.0
 10
10.59623058485955
 20
-2.939225256875841
 30
0.0
 10
11.19023877598486
 20
-3.199387013561714
 30
0.0
 10
11.4847507126838
 20
-3.324731619181091
 30
0.0
 10
12.37589772477206
 20
-3.687068501439867
 30
0.0
 10
12.97390381739411
 20
-3.909311349427872
 30
0.0
 10
14.1561869226987
 20
-4.305152487540125
 30
0.0
 10
14.75594104630826
 20
-4.480421075824678
 30
0.0
 10
15.64555063136806
 20
-4.702519877118926
 30
0.0
 10
15.94037489813365
 20
-4.76981999361071
 30
0.0
 10
16.53520976430085
 20
-4.890988882635302
 30
0.0
 10
16.83368202592171
 20
-4.944720708000483
 30
0.0
 10
17.42889936201666
 20
-5.03777936704742
 30
0.0
 10
17.7242288386619
 20
-5.077059015944058
 30
0.0
 10
18.31659870292463
 20
-5.141128071786692
 30
0.0
 10
18.61464389750263
 20
-5.165926268182581
 30
0.0
 10
19.21063616193113
 20
-5.200642136168486
 30
0.0
 10
19.50857775413294
 20
-5.2105595033265
 30
0.0
 10
20.10053761798457
 20
-5.215486511061972
 30
0.0
 10
20.39623797530845
 20
-5.210524124980298
 30
0.0
 10
20.99162986520193
 20
-5.185678859986381
 30
0.0
 10
21.29008619546661
 20
-5.165789955324665
 30
0.0
 10
21.8846834617089
 20
-5.111354985117926
 30
0.0
 10
22.17933418922827
 20
-5.076890907420903
 30
0.0
 10
23.06946542593759
 20
-4.951698164155176
 30
0.0
 10
23.66915482460682
 20
-4.838938911006357
 30
0.0
 10
24.25982455597093
 20
-4.699885934743128
 30
0.0
  0
SPLINE
  5
AF
330
1F
100
AcDbEntity
  8
외형선
  6
Continuous
 62
     1
370
    15
100
AcDbSpline
210
0.0
220
0.0
230
1.0
 70
     8
 71
     3
 72
    28
 73
    24
 74
     0
 42
0.000000001
 43
0.00000001
 40
0.0
 40
0.0
 40
0.0
 40
0.0
 40
0.125
 40
0.125
 40
0.25
 40
0.25
 40
0.3125
 40
0.3125
 40
0.375
 40
0.375
 40
0.5
 40
0.5
 40
0.5625
 40
0.5625
 40
0.625
 40
0.625
 40
0.75
 40
0.75
 40
0.8750000000000001
 40
0.8750000000000001
 40
0.9375000000000001
 40
0.9375000000000001
 40
1.0
 40
1.0
 40
1.0
 40
1.0
 10
23.77950000000001
 20
-2.825088716471685
 30
0.0
 10
23.20514738645311
 20
-2.53964556318165
 30
0.0
 10
22.62757604825571
 20
-2.23850311389684
 30
0.0
 10
21.48528397248702
 20
-1.617881970975321
 30
0.0
 10
20.90606644217161
 20
-1.295784512332063
 30
0.0
 10
20.04582817136499
 20
-0.8064218852611443
 30
0.0
 10
19.76118970256044
 20
-0.6424108955573055
 30
0.0
 10
19.18691054040456
 20
-0.3121597877406523
 30
0.0
 10
18.89859766664622
 20
-0.1461714535904928
 30
0.0
 10
18.0353282551884
 20
0.3513956169280846
 30
0.0
 10
17.46572040014186
 20
0.6818671770887417
 30
0.0
 10
16.60209385762264
 20
1.171246268901993
 30
0.0
 10
16.31389689093176
 20
1.333082142214841
 30
0.0
 10
15.74031482999431
 20
1.65224394672274
 30
0.0
 10
15.45570046761756
 20
1.809436998717161
 30
0.0
 10
14.59439449103536
 20
2.274517195983888
 30
0.0
 10
14.01626110362912
 20
2.574702539276939
 30
0.0
 10
12.87448558300278
 20
3.142079659217697
 30
0.0
 10
12.29530979857512
 20
3.411806827158431
 30
0.0
 10
11.4348044656319
 20
3.785690731209924
 30
0.0
 10
11.15020856127044
 20
3.905126512055701
 30
0.0
 10
10.57608148027119
 20
4.133957822851419
 30
0.0
 10
10.28779005034285
 20
4.243161761061951
 30
0.0
 10
9.999999999999341
 20
4.346484607404174
 30
0.0
  0
SPLINE
  5
B0
330
1F
100
AcDbEntity
  8
외형선
  6
Continuous
 62
     1
370
    15
100
AcDbSpline
210
0.0
220
0.0
230
1.0
 70
     8
 71
     3
 72
    12
 73
     8
 74
     0
 42
0.000000001
 43
0.00000001
 40
0.0
 40
0.0
 40
0.0
 40
0.0
 40
0.2500000000000004
 40
0.2500000000000004
 40
0.5000000000000008
 40
0.5000000000000008
 40
1.0
 40
1.0
 40
1.0
 40
1.0
 10
23.77950000000001
 20
-2.825088716471684
 30
0.0
 10
23.84424503712577
 20
-2.85726586187184
 30
0.0
 10
23.90621147940757
 20
-2.88307916070198
 30
0.0
 10
24.02515952099628
 20
-2.921865974995783
 30
0.0
 10
24.08062417756199
 20
-2.934121284187767
 30
0.0
 10
24.2241114272697
 20
-2.946294909869884
 30
0.0
 10
24.28750000000001
 20
-2.920018272812873
 30
0.0
 10
24.28750000000001
 20
-2.866067248401879
 30
0.0
  0
SPLINE
  5
B1
330
1F
100
AcDbEntity
  8
외형선
  6
Continuous
 62
     1
370
    15
100
AcDbSpline
210
0.0
220
0.0
230
1.0
 70
     8
 71
     3
 72
    11
 73
     7
 74
     0
 42
0.000000001
 43
0.00000001
 40
0.0
 40
0.0
 40
0.0
 40
0.0
 40
0.1118831514666337
 40
0.5021010726281919
 40
0.9034031459168825
 40
1.0
 40
1.0
 40
1.0
 40
1.0
 10
23.0455895347434
 20
-2.445128858151317
 30
0.0
 10
22.99004544755232
 20
-2.452842567899679
 30
0.0
 10
22.74077873141844
 20
-2.487459593679026
 30
0.0
 10
22.25262833926548
 20
-2.619598916788201
 30
0.0
 10
21.76649336740375
 20
-2.784477303209337
 30
0.0
 10
21.49247047638821
 20
-2.893249365168037
 30
0.0
 10
21.43930757973651
 20
-2.914352120003856
 30
0.0
  0
SPLINE
  5
B2
330
1F
100
AcDbEntity
  8
외형선
  6
Continuous
 62
     1
370
    15
100
AcDbSpline
210
0.0
220
0.0
230
1.0
 70
     8
 71
     3
 72
    10
 73
     6
 74
     0
 42
0.000000001
 43
0.00000001
 40
0.0
 40
0.0
 40
0.0
 40
0.0
 40
0.5
 40
0.5
 40
1.0
 40
1.0
 40
1.0
 40
1.0
 10
24.28750000000001
 20
-3.248229169718013
 30
0.0
 10
23.802573747302
 20
-3.243829101898618
 30
0.0
 10
23.32249595251739
 20
-3.215135296091874
 30
0.0
 10
22.37265544061623
 20
-3.106062839799358
 30
0.0
 10
21.90283318226562
 20
-3.025982527293557
 30
0.0
 10
21.4393075797365
 20
-2.914352120003847
 30
0.0
  0
LINE
  5
B3
330
1F
100
AcDbEntity
  8
외형선
  6
Continuous
 62
     1
370
    15
100
AcDbLine
 10
24.28750000000001
 20
-4.559975793702302
 30
0.0
 11
24.28750000000001
 21
-3.248229169718016
 31
0.0
  0
SPLINE
  5
B4
330
1F
100
AcDbEntity
  8
외형선
  6
Continuous
 62
     1
370
    15
100
AcDbSpline
210
0.0
220
0.0
230
1.0
 70
     8
 71
     3
 72
     8
 73
     4
 74
     0
 42
0.000000001
 43
0.00000001
 40
0.0
 40
0.0
 40
0.0
 40
0.0
 40
1.0
 40
1.0
 40
1.0
 40
1.0
 10
24.28750000000001
 20
-4.559975793702302
 30
0.0
 10
24.28750000000001
 20
-4.6044693271148
 30
0.0
 10
24.27829083575938
 20
-4.651854682992594
 30
0.0
 10
24.25982455597735
 20
-4.699885934741647
 30
0.0
  0
SPLINE
  5
B5
330
1F
100
AcDbEntity
  8
외형선
  6
Continuous
370
    15
100
AcDbSpline
210
0.0
220
0.0
230
1.0
 70
    24
 71
     3
 72
    18
 73
    14
 74
     0
 42
0.000000001
 43
0.00000001
 40
0.0
 40
0.0
 40
0.0
 40
0.0
 40
0.2500000000000001
 40
0.2500000000000001
 40
0.5000000000000001
 40
0.5000000000000001
 40
0.625
 40
0.625
 40
0.75
 40
0.75
 40
0.875
 40
0.875
 40
1.0
 40
1.0
 40
1.0
 40
1.0
 10
10.00000000000001
 20
4.346484607414518
 30
0.0
 10
10.00000000000001
 20
3.978167959925582
 30
0.0
 10
10.00000000000001
 20
3.542232346477021
 30
0.0
 10
10.00000000000001
 20
2.51690326871325
 30
0.0
 10
10.00000000000001
 20
1.92559528281128
 30
0.0
 10
10.00000000000001
 20
0.952750359111588
 30
0.0
 10
10.00000000000001
 20
0.6148483033256759
 30
0.0
 10
10.00000000000001
 20
-0.0728787550593399
 30
0.0
 10
10.00000000000001
 20
-0.4226582679351278
 30
0.0
 10
10.00000000000001
 20
-1.111863138695175
 30
0.0
 10
10.00000000000001
 20
-1.451146025658008
 30
0.0
 10
10.00000000000001
 20
-2.09283298423356
 30
0.0
 10
10.00000000000001
 20
-2.395027652415578
 30
0.0
 10
10.00000000000001
 20
-2.66612747020741
 30
0.0
  0
LINE
  5
B6
330
1F
100
AcDbEntity
  8
외형선
  6
Continuous
370
    15
100
AcDbLine
 10
10.00000000000001
 20
4.346484607404897
 30
0.0
 11
10.00000000000001
 21
4.708119221195782
 31
0.0
  0
LINE
  5
B7
330
1F
100
AcDbEntity
  8
외형선
  6
Continuous
 62
     1
370
    15
100
AcDbLine
 10
24.28750000000001
 20
-2.866067248401879
 30
0.0
 11
24.28750000000001
 21
0.4041982984388558
 31
0.0
  0
SPLINE
  5
B8
330
1F
100
AcDbEntity
  8
외형선
  6
Continuous
 62
     1
370
    15
100
AcDbSpline
210
0.0
220
0.0
230
1.0
 70
     8
 71
     3
 72
     8
 73
     4
 74
     0
 42
0.000000001
 43
0.00000001
 40
0.0
 40
0.0
 40
0.0
 40
0.0
 40
1.0
 40
1.0
 40
1.0
 40
1.0
 10
24.28750000000001
 20
0.4041982984388578
 30
0.0
 10
24.28750000000001
 20
0.3953342090336625
 30
0.0
 10
24.27829083575936
 20
0.3921695816153898
 30
0.0
 10
24.25982455597734
 20
0.3955122353543443
 30
0.0
  0
SPLINE
  5
B9
330
1F
100
AcDbEntity
  8
외형선
  6
Continuous
 62
     1
370
    15
100
AcDbSpline
210
0.0
220
0.0
230
1.0
 70
     8
 71
     3
 72
    12
 73
     8
 74
     0
 42
0.000000001
 43
0.00000001
 40
0.0
 40
0.0
 40
0.0
 40
0.0
 40
0.1765998489638274
 40
0.3824799456311357
 40
0.588098639405247
 40
0.7939467625268498
 40
1.0
 40
1.0
 40
1.0
 40
1.0
 10
16.41605450122497
 20
4.038581139436466
 30
0.0
 10
16.84958825757736
 20
4.205762783213089
 30
0.0
 10
17.7885356492758
 20
4.567844780436678
 30
0.0
 10
19.23208700015441
 20
4.991148207715796
 30
0.0
 10
20.74675054293567
 20
5.320336639758844
 30
0.0
 10
22.26244117209901
 20
5.524566737661498
 30
0.0
 10
23.27364587430278
 20
5.54550800583806
 30
0.0
 10
23.77950000000001
 20
5.556250000000065
 30
0.0
  0
LINE
  5
BB
330
1F
100
AcDbEntity
  8
외형선
  6
Continuous
 62
     1
370
    15
100
AcDbLine
 10
24.28750000000001
 20
3.597693903290368
 30
0.0
 11
24.28750000000001
 21
5.048250000000066
 31
0.0
  0
SPLINE
  5
BC
330
1F
100
AcDbEntity
  8
외형선
  6
Continuous
 62
     1
370
    15
100
AcDbSpline
210
0.0
220
0.0
230
1.0
 70
     8
 71
     3
 72
    18
 73
    14
 74
     0
 42
0.000000001
 43
0.00000001
 40
0.0
 40
0.0
 40
0.0
 40
0.0
 40
0.2500000000000007
 40
0.2500000000000007
 40
0.3750000000000006
 40
0.3750000000000006
 40
0.5000000000000004
 40
0.5000000000000004
 40
0.6250000000000003
 40
0.6250000000000003
 40
0.7500000000000002
 40
0.7500000000000002
 40
1.0
 40
1.0
 40
1.0
 40
1.0
 10
24.28750000000001
 20
3.597693903290368
 30
0.0
 10
24.1402324371566
 20
3.337278426642523
 30
0.0
 10
23.96032150549091
 20
3.109277477805107
 30
0.0
 10
23.64279416119997
 20
2.814602882049369
 30
0.0
 10
23.52955640632605
 20
2.725083953645534
 30
0.0
 10
23.29526748466678
 20
2.566317777666447
 30
0.0
 10
23.17341000516418
 20
2.496294564031303
 30
0.0
 10
22.92112393928773
 20
2.373270026331286
 30
0.0
 10
22.79022576967963
 20
2.320227366863744
 30
0.0
 10
22.52700459843476
 20
2.232000267149147
 30
0.0
 10
22.39392019890984
 20
2.196381304624851
 30
0.0
 10
21.99076026458436
 20
2.112041580150658
 30
0.0
 10
21.71469950232087
 20
2.085607124978999
 30
0.0
 10
21.43930757973651
 20
2.084752686123605
 30
0.0
  0
SPLINE
  5
BD
330
1F
100
AcDbEntity
  8
외형선
  6
Continuous
 62
     1
370
    15
100
AcDbSpline
210
0.0
220
0.0
230
1.0
 70
     8
 71
     3
 72
    10
 73
     6
 74
     0
 42
0.000000001
 43
0.00000001
 40
0.0
 40
0.0
 40
0.0
 40
0.0
 40
0.5
 40
0.5
 40
1.0
 40
1.0
 40
1.0
 40
1.0
 10
24.28750000000001
 20
1.071802915337733
 30
0.0
 10
23.802573747302
 20
1.266514144449214
 30
0.0
 10
23.32249595251739
 20
1.448953725414601
 30
0.0
 10
22.37265544061624
 20
1.787724997784827
 30
0.0
 10
21.90283318226563
 20
1.944207390523521
 30
0.0
 10
21.43930757973651
 20
2.08475268612361
 30
0.0
  0
LINE
  5
BE
330
1F
100
AcDbEntity
  8
외형선
  6
Continuous
 62
     1
370
    15
100
AcDbLine
 10
24.28750000000001
 20
0.4041982984388558
 30
0.0
 11
24.28750000000001
 21
1.071802915337734
 31
0.0
  0
SPLINE
  5
BF
330
1F
100
AcDbEntity
  8
외형선
  6
Continuous
 62
     1
370
    15
100
AcDbSpline
210
0.0
220
0.0
230
1.0
 70
     8
 71
     3
 72
    10
 73
     6
 74
     0
 42
0.000000001
 43
0.00000001
 40
0.0
 40
0.0
 40
0.0
 40
0.0
 40
0.4277935183419687
 40
0.8561632121907748
 40
1.0
 40
1.0
 40
1.0
 40
1.0
 10
9.999999999999343
 20
-5.170739462178476
 30
0.0
 10
10.51422543507406
 20
-5.264766105206541
 30
0.0
 10
11.5433688919224
 20
-5.452946031443925
 30
0.0
 10
12.74621559469585
 20
-5.561644751590981
 30
0.0
 10
13.43400179895718
 20
-5.544607564618004
 30
0.0
 10
13.60689211301618
 20
-5.540324889873746
 30
0.0
  0
LINE
  5
C0
330
1F
100
AcDbEntity
  8
외형선
  6
Continuous
370
    15
100
AcDbLine
 10
10.00000000000001
 20
-5.170739462178047
 30
0.0
 11
10.00000000000001
 21
-4.909278895929424
 31
0.0
  0
LINE
  5
C1
330
1F
100
AcDbEntity
  8
외형선
  6
Continuous
 62
     1
370
    15
100
AcDbLine
 10
24.28750000000001
 20
1.071802915337733
 30
0.0
 11
24.28750000000001
 21
3.597693903290368
 31
0.0
  0
LINE
  5
C2
330
1F
100
AcDbEntity
  8
외형선
  6
Continuous
 62
     1
370
    15
100
AcDbLine
 10
24.28750000000001
 20
-2.866067248401879
 30
0.0
 11
24.28750000000001
 21
-3.248229169718014
 31
0.0
  0
LINE
  5
C4
330
1F
100
AcDbEntity
  8
중심선
 62
     1
100
AcDbLine
 10
-42.21250000000001
 20
-0.0000000000000052
 30
0.0
 11
27.2875
 21
0.0000000000000033
 31
0.0
  0
LINE
  5
C5
330
1F
100
AcDbEntity
  8
참조1
100
AcDbLine
 10
-7.462500000000004
 20
0.2211007829333224
 30
0.0
 11
-7.462499999999999
 21
-39.77889921706668
 31
0.0
  0
LINE
  5
C6
330
1F
100
AcDbEntity
  8
참조1
100
AcDbLine
 10
-7.462499999999999
 20
-39.77889921706668
 30
0.0
 11
-11.49933783948571
 21
-39.77889921706667
 31
0.0
  0
CIRCLE
  5
C7
330
1F
100
AcDbEntity
  8
해칭선
100
AcDbCircle
 10
0.0
 20
0.0
 30
0.0
 40
3.000000000000001
  0
INSERT
  5
C8
330
1F
100
AcDbEntity
  8
0
  6
Continuous
 62
     7
100
AcDbBlockReference
 66
     1
  2
블럭10
 10
-21.40277293212521
 20
-51.82607351871061
 30
0.0
  0
ATTRIB
  5
C9
330
C8
100
AcDbEntity
  8
FORMAT
 62
     2
100
AcDbText
 10
-30.58406822086649
 20
-49.75070660587842
 30
0.0
 40
4.233333333333333
  1
E5105028 [ 3 FLUTE ]
 41
0.75
  7
SLDTEXTSTYLE0
 11
-30.58406822086649
 21
-51.86737327254509
 31
0.0
100
AcDbAttribute
  2
AUTOATTR0
 70
     0
 74
     1
  0
SEQEND
  5
CA
330
C8
100
AcDbEntity
  8
0
  6
Continuous
 62
     7
  0
HATCH
  5
CB
330
1F
100
AcDbEntity
  8
중심선
100
AcDbHatch
 10
0.0
 20
0.0
 30
0.0
210
0.0
220
0.0
230
1.0
  2
SOLID
 70
     1
 71
     0
 91
        1
 92
        0
 93
        4
 72
     1
 10
-15.68786362774436
 20
-35.57889921706667
 11
-19.13413887158164
 21
-35.57889921706667
 72
     1
 10
-19.13413887158164
 20
-35.57889921706667
 11
-21.26236873078569
 21
-38.11522479763927
 72
     1
 10
-21.26236873078569
 20
-38.11522479763927
 11
-17.81606040183523
 21
-38.11518536833678
 72
     1
 10
-17.81606040183523
 20
-38.11518536833678
 11
-15.68786362774436
 21
-35.57889921706667
 97
        0
 75
     0
 76
     1
 98
        1
 10
-0.0000000000000071
 20
0.2200258542094332
  0
HATCH
  5
CC
330
1F
100
AcDbEntity
  8
중심선
100
AcDbHatch
 10
0.0
 20
0.0
 30
0.0
210
0.0
220
0.0
230
1.0
  2
SOLID
 70
     1
 71
     0
 91
        1
 92
        0
 93
        4
 72
     1
 10
-10.67509963670838
 20
-35.57889921706667
 11
-14.12137488054566
 21
-35.57889921706667
 72
     1
 10
-14.12137488054566
 20
-35.57889921706667
 11
-18.65251288890308
 21
-40.97889921706669
 72
     1
 10
-18.65251288890308
 20
-40.97889921706669
 11
-15.2062376450658
 21
-40.97889921706669
 72
     1
 10
-15.2062376450658
 20
-40.97889921706669
 11
-10.67509963670838
 21
-35.57889921706667
 97
        0
 75
     0
 76
     1
 98
        1
 10
-0.0000000000000071
 20
0.2200258542094332
  0
HATCH
  5
CD
330
1F
100
AcDbEntity
  8
중심선
100
AcDbHatch
 10
0.0
 20
0.0
 30
0.0
210
0.0
220
0.0
230
1.0
  2
SOLID
 70
     1
 71
     0
 91
        1
 92
        0
 93
        4
 72
     1
 10
-5.662335645672513
 20
-35.57889921706667
 11
-9.1086108895096
 21
-35.57889921706667
 72
     1
 10
-9.1086108895096
 20
-35.57889921706667
 11
-16.15704779139888
 21
-43.97889921706669
 72
     1
 10
-16.15704779139888
 20
-43.97889921706669
 11
-12.7107725475616
 21
-43.97889921706669
 72
     1
 10
-12.7107725475616
 20
-43.97889921706669
 11
-5.662335645672513
 21
-35.57889921706667
 97
        0
 75
     0
 76
     1
 98
        1
 10
-0.0000000000000071
 20
0.2200258542094332
  0
HATCH
  5
CE
330
1F
100
AcDbEntity
  8
중심선
100
AcDbHatch
 10
0.0
 20
0.0
 30
0.0
210
0.0
220
0.0
230
1.0
  2
SOLID
 70
     1
 71
     0
 91
        1
 92
        0
 93
        6
 72
     3
 10
-0.8624452146603139
 20
-39.77889921711795
 11
3.960054785062283
 21
1.540882976769353E-10
 40
0.3939339440162628
 50
17.09539180608436
 51
320.0019657685081
 73
     0
 72
     1
 10
0.8205544410402816
 20
-38.36679322170497
 11
3.125856314741319
 21
-36.43246651165705
 72
     3
 10
-0.8624452147131605
 20
-39.77889921706682
 11
6.600054785286829
 21
-1.278976924368180E-13
 40
0.636358354079598
 50
39.99873849337411
 51
368.4976242363724
 73
     1
 72
     1
 10
5.562887277187449
 20
-38.8188992169967
 11
-2.182377907877238
 21
-38.8188992169967
 72
     1
 10
-2.182377907877238
 20
-38.8188992169967
 11
-2.182402952323172
 21
-40.73889921699659
 72
     1
 10
-2.182402952323172
 20
-40.73889921699659
 11
2.258976817148866
 21
-40.73889921699656
 97
        0
 75
     0
 76
     1
 98
        1
 10
-0.0000000000000071
 20
0.2200258542094332
  0
DIMENSION
  5
CF
330
1F
100
AcDbEntity
  8
치수문자_일반주서
100
AcDbDimension
  2
_D
 10
24.28750000000002
 20
41.62979151699526
 30
0.0
 11
-7.462499999999991
 21
41.62979151699526
 31
0.0
 70
   160
  1
<>
 71
     2
 42
63.50000000000001
  3
SLDDIMSTYLE0
100
AcDbAlignedDimension
 13
-39.21249999999999
 23
5.556250000000008
 33
0.0
 14
24.28750000000002
 24
5.555983853983701
 34
0.0
100
AcDbRotatedDimension
1001
ACAD
1000
DSTYLE
1002
{
1070
   171
1070
     4
1070
   273
1070
     7
1002
}
  0
DIMENSION
  5
E3
330
1F
100
AcDbEntity
  8
치수문자_일반주서
100
AcDbDimension
  2
_D_1
 10
-48.43778727533604
 20
-5.556250000000052
 30
0.0
 11
-48.43778727533613
 21
25.72274999999998
 31
0.0
 70
   160
  1
%%c<>
 71
     2
 42
11.11250000000003
 52
-270.0
  3
SLDDIMSTYLE1
100
AcDbAlignedDimension
 13
-39.21249999999999
 23
5.55625000000001
 33
0.0
 14
-39.21242525220737
 24
-5.556250000000017
 34
0.0
 50
90.0000000000002
100
AcDbRotatedDimension
1001
ACAD
1000
DSTYLE
1002
{
1070
   171
1070
     4
1070
   273
1070
     7
1002
}
  0
DIMENSION
  5
F8
330
1F
100
AcDbEntity
  8
치수문자_일반주서
100
AcDbDimension
  2
_D_2
 10
10.00000000000001
 20
23.82736495826316
 30
0.0
 11
-10.16649999999999
 21
23.82736495826316
 31
0.0
 70
   160
  1
<>
 71
     2
 42
14.2875
  3
SLDDIMSTYLE1
100
AcDbAlignedDimension
 13
24.28750000000001
 23
5.556250000000063
 33
0.0
 14
10.00000000000001
 24
5.556249999999998
 34
0.0
 50
0.0000000000000285
100
AcDbRotatedDimension
1001
ACAD
1000
DSTYLE
1002
{
1070
   171
1070
     4
1070
   273
1070
     7
1002
}
  0
DIMENSION
  5
10D
330
1F
100
AcDbEntity
  8
치수문자_일반주서
100
AcDbDimension
  2
_D_3
 10
34.28750000000002
 20
-5.556249999999903
 30
0.0
 11
34.28749999999992
 21
25.7227500000001
 31
0.0
 70
   160
  1
%%c<>
 71
     2
 42
11.1125
 52
-270.0
  3
SLDDIMSTYLE1
100
AcDbAlignedDimension
 13
24.28750000000002
 23
5.556250000000063
 33
0.0
 14
24.28755727841114
 24
-5.55624999999994
 34
0.0
 50
90.0000000000002
100
AcDbRotatedDimension
1001
ACAD
1000
DSTYLE
1002
{
1070
   171
1070
     4
1070
   273
1070
     7
1002
}
  0
LINE
  5
121
330
1F
100
AcDbEntity
  8
참조1
100
AcDbLine
 10
86.47300279016855
 20
7.661100782933329
 30
0.0
 11
86.47300279016855
 21
-7.218899217066675
 31
0.0
  0
LINE
  5
122
330
1F
100
AcDbEntity
  8
참조1
100
AcDbLine
 10
99.17300279016857
 20
5.661100782933329
 30
0.0
 11
86.47300279016855
 21
5.661100782933329
 31
0.0
  0
SOLID
  5
123
330
1F
100
AcDbEntity
  8
참조1
100
AcDbTrace
 10
86.47300279016855
 20
5.661100782933329
 30
0.0
 11
92.82300279016854
 21
4.645100782933329
 31
0.0
 12
92.82300279016854
 22
6.677100782933329
 32
0.0
 13
92.82300279016854
 23
6.677100782933329
 33
0.0
  0
LINE
  5
124
330
1F
100
AcDbEntity
  8
참조1
100
AcDbLine
 10
99.17300279016857
 20
-5.218899217066675
 30
0.0
 11
86.47300279016855
 21
-5.218899217066675
 31
0.0
  0
SOLID
  5
125
330
1F
100
AcDbEntity
  8
참조1
100
AcDbTrace
 10
86.47300279016855
 20
-5.218899217066675
 30
0.0
 11
92.82300279016854
 21
-6.234899217066675
 31
0.0
 12
92.82300279016854
 22
-4.202899217066675
 32
0.0
 13
92.82300279016854
 23
-4.202899217066675
 33
0.0
  0
MTEXT
  5
126
330
1F
100
AcDbEntity
  8
참조1
100
AcDbMText
 10
95.87049288263884
 20
11.20931742758326
 30
0.0
 40
3.5
 41
0.0
 71
     1
 72
     1
  1
A
  7
SLDTEXTSTYLE0
 73
     1
 44
1.0
  0
MTEXT
  5
127
330
1F
100
AcDbEntity
  8
참조1
100
AcDbMText
 10
95.87049288263884
 20
0.3293174275832592
 30
0.0
 40
3.5
 41
0.0
 71
     1
 72
     1
  1
A
  7
SLDTEXTSTYLE0
 73
     1
 44
1.0
  0
INSERT
  5
12E
330
1F
100
AcDbEntity
  8
해칭선
100
AcDbBlockReference
  2
SW_DOWELSYMBOL_0
 10
0.0
 20
0.0
 30
0.0
  0
MTEXT
  5
18A
102
{ACAD_REACTORS
330
18B
102
}
330
1F
100
AcDbEntity
  8
0
100
AcDbMText
 10
34.34892239356826
 20
-23.01441904392905
 30
0.0
 40
3.5
 41
0.0
 71
     7
 72
     1
  1
{R0.51[.020"]}
 73
     1
 44
1.0
1001
ACAD
1000
ACAD_MTEXT_DEFINED_HEIGHT_BEGIN
1070
    46
1040
3.5
1000
ACAD_MTEXT_DEFINED_HEIGHT_END
  0
LEADER
  5
18B
102
{ACAD_XDICTIONARY
360
18C
102
}
330
1F
100
AcDbEntity
  8
0
100
AcDbLeader
  3
ISO-25
 73
     0
 74
     0
 75
     1
 40
3.5
 41
29.75
 76
     3
 10
23.76789976915704
 20
-4.809181960511534
 30
0.0
 10
29.52292239356826
 20
-21.26441904392905
 30
0.0
 10
32.82492239356826
 20
-21.26441904392905
 30
0.0
340
18A
213
0.0
223
1.75
233
0.0
1001
ACAD
1000
DSTYLE
1002
{
1070
    77
1070
     0
1070
   179
1070
     2
1070
   143
1040
0.0393700787401575
1070
    41
1040
3.302
1070
    44
1040
1.0
1070
    42
1040
1.0
1070
   147
1040
1.524
1070
    73
1070
     1
1070
    74
1070
     1
1070
   140
1040
3.5
1070
   284
1070
     0
1070
    78
1070
     0
1002
}
  0
ARC
  5
197
330
1F
100
AcDbEntity
  8
외형선
  6
Continuous
 62
     1
370
    15
100
AcDbCircle
 10
23.77950000000001
 20
5.048250000000065
 30
0.0
 40
0.5079999999999998
100
AcDbArc
 50
0.0000000000001377
 51
90.00000000000001
1001
PE_URL
1000

  0
LINE
  5
1F1
330
1F
100
AcDbEntity
  8
외형선
  6
Continuous
370
    15
100
AcDbLine
 10
-21.9405
 20
3.943349999999981
 30
0.0
 11
-14.04109999999999
 21
3.943349999999981
 31
0.0
1001
PE_URL
1000

  0
LINE
  5
1F2
330
1F
100
AcDbEntity
  8
외형선
  6
Continuous
370
    15
100
AcDbLine
 10
-21.9405
 20
3.943349999999981
 30
0.0
 11
-23.55340000000002
 21
5.556250000000006
 31
0.0
1001
PE_URL
1000

  0
LINE
  5
1F4
330
1F
100
AcDbEntity
  8
외형선
  6
Continuous
370
    15
100
AcDbLine
 10
-14.04109999999999
 20
3.943349999999981
 30
0.0
 11
-12.42820000000002
 21
5.556250000000006
 31
0.0
1001
PE_URL
1000

  0
LINE
  5
1F5
330
1F
100
AcDbEntity
  8
외형선
  6
Continuous
370
    15
100
AcDbLine
 10
-12.42820000000002
 20
5.556250000000006
 30
0.0
 11
10.00000000000001
 21
5.554706819936541
 31
0.0
1001
PE_URL
1000

  0
ENDSEC
  0
SECTION
  2
OBJECTS
  0
DICTIONARY
  5
C
330
0
100
AcDbDictionary
281
     1
  3
ACAD_DETAILVIEWSTYLE
350
193
  3
ACAD_GROUP
350
D
  3
ACAD_LAYOUT
350
1A
  3
ACAD_MLINESTYLE
350
17
  3
ACAD_PLOTSETTINGS
350
19
  3
ACAD_PLOTSTYLENAME
350
E
  3
ACAD_SCALELIST
350
47
  3
ACAD_SECTIONVIEWSTYLE
350
194
  3
AcDbVariableDictionary
350
18E
  3
APPDATA
350
150
  3
DWGPROPS
350
251
  0
DICTIONARY
  5
1E6
330
2
100
AcDbDictionary
280
     1
281
     1
  3
ACAD_LAYERSTATES
360
1E7
  0
DICTIONARY
  5
18C
330
18B
100
AcDbDictionary
280
     1
281
     1
  3
*A1
360
18D
  0
DICTIONARY
  5
193
102
{ACAD_REACTORS
330
C
102
}
330
C
100
AcDbDictionary
281
     1
  0
DICTIONARY
  5
D
102
{ACAD_REACTORS
330
C
102
}
330
C
100
AcDbDictionary
281
     1
  0
DICTIONARY
  5
1A
102
{ACAD_REACTORS
330
C
102
}
330
C
100
AcDbDictionary
281
     1
  3
Layout1
350
1E
  3
Layout2
350
26
  3
Model
350
22
  0
DICTIONARY
  5
17
102
{ACAD_REACTORS
330
C
102
}
330
C
100
AcDbDictionary
281
     1
  3
Standard
350
18
  0
DICTIONARY
  5
19
102
{ACAD_REACTORS
330
C
102
}
330
C
100
AcDbDictionary
281
     1
  0
ACDBDICTIONARYWDFLT
  5
E
102
{ACAD_REACTORS
330
C
102
}
330
C
100
AcDbDictionary
281
     1
  3
Normal
350
F
100
AcDbDictionaryWithDefault
340
F
  0
DICTIONARY
  5
47
102
{ACAD_REACTORS
330
C
102
}
330
C
100
AcDbDictionary
281
     1
  3
A0
350
48
  3
A1
350
49
  3
A2
350
4A
  3
A3
350
4B
  3
A4
350
4C
  3
A5
350
4D
  3
A6
350
4E
  3
A7
350
4F
  3
A8
350
50
  3
A9
350
51
  3
B0
350
52
  3
B1
350
53
  3
B2
350
54
  3
B3
350
55
  3
B4
350
56
  3
B5
350
57
  3
B6
350
58
  3
B7
350
59
  3
B8
350
5A
  3
B9
350
5B
  3
C0
350
5C
  3
C1
350
5D
  3
C2
350
5E
  3
C3
350
5F
  3
C4
350
60
  3
C5
350
61
  3
C6
350
62
  3
C7
350
63
  3
C8
350
64
  3
C9
350
65
  3
D0
350
66
  3
D1
350
67
  3
D2
350
68
  0
DICTIONARY
  5
194
102
{ACAD_REACTORS
330
C
102
}
330
C
100
AcDbDictionary
281
     1
  0
DICTIONARY
  5
18E
102
{ACAD_REACTORS
330
C
102
}
330
C
100
AcDbDictionary
281
     1
  0
DICTIONARY
  5
150
102
{ACAD_REACTORS
330
C
102
}
330
C
100
AcDbDictionary
281
     1
  0
XRECORD
  5
251
102
{ACAD_REACTORS
330
C
102
}
330
C
100
AcDbXrecord
280
     1
  1
DWGPROPS COOKIE
  2

  3

  4

  6

  7

  8
12017103
  9

300
=
301
=
302
=
303
=
304
=
305
=
306
=
307
=
308
=
309
=
 40
0.0
 41
2458290.304073299
 42
2458299.392131655
  1

 90
        0
  0
DICTIONARY
  5
1E7
102
{ACAD_REACTORS
330
1E6
102
}
330
1E6
100
AcDbDictionary
281
     1
  0
SPLINE
  5
18D
102
{ACAD_REACTORS
330
18C
102
}
330
18C
100
AcDbEntity
  8
외형선
  6
Continuous
 62
     1
370
    15
100
AcDbSpline
210
0.0
220
0.0
230
1.0
 70
     8
 71
     3
 72
    29
 73
    25
 74
     0
 42
0.000000001
 43
0.00000001
 40
0.0
 40
0.0
 40
0.0
 40
0.0
 40
0.0422644495549575
 40
0.0894133481135558
 40
0.1360887908804358
 40
0.183088732683559
 40
0.2297638819666308
 40
0.2767625414519669
 40
0.323437633749297
 40
0.3704354120323877
 40
0.4171106810586105
 40
0.464107897037571
 40
0.5107833946634068
 40
0.5577805359514474
 40
0.6044561394422602
 40
0.651453806121575
 40
0.6980998941979074
 40
0.7450685450090514
 40
0.7915976398774139
 40
0.8384484734548767
 40
0.8795785645527328
 40
0.920930788652952
 40
0.9603675209920361
 40
1.0
 40
1.0
 40
1.0
 40
1.0
 10
12.38189177007194
 20
1.248479460924195
 30
0.0
 10
12.52654344348548
 20
1.258273475674198
 30
0.0
 10
12.8325640013379
 20
1.278993387077104
 30
0.0
 10
13.29773257188337
 20
1.254108412177238
 30
0.0
 10
13.78025596066385
 20
1.187861475668798
 30
0.0
 10
14.25966703328228
 20
1.076843206459327
 30
0.0
 10
14.7418375996466
 20
0.9278143507748849
 30
0.0
 10
15.22126826210304
 20
0.7422259995311946
 30
0.0
 10
15.70321466955698
 20
0.5287568400491983
 30
0.0
 10
16.18301476867187
 20
0.291415106865743
 30
0.0
 10
16.66438564818222
 20
0.0386509998105593
 30
0.0
 10
17.14481199956303
 20
-0.2211140264741509
 30
0.0
 10
17.62559449395425
 20
-0.4827611477767423
 30
0.0
 10
18.10652182376923
 20
-0.7336501666871716
 30
0.0
 10
18.58700798445997
 20
-0.9720014204249832
 30
0.0
 10
19.06797035806053
 20
-1.184275237010919
 30
0.0
 10
19.54830862416817
 20
-1.369853183592872
 30
0.0
 10
20.02843114246354
 20
-1.518172522965445
 30
0.0
 10
20.50823986679071
 20
-1.62831800107122
 30
0.0
 10
20.96857053986777
 20
-1.692379933129987
 30
0.0
 10
21.41107311362818
 20
-1.715381820442324
 30
0.0
 10
21.82821005632637
 20
-1.70162911792889
 30
0.0
 10
22.2401103516564
 20
-1.656726206160658
 30
0.0
 10
22.51072264209905
 20
-1.601263250205901
 30
0.0
 10
22.64636375622617
 20
-1.573463119154277
 30
0.0
  0
LAYOUT
  5
1E
102
{ACAD_REACTORS
330
1A
102
}
330
1A
100
AcDbPlotSettings
  1

  2
none_device
  4

  6

 40
0.0
 41
0.0
 42
0.0
 43
0.0
 44
0.0
 45
0.0
 46
0.0
 47
0.0
 48
0.0
 49
0.0
140
0.0
141
0.0
142
1.0
143
1.0
 70
   688
 72
     1
 73
     0
 74
     5
  7

 75
    16
147
1.0
148
0.0
149
0.0
100
AcDbLayout
  1
Layout1
 70
     1
 71
     1
 10
0.0
 20
0.0
 11
420.0
 21
297.0
 12
0.0
 22
0.0
 32
0.0
 14
1.000000000000000E+20
 24
1.000000000000000E+20
 34
1.000000000000000E+20
 15
-1.000000000000000E+20
 25
-1.000000000000000E+20
 35
-1.000000000000000E+20
146
0.0
 13
0.0
 23
0.0
 33
0.0
 16
1.0
 26
0.0
 36
0.0
 17
0.0
 27
1.0
 37
0.0
 76
     0
330
1B
  0
LAYOUT
  5
26
102
{ACAD_REACTORS
330
1A
102
}
330
1A
100
AcDbPlotSettings
  1

  2
none_device
  4

  6

 40
0.0
 41
0.0
 42
0.0
 43
0.0
 44
0.0
 45
0.0
 46
0.0
 47
0.0
 48
0.0
 49
0.0
140
0.0
141
0.0
142
1.0
143
1.0
 70
   688
 72
     1
 73
     0
 74
     5
  7

 75
    16
147
1.0
148
0.0
149
0.0
100
AcDbLayout
  1
Layout2
 70
     1
 71
     2
 10
0.0
 20
0.0
 11
0.0
 21
0.0
 12
0.0
 22
0.0
 32
0.0
 14
0.0
 24
0.0
 34
0.0
 15
0.0
 25
0.0
 35
0.0
146
0.0
 13
0.0
 23
0.0
 33
0.0
 16
1.0
 26
0.0
 36
0.0
 17
0.0
 27
1.0
 37
0.0
 76
     0
330
23
  0
LAYOUT
  5
22
102
{ACAD_REACTORS
330
1A
102
}
330
1A
100
AcDbPlotSettings
  1

  2
none_device
  4
ANSI_A_(11.00_x_8.50_Inches)
  6

 40
6.35
 41
19.05
 42
6.35000508
 43
19.05000254
 44
279.4
 45
215.9
 46
111.4000093919769
 47
79.24881049549094
 48
0.0
 49
0.0
140
0.0
141
0.0
142
0.0636178453921841
143
1.0
 70
  1696
 72
     0
 73
     0
 74
     0
  7

 75
     0
147
0.0235690232323232
148
0.0
149
0.0
100
AcDbLayout
  1
Model
 70
     1
 71
     0
 10
0.0
 20
0.0
 11
420.0
 21
297.0
 12
0.0
 22
0.0
 32
0.0
 14
-52.81278727533618
 24
-49.75070660587842
 34
0.0
 15
99.17300279016857
 25
46.00479151699527
 35
0.0
146
0.0
 13
0.0
 23
0.0
 33
0.0
 16
1.0
 26
0.0
 36
0.0
 17
0.0
 27
1.0
 37
0.0
 76
     0
330
1F
331
29
  0
MLINESTYLE
  5
18
102
{ACAD_REACTORS
330
17
102
}
330
17
100
AcDbMlineStyle
  2
Standard
 70
     0
  3

 62
   256
 51
90.0
 52
90.0
 71
     2
 49
0.5
 62
   256
  6
BYLAYER
 49
-0.5
 62
   256
  6
BYLAYER
  0
ACDBPLACEHOLDER
  5
F
102
{ACAD_REACTORS
330
E
102
}
330
E
  0
SCALE
  5
48
102
{ACAD_REACTORS
330
47
102
}
330
47
100
AcDbScale
 70
     0
300
1:1
140
1.0
141
1.0
290
     1
  0
SCALE
  5
49
102
{ACAD_REACTORS
330
47
102
}
330
47
100
AcDbScale
 70
     0
300
1:2
140
1.0
141
2.0
290
     0
  0
SCALE
  5
4A
102
{ACAD_REACTORS
330
47
102
}
330
47
100
AcDbScale
 70
     0
300
1:4
140
1.0
141
4.0
290
     0
  0
SCALE
  5
4B
102
{ACAD_REACTORS
330
47
102
}
330
47
100
AcDbScale
 70
     0
300
1:5
140
1.0
141
5.0
290
     0
  0
SCALE
  5
4C
102
{ACAD_REACTORS
330
47
102
}
330
47
100
AcDbScale
 70
     0
300
1:8
140
1.0
141
8.0
290
     0
  0
SCALE
  5
4D
102
{ACAD_REACTORS
330
47
102
}
330
47
100
AcDbScale
 70
     0
300
1:10
140
1.0
141
10.0
290
     0
  0
SCALE
  5
4E
102
{ACAD_REACTORS
330
47
102
}
330
47
100
AcDbScale
 70
     0
300
1:16
140
1.0
141
16.0
290
     0
  0
SCALE
  5
4F
102
{ACAD_REACTORS
330
47
102
}
330
47
100
AcDbScale
 70
     0
300
1:20
140
1.0
141
20.0
290
     0
  0
SCALE
  5
50
102
{ACAD_REACTORS
330
47
102
}
330
47
100
AcDbScale
 70
     0
300
1:30
140
1.0
141
30.0
290
     0
  0
SCALE
  5
51
102
{ACAD_REACTORS
330
47
102
}
330
47
100
AcDbScale
 70
     0
300
1:40
140
1.0
141
40.0
290
     0
  0
SCALE
  5
52
102
{ACAD_REACTORS
330
47
102
}
330
47
100
AcDbScale
 70
     0
300
1:50
140
1.0
141
50.0
290
     0
  0
SCALE
  5
53
102
{ACAD_REACTORS
330
47
102
}
330
47
100
AcDbScale
 70
     0
300
1:100
140
1.0
141
100.0
290
     0
  0
SCALE
  5
54
102
{ACAD_REACTORS
330
47
102
}
330
47
100
AcDbScale
 70
     0
300
2:1
140
2.0
141
1.0
290
     0
  0
SCALE
  5
55
102
{ACAD_REACTORS
330
47
102
}
330
47
100
AcDbScale
 70
     0
300
4:1
140
4.0
141
1.0
290
     0
  0
SCALE
  5
56
102
{ACAD_REACTORS
330
47
102
}
330
47
100
AcDbScale
 70
     0
300
8:1
140
8.0
141
1.0
290
     0
  0
SCALE
  5
57
102
{ACAD_REACTORS
330
47
102
}
330
47
100
AcDbScale
 70
     0
300
10:1
140
10.0
141
1.0
290
     0
  0
SCALE
  5
58
102
{ACAD_REACTORS
330
47
102
}
330
47
100
AcDbScale
 70
     0
300
100:1
140
100.0
141
1.0
290
     0
  0
SCALE
  5
59
102
{ACAD_REACTORS
330
47
102
}
330
47
100
AcDbScale
 70
     0
300
1/128" = 1'-0"
140
0.0078125
141
12.0
290
     0
  0
SCALE
  5
5A
102
{ACAD_REACTORS
330
47
102
}
330
47
100
AcDbScale
 70
     0
300
1/64" = 1'-0"
140
0.015625
141
12.0
290
     0
  0
SCALE
  5
5B
102
{ACAD_REACTORS
330
47
102
}
330
47
100
AcDbScale
 70
     0
300
1/32" = 1'-0"
140
0.03125
141
12.0
290
     0
  0
SCALE
  5
5C
102
{ACAD_REACTORS
330
47
102
}
330
47
100
AcDbScale
 70
     0
300
1/16" = 1'-0"
140
0.0625
141
12.0
290
     0
  0
SCALE
  5
5D
102
{ACAD_REACTORS
330
47
102
}
330
47
100
AcDbScale
 70
     0
300
3/32" = 1'-0"
140
0.09375
141
12.0
290
     0
  0
SCALE
  5
5E
102
{ACAD_REACTORS
330
47
102
}
330
47
100
AcDbScale
 70
     0
300
1/8" = 1'-0"
140
0.125
141
12.0
290
     0
  0
SCALE
  5
5F
102
{ACAD_REACTORS
330
47
102
}
330
47
100
AcDbScale
 70
     0
300
3/16" = 1'-0"
140
0.1875
141
12.0
290
     0
  0
SCALE
  5
60
102
{ACAD_REACTORS
330
47
102
}
330
47
100
AcDbScale
 70
     0
300
1/4" = 1'-0"
140
0.25
141
12.0
290
     0
  0
SCALE
  5
61
102
{ACAD_REACTORS
330
47
102
}
330
47
100
AcDbScale
 70
     0
300
3/8" = 1'-0"
140
0.375
141
12.0
290
     0
  0
SCALE
  5
62
102
{ACAD_REACTORS
330
47
102
}
330
47
100
AcDbScale
 70
     0
300
1/2" = 1'-0"
140
0.5
141
12.0
290
     0
  0
SCALE
  5
63
102
{ACAD_REACTORS
330
47
102
}
330
47
100
AcDbScale
 70
     0
300
3/4" = 1'-0"
140
0.75
141
12.0
290
     0
  0
SCALE
  5
64
102
{ACAD_REACTORS
330
47
102
}
330
47
100
AcDbScale
 70
     0
300
1" = 1'-0"
140
1.0
141
12.0
290
     0
  0
SCALE
  5
65
102
{ACAD_REACTORS
330
47
102
}
330
47
100
AcDbScale
 70
     0
300
1-1/2" = 1'-0"
140
1.5
141
12.0
290
     0
  0
SCALE
  5
66
102
{ACAD_REACTORS
330
47
102
}
330
47
100
AcDbScale
 70
     0
300
3" = 1'-0"
140
3.0
141
12.0
290
     0
  0
SCALE
  5
67
102
{ACAD_REACTORS
330
47
102
}
330
47
100
AcDbScale
 70
     0
300
6" = 1'-0"
140
6.0
141
12.0
290
     0
  0
SCALE
  5
68
102
{ACAD_REACTORS
330
47
102
}
330
47
100
AcDbScale
 70
     0
300
1'-0" = 1'-0"
140
12.0
141
12.0
290
     0
  0
ENDSEC
  0
EOF
