  0
SECTION
  2
HEADER
  9
$ACADVER
  1
AC1015
  9
$ACADMAINTVER
 70
     6
  9
$DWGCODEPAGE
  3
ANSI_949
  9
$INSBASE
 10
0.0
 20
0.0
 30
0.0
  9
$EXTMIN
 10
-41.42962860164855
 20
-49.75070660587842
 30
0.0
  9
$EXTMAX
 10
99.17300279016854
 20
46.0136309707852
 30
0.0
  9
$LIMMIN
 10
0.0
 20
0.0
  9
$LIMMAX
 10
420.0
 20
297.0
  9
$ORTHOMODE
 70
     1
  9
$REGENMODE
 70
     1
  9
$FILLMODE
 70
     1
  9
$QTEXTMODE
 70
     0
  9
$MIRRTEXT
 70
     1
  9
$LTSCALE
 40
1.0
  9
$ATTMODE
 70
     1
  9
$TEXTSIZE
 40
3.5
  9
$TRACEWID
 40
1.0
  9
$TEXTSTYLE
  7
Standard
  9
$CLAYER
  8
0
  9
$CELTYPE
  6
ByLayer
  9
$CECOLOR
 62
   256
  9
$CELTSCALE
 40
1.0
  9
$DISPSILH
 70
     0
  9
$DIMSCALE
 40
1.0
  9
$DIMASZ
 40
3.302
  9
$DIMEXO
 40
1.0
  9
$DIMDLI
 40
3.75
  9
$DIMRND
 40
0.0
  9
$DIMDLE
 40
0.0
  9
$DIMEXE
 40
1.0
  9
$DIMTP
 40
0.0
  9
$DIMTM
 40
0.0
  9
$DIMTXT
 40
3.5
  9
$DIMCEN
 40
2.5
  9
$DIMTSZ
 40
0.0
  9
$DIMTOL
 70
     0
  9
$DIMLIM
 70
     0
  9
$DIMTIH
 70
     1
  9
$DIMTOH
 70
     1
  9
$DIMSE1
 70
     0
  9
$DIMSE2
 70
     0
  9
$DIMTAD
 70
     1
  9
$DIMZIN
 70
     0
  9
$DIMBLK
  1

  9
$DIMASO
 70
     1
  9
$DIMSHO
 70
     1
  9
$DIMPOST
  1

  9
$DIMAPOST
  1

  9
$DIMALT
 70
     0
  9
$DIMALTD
 70
     3
  9
$DIMALTF
 40
0.0393700787401575
  9
$DIMLFAC
 40
1.0
  9
$DIMTOFL
 70
     1
  9
$DIMTVP
 40
0.0
  9
$DIMTIX
 70
     0
  9
$DIMSOXD
 70
     0
  9
$DIMSAH
 70
     0
  9
$DIMBLK1
  1

  9
$DIMBLK2
  1

  9
$DIMSTYLE
  2
ISO-25
  9
$DIMCLRD
 70
     0
  9
$DIMCLRE
 70
     0
  9
$DIMCLRT
 70
     0
  9
$DIMTFAC
 40
1.0
  9
$DIMGAP
 40
1.524
  9
$DIMJUST
 70
     0
  9
$DIMSD1
 70
     0
  9
$DIMSD2
 70
     0
  9
$DIMTOLJ
 70
     0
  9
$DIMTZIN
 70
     0
  9
$DIMALTZ
 70
     0
  9
$DIMALTTZ
 70
     0
  9
$DIMUPT
 70
     0
  9
$DIMDEC
 70
     2
  9
$DIMTDEC
 70
     2
  9
$DIMALTU
 70
     2
  9
$DIMALTTD
 70
     3
  9
$DIMTXSTY
  7
Standard
  9
$DIMAUNIT
 70
     0
  9
$DIMADEC
 70
     2
  9
$DIMALTRND
 40
0.0
  9
$DIMAZIN
 70
     0
  9
$DIMDSEP
 70
    44
  9
$DIMATFIT
 70
     3
  9
$DIMFRAC
 70
     0
  9
$DIMLDRBLK
  1

  9
$DIMLUNIT
 70
     2
  9
$DIMLWD
 70
    -2
  9
$DIMLWE
 70
    -2
  9
$DIMTMOVE
 70
     0
  9
$LUNITS
 70
     2
  9
$LUPREC
 70
     2
  9
$SKETCHINC
 40
1.0
  9
$FILLETRAD
 40
0.508
  9
$AUNITS
 70
     0
  9
$AUPREC
 70
     2
  9
$MENU
  1
.
  9
$ELEVATION
 40
0.0
  9
$PELEVATION
 40
0.0
  9
$THICKNESS
 40
0.0
  9
$LIMCHECK
 70
     0
  9
$CHAMFERA
 40
0.0
  9
$CHAMFERB
 40
0.0
  9
$CHAMFERC
 40
0.0
  9
$CHAMFERD
 40
0.0
  9
$SKPOLY
 70
     0
  9
$TDCREATE
 40
2458290.678884271
  9
$TDUCREATE
 40
2458290.303884271
  9
$TDUPDATE
 40
2458299.767107627
  9
$TDUUPDATE
 40
2458299.392107627
  9
$TDINDWG
 40
0.0044179861
  9
$TDUSRTIMER
 40
0.0000346528
  9
$USRTIMER
 70
     1
  9
$ANGBASE
 50
0.0
  9
$ANGDIR
 70
     0
  9
$PDMODE
 70
     0
  9
$PDSIZE
 40
-1.0
  9
$PLINEWID
 40
0.0
  9
$SPLFRAME
 70
     0
  9
$SPLINETYPE
 70
     6
  9
$SPLINESEGS
 70
     8
  9
$HANDSEED
  5
25C
  9
$SURFTAB1
 70
     6
  9
$SURFTAB2
 70
     6
  9
$SURFTYPE
 70
     6
  9
$SURFU
 70
     6
  9
$SURFV
 70
     6
  9
$UCSBASE
  2

  9
$UCSNAME
  2

  9
$UCSORG
 10
0.0
 20
0.0
 30
0.0
  9
$UCSXDIR
 10
1.0
 20
0.0
 30
0.0
  9
$UCSYDIR
 10
0.0
 20
1.0
 30
0.0
  9
$UCSORTHOREF
  2

  9
$UCSORTHOVIEW
 70
     0
  9
$UCSORGTOP
 10
0.0
 20
0.0
 30
0.0
  9
$UCSORGBOTTOM
 10
0.0
 20
0.0
 30
0.0
  9
$UCSORGLEFT
 10
0.0
 20
0.0
 30
0.0
  9
$UCSORGRIGHT
 10
0.0
 20
0.0
 30
0.0
  9
$UCSORGFRONT
 10
0.0
 20
0.0
 30
0.0
  9
$UCSORGBACK
 10
0.0
 20
0.0
 30
0.0
  9
$PUCSBASE
  2

  9
$PUCSNAME
  2

  9
$PUCSORG
 10
0.0
 20
0.0
 30
0.0
  9
$PUCSXDIR
 10
1.0
 20
0.0
 30
0.0
  9
$PUCSYDIR
 10
0.0
 20
1.0
 30
0.0
  9
$PUCSORTHOREF
  2

  9
$PUCSORTHOVIEW
 70
     0
  9
$PUCSORGTOP
 10
0.0
 20
0.0
 30
0.0
  9
$PUCSORGBOTTOM
 10
0.0
 20
0.0
 30
0.0
  9
$PUCSORGLEFT
 10
0.0
 20
0.0
 30
0.0
  9
$PUCSORGRIGHT
 10
0.0
 20
0.0
 30
0.0
  9
$PUCSORGFRONT
 10
0.0
 20
0.0
 30
0.0
  9
$PUCSORGBACK
 10
0.0
 20
0.0
 30
0.0
  9
$USERI1
 70
     0
  9
$USERI2
 70
     0
  9
$USERI3
 70
     0
  9
$USERI4
 70
     0
  9
$USERI5
 70
     0
  9
$USERR1
 40
0.0
  9
$USERR2
 40
0.0
  9
$USERR3
 40
0.0
  9
$USERR4
 40
0.0
  9
$USERR5
 40
0.0
  9
$WORLDVIEW
 70
     1
  9
$SHADEDGE
 70
     3
  9
$SHADEDIF
 70
    70
  9
$TILEMODE
 70
     1
  9
$MAXACTVP
 70
    64
  9
$PINSBASE
 10
0.0
 20
0.0
 30
0.0
  9
$PLIMCHECK
 70
     0
  9
$PEXTMIN
 10
1.000000000000000E+20
 20
1.000000000000000E+20
 30
1.000000000000000E+20
  9
$PEXTMAX
 10
-1.000000000000000E+20
 20
-1.000000000000000E+20
 30
-1.000000000000000E+20
  9
$PLIMMIN
 10
0.0
 20
0.0
  9
$PLIMMAX
 10
0.0
 20
0.0
  9
$UNITMODE
 70
     0
  9
$VISRETAIN
 70
     1
  9
$PLINEGEN
 70
     0
  9
$PSLTSCALE
 70
     1
  9
$TREEDEPTH
 70
  3020
  9
$CMLSTYLE
  2
Standard
  9
$CMLJUST
 70
     0
  9
$CMLSCALE
 40
20.0
  9
$PROXYGRAPHICS
 70
     1
  9
$MEASUREMENT
 70
     1
  9
$CELWEIGHT
370
    -1
  9
$ENDCAPS
280
     0
  9
$JOINSTYLE
280
     0
  9
$LWDISPLAY
290
     1
  9
$INSUNITS
 70
     4
  9
$HYPERLINKBASE
  1

  9
$STYLESHEET
  1

  9
$XEDIT
290
     1
  9
$CEPSNTYPE
380
     0
  9
$PSTYLEMODE
290
     1
  9
$FINGERPRINTGUID
  2
{C94973A4-C1D0-44A5-8D0C-67E2634091B8}
  9
$VERSIONGUID
  2
{FAEB1C32-E019-11D5-929B-00C0DF256EC4}
  9
$EXTNAMES
290
     1
  9
$PSVPSCALE
 40
0.0
  9
$OLESTARTUP
290
     0
  0
ENDSEC
  0
SECTION
  2
CLASSES
  0
CLASS
  1
ACDBDICTIONARYWDFLT
  2
AcDbDictionaryWithDefault
  3
ObjectDBX Classes
 90
        0
280
     0
281
     0
  0
CLASS
  1
VISUALSTYLE
  2
AcDbVisualStyle
  3
ObjectDBX Classes
 90
     4095
280
     0
281
     0
  0
CLASS
  1
MATERIAL
  2
AcDbMaterial
  3
ObjectDBX Classes
 90
     1153
280
     0
281
     0
  0
CLASS
  1
SCALE
  2
AcDbScale
  3
ObjectDBX Classes
 90
     1153
280
     0
281
     0
  0
CLASS
  1
SUN
  2
AcDbSun
  3
SCENEOE
 90
     1153
280
     0
281
     0
  0
CLASS
  1
ACDBPLACEHOLDER
  2
AcDbPlaceHolder
  3
ObjectDBX Classes
 90
        0
280
     0
281
     0
  0
CLASS
  1
LAYOUT
  2
AcDbLayout
  3
ObjectDBX Classes
 90
        0
280
     0
281
     0
  0
CLASS
  1
TABLESTYLE
  2
AcDbTableStyle
  3
ObjectDBX Classes
 90
     4095
280
     0
281
     0
  0
CLASS
  1
MLEADERSTYLE
  2
AcDbMLeaderStyle
  3
ACDB_MLEADERSTYLE_CLASS
 90
     4095
280
     0
281
     0
  0
ENDSEC
  0
SECTION
  2
TABLES
  0
TABLE
  2
VPORT
  5
8
330
0
100
AcDbSymbolTable
 70
     1
  0
VPORT
  5
29
330
8
100
AcDbSymbolTableRecord
100
AcDbViewportTableRecord
  2
*Active
 70
     0
 10
0.0
 20
0.0
 11
1.0
 21
1.0
 12
28.87168709426
 22
-1.86853781754661
 13
0.0
 23
0.0
 14
10.0
 24
10.0
 15
10.0
 25
10.0
 16
0.0
 26
0.0
 36
1.0
 17
0.0
 27
0.0
 37
0.0
 40
97.6796243281969
 41
2.148876404494382
 42
50.0
 43
0.0
 44
0.0
 50
0.0
 51
0.0
 71
    16
 72
  2000
 73
     1
 74
     3
 75
     0
 76
     0
 77
     0
 78
     0
281
     0
 65
     1
110
0.0
120
0.0
130
0.0
111
1.0
121
0.0
131
0.0
112
0.0
122
1.0
132
0.0
 79
     0
146
0.0
  0
ENDTAB
  0
TABLE
  2
LTYPE
  5
5
330
0
100
AcDbSymbolTable
 70
     6
  0
LTYPE
  5
14
330
5
100
AcDbSymbolTableRecord
100
AcDbLinetypeTableRecord
  2
ByBlock
 70
     0
  3

 72
    65
 73
     0
 40
0.0
  0
LTYPE
  5
15
330
5
100
AcDbSymbolTableRecord
100
AcDbLinetypeTableRecord
  2
ByLayer
 70
     0
  3

 72
    65
 73
     0
 40
0.0
  0
LTYPE
  5
16
330
5
100
AcDbSymbolTableRecord
100
AcDbLinetypeTableRecord
  2
Continuous
 70
     0
  3
Solid line
 72
    65
 73
     0
 40
0.0
  0
LTYPE
  5
6A
330
5
100
AcDbSymbolTableRecord
100
AcDbLinetypeTableRecord
  2
HIDDEN
 70
     0
  3
Hidden __ __ __ __ __ __ __ __ __ __ __ __ __ __
 72
    65
 73
     2
 40
1.905
 49
1.27
 74
     0
 49
-0.635
 74
     0
  0
LTYPE
  5
6B
330
5
100
AcDbSymbolTableRecord
100
AcDbLinetypeTableRecord
  2
PHANTOM
 70
     0
  3
Phantom ______  __  __  ______  __  __  ______
 72
    65
 73
     6
 40
12.7
 49
6.35
 74
     0
 49
-1.27
 74
     0
 49
1.27
 74
     0
 49
-1.27
 74
     0
 49
1.27
 74
     0
 49
-1.27
 74
     0
  0
LTYPE
  5
6C
330
5
100
AcDbSymbolTableRecord
100
AcDbLinetypeTableRecord
  2
CENTER
 70
     0
  3
Center ____ _ ____ _ ____ _ ____ _ ____ _ ____
 72
    65
 73
     4
 40
10.16
 49
6.35
 74
     0
 49
-1.27
 74
     0
 49
1.27
 74
     0
 49
-1.27
 74
     0
  0
LTYPE
  5
6D
330
5
100
AcDbSymbolTableRecord
100
AcDbLinetypeTableRecord
  2
CENTERX2
 70
     0
  3
Center (2x) ________  __  ________  __  _____
 72
    65
 73
     4
 40
20.32
 49
12.7
 74
     0
 49
-2.54
 74
     0
 49
2.54
 74
     0
 49
-2.54
 74
     0
  0
LTYPE
  5
6E
330
5
100
AcDbSymbolTableRecord
100
AcDbLinetypeTableRecord
  2
DOT2
 70
     0
  3
Dot (.5x) ........................................
 72
    65
 73
     2
 40
0.635
 49
0.0
 74
     0
 49
-0.635
 74
     0
  0
ENDTAB
  0
TABLE
  2
LAYER
  5
2
102
{ACAD_XDICTIONARY
360
1D2
102
}
330
0
100
AcDbSymbolTable
 70
    18
  0
LAYER
  5
10
330
2
100
AcDbSymbolTableRecord
100
AcDbLayerTableRecord
  2
0
 70
     0
 62
     7
  6
Continuous
370
    -3
390
F
  0
LAYER
  5
6F
330
2
100
AcDbSymbolTableRecord
100
AcDbLayerTableRecord
  2
FORMAT
 70
     0
 62
     2
  6
Continuous
370
    -3
390
F
  0
LAYER
  5
70
330
2
100
AcDbSymbolTableRecord
100
AcDbLayerTableRecord
  2
외형선
 70
     0
 62
     4
  6
Continuous
370
    30
390
F
  0
LAYER
  5
71
330
2
100
AcDbSymbolTableRecord
100
AcDbLayerTableRecord
  2
숨은선
 70
     0
 62
     2
  6
HIDDEN
370
    15
390
F
  0
LAYER
  5
72
330
2
100
AcDbSymbolTableRecord
100
AcDbLayerTableRecord
  2
중심선
 70
     0
 62
     1
  6
CENTERX2
370
    -3
390
F
  0
LAYER
  5
73
330
2
100
AcDbSymbolTableRecord
100
AcDbLayerTableRecord
  2
파단선
 70
     0
 62
     4
  6
Continuous
370
    -3
390
F
  0
LAYER
  5
74
330
2
100
AcDbSymbolTableRecord
100
AcDbLayerTableRecord
  2
해칭선
 70
     0
 62
   100
  6
Continuous
370
    -3
390
F
  0
LAYER
  5
75
330
2
100
AcDbSymbolTableRecord
100
AcDbLayerTableRecord
  2
가는실선
 70
     0
 62
     4
  6
Continuous
370
    -3
390
F
  0
LAYER
  5
76
330
2
100
AcDbSymbolTableRecord
100
AcDbLayerTableRecord
  2
치수_보조선
 70
     0
 62
     4
  6
Continuous
370
    -3
390
F
  0
LAYER
  5
77
330
2
100
AcDbSymbolTableRecord
100
AcDbLayerTableRecord
  2
치수문자_일반주서
 70
     0
 62
     7
  6
Continuous
370
    15
390
F
  0
LAYER
  5
78
330
2
100
AcDbSymbolTableRecord
100
AcDbLayerTableRecord
  2
개별주서
 70
     0
 62
   100
  6
Continuous
370
    30
390
F
  0
LAYER
  5
79
330
2
100
AcDbSymbolTableRecord
100
AcDbLayerTableRecord
  2
중간선
 70
     0
 62
     2
  6
Continuous
370
    15
390
F
  0
LAYER
  5
7A
330
2
100
AcDbSymbolTableRecord
100
AcDbLayerTableRecord
  2
윤곽선
 70
     0
 62
     3
  6
Continuous
370
    40
390
F
  0
LAYER
  5
7B
330
2
100
AcDbSymbolTableRecord
100
AcDbLayerTableRecord
  2
중심마크
 70
     0
 62
   100
  6
Continuous
370
    30
390
F
  0
LAYER
  5
7C
330
2
100
AcDbSymbolTableRecord
100
AcDbLayerTableRecord
  2
가상선
 70
     0
 62
     4
  6
PHANTOM
370
    -3
390
F
  0
LAYER
  5
7D
330
2
100
AcDbSymbolTableRecord
100
AcDbLayerTableRecord
  2
특수지정선
 70
     0
 62
     5
  6
CENTERX2
370
    60
390
F
  0
LAYER
  5
7E
330
2
100
AcDbSymbolTableRecord
100
AcDbLayerTableRecord
  2
참조1
 70
     0
 62
    -4
  6
Continuous
370
    -3
390
F
  0
LAYER
  5
150
330
2
100
AcDbSymbolTableRecord
100
AcDbLayerTableRecord
  2
Defpoints
 70
     0
 62
     7
  6
Continuous
290
     0
370
    -3
390
F
  0
ENDTAB
  0
TABLE
  2
STYLE
  5
3
330
0
100
AcDbSymbolTable
 70
     2
  0
STYLE
  5
11
330
3
100
AcDbSymbolTableRecord
100
AcDbTextStyleTableRecord
  2
Standard
 70
     0
 40
0.0
 41
1.0
 50
0.0
 71
     0
 42
3.5
  3
txt
  4

  0
STYLE
  5
94
330
3
100
AcDbSymbolTableRecord
100
AcDbTextStyleTableRecord
  2
SLDTEXTSTYLE0
 70
     0
 40
0.0
 41
0.75
 50
0.0
 71
     0
 42
3.5
  3
TXT
  4

  0
ENDTAB
  0
TABLE
  2
VIEW
  5
6
330
0
100
AcDbSymbolTable
 70
     0
  0
ENDTAB
  0
TABLE
  2
UCS
  5
7
330
0
100
AcDbSymbolTable
 70
     0
  0
ENDTAB
  0
TABLE
  2
APPID
  5
9
330
0
100
AcDbSymbolTable
 70
     2
  0
APPID
  5
12
330
9
100
AcDbSymbolTableRecord
100
AcDbRegAppTableRecord
  2
ACAD
 70
     0
  0
APPID
  5
15B
330
9
100
AcDbSymbolTableRecord
100
AcDbRegAppTableRecord
  2
PE_URL
 70
     0
  0
ENDTAB
  0
TABLE
  2
DIMSTYLE
  5
A
330
0
100
AcDbSymbolTable
 70
     4
100
AcDbDimStyleTable
  0
DIMSTYLE
105
27
102
{ACAD_REACTORS
330
187
102
}
330
A
100
AcDbSymbolTableRecord
100
AcDbDimStyleTableRecord
  2
ISO-25
 70
     0
 41
2.5
 42
0.625
 43
3.75
 44
1.25
 73
     0
 74
     0
 77
     1
 78
     8
140
2.5
141
2.5
143
0.03937007874016
147
0.625
171
     3
172
     1
178
     0
271
     2
272
     2
274
     3
278
    44
283
     0
284
     8
340
11
  0
DIMSTYLE
105
CE
102
{ACAD_REACTORS
330
CD
102
}
330
A
100
AcDbSymbolTableRecord
100
AcDbDimStyleTableRecord
  2
SLDDIMSTYLE0
 70
     0
 41
3.302
 44
0.0
 45
0.000000001
 73
     0
 74
     0
 77
     1
 78
     4
 79
     1
140
3.5
143
0.0393700787401575
147
0.875
148
0.000000001
170
     1
173
     1
178
     0
271
     2
272
     2
276
     2
284
    12
340
94
  0
DIMSTYLE
105
E2
102
{ACAD_REACTORS
330
E1
330
10C
102
}
330
A
100
AcDbSymbolTableRecord
100
AcDbDimStyleTableRecord
  2
SLDDIMSTYLE1
 70
     0
 41
3.302
 44
0.0
 45
0.000000001
 73
     0
 74
     0
 77
     1
 78
    12
 79
     3
140
3.5
143
0.0393700787401575
147
0.875
148
0.000000001
170
     1
172
     1
173
     1
178
     0
271
     2
272
     2
276
     2
284
    12
289
     0
340
94
  0
DIMSTYLE
105
F7
102
{ACAD_REACTORS
330
F6
102
}
330
A
100
AcDbSymbolTableRecord
100
AcDbDimStyleTableRecord
  2
SLDDIMSTYLE2
 70
     0
 41
3.302
 44
0.0
 45
0.000000001
 73
     0
 74
     0
 77
     1
 78
     4
 79
     1
140
3.5
143
0.0393700787401575
147
0.875
148
0.000000001
170
     1
172
     1
173
     1
178
     0
271
     2
272
     2
276
     2
284
    12
289
     0
340
94
  0
ENDTAB
  0
TABLE
  2
BLOCK_RECORD
  5
1
330
0
100
AcDbSymbolTable
 70
     7
  0
BLOCK_RECORD
  5
1F
330
1
100
AcDbSymbolTableRecord
100
AcDbBlockTableRecord
  2
*Model_Space
340
22
  0
BLOCK_RECORD
  5
1B
330
1
100
AcDbSymbolTableRecord
100
AcDbBlockTableRecord
  2
*Paper_Space
340
1E
  0
BLOCK_RECORD
  5
23
330
1
100
AcDbSymbolTableRecord
100
AcDbBlockTableRecord
  2
*Paper_Space0
340
26
  0
BLOCK_RECORD
  5
7F
330
1
100
AcDbSymbolTableRecord
100
AcDbBlockTableRecord
  2
블럭10
340
0
102
{BLKREFS
331
C6
102
}
  0
BLOCK_RECORD
  5
CF
330
1
100
AcDbSymbolTableRecord
100
AcDbBlockTableRecord
  2
_D
340
0
  0
BLOCK_RECORD
  5
E3
330
1
100
AcDbSymbolTableRecord
100
AcDbBlockTableRecord
  2
_D_1
340
0
  0
BLOCK_RECORD
  5
F8
330
1
100
AcDbSymbolTableRecord
100
AcDbBlockTableRecord
  2
_D_2
340
0
  0
BLOCK_RECORD
  5
10D
330
1
100
AcDbSymbolTableRecord
100
AcDbBlockTableRecord
  2
_D_3
340
0
  0
BLOCK_RECORD
  5
127
330
1
100
AcDbSymbolTableRecord
100
AcDbBlockTableRecord
  2
SW_DOWELSYMBOL_0
340
0
102
{BLKREFS
331
12D
102
}
  0
ENDTAB
  0
ENDSEC
  0
SECTION
  2
BLOCKS
  0
BLOCK
  5
20
330
1F
100
AcDbEntity
  8
0
100
AcDbBlockBegin
  2
*Model_Space
 70
     0
 10
0.0
 20
0.0
 30
0.0
  3
*Model_Space
  1

  0
ENDBLK
  5
21
330
1F
100
AcDbEntity
  8
0
100
AcDbBlockEnd
  0
BLOCK
  5
1C
330
1B
100
AcDbEntity
 67
     1
  8
0
100
AcDbBlockBegin
  2
*Paper_Space
 70
     0
 10
0.0
 20
0.0
 30
0.0
  3
*Paper_Space
  1

  0
ENDBLK
  5
1D
330
1B
100
AcDbEntity
 67
     1
  8
0
100
AcDbBlockEnd
  0
BLOCK
  5
24
330
23
100
AcDbEntity
  8
0
100
AcDbBlockBegin
  2
*Paper_Space0
 70
     0
 10
0.0
 20
0.0
 30
0.0
  3
*Paper_Space0
  1

  0
ENDBLK
  5
25
330
23
100
AcDbEntity
  8
0
100
AcDbBlockEnd
  0
BLOCK
  5
80
330
7F
100
AcDbEntity
  8
0
100
AcDbBlockBegin
  2
블럭10
 70
     2
 10
0.0
 20
0.0
 30
0.0
  3
블럭10
  1

  0
ELLIPSE
  5
82
330
7F
100
AcDbEntity
  8
중심선
100
AcDbEllipse
 10
20.54032771741204
 20
12.0471743016438
 30
0.0
 11
6.600054785286829
 21
-1.261213355974178E-13
 31
0.0
210
0.0
220
0.0
230
1.0
 40
0.636358354079598
 41
0.9219305317359503
 42
6.513795318482858
  0
ELLIPSE
  5
83
330
7F
100
AcDbEntity
  8
중심선
100
AcDbEllipse
 10
20.54032771746488
 20
12.04717430159265
 30
0.0
 11
3.960054785062283
 21
1.540847449632565E-10
 31
0.0
210
0.0
220
0.0
230
1.0
 40
0.3939339440162632
 41
1.131841032648279
 42
5.62031148352944
  0
LINE
  5
84
330
7F
100
AcDbEntity
  8
중심선
100
AcDbLine
 10
2.268634060543552
 20
16.24717430164393
 30
0.0
 11
5.714909304380834
 21
16.24717430164393
 31
0.0
  0
LINE
  5
85
330
7F
100
AcDbEntity
  8
중심선
100
AcDbLine
 10
5.245725140726316
 20
7.84717430164391
 30
0.0
 11
8.692000384563599
 21
7.84717430164391
 31
0.0
  0
LINE
  5
86
330
7F
100
AcDbEntity
  8
중심선
100
AcDbLine
 10
15.74043728645272
 20
16.24717430164393
 30
0.0
 11
8.692000384563599
 21
7.84717430164391
 31
0.0
  0
LINE
  5
87
330
7F
100
AcDbEntity
  8
중심선
100
AcDbLine
 10
0.1404042013395286
 20
13.71084872107135
 30
0.0
 11
3.58671253028996
 21
13.71088815037384
 31
0.0
  0
LINE
  5
88
330
7F
100
AcDbEntity
  8
중심선
100
AcDbLine
 10
2.750260043222114
 20
10.84717430164391
 30
0.0
 11
6.196535287059397
 21
10.84717430164391
 31
0.0
  0
LINE
  5
89
330
7F
100
AcDbEntity
  8
중심선
100
AcDbLine
 10
12.29416204261559
 20
16.24717430164393
 30
0.0
 11
5.245725140726316
 21
7.84717430164391
 31
0.0
  0
LINE
  5
8A
330
7F
100
AcDbEntity
  8
중심선
100
AcDbLine
 10
10.72767329541681
 20
16.24717430164393
 30
0.0
 11
6.196535287059397
 21
10.84717430164391
 31
0.0
  0
LINE
  5
8B
330
7F
100
AcDbEntity
  8
중심선
100
AcDbLine
 10
7.28139805157953
 20
16.24717430164393
 30
0.0
 11
2.750260043222114
 21
10.84717430164391
 31
0.0
  0
LINE
  5
8C
330
7F
100
AcDbEntity
  8
중심선
100
AcDbLine
 10
5.714909304380834
 20
16.24717430164393
 30
0.0
 11
3.58671253028996
 21
13.71088815037384
 31
0.0
  0
LINE
  5
8D
330
7F
100
AcDbEntity
  8
중심선
100
AcDbLine
 10
2.268634060543552
 20
16.24717430164393
 30
0.0
 11
0.1404042013395286
 21
13.71084872107135
 31
0.0
  0
LINE
  5
8E
330
7F
100
AcDbEntity
  8
중심선
100
AcDbLine
 10
7.28139805157953
 20
16.24717430164393
 30
0.0
 11
10.72767329541681
 21
16.24717430164393
 31
0.0
  0
LINE
  5
8F
330
7F
100
AcDbEntity
  8
중심선
100
AcDbLine
 10
12.29416204261559
 20
16.24717430164393
 30
0.0
 11
15.74043728645272
 21
16.24717430164393
 31
0.0
  0
LINE
  5
90
330
7F
100
AcDbEntity
  8
중심선
100
AcDbLine
 10
19.22036997980202
 20
11.08717430171403
 30
0.0
 11
23.66174974927406
 21
11.08717430171406
 31
0.0
  0
LINE
  5
91
330
7F
100
AcDbEntity
  8
중심선
100
AcDbLine
 10
19.22039502424796
 20
13.00717430171391
 30
0.0
 11
19.22036997980202
 21
11.08717430171403
 31
0.0
  0
LINE
  5
92
330
7F
100
AcDbEntity
  8
중심선
100
AcDbLine
 10
19.22039502424796
 20
13.00717430171391
 30
0.0
 11
26.96566020931264
 21
13.00717430171391
 31
0.0
  0
LINE
  5
93
330
7F
100
AcDbEntity
  8
중심선
100
AcDbLine
 10
22.22332737316547
 20
13.45928029700563
 30
0.0
 11
24.52862924686651
 21
15.39360700705356
 31
0.0
  0
ATTDEF
  5
95
330
7F
100
AcDbEntity
  8
FORMAT
 62
     2
100
AcDbText
 10
4.408487351596664
 20
2.075366912832191
 30
0.0
 40
4.233333333333333
  1
E5105024
 41
0.75
  7
SLDTEXTSTYLE0
 11
4.408487351596664
 21
-0.0412997538344756
 31
0.0
100
AcDbAttributeDefinition
  3

  2
AUTOATTR0
 70
     0
 74
     1
  0
ENDBLK
  5
81
330
7F
100
AcDbEntity
  8
0
100
AcDbBlockEnd
  0
BLOCK
  5
D0
330
CF
100
AcDbEntity
  8
0
100
AcDbBlockBegin
  2
_D
 70
     0
 10
0.0
 20
0.0
 30
0.0
  3
_D
  1

  0
LINE
  5
D2
330
CF
100
AcDbEntity
  8
치수문자_일반주서
 62
     0
370
    -2
100
AcDbLine
 10
-28.1
 20
4.824999999999999
 30
0.0
 11
-28.1
 21
41.6386309707852
 31
0.0
  0
LINE
  5
D3
330
CF
100
AcDbEntity
  8
치수문자_일반주서
 62
     0
370
    -2
100
AcDbLine
 10
22.70011487100763
 20
4.825000000000046
 30
0.0
 11
22.70011487100763
 21
41.6386309707852
 31
0.0
  0
LINE
  5
D4
330
CF
100
AcDbEntity
  8
치수문자_일반주서
 62
     0
370
    -2
100
AcDbLine
 10
-24.79800000000001
 20
41.6386309707852
 30
0.0
 11
19.39811487100763
 21
41.6386309707852
 31
0.0
  0
SOLID
  5
D5
330
CF
100
AcDbEntity
  8
치수문자_일반주서
 62
     0
100
AcDbTrace
 10
-24.79800000000001
 20
42.18896430411854
 30
0.0
 11
-24.79800000000001
 21
41.08829763745187
 31
0.0
 12
-28.1
 22
41.6386309707852
 32
0.0
 13
-28.1
 23
41.6386309707852
 33
0.0
  0
SOLID
  5
D6
330
CF
100
AcDbEntity
  8
치수문자_일반주서
 62
     0
100
AcDbTrace
 10
19.39811487100763
 20
41.08829763745187
 30
0.0
 11
19.39811487100763
 21
42.18896430411854
 31
0.0
 12
22.70011487100763
 22
41.6386309707852
 32
0.0
 13
22.70011487100763
 23
41.6386309707852
 33
0.0
  0
MTEXT
  5
D7
330
CF
100
AcDbEntity
  8
치수문자_일반주서
 62
     0
100
AcDbMText
 10
-2.699999999999996
 20
46.0136309707852
 30
0.0
 40
3.5
 41
0.0
 71
     2
 72
     1
  1
\A1;50.80 [2]
  7
SLDTEXTSTYLE0
 73
     1
 44
1.0
  0
POINT
  5
D8
330
CF
100
AcDbEntity
  8
Defpoints
 62
     0
100
AcDbPoint
 10
-28.1
 20
4.762499999999999
 30
0.0
  0
POINT
  5
D9
330
CF
100
AcDbEntity
  8
Defpoints
 62
     0
100
AcDbPoint
 10
22.70011487100763
 20
4.762500000000046
 30
0.0
  0
POINT
  5
DA
330
CF
100
AcDbEntity
  8
Defpoints
 62
     0
100
AcDbPoint
 10
22.70011487100763
 20
41.6386309707852
 30
0.0
  0
ENDBLK
  5
D1
330
CF
100
AcDbEntity
  8
0
100
AcDbBlockEnd
  0
BLOCK
  5
E4
330
E3
100
AcDbEntity
  8
0
100
AcDbBlockBegin
  2
_D_1
 70
     0
 10
0.0
 20
0.0
 30
0.0
  3
_D_1
  1

  0
LINE
  5
E6
330
E3
100
AcDbEntity
  8
치수문자_일반주서
 62
     0
370
    -2
100
AcDbLine
 10
-28.1625
 20
4.762499999999999
 30
0.0
 11
-37.05462860164844
 21
4.762499999999964
 31
0.0
  0
LINE
  5
E7
330
E3
100
AcDbEntity
  8
치수문자_일반주서
 62
     0
370
    -2
100
AcDbLine
 10
-28.15807854327646
 20
-4.762500000000005
 30
0.0
 11
-37.0546286016484
 21
-4.762500000000038
 31
0.0
  0
LINE
  5
E8
330
E3
100
AcDbEntity
  8
치수문자_일반주서
 62
     0
370
    -2
100
AcDbLine
 10
-37.05462860164844
 20
4.762499999999964
 30
0.0
 11
-37.05462860164856
 21
37.61649999999997
 31
0.0
  0
LINE
  5
E9
330
E3
100
AcDbEntity
  8
치수문자_일반주서
 62
     0
370
    -2
100
AcDbLine
 10
-37.05462860164844
 20
4.762499999999964
 30
0.0
 11
-37.0546286016484
 21
-4.762500000000038
 31
0.0
  0
LINE
  5
EA
330
E3
100
AcDbEntity
  8
치수문자_일반주서
 62
     0
370
    -2
100
AcDbLine
 10
-37.05462860164845
 20
8.064499999999963
 30
0.0
 11
-37.05462860164847
 21
11.36649999999996
 31
0.0
  0
LINE
  5
EB
330
E3
100
AcDbEntity
  8
치수문자_일반주서
 62
     0
370
    -2
100
AcDbLine
 10
-37.05462860164839
 20
-8.064500000000038
 30
0.0
 11
-37.05462860164837
 21
-11.36650000000004
 31
0.0
  0
SOLID
  5
EC
330
E3
100
AcDbEntity
  8
치수문자_일반주서
 62
     0
100
AcDbTrace
 10
-37.60496193498179
 20
8.064499999999962
 30
0.0
 11
-36.50429526831512
 21
8.064499999999965
 31
0.0
 12
-37.05462860164844
 22
4.762499999999964
 32
0.0
 13
-37.05462860164844
 23
4.762499999999964
 33
0.0
  0
SOLID
  5
ED
330
E3
100
AcDbEntity
  8
치수문자_일반주서
 62
     0
100
AcDbTrace
 10
-36.50429526831505
 20
-8.064500000000036
 30
0.0
 11
-37.60496193498172
 21
-8.06450000000004
 31
0.0
 12
-37.0546286016484
 22
-4.762500000000038
 32
0.0
 13
-37.0546286016484
 23
-4.762500000000038
 33
0.0
  0
MTEXT
  5
EE
330
E3
100
AcDbEntity
  8
치수문자_일반주서
 62
     0
100
AcDbMText
 10
-41.42962860164851
 20
24.49149999999995
 30
0.0
 40
3.5
 41
0.0
 71
     2
 72
     1
  1
\A1;%%c9.53 [3/8]
  7
SLDTEXTSTYLE0
 11
-3.729883127349606E-15
 21
1.0
 31
0.0
 73
     1
 44
1.0
  0
POINT
  5
152
330
E3
100
AcDbEntity
  8
Defpoints
 62
     0
100
AcDbPoint
 10
-28.1
 20
4.762499999999999
 30
0.0
  0
POINT
  5
153
330
E3
100
AcDbEntity
  8
Defpoints
 62
     0
100
AcDbPoint
 10
-28.09557854327646
 20
-4.762500000000005
 30
0.0
  0
POINT
  5
154
330
E3
100
AcDbEntity
  8
Defpoints
 62
     0
100
AcDbPoint
 10
-37.0546286016484
 20
-4.762500000000038
 30
0.0
  0
ENDBLK
  5
E5
330
E3
100
AcDbEntity
  8
0
100
AcDbBlockEnd
  0
BLOCK
  5
F9
330
F8
100
AcDbEntity
  8
0
100
AcDbBlockBegin
  2
_D_2
 70
     0
 10
0.0
 20
0.0
 30
0.0
  3
_D_2
  1

  0
LINE
  5
FB
330
F8
100
AcDbEntity
  8
치수문자_일반주서
 62
     0
370
    -2
100
AcDbLine
 10
22.70000000000001
 20
4.825000000000046
 30
0.0
 11
22.70000000000001
 21
23.23302109823208
 31
0.0
  0
LINE
  5
FC
330
F8
100
AcDbEntity
  8
치수문자_일반주서
 62
     0
370
    -2
100
AcDbLine
 10
10.00000000000001
 20
4.824999999999998
 30
0.0
 11
10.00000000000001
 21
23.23302109823208
 31
0.0
  0
LINE
  5
FD
330
F8
100
AcDbEntity
  8
치수문자_일반주서
 62
     0
370
    -2
100
AcDbLine
 10
10.00000000000001
 20
23.23302109823208
 30
0.0
 11
-20.66649999999999
 21
23.23302109823208
 31
0.0
  0
LINE
  5
FE
330
F8
100
AcDbEntity
  8
치수문자_일반주서
 62
     0
370
    -2
100
AcDbLine
 10
22.70000000000001
 20
23.23302109823208
 30
0.0
 11
10.00000000000001
 21
23.23302109823208
 31
0.0
  0
LINE
  5
FF
330
F8
100
AcDbEntity
  8
치수문자_일반주서
 62
     0
370
    -2
100
AcDbLine
 10
26.00200000000001
 20
23.23302109823208
 30
0.0
 11
29.30400000000001
 21
23.23302109823208
 31
0.0
  0
LINE
  5
100
330
F8
100
AcDbEntity
  8
치수문자_일반주서
 62
     0
370
    -2
100
AcDbLine
 10
6.698000000000008
 20
23.23302109823208
 30
0.0
 11
3.396000000000008
 21
23.23302109823208
 31
0.0
  0
SOLID
  5
101
330
F8
100
AcDbEntity
  8
치수문자_일반주서
 62
     0
100
AcDbTrace
 10
26.00200000000001
 20
23.78335443156541
 30
0.0
 11
26.00200000000001
 21
22.68268776489874
 31
0.0
 12
22.70000000000001
 22
23.23302109823208
 32
0.0
 13
22.70000000000001
 23
23.23302109823208
 33
0.0
  0
SOLID
  5
102
330
F8
100
AcDbEntity
  8
치수문자_일반주서
 62
     0
100
AcDbTrace
 10
6.698000000000008
 20
22.68268776489874
 30
0.0
 11
6.698000000000008
 21
23.78335443156541
 31
0.0
 12
10.00000000000001
 22
23.23302109823208
 32
0.0
 13
10.00000000000001
 23
23.23302109823208
 33
0.0
  0
MTEXT
  5
103
330
F8
100
AcDbEntity
  8
치수문자_일반주서
 62
     0
100
AcDbMText
 10
-8.635249999999992
 20
27.60802109823208
 30
0.0
 40
3.5
 41
0.0
 71
     2
 72
     1
  1
\A1;12.70 [1/2]
  7
SLDTEXTSTYLE0
 73
     1
 44
1.0
  0
POINT
  5
155
330
F8
100
AcDbEntity
  8
Defpoints
 62
     0
100
AcDbPoint
 10
22.70000000000001
 20
4.762500000000046
 30
0.0
  0
POINT
  5
156
330
F8
100
AcDbEntity
  8
Defpoints
 62
     0
100
AcDbPoint
 10
10.00000000000001
 20
4.762499999999998
 30
0.0
  0
POINT
  5
157
330
F8
100
AcDbEntity
  8
Defpoints
 62
     0
100
AcDbPoint
 10
10.00000000000001
 20
23.23302109823208
 30
0.0
  0
ENDBLK
  5
FA
330
F8
100
AcDbEntity
  8
0
100
AcDbBlockEnd
  0
BLOCK
  5
10E
330
10D
100
AcDbEntity
  8
0
100
AcDbBlockBegin
  2
_D_3
 70
     0
 10
0.0
 20
0.0
 30
0.0
  3
_D_3
  1

  0
LINE
  5
110
330
10D
100
AcDbEntity
  8
치수문자_일반주서
 62
     0
370
    -2
100
AcDbLine
 10
22.76250000000001
 20
4.762500000000046
 30
0.0
 11
32.70000000000002
 21
4.762500000000081
 31
0.0
  0
LINE
  5
111
330
10D
100
AcDbEntity
  8
치수문자_일반주서
 62
     0
370
    -2
100
AcDbLine
 10
22.76439292781494
 20
-4.762499999999948
 30
0.0
 11
32.70000000000005
 21
-4.76249999999991
 31
0.0
  0
LINE
  5
112
330
10D
100
AcDbEntity
  8
치수문자_일반주서
 62
     0
370
    -2
100
AcDbLine
 10
32.70000000000002
 20
4.762500000000081
 30
0.0
 11
32.6999999999999
 21
37.61650000000008
 31
0.0
  0
LINE
  5
113
330
10D
100
AcDbEntity
  8
치수문자_일반주서
 62
     0
370
    -2
100
AcDbLine
 10
32.70000000000002
 20
4.762500000000081
 30
0.0
 11
32.70000000000005
 21
-4.76249999999991
 31
0.0
  0
LINE
  5
114
330
10D
100
AcDbEntity
  8
치수문자_일반주서
 62
     0
370
    -2
100
AcDbLine
 10
32.7
 20
8.06450000000008
 30
0.0
 11
32.69999999999999
 21
11.36650000000008
 31
0.0
  0
LINE
  5
115
330
10D
100
AcDbEntity
  8
치수문자_일반주서
 62
     0
370
    -2
100
AcDbLine
 10
32.70000000000007
 20
-8.06449999999991
 30
0.0
 11
32.70000000000008
 21
-11.36649999999991
 31
0.0
  0
SOLID
  5
116
330
10D
100
AcDbEntity
  8
치수문자_일반주서
 62
     0
100
AcDbTrace
 10
32.14966666666667
 20
8.064500000000079
 30
0.0
 11
33.25033333333334
 21
8.064500000000082
 31
0.0
 12
32.70000000000002
 22
4.762500000000081
 32
0.0
 13
32.70000000000002
 23
4.762500000000081
 33
0.0
  0
SOLID
  5
117
330
10D
100
AcDbEntity
  8
치수문자_일반주서
 62
     0
100
AcDbTrace
 10
33.2503333333334
 20
-8.064499999999908
 30
0.0
 11
32.14966666666673
 21
-8.064499999999912
 31
0.0
 12
32.70000000000005
 22
-4.76249999999991
 32
0.0
 13
32.70000000000005
 23
-4.76249999999991
 33
0.0
  0
MTEXT
  5
118
330
10D
100
AcDbEntity
  8
치수문자_일반주서
 62
     0
100
AcDbMText
 10
28.32499999999995
 20
24.49150000000006
 30
0.0
 40
3.5
 41
0.0
 71
     2
 72
     1
  1
\A1;%%c9.53 [3/8]
  7
SLDTEXTSTYLE0
 11
-3.729883127349610E-15
 21
1.0
 31
0.0
 73
     1
 44
1.0
  0
POINT
  5
119
330
10D
100
AcDbEntity
  8
Defpoints
 62
     0
100
AcDbPoint
 10
22.70000000000001
 20
4.762500000000046
 30
0.0
  0
POINT
  5
11A
330
10D
100
AcDbEntity
  8
Defpoints
 62
     0
100
AcDbPoint
 10
22.70189292781494
 20
-4.762499999999948
 30
0.0
  0
POINT
  5
11B
330
10D
100
AcDbEntity
  8
Defpoints
 62
     0
100
AcDbPoint
 10
32.70000000000005
 20
-4.76249999999991
 30
0.0
  0
ENDBLK
  5
10F
330
10D
100
AcDbEntity
  8
0
100
AcDbBlockEnd
  0
BLOCK
  5
128
330
127
100
AcDbEntity
  8
0
100
AcDbBlockBegin
  2
SW_DOWELSYMBOL_0
 70
     0
 10
0.0
 20
0.0
 30
0.0
  3
SW_DOWELSYMBOL_0
  1

  0
CIRCLE
  5
12A
330
127
100
AcDbEntity
  8
해칭선
 62
     0
100
AcDbCircle
 10
0.0
 20
0.0
 30
0.0
 40
3.000000000000002
  0
HATCH
  5
12B
330
127
100
AcDbEntity
  8
0
  6
Continuous
 62
     0
370
     0
100
AcDbHatch
 10
0.0
 20
0.0
 30
0.0
210
0.0
220
0.0
230
1.0
  2
SOLID
 70
     1
 71
     0
 91
        1
 92
        0
 93
        3
 72
     2
 10
0.0000000000000069
 20
0.0
 40
3.000000000000002
 50
0.0
 51
90.0
 73
     1
 72
     1
 10
0.0000000000000069
 20
3.000000000000002
 11
0.0000000000000069
 21
0.0
 72
     1
 10
0.0000000000000069
 20
0.0
 11
3.000000000000009
 21
0.0
 97
        0
 75
     0
 76
     1
 98
        1
 10
0.0
 20
0.0
  0
HATCH
  5
12C
330
127
100
AcDbEntity
  8
0
  6
Continuous
 62
     0
370
     0
100
AcDbHatch
 10
0.0
 20
0.0
 30
0.0
210
0.0
220
0.0
230
1.0
  2
SOLID
 70
     1
 71
     0
 91
        1
 92
        0
 93
        3
 72
     2
 10
0.0000000000000069
 20
0.0
 40
3.000000000000002
 50
180.0
 51
270.0000000000007
 73
     1
 72
     1
 10
0.0000000000000069
 20
-3.000000000000002
 11
0.0000000000000069
 21
0.0
 72
     1
 10
0.0000000000000069
 20
0.0
 11
-2.999999999999995
 21
0.0
 97
        0
 75
     0
 76
     1
 98
        1
 10
0.0
 20
0.0
  0
ENDBLK
  5
129
330
127
100
AcDbEntity
  8
0
100
AcDbBlockEnd
  0
ENDSEC
  0
SECTION
  2
ENTITIES
  0
LINE
  5
96
330
1F
100
AcDbEntity
  8
외형선
  6
Continuous
370
    15
100
AcDbLine
 10
-13.0949500000001
 20
4.762499999999989
 30
0.0
 11
-27.6
 21
4.762499999999998
 31
0.0
  0
LINE
  5
97
330
1F
100
AcDbEntity
  8
외형선
  6
Continuous
370
    15
100
AcDbLine
 10
-27.6
 20
-4.762500000000003
 30
0.0
 11
8.479832357299074
 21
-4.762500000000003
 31
0.0
  0
LINE
  5
98
330
1F
100
AcDbEntity
  8
외형선
  6
Continuous
370
    15
100
AcDbLine
 10
-27.6
 20
4.762499999999996
 30
0.0
 11
-28.1
 21
4.262499999999996
 31
0.0
  0
LINE
  5
99
330
1F
100
AcDbEntity
  8
외형선
  6
Continuous
370
    15
100
AcDbLine
 10
-28.1
 20
-4.262499999999999
 30
0.0
 11
-27.6
 21
-4.762499999999999
 31
0.0
  0
LINE
  5
9A
330
1F
100
AcDbEntity
  8
외형선
  6
Continuous
 62
     1
370
    15
100
AcDbLine
 10
13.54487460969526
 20
-4.762500000000003
 30
0.0
 11
14.47439425323553
 21
-4.762500000000003
 31
0.0
  0
LINE
  5
9D
330
1F
100
AcDbEntity
  8
외형선
  6
Continuous
370
    15
100
AcDbLine
 10
10.00000000000001
 20
4.762499999999998
 30
0.0
 11
10.00000000000001
 21
3.882892064605945
 31
0.0
  0
SPLINE
  5
9E
330
1F
100
AcDbEntity
  8
외형선
  6
Continuous
370
    15
100
AcDbSpline
210
0.0
220
0.0
230
1.0
 70
     8
 71
     3
 72
    10
 73
     6
 74
     0
 42
0.000000001
 43
0.00000001
 40
0.0
 40
0.0
 40
0.0
 40
0.0
 40
0.5
 40
0.5
 40
1.0
 40
1.0
 40
1.0
 40
1.0
 10
10.00000000000043
 20
3.882892064605807
 30
0.0
 10
9.747071145968953
 20
3.967546871296226
 30
0.0
 10
9.49560809478206
 20
4.046563663048939
 30
0.0
 10
8.98826483973051
 20
4.193382409127057
 30
0.0
 10
8.73369003524253
 20
4.261030956481314
 30
0.0
 10
8.479832357299074
 20
4.322483722183668
 30
0.0
  0
SPLINE
  5
9F
330
1F
100
AcDbEntity
  8
외형선
  6
Continuous
370
    15
100
AcDbSpline
210
0.0
220
0.0
230
1.0
 70
     8
 71
     3
 72
    10
 73
     6
 74
     0
 42
0.000000001
 43
0.00000001
 40
0.0
 40
0.0
 40
0.0
 40
0.0
 40
0.4999999999999999
 40
0.4999999999999999
 40
1.0
 40
1.0
 40
1.0
 40
1.0
 10
10.00000000000043
 20
-2.250645488532018
 30
0.0
 10
9.747071145968954
 20
-2.121800250778213
 30
0.0
 10
9.49560809478206
 20
-1.990029690831702
 30
0.0
 10
8.98826483973051
 20
-1.720463517866365
 30
0.0
 10
8.73369003524253
 20
-1.582887642309558
 30
0.0
 10
8.479832357299076
 20
-1.443392926790597
 30
0.0
  0
LINE
  5
A0
330
1F
100
AcDbEntity
  8
외형선
  6
Continuous
370
    15
100
AcDbLine
 10
10.00000000000001
 20
-2.250645488531803
 30
0.0
 11
10.00000000000001
 21
-4.329628730185439
 31
0.0
  0
SPLINE
  5
A1
330
1F
100
AcDbEntity
  8
외형선
  6
Continuous
370
    15
100
AcDbSpline
210
0.0
220
0.0
230
1.0
 70
     8
 71
     3
 72
    10
 73
     6
 74
     0
 42
0.000000001
 43
0.00000001
 40
0.0
 40
0.0
 40
0.0
 40
0.0
 40
0.5
 40
0.5
 40
1.0
 40
1.0
 40
1.0
 40
1.0
 10
10.00000000000043
 20
-4.329628730185539
 30
0.0
 10
9.747071145968953
 20
-4.268727386389545
 30
0.0
 10
9.49560809478206
 20
-4.201838446713678
 30
0.0
 10
8.98826483973051
 20
-4.055970412086926
 30
0.0
 10
8.73369003524253
 20
-3.977089678159136
 30
0.0
 10
8.479832357299074
 20
-3.892760137372212
 30
0.0
  0
LINE
  5
A2
330
1F
100
AcDbEntity
  8
외형선
  6
Continuous
370
    15
100
AcDbLine
 10
8.479832357299074
 20
-3.892751610933917
 30
0.0
 11
8.479832357299074
 21
-4.762500000000003
 31
0.0
  0
LINE
  5
A3
330
1F
100
AcDbEntity
  8
외형선
  6
Continuous
370
    15
100
AcDbLine
 10
-27.6
 20
4.762499999999996
 30
0.0
 11
-27.6
 21
-4.762500000000003
 31
0.0
  0
LINE
  5
A4
330
1F
100
AcDbEntity
  8
외형선
  6
Continuous
370
    15
100
AcDbLine
 10
8.479832357299074
 20
4.322489935549641
 30
0.0
 11
8.479832357299072
 21
-1.443433579581063
 31
0.0
  0
LINE
  5
A5
330
1F
100
AcDbEntity
  8
외형선
  6
Continuous
370
    15
100
AcDbLine
 10
-28.1
 20
4.262499999999996
 30
0.0
 11
-28.1
 21
-4.262499999999999
 31
0.0
  0
SPLINE
  5
A6
330
1F
100
AcDbEntity
  8
외형선
  6
Continuous
370
    15
100
AcDbSpline
210
0.0
220
0.0
230
1.0
 70
    24
 71
     3
 72
    18
 73
    14
 74
     0
 42
0.000000001
 43
0.00000001
 40
0.0
 40
0.0
 40
0.0
 40
0.0
 40
0.25
 40
0.25
 40
0.5000000000000001
 40
0.5000000000000001
 40
0.625
 40
0.625
 40
0.75
 40
0.75
 40
0.875
 40
0.875
 40
1.0
 40
1.0
 40
1.0
 40
1.0
 10
10.00000000000001
 20
3.882892064605945
 30
0.0
 10
10.00000000000001
 20
3.545465523727438
 30
0.0
 10
10.00000000000001
 20
3.146678545860947
 30
0.0
 10
10.00000000000001
 20
2.213935673383509
 30
0.0
 10
10.00000000000001
 20
1.678072879962506
 30
0.0
 10
10.00000000000001
 20
0.8086808464943134
 30
0.0
 10
10.00000000000001
 20
0.5086756694071801
 30
0.0
 10
10.00000000000001
 20
-0.0954054338648627
 30
0.0
 10
10.00000000000001
 20
-0.3994098133632425
 30
0.0
 10
10.00000000000001
 20
-0.9888794286743339
 30
0.0
 10
10.00000000000001
 20
-1.274174446512742
 30
0.0
 10
10.00000000000001
 20
-1.800951513557777
 30
0.0
 10
10.00000000000001
 20
-2.042217085092819
 30
0.0
 10
10.00000000000001
 20
-2.250645488531198
 30
0.0
  0
SPLINE
  5
A7
330
1F
100
AcDbEntity
  8
외형선
  6
Continuous
 62
     1
370
    15
100
AcDbSpline
210
0.0
220
0.0
230
1.0
 70
     8
 71
     3
 72
    20
 73
    16
 74
     0
 42
0.000000001
 43
0.00000001
 40
0.0
 40
0.0
 40
0.0
 40
0.0
 40
0.2499999999999999
 40
0.2499999999999999
 40
0.4999999999999998
 40
0.4999999999999998
 40
0.7499999999999997
 40
0.7499999999999997
 40
0.8124999999999998
 40
0.8124999999999998
 40
0.8749999999999998
 40
0.8749999999999998
 40
0.9374999999999999
 40
0.9374999999999999
 40
1.0
 40
1.0
 40
1.0
 40
1.0
 10
22.65257194313651
 20
0.3518627539538554
 30
0.0
 10
22.66762084409696
 20
0.141791640914066
 30
0.0
 10
22.67336537285825
 20
-0.0685266666807756
 30
0.0
 10
22.67624726330812
 20
-0.4895196351503608
 30
0.0
 10
22.67359892976426
 20
-0.7001598330370465
 30
0.0
 10
22.65192192052159
 20
-1.120921668318556
 30
0.0
 10
22.63541860436517
 20
-1.332707704165377
 30
0.0
 10
22.57234461258639
 20
-1.588273836094887
 30
0.0
 10
22.55730937786645
 20
-1.639000800683685
 30
0.0
 10
22.51869610548909
 20
-1.73775720470986
 30
0.0
 10
22.4952147787557
 20
-1.785956141838397
 30
0.0
 10
22.43297590612379
 20
-1.870735137846348
 30
0.0
 10
22.39170160572315
 20
-1.908750000164103
 30
0.0
 10
22.29333111764011
 20
-1.940468321469306
 30
0.0
 10
22.23829562466744
 20
-1.931185727493407
 30
0.0
 10
22.19200000000001
 20
-1.906712702476925
 30
0.0
  0
SPLINE
  5
A8
330
1F
100
AcDbEntity
  8
외형선
  6
Continuous
 62
     1
370
    15
100
AcDbSpline
210
0.0
220
0.0
230
1.0
 70
     8
 71
     3
 72
    14
 73
    10
 74
     0
 42
0.000000001
 43
0.00000001
 40
0.0
 40
0.0
 40
0.0
 40
0.0
 40
0.25
 40
0.25
 40
0.5
 40
0.5
 40
0.75
 40
0.75
 40
1.0
 40
1.0
 40
1.0
 40
1.0
 10
22.19200000000001
 20
-1.906712702476927
 30
0.0
 10
21.17599999999994
 20
-1.369248591295299
 30
0.0
 10
20.15999999999987
 20
-0.7880850250848832
 30
0.0
 10
18.12799999999972
 20
0.383902221271305
 30
0.0
 10
17.11199999999965
 20
0.9743643004654061
 30
0.0
 10
15.07999999999951
 20
2.08524276794703
 30
0.0
 10
14.06399999999944
 20
2.605316409577297
 30
0.0
 10
12.0319999999993
 20
3.505165348619319
 30
0.0
 10
11.01599999999923
 20
3.884663009705479
 30
0.0
 10
9.999999999999154
 20
4.168352289062023
 30
0.0
  0
SPLINE
  5
A9
330
1F
100
AcDbEntity
  8
외형선
  6
Continuous
 62
     1
370
    15
100
AcDbSpline
210
0.0
220
0.0
230
1.0
 70
     8
 71
     3
 72
    30
 73
    26
 74
     0
 42
0.000000001
 43
0.00000001
 40
0.0
 40
0.0
 40
0.0
 40
0.0
 40
0.1250000000000002
 40
0.1250000000000002
 40
0.2500000000000004
 40
0.2500000000000004
 40
0.3125000000000004
 40
0.3125000000000004
 40
0.3750000000000004
 40
0.3750000000000004
 40
0.4375000000000006
 40
0.4375000000000006
 40
0.5000000000000006
 40
0.5000000000000006
 40
0.6250000000000004
 40
0.6250000000000004
 40
0.6875000000000003
 40
0.6875000000000003
 40
0.7500000000000002
 40
0.7500000000000002
 40
0.8125000000000002
 40
0.8125000000000002
 40
0.8750000000000001
 40
0.8750000000000001
 40
1.0
 40
1.0
 40
1.0
 40
1.0
 10
9.999999999999586
 20
4.46493252294812
 30
0.0
 10
10.52620652182328
 20
4.476850409964944
 30
0.0
 10
11.05854699475818
 20
4.461245282136253
 30
0.0
 10
12.10643204780137
 20
4.376073762867378
 30
0.0
 10
12.6384969748768
 20
4.306072863203688
 30
0.0
 10
13.42806508160698
 20
4.162586346102923
 30
0.0
 10
13.68959443331924
 20
4.108433080585857
 30
0.0
 10
14.21738530925528
 20
3.987388992504757
 30
0.0
 10
14.48223963982037
 20
3.920575526140809
 30
0.0
 10
15.01021858151497
 20
3.775281586706817
 30
0.0
 10
15.27194028751215
 20
3.696957206491555
 30
0.0
 10
15.79800380290929
 20
3.529004788231805
 30
0.0
 10
16.06261240703991
 20
3.439322921641125
 30
0.0
 10
16.85571432399425
 20
3.154930437898415
 30
0.0
 10
17.37891902371261
 20
2.945500972613455
 30
0.0
 10
18.1718815872055
 20
2.605200079636194
 30
0.0
 10
18.43658041725498
 20
2.487532228108841
 30
0.0
 10
18.9630936222375
 20
2.245379023617848
 30
0.0
 10
19.22455592533369
 20
2.120965704522426
 30
0.0
 10
19.7522566568757
 20
1.865275305700781
 30
0.0
 10
20.01710783274386
 20
1.734207485261628
 30
0.0
 10
20.54516444410278
 20
1.467427915548605
 30
0.0
 10
20.80699074228359
 20
1.331960207409628
 30
0.0
 10
21.59586579912824
 20
0.9194999698571298
 30
0.0
 10
22.12825207560791
 20
0.6360449235445413
 30
0.0
 10
22.65257194313525
 20
0.3518627539544518
 30
0.0
  0
SPLINE
  5
AA
330
1F
100
AcDbEntity
  8
외형선
  6
Continuous
 62
     1
370
    15
100
AcDbSpline
210
0.0
220
0.0
230
1.0
 70
     8
 71
     3
 72
    30
 73
    26
 74
     0
 42
0.000000001
 43
0.00000001
 40
0.0
 40
0.0
 40
0.0
 40
0.0
 40
0.0624999999999998
 40
0.0624999999999998
 40
0.1249999999999995
 40
0.1249999999999995
 40
0.2499999999999991
 40
0.2499999999999991
 40
0.3124999999999991
 40
0.3124999999999991
 40
0.3749999999999991
 40
0.3749999999999991
 40
0.437499999999999
 40
0.437499999999999
 40
0.4999999999999991
 40
0.4999999999999991
 40
0.6249999999999994
 40
0.6249999999999994
 40
0.6874999999999996
 40
0.6874999999999996
 40
0.7499999999999997
 40
0.7499999999999997
 40
0.8749999999999998
 40
0.8749999999999998
 40
1.0
 40
1.0
 40
1.0
 40
1.0
 10
22.192
 20
-2.385353703133389
 30
0.0
 10
21.93772946015989
 20
-2.258395922909135
 30
0.0
 10
21.68256710904426
 20
-2.127888725996766
 30
0.0
 10
21.17372180063354
 20
-1.861440733121272
 30
0.0
 10
20.92124594402851
 20
-1.725722455359741
 30
0.0
 10
20.16162587638392
 20
-1.311424400081717
 30
0.0
 10
19.64886113411384
 20
-1.024998467172114
 30
0.0
 10
18.88970316917849
 20
-0.5909263351838954
 30
0.0
 10
18.63695088145094
 20
-0.4452497947238101
 30
0.0
 10
18.12797245501502
 20
-0.1523787784814198
 30
0.0
 10
17.87282108234692
 20
-0.0053904865228836
 30
0.0
 10
17.36445656879521
 20
0.2878117537966398
 30
0.0
 10
17.11252986493572
 20
0.4337787380440479
 30
0.0
 10
16.60528813900622
 20
0.7247178764286054
 30
0.0
 10
16.35030692936135
 20
0.8696225506369111
 30
0.0
 10
15.58616526401956
 20
1.299849646440736
 30
0.0
 10
15.08213133191863
 20
1.579891984711199
 30
0.0
 10
14.31820122723339
 20
1.985567113068651
 30
0.0
 10
14.06312591159801
 20
2.118226938903379
 30
0.0
 10
13.55537071065379
 20
2.376737780072823
 30
0.0
 10
13.30358852579302
 20
2.502452994199927
 30
0.0
 10
12.54167477147906
 20
2.869490730432099
 30
0.0
 10
12.0305442729637
 20
3.09965392701115
 30
0.0
 10
11.01973298770842
 20
3.520626786069969
 30
0.0
 10
10.50701788492761
 20
3.713194142233754
 30
0.0
 10
9.999999999999156
 20
3.882892064606233
 30
0.0
  0
SPLINE
  5
AB
330
1F
100
AcDbEntity
  8
외형선
  6
Continuous
 62
     1
370
    15
100
AcDbSpline
210
0.0
220
0.0
230
1.0
 70
     8
 71
     3
 72
    12
 73
     8
 74
     0
 42
0.000000001
 43
0.00000001
 40
0.0
 40
0.0
 40
0.0
 40
0.0
 40
0.2500000000000015
 40
0.2500000000000015
 40
0.500000000000003
 40
0.500000000000003
 40
1.0
 40
1.0
 40
1.0
 40
1.0
 10
22.19200000000001
 20
-2.385353703133391
 30
0.0
 10
22.25685133873367
 20
-2.41773410400631
 30
0.0
 10
22.31889689701126
 20
-2.443777865034449
 30
0.0
 10
22.43801212521196
 20
-2.482976496580236
 30
0.0
 10
22.49353362915855
 20
-2.495394237690109
 30
0.0
 10
22.63705154141811
 20
-2.508056450373437
 30
0.0
 10
22.70000000000001
 20
-2.482072870139819
 30
0.0
 10
22.70000000000001
 20
-2.430264383026918
 30
0.0
  0
SPLINE
  5
AC
330
1F
100
AcDbEntity
  8
외형선
  6
Continuous
 62
     1
370
    15
100
AcDbSpline
210
0.0
220
0.0
230
1.0
 70
     8
 71
     3
 72
    11
 73
     7
 74
     0
 42
0.000000001
 43
0.00000001
 40
0.0
 40
0.0
 40
0.0
 40
0.0
 40
0.1121273225880826
 40
0.5022379606285304
 40
0.9034297034157374
 40
1.0
 40
1.0
 40
1.0
 40
1.0
 10
21.63585868927892
 20
-2.095771919351461
 30
0.0
 10
21.58813302697334
 20
-2.102398904136921
 30
0.0
 10
21.37436140777526
 20
-2.132082332287552
 30
0.0
 10
20.95582629485233
 20
-2.245366970135578
 30
0.0
 10
20.53913707480723
 20
-2.386695002625363
 30
0.0
 10
20.30426039253054
 20
-2.479928055121128
 30
0.0
 10
20.25869221120271
 20
-2.498016102860448
 30
0.0
  0
SPLINE
  5
AD
330
1F
100
AcDbEntity
  8
외형선
  6
Continuous
 62
     1
370
    15
100
AcDbSpline
210
0.0
220
0.0
230
1.0
 70
     8
 71
     3
 72
     8
 73
     4
 74
     0
 42
0.000000001
 43
0.00000001
 40
0.0
 40
0.0
 40
0.0
 40
0.0
 40
1.0
 40
1.0
 40
1.0
 40
1.0
 10
22.70000000000001
 20
-2.784196431186867
 30
0.0
 10
21.8686978525177
 20
-2.77665345778219
 30
0.0
 10
21.05330752982406
 20
-2.689382515357084
 30
0.0
 10
20.25869221120271
 20
-2.49801610286044
 30
0.0
  0
LINE
  5
AE
330
1F
100
AcDbEntity
  8
외형선
  6
Continuous
 62
     1
370
    15
100
AcDbLine
 10
22.70000000000001
 20
-3.850708012701729
 30
0.0
 11
22.70000000000001
 21
-2.784196431186871
 31
0.0
  0
SPLINE
  5
AF
330
1F
100
AcDbEntity
  8
외형선
  6
Continuous
 62
     1
370
    15
100
AcDbSpline
210
0.0
220
0.0
230
1.0
 70
     8
 71
     3
 72
     8
 73
     4
 74
     0
 42
0.000000001
 43
0.00000001
 40
0.0
 40
0.0
 40
0.0
 40
0.0
 40
1.0
 40
1.0
 40
1.0
 40
1.0
 10
22.70000000000001
 20
-3.850708012702134
 30
0.0
 10
22.69999999999986
 20
-3.908430148197639
 30
0.0
 10
22.68380512604653
 20
-3.971943634719123
 30
0.0
 10
22.65257194313525
 20
-4.034036839483456
 30
0.0
  0
SPLINE
  5
B0
330
1F
100
AcDbEntity
  8
외형선
  6
Continuous
 62
     1
370
    15
100
AcDbSpline
210
0.0
220
0.0
230
1.0
 70
     8
 71
     3
 72
    30
 73
    26
 74
     0
 42
0.000000001
 43
0.00000001
 40
0.0
 40
0.0
 40
0.0
 40
0.0
 40
0.1249999999999996
 40
0.1249999999999996
 40
0.2499999999999992
 40
0.2499999999999992
 40
0.3124999999999992
 40
0.3124999999999992
 40
0.3749999999999991
 40
0.3749999999999991
 40
0.4374999999999991
 40
0.4374999999999991
 40
0.499999999999999
 40
0.499999999999999
 40
0.624999999999999
 40
0.624999999999999
 40
0.6874999999999991
 40
0.6874999999999991
 40
0.7499999999999993
 40
0.7499999999999993
 40
0.8124999999999996
 40
0.8124999999999996
 40
0.8749999999999997
 40
0.8749999999999997
 40
1.0
 40
1.0
 40
1.0
 40
1.0
 10
9.99999999999958
 20
-2.070860314257799
 30
0.0
 10
10.52620652182327
 20
-2.323774408224025
 30
0.0
 10
11.05854699475818
 20
-2.564867304362075
 30
0.0
 10
12.10643204780136
 20
-3.010372221751462
 30
0.0
 10
12.63849697487679
 20
-3.217105211737581
 30
0.0
 10
13.42806508160698
 20
-3.494716734310911
 30
0.0
 10
13.68959443331924
 20
-3.581868492522903
 30
0.0
 10
14.21738530925527
 20
-3.745460472982753
 30
0.0
 10
14.48223963982037
 20
-3.821727142184077
 30
0.0
 10
15.01021858151497
 20
-3.962147387715103
 30
0.0
 10
15.27194028751215
 20
-4.026203206398427
 30
0.0
 10
15.79800380290929
 20
-4.142042675715037
 30
0.0
 10
16.06261240703991
 20
-4.193817657292943
 30
0.0
 10
16.85571432399425
 20
-4.329543077778522
 30
0.0
 10
17.37891902371261
 20
-4.393731987134254
 30
0.0
 10
18.1718815872055
 20
-4.44947994188873
 30
0.0
 10
18.43658041725498
 20
-4.461257394490564
 30
0.0
 10
18.9630936222375
 20
-4.471094708214434
 30
0.0
 10
19.22455592533369
 20
-4.46918698854628
 30
0.0
 10
19.7522566568757
 20
-4.45168532999321
 30
0.0
 10
20.01710783274385
 20
-4.436072179518955
 30
0.0
 10
20.54516444410278
 20
-4.391327098807451
 30
0.0
 10
20.80699074228358
 20
-4.362263717512844
 30
0.0
 10
21.59586579912824
 20
-4.255114806280911
 30
0.0
 10
22.12825207560791
 20
-4.15668966854873
 30
0.0
 10
22.65257194313524
 20
-4.034036839483433
 30
0.0
  0
SPLINE
  5
B1
330
1F
100
AcDbEntity
  8
외형선
  6
Continuous
370
    15
100
AcDbSpline
210
0.0
220
0.0
230
1.0
 70
    24
 71
     3
 72
    16
 73
    12
 74
     0
 42
0.000000001
 43
0.00000001
 40
0.0
 40
0.0
 40
0.0
 40
0.0
 40
0.25
 40
0.25
 40
0.5
 40
0.5
 40
0.75
 40
0.75
 40
0.875
 40
0.875
 40
1.0
 40
1.0
 40
1.0
 40
1.0
 10
10.00000000000001
 20
3.882892064626621
 30
0.0
 10
10.00000000000001
 20
3.557104399803189
 30
0.0
 10
10.00000000000001
 20
3.174223779797223
 30
0.0
 10
10.00000000000001
 20
2.282439340406873
 30
0.0
 10
10.00000000000001
 20
1.771936960621644
 30
0.0
 10
10.00000000000001
 20
0.6637578469193709
 30
0.0
 10
10.00000000000001
 20
0.065645602925908
 30
0.0
 10
10.00000000000001
 20
-0.79788895818434
 30
0.0
 10
10.00000000000001
 20
-1.079310240447326
 30
0.0
 10
10.00000000000001
 20
-1.606935674336998
 30
0.0
 10
10.00000000000001
 20
-1.852960068968948
 30
0.0
 10
10.00000000000001
 20
-2.070860314257899
 30
0.0
  0
LINE
  5
B2
330
1F
100
AcDbEntity
  8
외형선
  6
Continuous
370
    15
100
AcDbLine
 10
10.00000000000001
 20
3.882892064607646
 30
0.0
 11
10.00000000000001
 21
4.168352289062025
 31
0.0
  0
SPLINE
  5
B3
330
1F
100
AcDbEntity
  8
외형선
  6
Continuous
 62
     1
370
    15
100
AcDbSpline
210
0.0
220
0.0
230
1.0
 70
     8
 71
     3
 72
    14
 73
    10
 74
     0
 42
0.000000001
 43
0.00000001
 40
0.0
 40
0.0
 40
0.0
 40
0.0
 40
0.0447933030829071
 40
0.2039944192357559
 40
0.3631955353886046
 40
0.5223966515414534
 40
0.6815977676943024
 40
0.8407988838471511
 40
1.0
 40
1.0
 40
1.0
 40
1.0
 10
17.65823776530183
 20
-4.402527931203348
 30
0.0
 10
17.54389184353445
 20
-4.430192376775811
 30
0.0
 10
17.02314592176702
 20
-4.556179792742626
 30
0.0
 10
16.09599999999958
 20
-4.683296518250498
 30
0.0
 10
14.8767999999995
 20
-4.775314682571195
 30
0.0
 10
13.65759999999941
 20
-4.756429835187941
 30
0.0
 10
12.43839999999933
 20
-4.63408434935305
 30
0.0
 10
11.21919999999924
 20
-4.416578955610942
 30
0.0
 10
10.40639999999918
 20
-4.19158678513373
 30
0.0
 10
9.999999999999154
 20
-4.079090699895123
 30
0.0
  0
LINE
  5
B4
330
1F
100
AcDbEntity
  8
외형선
  6
Continuous
370
    15
100
AcDbLine
 10
10.00000000000001
 20
-2.268905407758412
 30
0.0
 11
10.00000000000001
 21
-4.079090699895375
 31
0.0
  0
LINE
  5
B5
330
1F
100
AcDbEntity
  8
외형선
  6
Continuous
 62
     1
370
    15
100
AcDbLine
 10
22.70000000000001
 20
-2.430264383026918
 30
0.0
 11
22.70000000000001
 21
0.3586333745259058
 31
0.0
  0
SPLINE
  5
B6
330
1F
100
AcDbEntity
  8
외형선
  6
Continuous
 62
     1
370
    15
100
AcDbSpline
210
0.0
220
0.0
230
1.0
 70
     8
 71
     3
 72
     8
 73
     4
 74
     0
 42
0.000000001
 43
0.00000001
 40
0.0
 40
0.0
 40
0.0
 40
0.0
 40
1.0
 40
1.0
 40
1.0
 40
1.0
 10
22.70000000000001
 20
0.3586333745246554
 30
0.0
 10
22.69999999999986
 20
0.3458197943792644
 30
0.0
 10
22.68380512604653
 20
0.3430872840731088
 30
0.0
 10
22.65257194313525
 20
0.3518627539545147
 30
0.0
  0
SPLINE
  5
B7
330
1F
100
AcDbEntity
  8
외형선
  6
Continuous
 62
     1
370
    15
100
AcDbSpline
210
0.0
220
0.0
230
1.0
 70
     8
 71
     3
 72
    12
 73
     8
 74
     0
 42
0.000000001
 43
0.00000001
 40
0.0
 40
0.0
 40
0.0
 40
0.0
 40
0.1378813531041951
 40
0.3533064835870532
 40
0.5686576715039519
 40
0.7843277210028744
 40
1.0
 40
1.0
 40
1.0
 40
1.0
 10
15.97045605681152
 20
3.463182082052338
 30
0.0
 10
16.25647811015775
 20
3.576807245078433
 30
0.0
 10
16.98937957667976
 20
3.867959789581088
 30
0.0
 10
18.16843499391154
 20
4.22600190594189
 30
0.0
 10
19.50867230858871
 20
4.533648817565086
 30
0.0
 10
20.85008390190074
 20
4.726660760601584
 30
0.0
 10
21.74469309263153
 20
4.75055197322855
 30
0.0
 10
22.19202045510352
 20
4.762500000000047
 30
0.0
  0
LINE
  5
B9
330
1F
100
AcDbEntity
  8
외형선
  6
Continuous
 62
     1
370
    15
100
AcDbLine
 10
22.70000000000001
 20
3.083737631391746
 30
0.0
 11
22.70002045149156
 21
4.254439421476429
 31
0.0
  0
SPLINE
  5
BA
330
1F
100
AcDbEntity
  8
외형선
  6
Continuous
 62
     1
370
    15
100
AcDbSpline
210
0.0
220
0.0
230
1.0
 70
     8
 71
     3
 72
    14
 73
    10
 74
     0
 42
0.000000001
 43
0.00000001
 40
0.0
 40
0.0
 40
0.0
 40
0.0
 40
0.25
 40
0.25
 40
0.5
 40
0.5
 40
0.75
 40
0.75
 40
1.0
 40
1.0
 40
1.0
 40
1.0
 10
22.70000000000001
 20
3.083737631391745
 30
0.0
 10
22.57377066041994
 20
2.860524365693591
 30
0.0
 10
22.41956129042077
 20
2.665094980975804
 30
0.0
 10
22.05667289694541
 20
2.328324014397817
 30
0.0
 10
21.85318831837348
 20
2.192405856755409
 30
0.0
 10
21.42069791972814
 20
1.981506649269666
 30
0.0
 10
21.19212015172999
 20
1.906709610956784
 30
0.0
 10
20.73136594107229
 20
1.81032135441485
 30
0.0
 10
20.49474243056074
 20
1.787663249982002
 30
0.0
 10
20.25869221120272
 20
1.786930873820236
 30
0.0
  0
SPLINE
  5
BB
330
1F
100
AcDbEntity
  8
외형선
  6
Continuous
 62
     1
370
    15
100
AcDbSpline
210
0.0
220
0.0
230
1.0
 70
     8
 71
     3
 72
     8
 73
     4
 74
     0
 42
0.000000001
 43
0.00000001
 40
0.0
 40
0.0
 40
0.0
 40
0.0
 40
1.0
 40
1.0
 40
1.0
 40
1.0
 10
22.70000000000001
 20
0.9186882131466299
 30
0.0
 10
21.8686978525177
 20
1.252478891623455
 30
0.0
 10
21.05330752982408
 20
1.545996081362947
 30
0.0
 10
20.25869221120272
 20
1.786930873820242
 30
0.0
  0
LINE
  5
BC
330
1F
100
AcDbEntity
  8
외형선
  6
Continuous
 62
     1
370
    15
100
AcDbLine
 10
22.70000000000001
 20
0.3586333745259058
 30
0.0
 11
22.70000000000001
 21
0.9186882131466299
 31
0.0
  0
SPLINE
  5
BD
330
1F
100
AcDbEntity
  8
외형선
  6
Continuous
 62
     1
370
    15
100
AcDbSpline
210
0.0
220
0.0
230
1.0
 70
     8
 71
     3
 72
    10
 73
     6
 74
     0
 42
0.000000001
 43
0.00000001
 40
0.0
 40
0.0
 40
0.0
 40
0.0
 40
0.3856146282245486
 40
0.7706956003666745
 40
1.0
 40
1.0
 40
1.0
 40
1.0
 10
9.999999999999158
 20
-4.329628730185234
 30
0.0
 10
10.45577235094093
 20
-4.426578714476133
 30
0.0
 10
11.36668630474211
 20
-4.620344512969401
 30
0.0
 10
12.54817357147791
 20
-4.752211790106507
 30
0.0
 10
13.27398364843504
 20
-4.748280098897738
 30
0.0
 10
13.54487460969526
 20
-4.746812690763384
 30
0.0
  0
LINE
  5
BE
330
1F
100
AcDbEntity
  8
외형선
  6
Continuous
370
    15
100
AcDbLine
 10
10.00000000000001
 20
-4.329628730184218
 30
0.0
 11
10.00000000000001
 21
-4.079090699895123
 31
0.0
  0
LINE
  5
BF
330
1F
100
AcDbEntity
  8
외형선
  6
Continuous
 62
     1
370
    15
100
AcDbLine
 10
22.70000000000001
 20
0.9186882131466299
 30
0.0
 11
22.70000000000001
 21
3.083737631391746
 31
0.0
  0
LINE
  5
C0
330
1F
100
AcDbEntity
  8
외형선
  6
Continuous
 62
     1
370
    15
100
AcDbLine
 10
22.70000000000001
 20
-2.430264383026918
 30
0.0
 11
22.70000000000001
 21
-2.784196431186869
 31
0.0
  0
LINE
  5
C2
330
1F
100
AcDbEntity
  8
중심선
 62
     1
100
AcDbLine
 10
-31.10000000000001
 20
-0.0000000000000038
 30
0.0
 11
25.7
 21
0.0000000000000032
 31
0.0
  0
LINE
  5
C3
330
1F
100
AcDbEntity
  8
참조1
100
AcDbLine
 10
-2.700000000000005
 20
0.2211007829333238
 30
0.0
 11
-2.7
 21
-39.77889921706668
 31
0.0
  0
LINE
  5
C4
330
1F
100
AcDbEntity
  8
참조1
100
AcDbLine
 10
-2.7
 20
-39.77889921706668
 30
0.0
 11
-11.49933783948571
 21
-39.77889921706667
 31
0.0
  0
CIRCLE
  5
C5
330
1F
100
AcDbEntity
  8
해칭선
100
AcDbCircle
 10
0.0
 20
0.0
 30
0.0
 40
3.000000000000001
  0
INSERT
  5
C6
330
1F
100
AcDbEntity
  8
0
  6
Continuous
 62
     7
100
AcDbBlockReference
 66
     1
  2
블럭10
 10
-16.64027293212521
 20
-51.82607351871061
 30
0.0
  0
ATTRIB
  5
C7
330
C6
100
AcDbEntity
  8
FORMAT
 62
     2
100
AcDbText
 10
-25.82156822086649
 20
-49.75070660587842
 30
0.0
 40
4.233333333333333
  1
E5105024 [ 3 FLUTE ]
 41
0.75
  7
SLDTEXTSTYLE0
 11
-25.82156822086649
 21
-51.86737327254509
 31
0.0
100
AcDbAttribute
  2
AUTOATTR0
 70
     0
 74
     1
  0
SEQEND
  5
C8
330
C6
100
AcDbEntity
  8
0
  6
Continuous
 62
     7
  0
HATCH
  5
C9
330
1F
100
AcDbEntity
  8
중심선
100
AcDbHatch
 10
0.0
 20
0.0
 30
0.0
210
0.0
220
0.0
230
1.0
  2
SOLID
 70
     1
 71
     0
 91
        1
 92
        0
 93
        4
 72
     1
 10
-10.92536362774436
 20
-35.57889921706667
 11
-14.37163887158164
 21
-35.57889921706667
 72
     1
 10
-14.37163887158164
 20
-35.57889921706667
 11
-16.49986873078566
 21
-38.11522479763927
 72
     1
 10
-16.49986873078566
 20
-38.11522479763927
 11
-13.05356040183523
 21
-38.11518536833678
 72
     1
 10
-13.05356040183523
 20
-38.11518536833678
 11
-10.92536362774436
 21
-35.57889921706667
 97
        0
 75
     0
 76
     1
 98
        1
 10
-0.0000000000000107
 20
0.2200258542094346
  0
HATCH
  5
CA
330
1F
100
AcDbEntity
  8
중심선
100
AcDbHatch
 10
0.0
 20
0.0
 30
0.0
210
0.0
220
0.0
230
1.0
  2
SOLID
 70
     1
 71
     0
 91
        1
 92
        0
 93
        4
 72
     1
 10
-5.912599636708382
 20
-35.57889921706667
 11
-9.358874880545663
 21
-35.57889921706667
 72
     1
 10
-9.358874880545663
 20
-35.57889921706667
 11
-13.89001288890308
 21
-40.97889921706669
 72
     1
 10
-13.89001288890308
 20
-40.97889921706669
 11
-10.4437376450658
 21
-40.97889921706669
 72
     1
 10
-10.4437376450658
 20
-40.97889921706669
 11
-5.912599636708382
 21
-35.57889921706667
 97
        0
 75
     0
 76
     1
 98
        1
 10
-0.0000000000000107
 20
0.2200258542094346
  0
HATCH
  5
CB
330
1F
100
AcDbEntity
  8
중심선
100
AcDbHatch
 10
0.0
 20
0.0
 30
0.0
210
0.0
220
0.0
230
1.0
  2
SOLID
 70
     1
 71
     0
 91
        1
 92
        0
 93
        4
 72
     1
 10
-0.8998356456725138
 20
-35.5788992170667
 11
-4.346110889509601
 21
-35.57889921706667
 72
     1
 10
-4.346110889509601
 20
-35.57889921706667
 11
-11.39454779139888
 21
-43.97889921706669
 72
     1
 10
-11.39454779139888
 20
-43.97889921706669
 11
-7.948272547561596
 21
-43.97889921706669
 72
     1
 10
-7.948272547561596
 20
-43.97889921706669
 11
-0.8998356456725141
 21
-35.5788992170667
 97
        0
 75
     0
 76
     1
 98
        1
 10
-0.0000000000000107
 20
0.2200258542094346
  0
HATCH
  5
CC
330
1F
100
AcDbEntity
  8
중심선
100
AcDbHatch
 10
0.0
 20
0.0
 30
0.0
210
0.0
220
0.0
230
1.0
  2
SOLID
 70
     1
 71
     0
 91
        1
 92
        0
 93
        6
 72
     3
 10
3.900054785339686
 20
-39.77889921711795
 11
3.960054785062283
 21
1.540882976769353E-10
 40
0.3939339440162628
 50
17.09539180608436
 51
320.0019657685082
 73
     0
 72
     1
 10
5.583054441040253
 20
-38.366793221705
 11
7.888356314741319
 21
-36.43246651165708
 72
     3
 10
3.900054785286839
 20
-39.77889921706682
 11
6.600054785286829
 21
-1.278976924368180E-13
 40
0.636358354079598
 50
39.99873849337382
 51
368.4976242363724
 73
     1
 72
     1
 10
10.32538727718745
 20
-38.8188992169967
 11
2.58012209212276
 21
-38.8188992169967
 72
     1
 10
2.580122092122761
 20
-38.8188992169967
 11
2.580097047676827
 21
-40.73889921699659
 72
     1
 10
2.580097047676827
 20
-40.73889921699659
 11
7.021476817148864
 21
-40.73889921699656
 97
        0
 75
     0
 76
     1
 98
        1
 10
-0.0000000000000107
 20
0.2200258542094346
  0
DIMENSION
  5
CD
330
1F
100
AcDbEntity
  8
치수문자_일반주서
100
AcDbDimension
  2
_D
 10
22.70011487100763
 20
41.6386309707852
 30
0.0
 11
-2.699999999999996
 21
41.6386309707852
 31
0.0
 70
   160
  1
<>
 71
     2
 42
50.80011487100764
  3
SLDDIMSTYLE0
100
AcDbAlignedDimension
 13
-28.1
 23
4.762499999999999
 33
0.0
 14
22.70011487100763
 24
4.762500000000046
 34
0.0
100
AcDbRotatedDimension
1001
ACAD
1000
DSTYLE
1002
{
1070
   171
1070
     3
1070
   273
1070
     7
1002
}
  0
DIMENSION
  5
E1
330
1F
100
AcDbEntity
  8
치수문자_일반주서
100
AcDbDimension
  2
_D_1
 10
-37.0546286016484
 20
-4.762500000000038
 30
0.0
 11
-37.05462860164851
 21
24.49149999999997
 31
0.0
 70
   160
  1
%%c<>
 71
     2
 42
9.525000000000004
 52
-270.0
  3
SLDDIMSTYLE1
100
AcDbAlignedDimension
 13
-28.1
 23
4.762499999999999
 33
0.0
 14
-28.09557854327646
 24
-4.762500000000005
 34
0.0
 50
90.0000000000002
100
AcDbRotatedDimension
1001
ACAD
1000
DSTYLE
1002
{
1070
   171
1070
     3
1070
   273
1070
     7
1002
}
  0
DIMENSION
  5
F6
330
1F
100
AcDbEntity
  8
치수문자_일반주서
100
AcDbDimension
  2
_D_2
 10
10.00000000000001
 20
23.23302109823208
 30
0.0
 11
-8.635249999999992
 21
23.23302109823208
 31
0.0
 70
   160
  1
<>
 71
     2
 42
12.7
  3
SLDDIMSTYLE2
100
AcDbAlignedDimension
 13
22.70000000000001
 23
4.762500000000046
 33
0.0
 14
10.00000000000001
 24
4.762499999999998
 34
0.0
100
AcDbRotatedDimension
1001
ACAD
1000
DSTYLE
1002
{
1070
   171
1070
     3
1070
   273
1070
     7
1002
}
  0
DIMENSION
  5
10C
330
1F
100
AcDbEntity
  8
치수문자_일반주서
100
AcDbDimension
  2
_D_3
 10
32.70000000000005
 20
-4.76249999999991
 30
0.0
 11
32.69999999999995
 21
24.49150000000008
 31
0.0
 70
   160
  1
%%c<>
 71
     2
 42
9.524999999999995
 52
-270.0
  3
SLDDIMSTYLE1
100
AcDbAlignedDimension
 13
22.70000000000001
 23
4.762500000000046
 33
0.0
 14
22.70189292781494
 24
-4.762499999999948
 34
0.0
 50
90.0000000000002
100
AcDbRotatedDimension
1001
ACAD
1000
DSTYLE
1002
{
1070
   171
1070
     3
1070
   273
1070
     7
1002
}
  0
LINE
  5
120
330
1F
100
AcDbEntity
  8
참조1
100
AcDbLine
 10
86.47300279016855
 20
7.66110078293333
 30
0.0
 11
86.47300279016855
 21
-7.218899217066674
 31
0.0
  0
LINE
  5
121
330
1F
100
AcDbEntity
  8
참조1
100
AcDbLine
 10
99.17300279016855
 20
5.66110078293333
 30
0.0
 11
86.47300279016855
 21
5.66110078293333
 31
0.0
  0
SOLID
  5
122
330
1F
100
AcDbEntity
  8
참조1
100
AcDbTrace
 10
86.47300279016855
 20
5.66110078293333
 30
0.0
 11
92.82300279016854
 21
4.64510078293333
 31
0.0
 12
92.82300279016854
 22
6.67710078293333
 32
0.0
 13
92.82300279016854
 23
6.67710078293333
 33
0.0
  0
LINE
  5
123
330
1F
100
AcDbEntity
  8
참조1
100
AcDbLine
 10
99.17300279016855
 20
-5.218899217066674
 30
0.0
 11
86.47300279016855
 21
-5.218899217066674
 31
0.0
  0
SOLID
  5
124
330
1F
100
AcDbEntity
  8
참조1
100
AcDbTrace
 10
86.47300279016855
 20
-5.218899217066674
 30
0.0
 11
92.82300279016854
 21
-6.234899217066674
 31
0.0
 12
92.82300279016854
 22
-4.202899217066674
 32
0.0
 13
92.82300279016854
 23
-4.202899217066674
 33
0.0
  0
MTEXT
  5
125
330
1F
100
AcDbEntity
  8
참조1
100
AcDbMText
 10
95.87049288263883
 20
11.20931742758327
 30
0.0
 40
3.5
 41
0.0
 71
     1
 72
     1
  1
A
  7
SLDTEXTSTYLE0
 73
     1
 44
1.0
  0
MTEXT
  5
126
330
1F
100
AcDbEntity
  8
참조1
100
AcDbMText
 10
95.87049288263883
 20
0.3293174275832605
 30
0.0
 40
3.5
 41
0.0
 71
     1
 72
     1
  1
A
  7
SLDTEXTSTYLE0
 73
     1
 44
1.0
  0
INSERT
  5
12D
330
1F
100
AcDbEntity
  8
해칭선
100
AcDbBlockReference
  2
SW_DOWELSYMBOL_0
 10
0.0
 20
0.0
 30
0.0
  0
ARC
  5
15A
330
1F
100
AcDbEntity
  8
외형선
  6
Continuous
 62
     1
370
    15
100
AcDbCircle
 10
22.19202045510352
 20
4.254500000000047
 30
0.0
 40
0.5079999999999998
100
AcDbArc
 50
359.9931675320066
 51
90.00000000000006
1001
PE_URL
1000

  0
MTEXT
  5
186
102
{ACAD_REACTORS
330
187
102
}
330
1F
100
AcDbEntity
  8
0
100
AcDbMText
 10
32.89233617374335
 20
-22.91755516193214
 30
0.0
 40
3.5
 41
0.0
 71
     7
 72
     1
  1
{R0.51[.020"]}
 73
     1
 44
1.0
1001
ACAD
1000
ACAD_MTEXT_DEFINED_HEIGHT_BEGIN
1070
    46
1040
3.5
1000
ACAD_MTEXT_DEFINED_HEIGHT_END
  0
LEADER
  5
187
102
{ACAD_XDICTIONARY
360
188
102
}
330
1F
100
AcDbEntity
  8
0
100
AcDbLeader
  3
ISO-25
 73
     0
 74
     0
 75
     1
 40
3.5
 41
29.75
 76
     3
 10
22.19283142803917
 20
-4.134955065099936
 30
0.0
 10
28.06633617374334
 20
-21.16755516193214
 30
0.0
 10
31.36833617374334
 20
-21.16755516193214
 30
0.0
340
186
213
0.0
223
1.75
233
0.0
1001
ACAD
1000
DSTYLE
1002
{
1070
    77
1070
     0
1070
   179
1070
     2
1070
   143
1040
0.0393700787401575
1070
    41
1040
3.302
1070
    44
1040
1.0
1070
    42
1040
1.0
1070
   147
1040
1.524
1070
    73
1070
     1
1070
    74
1070
     1
1070
   140
1040
3.5
1070
   284
1070
     0
1070
    78
1070
     0
1002
}
  0
LINE
  5
211
330
1F
100
AcDbEntity
  8
외형선
  6
Continuous
370
    15
100
AcDbLine
 10
-11.82495000000012
 20
3.492500000000007
 30
0.0
 11
-4.687549999999995
 21
3.492500000000007
 31
0.0
1001
PE_URL
1000

  0
LINE
  5
212
330
1F
100
AcDbEntity
  8
외형선
  6
Continuous
370
    15
100
AcDbLine
 10
-11.82495000000012
 20
3.492500000000007
 30
0.0
 11
-13.0949500000001
 21
4.762499999999989
 31
0.0
1001
PE_URL
1000

  0
LINE
  5
213
330
1F
100
AcDbEntity
  8
외형선
  6
Continuous
370
    15
100
AcDbLine
 10
-4.687549999999995
 20
3.492500000000007
 30
0.0
 11
-3.417549999999899
 21
4.762499999999989
 31
0.0
1001
PE_URL
1000

  0
LINE
  5
216
330
1F
100
AcDbEntity
  8
외형선
  6
Continuous
370
    15
100
AcDbLine
 10
-3.417549999999899
 20
4.762499999999989
 30
0.0
 11
10.00000000000001
 21
4.762499999999998
 31
0.0
1001
PE_URL
1000

  0
ENDSEC
  0
SECTION
  2
OBJECTS
  0
DICTIONARY
  5
C
330
0
100
AcDbDictionary
281
     1
  3
ACAD_GROUP
350
D
  3
ACAD_LAYOUT
350
1A
  3
ACAD_MLINESTYLE
350
17
  3
ACAD_PLOTSETTINGS
350
19
  3
ACAD_PLOTSTYLENAME
350
E
  3
ACAD_SCALELIST
350
47
  3
APPDATA
350
14F
  3
DWGPROPS
350
25B
  0
DICTIONARY
  5
1D2
330
2
100
AcDbDictionary
280
     1
281
     1
  3
ACAD_LAYERSTATES
360
207
  0
DICTIONARY
  5
188
330
187
100
AcDbDictionary
280
     1
281
     1
  3
*A1
360
189
  0
DICTIONARY
  5
D
102
{ACAD_REACTORS
330
C
102
}
330
C
100
AcDbDictionary
281
     1
  0
DICTIONARY
  5
1A
102
{ACAD_REACTORS
330
C
102
}
330
C
100
AcDbDictionary
281
     1
  3
Layout1
350
1E
  3
Layout2
350
26
  3
Model
350
22
  0
DICTIONARY
  5
17
102
{ACAD_REACTORS
330
C
102
}
330
C
100
AcDbDictionary
281
     1
  3
Standard
350
18
  0
DICTIONARY
  5
19
102
{ACAD_REACTORS
330
C
102
}
330
C
100
AcDbDictionary
281
     1
  0
ACDBDICTIONARYWDFLT
  5
E
102
{ACAD_REACTORS
330
C
102
}
330
C
100
AcDbDictionary
281
     1
  3
Normal
350
F
100
AcDbDictionaryWithDefault
340
F
  0
DICTIONARY
  5
47
102
{ACAD_REACTORS
330
C
102
}
330
C
100
AcDbDictionary
281
     1
  3
A0
350
48
  3
A1
350
49
  3
A2
350
4A
  3
A3
350
4B
  3
A4
350
4C
  3
A5
350
4D
  3
A6
350
4E
  3
A7
350
4F
  3
A8
350
50
  3
A9
350
51
  3
B0
350
52
  3
B1
350
53
  3
B2
350
54
  3
B3
350
55
  3
B4
350
56
  3
B5
350
57
  3
B6
350
58
  3
B7
350
59
  3
B8
350
5A
  3
B9
350
5B
  3
C0
350
5C
  3
C1
350
5D
  3
C2
350
5E
  3
C3
350
5F
  3
C4
350
60
  3
C5
350
61
  3
C6
350
62
  3
C7
350
63
  3
C8
350
64
  3
C9
350
65
  3
D0
350
66
  3
D1
350
67
  3
D2
350
68
  0
DICTIONARY
  5
14F
102
{ACAD_REACTORS
330
C
102
}
330
C
100
AcDbDictionary
281
     1
  0
XRECORD
  5
25B
102
{ACAD_REACTORS
330
C
102
}
330
C
100
AcDbXrecord
280
     1
  1
DWGPROPS COOKIE
  2

  3

  4

  6

  7

  8
12017103
  9

300
=
301
=
302
=
303
=
304
=
305
=
306
=
307
=
308
=
309
=
 40
0.0
 41
2458290.303884271
 42
2458299.392107627
  1

 90
        0
  0
DICTIONARY
  5
207
102
{ACAD_REACTORS
330
1D2
102
}
330
1D2
100
AcDbDictionary
281
     1
  0
SPLINE
  5
189
102
{ACAD_REACTORS
330
188
102
}
330
188
100
AcDbEntity
  8
외형선
  6
Continuous
 62
     1
370
    15
100
AcDbSpline
210
0.0
220
0.0
230
1.0
 70
     8
 71
     3
 72
    29
 73
    25
 74
     0
 42
0.000000001
 43
0.00000001
 40
0.0
 40
0.0
 40
0.0
 40
0.0
 40
0.0422644495549575
 40
0.0894133481135558
 40
0.1360887908804358
 40
0.183088732683559
 40
0.2297638819666308
 40
0.2767625414519669
 40
0.323437633749297
 40
0.3704354120323877
 40
0.4171106810586105
 40
0.464107897037571
 40
0.5107833946634068
 40
0.5577805359514474
 40
0.6044561394422602
 40
0.651453806121575
 40
0.6980998941979074
 40
0.7450685450090514
 40
0.7915976398774139
 40
0.8384484734548767
 40
0.8795785645527328
 40
0.920930788652952
 40
0.9603675209920361
 40
1.0
 40
1.0
 40
1.0
 40
1.0
 10
12.38189177007194
 20
1.248479460924195
 30
0.0
 10
12.52654344348548
 20
1.258273475674198
 30
0.0
 10
12.8325640013379
 20
1.278993387077104
 30
0.0
 10
13.29773257188337
 20
1.254108412177238
 30
0.0
 10
13.78025596066385
 20
1.187861475668798
 30
0.0
 10
14.25966703328228
 20
1.076843206459327
 30
0.0
 10
14.7418375996466
 20
0.9278143507748849
 30
0.0
 10
15.22126826210304
 20
0.7422259995311946
 30
0.0
 10
15.70321466955698
 20
0.5287568400491983
 30
0.0
 10
16.18301476867187
 20
0.291415106865743
 30
0.0
 10
16.66438564818222
 20
0.0386509998105593
 30
0.0
 10
17.14481199956303
 20
-0.2211140264741509
 30
0.0
 10
17.62559449395425
 20
-0.4827611477767423
 30
0.0
 10
18.10652182376923
 20
-0.7336501666871716
 30
0.0
 10
18.58700798445997
 20
-0.9720014204249832
 30
0.0
 10
19.06797035806053
 20
-1.184275237010919
 30
0.0
 10
19.54830862416817
 20
-1.369853183592872
 30
0.0
 10
20.02843114246354
 20
-1.518172522965445
 30
0.0
 10
20.50823986679071
 20
-1.62831800107122
 30
0.0
 10
20.96857053986777
 20
-1.692379933129987
 30
0.0
 10
21.41107311362818
 20
-1.715381820442324
 30
0.0
 10
21.82821005632637
 20
-1.70162911792889
 30
0.0
 10
22.2401103516564
 20
-1.656726206160658
 30
0.0
 10
22.51072264209905
 20
-1.601263250205901
 30
0.0
 10
22.64636375622617
 20
-1.573463119154277
 30
0.0
  0
LAYOUT
  5
1E
102
{ACAD_REACTORS
330
1A
102
}
330
1A
100
AcDbPlotSettings
  1

  2
none_device
  4

  6

 40
0.0
 41
0.0
 42
0.0
 43
0.0
 44
0.0
 45
0.0
 46
0.0
 47
0.0
 48
0.0
 49
0.0
140
0.0
141
0.0
142
1.0
143
1.0
 70
   688
 72
     1
 73
     0
 74
     5
  7

 75
    16
147
1.0
148
0.0
149
0.0
100
AcDbLayout
  1
Layout1
 70
     1
 71
     1
 10
0.0
 20
0.0
 11
420.0
 21
297.0
 12
0.0
 22
0.0
 32
0.0
 14
1.000000000000000E+20
 24
1.000000000000000E+20
 34
1.000000000000000E+20
 15
-1.000000000000000E+20
 25
-1.000000000000000E+20
 35
-1.000000000000000E+20
146
0.0
 13
0.0
 23
0.0
 33
0.0
 16
1.0
 26
0.0
 36
0.0
 17
0.0
 27
1.0
 37
0.0
 76
     0
330
1B
  0
LAYOUT
  5
26
102
{ACAD_REACTORS
330
1A
102
}
330
1A
100
AcDbPlotSettings
  1

  2
none_device
  4

  6

 40
0.0
 41
0.0
 42
0.0
 43
0.0
 44
0.0
 45
0.0
 46
0.0
 47
0.0
 48
0.0
 49
0.0
140
0.0
141
0.0
142
1.0
143
1.0
 70
   688
 72
     1
 73
     0
 74
     5
  7

 75
    16
147
1.0
148
0.0
149
0.0
100
AcDbLayout
  1
Layout2
 70
     1
 71
     2
 10
0.0
 20
0.0
 11
0.0
 21
0.0
 12
0.0
 22
0.0
 32
0.0
 14
0.0
 24
0.0
 34
0.0
 15
0.0
 25
0.0
 35
0.0
146
0.0
 13
0.0
 23
0.0
 33
0.0
 16
1.0
 26
0.0
 36
0.0
 17
0.0
 27
1.0
 37
0.0
 76
     0
330
23
  0
LAYOUT
  5
22
102
{ACAD_REACTORS
330
1A
102
}
330
1A
100
AcDbPlotSettings
  1

  2
none_device
  4
ANSI_A_(11.00_x_8.50_Inches)
  6

 40
6.35
 41
19.05
 42
6.35000508
 43
19.05000254
 44
279.4
 45
215.9
 46
100.2745198137351
 47
79.26461134525867
 48
0.0
 49
0.0
140
0.0
141
0.0
142
0.0680344848847376
143
1.0
 70
  1696
 72
     0
 73
     0
 74
     0
  7

 75
     0
147
0.0235690232323232
148
0.0
149
0.0
100
AcDbLayout
  1
Model
 70
     1
 71
     0
 10
0.0
 20
0.0
 11
420.0
 21
297.0
 12
0.0
 22
0.0
 32
0.0
 14
-41.42962860164855
 24
-49.75070660587842
 34
0.0
 15
99.17300279016854
 25
46.0136309707852
 35
0.0
146
0.0
 13
0.0
 23
0.0
 33
0.0
 16
1.0
 26
0.0
 36
0.0
 17
0.0
 27
1.0
 37
0.0
 76
     0
330
1F
331
29
  0
MLINESTYLE
  5
18
102
{ACAD_REACTORS
330
17
102
}
330
17
100
AcDbMlineStyle
  2
Standard
 70
     0
  3

 62
   256
 51
90.0
 52
90.0
 71
     2
 49
0.5
 62
   256
  6
BYLAYER
 49
-0.5
 62
   256
  6
BYLAYER
  0
ACDBPLACEHOLDER
  5
F
102
{ACAD_REACTORS
330
E
102
}
330
E
  0
SCALE
  5
48
102
{ACAD_REACTORS
330
47
102
}
330
47
100
AcDbScale
 70
     0
300
1:1
140
1.0
141
1.0
290
     1
  0
SCALE
  5
49
102
{ACAD_REACTORS
330
47
102
}
330
47
100
AcDbScale
 70
     0
300
1:2
140
1.0
141
2.0
290
     0
  0
SCALE
  5
4A
102
{ACAD_REACTORS
330
47
102
}
330
47
100
AcDbScale
 70
     0
300
1:4
140
1.0
141
4.0
290
     0
  0
SCALE
  5
4B
102
{ACAD_REACTORS
330
47
102
}
330
47
100
AcDbScale
 70
     0
300
1:5
140
1.0
141
5.0
290
     0
  0
SCALE
  5
4C
102
{ACAD_REACTORS
330
47
102
}
330
47
100
AcDbScale
 70
     0
300
1:8
140
1.0
141
8.0
290
     0
  0
SCALE
  5
4D
102
{ACAD_REACTORS
330
47
102
}
330
47
100
AcDbScale
 70
     0
300
1:10
140
1.0
141
10.0
290
     0
  0
SCALE
  5
4E
102
{ACAD_REACTORS
330
47
102
}
330
47
100
AcDbScale
 70
     0
300
1:16
140
1.0
141
16.0
290
     0
  0
SCALE
  5
4F
102
{ACAD_REACTORS
330
47
102
}
330
47
100
AcDbScale
 70
     0
300
1:20
140
1.0
141
20.0
290
     0
  0
SCALE
  5
50
102
{ACAD_REACTORS
330
47
102
}
330
47
100
AcDbScale
 70
     0
300
1:30
140
1.0
141
30.0
290
     0
  0
SCALE
  5
51
102
{ACAD_REACTORS
330
47
102
}
330
47
100
AcDbScale
 70
     0
300
1:40
140
1.0
141
40.0
290
     0
  0
SCALE
  5
52
102
{ACAD_REACTORS
330
47
102
}
330
47
100
AcDbScale
 70
     0
300
1:50
140
1.0
141
50.0
290
     0
  0
SCALE
  5
53
102
{ACAD_REACTORS
330
47
102
}
330
47
100
AcDbScale
 70
     0
300
1:100
140
1.0
141
100.0
290
     0
  0
SCALE
  5
54
102
{ACAD_REACTORS
330
47
102
}
330
47
100
AcDbScale
 70
     0
300
2:1
140
2.0
141
1.0
290
     0
  0
SCALE
  5
55
102
{ACAD_REACTORS
330
47
102
}
330
47
100
AcDbScale
 70
     0
300
4:1
140
4.0
141
1.0
290
     0
  0
SCALE
  5
56
102
{ACAD_REACTORS
330
47
102
}
330
47
100
AcDbScale
 70
     0
300
8:1
140
8.0
141
1.0
290
     0
  0
SCALE
  5
57
102
{ACAD_REACTORS
330
47
102
}
330
47
100
AcDbScale
 70
     0
300
10:1
140
10.0
141
1.0
290
     0
  0
SCALE
  5
58
102
{ACAD_REACTORS
330
47
102
}
330
47
100
AcDbScale
 70
     0
300
100:1
140
100.0
141
1.0
290
     0
  0
SCALE
  5
59
102
{ACAD_REACTORS
330
47
102
}
330
47
100
AcDbScale
 70
     0
300
1/128" = 1'-0"
140
0.0078125
141
12.0
290
     0
  0
SCALE
  5
5A
102
{ACAD_REACTORS
330
47
102
}
330
47
100
AcDbScale
 70
     0
300
1/64" = 1'-0"
140
0.015625
141
12.0
290
     0
  0
SCALE
  5
5B
102
{ACAD_REACTORS
330
47
102
}
330
47
100
AcDbScale
 70
     0
300
1/32" = 1'-0"
140
0.03125
141
12.0
290
     0
  0
SCALE
  5
5C
102
{ACAD_REACTORS
330
47
102
}
330
47
100
AcDbScale
 70
     0
300
1/16" = 1'-0"
140
0.0625
141
12.0
290
     0
  0
SCALE
  5
5D
102
{ACAD_REACTORS
330
47
102
}
330
47
100
AcDbScale
 70
     0
300
3/32" = 1'-0"
140
0.09375
141
12.0
290
     0
  0
SCALE
  5
5E
102
{ACAD_REACTORS
330
47
102
}
330
47
100
AcDbScale
 70
     0
300
1/8" = 1'-0"
140
0.125
141
12.0
290
     0
  0
SCALE
  5
5F
102
{ACAD_REACTORS
330
47
102
}
330
47
100
AcDbScale
 70
     0
300
3/16" = 1'-0"
140
0.1875
141
12.0
290
     0
  0
SCALE
  5
60
102
{ACAD_REACTORS
330
47
102
}
330
47
100
AcDbScale
 70
     0
300
1/4" = 1'-0"
140
0.25
141
12.0
290
     0
  0
SCALE
  5
61
102
{ACAD_REACTORS
330
47
102
}
330
47
100
AcDbScale
 70
     0
300
3/8" = 1'-0"
140
0.375
141
12.0
290
     0
  0
SCALE
  5
62
102
{ACAD_REACTORS
330
47
102
}
330
47
100
AcDbScale
 70
     0
300
1/2" = 1'-0"
140
0.5
141
12.0
290
     0
  0
SCALE
  5
63
102
{ACAD_REACTORS
330
47
102
}
330
47
100
AcDbScale
 70
     0
300
3/4" = 1'-0"
140
0.75
141
12.0
290
     0
  0
SCALE
  5
64
102
{ACAD_REACTORS
330
47
102
}
330
47
100
AcDbScale
 70
     0
300
1" = 1'-0"
140
1.0
141
12.0
290
     0
  0
SCALE
  5
65
102
{ACAD_REACTORS
330
47
102
}
330
47
100
AcDbScale
 70
     0
300
1-1/2" = 1'-0"
140
1.5
141
12.0
290
     0
  0
SCALE
  5
66
102
{ACAD_REACTORS
330
47
102
}
330
47
100
AcDbScale
 70
     0
300
3" = 1'-0"
140
3.0
141
12.0
290
     0
  0
SCALE
  5
67
102
{ACAD_REACTORS
330
47
102
}
330
47
100
AcDbScale
 70
     0
300
6" = 1'-0"
140
6.0
141
12.0
290
     0
  0
SCALE
  5
68
102
{ACAD_REACTORS
330
47
102
}
330
47
100
AcDbScale
 70
     0
300
1'-0" = 1'-0"
140
12.0
141
12.0
290
     0
  0
ENDSEC
  0
EOF
