  0
SECTION
  2
HEADER
  9
$ACADVER
  1
AC1015
  9
$ACADMAINTVER
 70
     6
  9
$DWGCODEPAGE
  3
ANSI_949
  9
$INSBASE
 10
0.0
 20
0.0
 30
0.0
  9
$EXTMIN
 10
-68.36904295748033
 20
-49.98438634254138
 30
0.0
  9
$EXTMAX
 10
53.69336849975558
 20
62.31673636249308
 30
0.0
  9
$LIMMIN
 10
0.0
 20
0.0
  9
$LIMMAX
 10
420.0
 20
297.0
  9
$ORTHOMODE
 70
     0
  9
$REGENMODE
 70
     1
  9
$FILLMODE
 70
     1
  9
$QTEXTMODE
 70
     0
  9
$MIRRTEXT
 70
     1
  9
$LTSCALE
 40
1.0
  9
$ATTMODE
 70
     1
  9
$TEXTSIZE
 40
3.5
  9
$TRACEWID
 40
1.0
  9
$TEXTSTYLE
  7
Standard
  9
$CLAYER
  8
0
  9
$CELTYPE
  6
ByLayer
  9
$CECOLOR
 62
   256
  9
$CELTSCALE
 40
1.0
  9
$DISPSILH
 70
     0
  9
$DIMSCALE
 40
1.0
  9
$DIMASZ
 40
3.302
  9
$DIMEXO
 40
1.0
  9
$DIMDLI
 40
3.75
  9
$DIMRND
 40
0.0
  9
$DIMDLE
 40
0.0
  9
$DIMEXE
 40
1.0
  9
$DIMTP
 40
0.0
  9
$DIMTM
 40
0.0
  9
$DIMTXT
 40
3.5
  9
$DIMCEN
 40
2.5
  9
$DIMTSZ
 40
0.0
  9
$DIMTOL
 70
     0
  9
$DIMLIM
 70
     0
  9
$DIMTIH
 70
     1
  9
$DIMTOH
 70
     1
  9
$DIMSE1
 70
     0
  9
$DIMSE2
 70
     0
  9
$DIMTAD
 70
     1
  9
$DIMZIN
 70
     0
  9
$DIMBLK
  1

  9
$DIMASO
 70
     1
  9
$DIMSHO
 70
     1
  9
$DIMPOST
  1

  9
$DIMAPOST
  1

  9
$DIMALT
 70
     0
  9
$DIMALTD
 70
     3
  9
$DIMALTF
 40
0.0393700787401575
  9
$DIMLFAC
 40
1.0
  9
$DIMTOFL
 70
     1
  9
$DIMTVP
 40
0.0
  9
$DIMTIX
 70
     0
  9
$DIMSOXD
 70
     0
  9
$DIMSAH
 70
     0
  9
$DIMBLK1
  1

  9
$DIMBLK2
  1

  9
$DIMSTYLE
  2
ISO-25
  9
$DIMCLRD
 70
     0
  9
$DIMCLRE
 70
     0
  9
$DIMCLRT
 70
     0
  9
$DIMTFAC
 40
1.0
  9
$DIMGAP
 40
1.524
  9
$DIMJUST
 70
     0
  9
$DIMSD1
 70
     0
  9
$DIMSD2
 70
     0
  9
$DIMTOLJ
 70
     0
  9
$DIMTZIN
 70
     0
  9
$DIMALTZ
 70
     0
  9
$DIMALTTZ
 70
     0
  9
$DIMUPT
 70
     0
  9
$DIMDEC
 70
     2
  9
$DIMTDEC
 70
     2
  9
$DIMALTU
 70
     2
  9
$DIMALTTD
 70
     3
  9
$DIMTXSTY
  7
Standard
  9
$DIMAUNIT
 70
     0
  9
$DIMADEC
 70
     2
  9
$DIMALTRND
 40
0.0
  9
$DIMAZIN
 70
     0
  9
$DIMDSEP
 70
    44
  9
$DIMATFIT
 70
     3
  9
$DIMFRAC
 70
     0
  9
$DIMLDRBLK
  1

  9
$DIMLUNIT
 70
     2
  9
$DIMLWD
 70
    -2
  9
$DIMLWE
 70
    -2
  9
$DIMTMOVE
 70
     0
  9
$LUNITS
 70
     2
  9
$LUPREC
 70
     2
  9
$SKETCHINC
 40
1.0
  9
$FILLETRAD
 40
10.0
  9
$AUNITS
 70
     0
  9
$AUPREC
 70
     2
  9
$MENU
  1
.
  9
$ELEVATION
 40
0.0
  9
$PELEVATION
 40
0.0
  9
$THICKNESS
 40
0.0
  9
$LIMCHECK
 70
     0
  9
$CHAMFERA
 40
0.0
  9
$CHAMFERB
 40
0.0
  9
$CHAMFERC
 40
0.0
  9
$CHAMFERD
 40
0.0
  9
$SKPOLY
 70
     0
  9
$TDCREATE
 40
2458340.594778206
  9
$TDUCREATE
 40
2458340.219778206
  9
$TDUPDATE
 40
2458347.753074849
  9
$TDUUPDATE
 40
2458347.378074849
  9
$TDINDWG
 40
0.0060115046
  9
$TDUSRTIMER
 40
2458347.372063484
  9
$USRTIMER
 70
     1
  9
$ANGBASE
 50
0.0
  9
$ANGDIR
 70
     0
  9
$PDMODE
 70
     0
  9
$PDSIZE
 40
-1.0
  9
$PLINEWID
 40
0.0
  9
$SPLFRAME
 70
     0
  9
$SPLINETYPE
 70
     6
  9
$SPLINESEGS
 70
     8
  9
$HANDSEED
  5
184
  9
$SURFTAB1
 70
     6
  9
$SURFTAB2
 70
     6
  9
$SURFTYPE
 70
     6
  9
$SURFU
 70
     6
  9
$SURFV
 70
     6
  9
$UCSBASE
  2

  9
$UCSNAME
  2

  9
$UCSORG
 10
0.0
 20
0.0
 30
0.0
  9
$UCSXDIR
 10
1.0
 20
0.0
 30
0.0
  9
$UCSYDIR
 10
0.0
 20
1.0
 30
0.0
  9
$UCSORTHOREF
  2

  9
$UCSORTHOVIEW
 70
     0
  9
$UCSORGTOP
 10
0.0
 20
0.0
 30
0.0
  9
$UCSORGBOTTOM
 10
0.0
 20
0.0
 30
0.0
  9
$UCSORGLEFT
 10
0.0
 20
0.0
 30
0.0
  9
$UCSORGRIGHT
 10
0.0
 20
0.0
 30
0.0
  9
$UCSORGFRONT
 10
0.0
 20
0.0
 30
0.0
  9
$UCSORGBACK
 10
0.0
 20
0.0
 30
0.0
  9
$PUCSBASE
  2

  9
$PUCSNAME
  2

  9
$PUCSORG
 10
0.0
 20
0.0
 30
0.0
  9
$PUCSXDIR
 10
1.0
 20
0.0
 30
0.0
  9
$PUCSYDIR
 10
0.0
 20
1.0
 30
0.0
  9
$PUCSORTHOREF
  2

  9
$PUCSORTHOVIEW
 70
     0
  9
$PUCSORGTOP
 10
0.0
 20
0.0
 30
0.0
  9
$PUCSORGBOTTOM
 10
0.0
 20
0.0
 30
0.0
  9
$PUCSORGLEFT
 10
0.0
 20
0.0
 30
0.0
  9
$PUCSORGRIGHT
 10
0.0
 20
0.0
 30
0.0
  9
$PUCSORGFRONT
 10
0.0
 20
0.0
 30
0.0
  9
$PUCSORGBACK
 10
0.0
 20
0.0
 30
0.0
  9
$USERI1
 70
     0
  9
$USERI2
 70
     0
  9
$USERI3
 70
     0
  9
$USERI4
 70
     0
  9
$USERI5
 70
     0
  9
$USERR1
 40
0.0
  9
$USERR2
 40
0.0
  9
$USERR3
 40
0.0
  9
$USERR4
 40
0.0
  9
$USERR5
 40
0.0
  9
$WORLDVIEW
 70
     1
  9
$SHADEDGE
 70
     3
  9
$SHADEDIF
 70
    70
  9
$TILEMODE
 70
     1
  9
$MAXACTVP
 70
    64
  9
$PINSBASE
 10
0.0
 20
0.0
 30
0.0
  9
$PLIMCHECK
 70
     0
  9
$PEXTMIN
 10
1.000000000000000E+20
 20
1.000000000000000E+20
 30
1.000000000000000E+20
  9
$PEXTMAX
 10
-1.000000000000000E+20
 20
-1.000000000000000E+20
 30
-1.000000000000000E+20
  9
$PLIMMIN
 10
0.0
 20
0.0
  9
$PLIMMAX
 10
0.0
 20
0.0
  9
$UNITMODE
 70
     0
  9
$VISRETAIN
 70
     1
  9
$PLINEGEN
 70
     0
  9
$PSLTSCALE
 70
     1
  9
$TREEDEPTH
 70
  3020
  9
$CMLSTYLE
  2
Standard
  9
$CMLJUST
 70
     0
  9
$CMLSCALE
 40
20.0
  9
$PROXYGRAPHICS
 70
     1
  9
$MEASUREMENT
 70
     1
  9
$CELWEIGHT
370
    -1
  9
$ENDCAPS
280
     0
  9
$JOINSTYLE
280
     0
  9
$LWDISPLAY
290
     1
  9
$INSUNITS
 70
     4
  9
$HYPERLINKBASE
  1

  9
$STYLESHEET
  1

  9
$XEDIT
290
     1
  9
$CEPSNTYPE
380
     0
  9
$PSTYLEMODE
290
     1
  9
$FINGERPRINTGUID
  2
{80F53138-8088-4006-BAC5-6EF30DE3DEFF}
  9
$VERSIONGUID
  2
{FAEB1C32-E019-11D5-929B-00C0DF256EC4}
  9
$EXTNAMES
290
     1
  9
$PSVPSCALE
 40
0.0
  9
$OLESTARTUP
290
     0
  0
ENDSEC
  0
SECTION
  2
CLASSES
  0
CLASS
  1
ACDBDICTIONARYWDFLT
  2
AcDbDictionaryWithDefault
  3
ObjectDBX Classes
 90
        0
280
     0
281
     0
  0
CLASS
  1
VISUALSTYLE
  2
AcDbVisualStyle
  3
ObjectDBX Classes
 90
     4095
280
     0
281
     0
  0
CLASS
  1
MATERIAL
  2
AcDbMaterial
  3
ObjectDBX Classes
 90
     1153
280
     0
281
     0
  0
CLASS
  1
SCALE
  2
AcDbScale
  3
ObjectDBX Classes
 90
     1153
280
     0
281
     0
  0
CLASS
  1
SUN
  2
AcDbSun
  3
SCENEOE
 90
     1153
280
     0
281
     0
  0
CLASS
  1
ACDBPLACEHOLDER
  2
AcDbPlaceHolder
  3
ObjectDBX Classes
 90
        0
280
     0
281
     0
  0
CLASS
  1
LAYOUT
  2
AcDbLayout
  3
ObjectDBX Classes
 90
        0
280
     0
281
     0
  0
CLASS
  1
TABLESTYLE
  2
AcDbTableStyle
  3
ObjectDBX Classes
 90
     4095
280
     0
281
     0
  0
CLASS
  1
MLEADERSTYLE
  2
AcDbMLeaderStyle
  3
ACDB_MLEADERSTYLE_CLASS
 90
     4095
280
     0
281
     0
  0
CLASS
  1
RASTERVARIABLES
  2
AcDbRasterVariables
  3
ISM
 90
        0
280
     0
281
     0
  0
CLASS
  1
DIMASSOC
  2
AcDbDimAssoc
  3
"AcDbDimAssoc|Product Desc:     AcDim ARX App For Dimension|Company:          Autodesk, Inc.|WEB Address:      www.autodesk.com"
 90
        0
280
     0
281
     0
  0
ENDSEC
  0
SECTION
  2
TABLES
  0
TABLE
  2
VPORT
  5
8
330
0
100
AcDbSymbolTable
 70
     1
  0
VPORT
  5
29
330
8
100
AcDbSymbolTableRecord
100
AcDbViewportTableRecord
  2
*Active
 70
     0
 10
0.0
 20
0.0
 11
1.0
 21
1.0
 12
-21.74103694281767
 22
27.64104496845837
 13
0.0
 23
0.0
 14
10.0
 24
10.0
 15
10.0
 25
10.0
 16
0.0
 26
0.0
 36
1.0
 17
0.0
 27
0.0
 37
0.0
 40
232.2291697496548
 41
1.453525641025641
 42
50.0
 43
0.0
 44
0.0
 50
0.0
 51
0.0
 71
    16
 72
  2000
 73
     1
 74
     3
 75
     0
 76
     0
 77
     0
 78
     0
281
     0
 65
     1
110
0.0
120
0.0
130
0.0
111
1.0
121
0.0
131
0.0
112
0.0
122
1.0
132
0.0
 79
     0
146
0.0
  0
ENDTAB
  0
TABLE
  2
LTYPE
  5
5
330
0
100
AcDbSymbolTable
 70
     6
  0
LTYPE
  5
14
330
5
100
AcDbSymbolTableRecord
100
AcDbLinetypeTableRecord
  2
ByBlock
 70
     0
  3

 72
    65
 73
     0
 40
0.0
  0
LTYPE
  5
15
330
5
100
AcDbSymbolTableRecord
100
AcDbLinetypeTableRecord
  2
ByLayer
 70
     0
  3

 72
    65
 73
     0
 40
0.0
  0
LTYPE
  5
16
330
5
100
AcDbSymbolTableRecord
100
AcDbLinetypeTableRecord
  2
Continuous
 70
     0
  3
Solid line
 72
    65
 73
     0
 40
0.0
  0
LTYPE
  5
6A
330
5
100
AcDbSymbolTableRecord
100
AcDbLinetypeTableRecord
  2
HIDDEN
 70
     0
  3
Hidden __ __ __ __ __ __ __ __ __ __ __ __ __ __
 72
    65
 73
     2
 40
1.905
 49
1.27
 74
     0
 49
-0.635
 74
     0
  0
LTYPE
  5
6B
330
5
100
AcDbSymbolTableRecord
100
AcDbLinetypeTableRecord
  2
PHANTOM
 70
     0
  3
Phantom ______  __  __  ______  __  __  ______
 72
    65
 73
     6
 40
12.7
 49
6.35
 74
     0
 49
-1.27
 74
     0
 49
1.27
 74
     0
 49
-1.27
 74
     0
 49
1.27
 74
     0
 49
-1.27
 74
     0
  0
LTYPE
  5
6C
330
5
100
AcDbSymbolTableRecord
100
AcDbLinetypeTableRecord
  2
CENTER
 70
     0
  3
Center ____ _ ____ _ ____ _ ____ _ ____ _ ____
 72
    65
 73
     4
 40
10.16
 49
6.35
 74
     0
 49
-1.27
 74
     0
 49
1.27
 74
     0
 49
-1.27
 74
     0
  0
LTYPE
  5
6D
330
5
100
AcDbSymbolTableRecord
100
AcDbLinetypeTableRecord
  2
CENTERX2
 70
     0
  3
Center (2x) ________  __  ________  __  _____
 72
    65
 73
     4
 40
20.32
 49
12.7
 74
     0
 49
-2.54
 74
     0
 49
2.54
 74
     0
 49
-2.54
 74
     0
  0
LTYPE
  5
6E
330
5
100
AcDbSymbolTableRecord
100
AcDbLinetypeTableRecord
  2
DOT2
 70
     0
  3
Dot (.5x) ........................................
 72
    65
 73
     2
 40
0.635
 49
0.0
 74
     0
 49
-0.635
 74
     0
  0
ENDTAB
  0
TABLE
  2
LAYER
  5
2
330
0
100
AcDbSymbolTable
 70
    17
  0
LAYER
  5
10
330
2
100
AcDbSymbolTableRecord
100
AcDbLayerTableRecord
  2
0
 70
     0
 62
     7
  6
Continuous
370
    -3
390
F
  0
LAYER
  5
6F
330
2
100
AcDbSymbolTableRecord
100
AcDbLayerTableRecord
  2
FORMAT
 70
     0
 62
     2
  6
Continuous
370
    -3
390
F
  0
LAYER
  5
70
330
2
100
AcDbSymbolTableRecord
100
AcDbLayerTableRecord
  2
외형선
 70
     0
 62
   100
  6
Continuous
370
    30
390
F
  0
LAYER
  5
71
330
2
100
AcDbSymbolTableRecord
100
AcDbLayerTableRecord
  2
숨은선
 70
     0
 62
     2
  6
HIDDEN
370
    15
390
F
  0
LAYER
  5
72
330
2
100
AcDbSymbolTableRecord
100
AcDbLayerTableRecord
  2
중심선
 70
     0
 62
     1
  6
CENTERX2
370
    -3
390
F
  0
LAYER
  5
73
330
2
100
AcDbSymbolTableRecord
100
AcDbLayerTableRecord
  2
파단선
 70
     0
 62
     4
  6
Continuous
370
    -3
390
F
  0
LAYER
  5
74
330
2
100
AcDbSymbolTableRecord
100
AcDbLayerTableRecord
  2
해칭선
 70
     0
 62
     4
  6
Continuous
370
    -3
390
F
  0
LAYER
  5
75
330
2
100
AcDbSymbolTableRecord
100
AcDbLayerTableRecord
  2
가는실선
 70
     0
 62
     4
  6
Continuous
370
    -3
390
F
  0
LAYER
  5
76
330
2
100
AcDbSymbolTableRecord
100
AcDbLayerTableRecord
  2
치수_보조선
 70
     0
 62
     4
  6
Continuous
370
    -3
390
F
  0
LAYER
  5
77
330
2
100
AcDbSymbolTableRecord
100
AcDbLayerTableRecord
  2
치수문자_일반주서
 70
     0
 62
     7
  6
Continuous
370
    15
390
F
  0
LAYER
  5
78
330
2
100
AcDbSymbolTableRecord
100
AcDbLayerTableRecord
  2
개별주서
 70
     0
 62
   100
  6
Continuous
370
    30
390
F
  0
LAYER
  5
79
330
2
100
AcDbSymbolTableRecord
100
AcDbLayerTableRecord
  2
중간선
 70
     0
 62
     2
  6
Continuous
370
    15
390
F
  0
LAYER
  5
7A
330
2
100
AcDbSymbolTableRecord
100
AcDbLayerTableRecord
  2
윤곽선
 70
     0
 62
     3
  6
Continuous
370
    40
390
F
  0
LAYER
  5
7B
330
2
100
AcDbSymbolTableRecord
100
AcDbLayerTableRecord
  2
중심마크
 70
     0
 62
   100
  6
Continuous
370
    30
390
F
  0
LAYER
  5
7C
330
2
100
AcDbSymbolTableRecord
100
AcDbLayerTableRecord
  2
가상선
 70
     0
 62
     4
  6
PHANTOM
370
    -3
390
F
  0
LAYER
  5
7D
330
2
100
AcDbSymbolTableRecord
100
AcDbLayerTableRecord
  2
특수지정선
 70
     0
 62
     5
  6
CENTERX2
370
    60
390
F
  0
LAYER
  5
145
330
2
100
AcDbSymbolTableRecord
100
AcDbLayerTableRecord
  2
Defpoints
 70
     0
 62
     7
  6
Continuous
290
     0
370
    -3
390
F
  0
ENDTAB
  0
TABLE
  2
STYLE
  5
3
330
0
100
AcDbSymbolTable
 70
     2
  0
STYLE
  5
11
330
3
100
AcDbSymbolTableRecord
100
AcDbTextStyleTableRecord
  2
Standard
 70
     0
 40
0.0
 41
1.0
 50
0.0
 71
     0
 42
3.5
  3
txt
  4

  0
STYLE
  5
93
330
3
100
AcDbSymbolTableRecord
100
AcDbTextStyleTableRecord
  2
SLDTEXTSTYLE0
 70
     0
 40
0.0
 41
0.75
 50
0.0
 71
     0
 42
3.5
  3
TXT
  4

  0
ENDTAB
  0
TABLE
  2
VIEW
  5
6
330
0
100
AcDbSymbolTable
 70
     0
  0
ENDTAB
  0
TABLE
  2
UCS
  5
7
330
0
100
AcDbSymbolTable
 70
     0
  0
ENDTAB
  0
TABLE
  2
APPID
  5
9
330
0
100
AcDbSymbolTable
 70
     2
  0
APPID
  5
12
330
9
100
AcDbSymbolTableRecord
100
AcDbRegAppTableRecord
  2
ACAD
 70
     0
  0
APPID
  5
16F
330
9
100
AcDbSymbolTableRecord
100
AcDbRegAppTableRecord
  2
PE_DIMMEASUREMENT
 70
     0
  0
ENDTAB
  0
TABLE
  2
DIMSTYLE
  5
A
330
0
100
AcDbSymbolTable
 70
     4
100
AcDbDimStyleTable
  0
DIMSTYLE
105
27
330
A
100
AcDbSymbolTableRecord
100
AcDbDimStyleTableRecord
  2
ISO-25
 70
     0
 41
2.5
 42
0.625
 43
3.75
 44
1.25
 73
     0
 74
     0
 77
     1
 78
     8
140
2.5
141
2.5
143
0.03937007874016
147
0.625
171
     3
172
     1
178
     0
271
     2
272
     2
274
     3
278
    44
283
     0
284
     8
340
11
  0
DIMSTYLE
105
E0
102
{ACAD_REACTORS
330
DF
330
15A
330
146
330
170
102
}
330
A
100
AcDbSymbolTableRecord
100
AcDbDimStyleTableRecord
  2
SLDDIMSTYLE0
 70
     0
 41
3.302
 44
0.0
 45
0.000000001
 73
     0
 74
     0
 77
     1
 78
     4
 79
     1
140
3.5
143
0.0393700787401575
147
0.875
148
0.000000001
170
     1
172
     1
173
     1
178
     0
271
     2
272
     2
276
     2
284
    12
289
     0
340
93
  0
DIMSTYLE
105
F6
102
{ACAD_REACTORS
330
F5
102
}
330
A
100
AcDbSymbolTableRecord
100
AcDbDimStyleTableRecord
  2
SLDDIMSTYLE1
 70
     0
 41
3.302
 44
0.0
 45
0.000000001
 73
     0
 74
     0
 77
     1
 78
     4
 79
     1
140
3.5
143
0.0393700787401575
147
0.875
148
0.000000001
170
     1
173
     1
178
     0
271
     2
272
     2
276
     2
284
    12
340
93
  0
DIMSTYLE
105
10A
330
A
100
AcDbSymbolTableRecord
100
AcDbDimStyleTableRecord
  2
SLDDIMSTYLE2
 70
     0
 41
3.302
 44
0.0
 45
0.000000001
 73
     0
 74
     0
 77
     1
 78
     8
 79
     2
140
3.5
143
0.0393700787401575
147
0.875
148
0.000000001
170
     1
172
     1
173
     1
178
     0
271
     2
272
     2
276
     2
284
    12
289
     0
340
93
341
10B
343
10B
344
10B
  0
ENDTAB
  0
TABLE
  2
BLOCK_RECORD
  5
1
330
0
100
AcDbSymbolTable
 70
    10
  0
BLOCK_RECORD
  5
1F
330
1
100
AcDbSymbolTableRecord
100
AcDbBlockTableRecord
  2
*Model_Space
340
22
  0
BLOCK_RECORD
  5
1B
330
1
100
AcDbSymbolTableRecord
100
AcDbBlockTableRecord
  2
*Paper_Space
340
1E
  0
BLOCK_RECORD
  5
23
330
1
100
AcDbSymbolTableRecord
100
AcDbBlockTableRecord
  2
*Paper_Space0
340
26
  0
BLOCK_RECORD
  5
7E
330
1
100
AcDbSymbolTableRecord
100
AcDbBlockTableRecord
  2
블럭10
340
0
102
{BLKREFS
331
D8
102
}
  0
BLOCK_RECORD
  5
E1
330
1
100
AcDbSymbolTableRecord
100
AcDbBlockTableRecord
  2
_D
340
0
  0
BLOCK_RECORD
  5
F7
330
1
100
AcDbSymbolTableRecord
100
AcDbBlockTableRecord
  2
_D_1
340
0
  0
BLOCK_RECORD
  5
10B
330
1
100
AcDbSymbolTableRecord
100
AcDbBlockTableRecord
  2
_NONE
340
0
  0
BLOCK_RECORD
  5
10E
330
1
100
AcDbSymbolTableRecord
100
AcDbBlockTableRecord
  2
_D_2
340
0
  0
BLOCK_RECORD
  5
11A
330
1
100
AcDbSymbolTableRecord
100
AcDbBlockTableRecord
  2
SW_DOWELSYMBOL_0
340
0
102
{BLKREFS
331
120
102
}
  0
BLOCK_RECORD
  5
149
330
1
100
AcDbSymbolTableRecord
100
AcDbBlockTableRecord
  2
*D7
340
0
  0
BLOCK_RECORD
  5
15D
330
1
100
AcDbSymbolTableRecord
100
AcDbBlockTableRecord
  2
*D8
340
0
  0
BLOCK_RECORD
  5
173
330
1
100
AcDbSymbolTableRecord
100
AcDbBlockTableRecord
  2
*D9
340
0
  0
ENDTAB
  0
ENDSEC
  0
SECTION
  2
BLOCKS
  0
BLOCK
  5
20
330
1F
100
AcDbEntity
  8
0
100
AcDbBlockBegin
  2
*Model_Space
 70
     0
 10
0.0
 20
0.0
 30
0.0
  3
*Model_Space
  1
*Model_Space
  0
ENDBLK
  5
21
330
1F
100
AcDbEntity
  8
0
100
AcDbBlockEnd
  0
BLOCK
  5
1C
330
1B
100
AcDbEntity
 67
     1
  8
0
100
AcDbBlockBegin
  2
*Paper_Space
 70
     0
 10
0.0
 20
0.0
 30
0.0
  3
*Paper_Space
  1
*Paper_Space
  0
ENDBLK
  5
1D
330
1B
100
AcDbEntity
 67
     1
  8
0
100
AcDbBlockEnd
  0
BLOCK
  5
24
330
23
100
AcDbEntity
  8
0
100
AcDbBlockBegin
  2
*Paper_Space0
 70
     0
 10
0.0
 20
0.0
 30
0.0
  3
*Paper_Space0
  1
*Paper_Space0
  0
ENDBLK
  5
25
330
23
100
AcDbEntity
  8
0
100
AcDbBlockEnd
  0
BLOCK
  5
7F
330
7E
100
AcDbEntity
  8
0
100
AcDbBlockBegin
  2
블럭10
 70
     2
 10
0.0
 20
0.0
 30
0.0
  3
블럭10
  1
블럭10
  0
ELLIPSE
  5
81
330
7E
100
AcDbEntity
  8
중심선
100
AcDbEllipse
 10
20.54032771741204
 20
12.0471743016438
 30
0.0
 11
6.600054785286829
 21
-1.261213355974178E-13
 31
0.0
210
0.0
220
0.0
230
1.0
 40
0.636358354079598
 41
0.9219305317359503
 42
6.513795318482858
  0
ELLIPSE
  5
82
330
7E
100
AcDbEntity
  8
중심선
100
AcDbEllipse
 10
20.54032771746488
 20
12.04717430159265
 30
0.0
 11
3.960054785062283
 21
1.540847449632565E-10
 31
0.0
210
0.0
220
0.0
230
1.0
 40
0.3939339440162632
 41
1.131841032648279
 42
5.62031148352944
  0
LINE
  5
83
330
7E
100
AcDbEntity
  8
중심선
100
AcDbLine
 10
2.268634060543552
 20
16.24717430164393
 30
0.0
 11
5.714909304380834
 21
16.24717430164393
 31
0.0
  0
LINE
  5
84
330
7E
100
AcDbEntity
  8
중심선
100
AcDbLine
 10
5.245725140726316
 20
7.84717430164391
 30
0.0
 11
8.692000384563599
 21
7.84717430164391
 31
0.0
  0
LINE
  5
85
330
7E
100
AcDbEntity
  8
중심선
100
AcDbLine
 10
15.74043728645272
 20
16.24717430164393
 30
0.0
 11
8.692000384563599
 21
7.84717430164391
 31
0.0
  0
LINE
  5
86
330
7E
100
AcDbEntity
  8
중심선
100
AcDbLine
 10
0.1404042013395286
 20
13.71084872107135
 30
0.0
 11
3.58671253028996
 21
13.71088815037384
 31
0.0
  0
LINE
  5
87
330
7E
100
AcDbEntity
  8
중심선
100
AcDbLine
 10
2.750260043222114
 20
10.84717430164391
 30
0.0
 11
6.196535287059397
 21
10.84717430164391
 31
0.0
  0
LINE
  5
88
330
7E
100
AcDbEntity
  8
중심선
100
AcDbLine
 10
12.29416204261559
 20
16.24717430164393
 30
0.0
 11
5.245725140726316
 21
7.84717430164391
 31
0.0
  0
LINE
  5
89
330
7E
100
AcDbEntity
  8
중심선
100
AcDbLine
 10
10.72767329541681
 20
16.24717430164393
 30
0.0
 11
6.196535287059397
 21
10.84717430164391
 31
0.0
  0
LINE
  5
8A
330
7E
100
AcDbEntity
  8
중심선
100
AcDbLine
 10
7.28139805157953
 20
16.24717430164393
 30
0.0
 11
2.750260043222114
 21
10.84717430164391
 31
0.0
  0
LINE
  5
8B
330
7E
100
AcDbEntity
  8
중심선
100
AcDbLine
 10
5.714909304380834
 20
16.24717430164393
 30
0.0
 11
3.58671253028996
 21
13.71088815037384
 31
0.0
  0
LINE
  5
8C
330
7E
100
AcDbEntity
  8
중심선
100
AcDbLine
 10
2.268634060543552
 20
16.24717430164393
 30
0.0
 11
0.1404042013395286
 21
13.71084872107135
 31
0.0
  0
LINE
  5
8D
330
7E
100
AcDbEntity
  8
중심선
100
AcDbLine
 10
7.28139805157953
 20
16.24717430164393
 30
0.0
 11
10.72767329541681
 21
16.24717430164393
 31
0.0
  0
LINE
  5
8E
330
7E
100
AcDbEntity
  8
중심선
100
AcDbLine
 10
12.29416204261559
 20
16.24717430164393
 30
0.0
 11
15.74043728645272
 21
16.24717430164393
 31
0.0
  0
LINE
  5
8F
330
7E
100
AcDbEntity
  8
중심선
100
AcDbLine
 10
19.22036997980202
 20
11.08717430171403
 30
0.0
 11
23.66174974927406
 21
11.08717430171406
 31
0.0
  0
LINE
  5
90
330
7E
100
AcDbEntity
  8
중심선
100
AcDbLine
 10
19.22039502424796
 20
13.00717430171391
 30
0.0
 11
19.22036997980202
 21
11.08717430171403
 31
0.0
  0
LINE
  5
91
330
7E
100
AcDbEntity
  8
중심선
100
AcDbLine
 10
19.22039502424796
 20
13.00717430171391
 30
0.0
 11
26.96566020931264
 21
13.00717430171391
 31
0.0
  0
LINE
  5
92
330
7E
100
AcDbEntity
  8
중심선
100
AcDbLine
 10
22.22332737316547
 20
13.45928029700563
 30
0.0
 11
24.52862924686651
 21
15.39360700705356
 31
0.0
  0
ATTDEF
  5
94
330
7E
100
AcDbEntity
  8
FORMAT
 62
     2
100
AcDbText
 10
-9.18129528874128
 20
2.075366912832191
 30
0.0
 40
4.233333333333333
  1
E5078798 [ 3 FLUTE ]
 41
0.75
  7
SLDTEXTSTYLE0
 11
-9.18129528874128
 21
-0.0412997538344756
 31
0.0
100
AcDbAttributeDefinition
  3

  2
AUTOATTR0
 70
     0
 74
     1
  0
ENDBLK
  5
80
330
7E
100
AcDbEntity
  8
0
100
AcDbBlockEnd
  0
BLOCK
  5
E2
330
E1
100
AcDbEntity
  8
0
100
AcDbBlockBegin
  2
_D
 70
     0
 10
0.0
 20
0.0
 30
0.0
  3
_D
  1
_D
  0
LINE
  5
E4
330
E1
100
AcDbEntity
  8
치수문자_일반주서
 62
     0
370
    -2
100
AcDbLine
 10
37.908
 20
1.712499999999992
 30
0.0
 11
37.908
 21
44.2461699413596
 31
0.0
  0
LINE
  5
E5
330
E1
100
AcDbEntity
  8
치수문자_일반주서
 62
     0
370
    -2
100
AcDbLine
 10
12.508
 20
3.914274598917539
 30
0.0
 11
12.508
 21
44.2461699413596
 31
0.0
  0
LINE
  5
E6
330
E1
100
AcDbEntity
  8
치수문자_일반주서
 62
     0
370
    -2
100
AcDbLine
 10
12.508
 20
44.2461699413596
 30
0.0
 11
-16.4085
 21
44.2461699413596
 31
0.0
  0
LINE
  5
E7
330
E1
100
AcDbEntity
  8
치수문자_일반주서
 62
     0
370
    -2
100
AcDbLine
 10
37.908
 20
44.2461699413596
 30
0.0
 11
12.508
 21
44.2461699413596
 31
0.0
  0
LINE
  5
E8
330
E1
100
AcDbEntity
  8
치수문자_일반주서
 62
     0
370
    -2
100
AcDbLine
 10
41.21
 20
44.2461699413596
 30
0.0
 11
44.512
 21
44.2461699413596
 31
0.0
  0
LINE
  5
E9
330
E1
100
AcDbEntity
  8
치수문자_일반주서
 62
     0
370
    -2
100
AcDbLine
 10
9.206
 20
44.2461699413596
 30
0.0
 11
5.904
 21
44.2461699413596
 31
0.0
  0
SOLID
  5
EA
330
E1
100
AcDbEntity
  8
치수문자_일반주서
 62
     0
100
AcDbTrace
 10
41.21
 20
44.79650327469293
 30
0.0
 11
41.21
 21
43.69583660802626
 31
0.0
 12
37.908
 22
44.2461699413596
 32
0.0
 13
37.908
 23
44.2461699413596
 33
0.0
  0
SOLID
  5
EB
330
E1
100
AcDbEntity
  8
치수문자_일반주서
 62
     0
100
AcDbTrace
 10
9.206
 20
43.69583660802626
 30
0.0
 11
9.206
 21
44.79650327469293
 31
0.0
 12
12.508
 22
44.2461699413596
 32
0.0
 13
12.508
 23
44.2461699413596
 33
0.0
  0
MTEXT
  5
EC
330
E1
100
AcDbEntity
  8
치수문자_일반주서
 62
     0
100
AcDbMText
 10
-6.56475
 20
48.6211699413596
 30
0.0
 40
3.5
 41
0.0
 71
     2
 72
     1
  1
\A1;25.40 [1]
  7
SLDTEXTSTYLE0
 73
     1
 44
1.0
  0
POINT
  5
16C
330
E1
100
AcDbEntity
  8
Defpoints
 62
     0
100
AcDbPoint
 10
37.908
 20
1.649999999999992
 30
0.0
  0
POINT
  5
16D
330
E1
100
AcDbEntity
  8
Defpoints
 62
     0
100
AcDbPoint
 10
12.508
 20
3.851774598917539
 30
0.0
  0
POINT
  5
16E
330
E1
100
AcDbEntity
  8
Defpoints
 62
     0
100
AcDbPoint
 10
12.508
 20
44.2461699413596
 30
0.0
  0
ENDBLK
  5
E3
330
E1
100
AcDbEntity
  8
0
100
AcDbBlockEnd
  0
BLOCK
  5
F8
330
F7
100
AcDbEntity
  8
0
100
AcDbBlockBegin
  2
_D_1
 70
     0
 10
0.0
 20
0.0
 30
0.0
  3
_D_1
  1
_D_1
  0
LINE
  5
FA
330
F7
100
AcDbEntity
  8
치수문자_일반주서
 62
     0
370
    -2
100
AcDbLine
 10
37.908
 20
1.649999999999992
 30
0.0
 11
37.908
 21
57.94173636249309
 31
0.0
  0
LINE
  5
FB
330
F7
100
AcDbEntity
  8
치수문자_일반주서
 62
     0
370
    -2
100
AcDbLine
 10
-50.992
 20
4.014999999999977
 30
0.0
 11
-50.992
 21
57.94173636249309
 31
0.0
  0
LINE
  5
FC
330
F7
100
AcDbEntity
  8
치수문자_일반주서
 62
     0
370
    -2
100
AcDbLine
 10
34.606
 20
57.94173636249309
 30
0.0
 11
-47.69
 21
57.94173636249309
 31
0.0
  0
SOLID
  5
FD
330
F7
100
AcDbEntity
  8
치수문자_일반주서
 62
     0
100
AcDbTrace
 10
34.606
 20
57.39140302915975
 30
0.0
 11
34.606
 21
58.49206969582642
 31
0.0
 12
37.908
 22
57.94173636249309
 32
0.0
 13
37.908
 23
57.94173636249309
 33
0.0
  0
SOLID
  5
FE
330
F7
100
AcDbEntity
  8
치수문자_일반주서
 62
     0
100
AcDbTrace
 10
-47.69
 20
58.49206969582642
 30
0.0
 11
-47.69
 21
57.39140302915975
 31
0.0
 12
-50.992
 22
57.94173636249309
 32
0.0
 13
-50.992
 23
57.94173636249309
 33
0.0
  0
MTEXT
  5
FF
330
F7
100
AcDbEntity
  8
치수문자_일반주서
 62
     0
100
AcDbMText
 10
-5.425713359609247
 20
62.31673636249309
 30
0.0
 40
3.5
 41
0.0
 71
     2
 72
     1
  1
\A1;88.90 [3 1/2]
  7
SLDTEXTSTYLE0
 73
     1
 44
1.0
  0
POINT
  5
100
330
F7
100
AcDbEntity
  8
Defpoints
 62
     0
100
AcDbPoint
 10
37.908
 20
1.587499999999992
 30
0.0
  0
POINT
  5
101
330
F7
100
AcDbEntity
  8
Defpoints
 62
     0
100
AcDbPoint
 10
-50.992
 20
3.952499999999977
 30
0.0
  0
POINT
  5
102
330
F7
100
AcDbEntity
  8
Defpoints
 62
     0
100
AcDbPoint
 10
-50.992
 20
57.94173636249309
 30
0.0
  0
ENDBLK
  5
F9
330
F7
100
AcDbEntity
  8
0
100
AcDbBlockEnd
  0
BLOCK
  5
10C
330
10B
100
AcDbEntity
  8
0
100
AcDbBlockBegin
  2
_NONE
 70
     0
 10
0.0
 20
0.0
 30
0.0
  3
_NONE
  1
_NONE
  0
ENDBLK
  5
10D
330
10B
100
AcDbEntity
  8
0
100
AcDbBlockEnd
  0
BLOCK
  5
10F
330
10E
100
AcDbEntity
  8
0
100
AcDbBlockBegin
  2
_D_2
 70
     0
 10
0.0
 20
0.0
 30
0.0
  3
_D_2
  1
_D_2
  0
LINE
  5
111
330
10E
100
AcDbEntity
  8
치수문자_일반주서
100
AcDbLine
 10
-74.7848817160427
 20
-10.17686643106871
 30
0.0
 11
-74.7848817160427
 21
-10.88780391663321
 31
0.0
  0
LINE
  5
112
330
10E
100
AcDbEntity
  8
치수문자_일반주서
100
AcDbLine
 10
-74.7848817160427
 20
-10.88780391663321
 30
0.0
 11
-69.2286317249834
 21
-10.88780391663317
 31
0.0
  0
LINE
  5
113
330
10E
100
AcDbEntity
  8
치수문자_일반주서
100
AcDbLine
 10
-69.2286317249834
 20
-10.88780391663317
 30
0.0
 11
-69.2286317249834
 21
-10.17686643106867
 31
0.0
  0
LINE
  5
114
330
10E
100
AcDbEntity
  8
치수문자_일반주서
100
AcDbLine
 10
-74.78488171604279
 20
0.6518664310685481
 30
0.0
 11
-74.78488171604279
 21
1.362803916633048
 31
0.0
  0
LINE
  5
115
330
10E
100
AcDbEntity
  8
치수문자_일반주서
100
AcDbLine
 10
-74.78488171604279
 20
1.362803916633048
 30
0.0
 11
-69.22863172498349
 21
1.362803916633087
 31
0.0
  0
LINE
  5
116
330
10E
100
AcDbEntity
  8
치수문자_일반주서
100
AcDbLine
 10
-69.22863172498349
 20
1.362803916633087
 30
0.0
 11
-69.22863172498349
 21
0.6518664310685871
 31
0.0
  0
MTEXT
  5
117
330
10E
100
AcDbEntity
  8
치수문자_일반주서
100
AcDbMText
 10
-73.74036863956232
 20
-9.28819453045733
 30
0.0
 40
3.5
 41
0.0
 71
     1
 72
     1
  1
0.00
  7
SLDTEXTSTYLE0
 11
-7.044195017643634E-15
 21
1.0
 31
0.0
 73
     1
 44
1.0
  0
MTEXT
  5
118
330
10E
100
AcDbEntity
  8
치수문자_일반주서
100
AcDbMText
 10
-68.50373708920185
 20
-8.694774412363806
 30
0.0
 40
3.5
 41
0.0
 71
     1
 72
     1
  1
%%c
  7
SLDTEXTSTYLE0
 11
-7.044195017643634E-15
 21
1.0
 31
0.0
 73
     1
 44
1.0
  0
MTEXT
  5
119
330
10E
100
AcDbEntity
  8
치수문자_일반주서
100
AcDbMText
 10
-68.50373708920189
 20
-3.416337013989724
 30
0.0
 40
3.5
 41
0.0
 71
     1
 72
     1
  1
0
  7
SLDTEXTSTYLE0
 11
-7.044195017643634E-15
 21
1.0
 31
0.0
 73
     1
 44
1.0
  0
ENDBLK
  5
110
330
10E
100
AcDbEntity
  8
0
100
AcDbBlockEnd
  0
BLOCK
  5
11B
330
11A
100
AcDbEntity
  8
0
100
AcDbBlockBegin
  2
SW_DOWELSYMBOL_0
 70
     0
 10
0.0
 20
0.0
 30
0.0
  3
SW_DOWELSYMBOL_0
  1
SW_DOWELSYMBOL_0
  0
CIRCLE
  5
11D
330
11A
100
AcDbEntity
  8
외형선
 62
     0
100
AcDbCircle
 10
0.0
 20
0.0
 30
0.0
 40
2.999999999999999
  0
HATCH
  5
11E
330
11A
100
AcDbEntity
  8
0
  6
Continuous
 62
     0
370
    30
100
AcDbHatch
 10
0.0
 20
0.0
 30
0.0
210
0.0
220
0.0
230
1.0
  2
SOLID
 70
     1
 71
     0
 91
        1
 92
        0
 93
        3
 72
     2
 10
0.0
 20
0.0
 40
2.999999999999999
 50
0.0
 51
90.0
 73
     1
 72
     1
 10
0.0
 20
2.999999999999999
 11
0.0
 21
0.0
 72
     1
 10
0.0
 20
0.0
 11
2.999999999999999
 21
0.0
 97
        0
 75
     0
 76
     1
 98
        1
 10
0.0
 20
0.0
  0
HATCH
  5
11F
330
11A
100
AcDbEntity
  8
0
  6
Continuous
 62
     0
370
    30
100
AcDbHatch
 10
0.0
 20
0.0
 30
0.0
210
0.0
220
0.0
230
1.0
  2
SOLID
 70
     1
 71
     0
 91
        1
 92
        0
 93
        3
 72
     2
 10
0.0
 20
0.0
 40
2.999999999999999
 50
180.0
 51
270.0000000000008
 73
     1
 72
     1
 10
0.0
 20
-2.999999999999999
 11
0.0
 21
0.0
 72
     1
 10
0.0
 20
0.0
 11
-2.999999999999999
 21
0.0
 97
        0
 75
     0
 76
     1
 98
        1
 10
0.0
 20
0.0
  0
ENDBLK
  5
11C
330
11A
100
AcDbEntity
  8
0
100
AcDbBlockEnd
  0
BLOCK
  5
14A
330
149
100
AcDbEntity
  8
0
100
AcDbBlockBegin
  2
*D7
 70
     1
 10
0.0
 20
0.0
 30
0.0
  3
*D7
  1
*D7
  0
LINE
  5
14C
330
149
100
AcDbEntity
  8
치수문자_일반주서
 62
     0
370
    -2
100
AcDbLine
 10
-50.24449999999997
 20
-4.762499999999999
 30
0.0
 11
-63.99404295748032
 21
-4.762499999999999
 31
0.0
  0
LINE
  5
14D
330
149
100
AcDbEntity
  8
치수문자_일반주서
 62
     0
370
    -2
100
AcDbLine
 10
-50.24449999999997
 20
4.7625
 30
0.0
 11
-63.99404295748032
 21
4.762500000000001
 31
0.0
  0
LINE
  5
14E
330
149
100
AcDbEntity
  8
치수문자_일반주서
 62
     0
370
    -2
100
AcDbLine
 10
-63.99404295748032
 20
8.0645
 30
0.0
 11
-63.99404295748032
 21
37.61650000000001
 31
0.0
  0
LINE
  5
14F
330
149
100
AcDbEntity
  8
치수문자_일반주서
 62
     0
370
    -2
100
AcDbLine
 10
-63.99404295748032
 20
-4.762499999999999
 30
0.0
 11
-63.99404295748032
 21
4.762500000000001
 31
0.0
  0
LINE
  5
150
330
149
100
AcDbEntity
  8
치수문자_일반주서
 62
     0
370
    -2
100
AcDbLine
 10
-63.99404295748032
 20
-8.064499999999999
 30
0.0
 11
-63.99404295748032
 21
-11.3665
 31
0.0
  0
SOLID
  5
151
330
149
100
AcDbEntity
  8
치수문자_일반주서
 62
     0
100
AcDbTrace
 10
-63.44370962414699
 20
-8.064499999999999
 30
0.0
 11
-64.54437629081366
 21
-8.064499999999999
 31
0.0
 12
-63.99404295748032
 22
-4.762499999999999
 32
0.0
 13
-63.99404295748032
 23
-4.762499999999999
 33
0.0
  0
SOLID
  5
152
330
149
100
AcDbEntity
  8
치수문자_일반주서
 62
     0
100
AcDbTrace
 10
-64.54437629081366
 20
8.0645
 30
0.0
 11
-63.44370962414699
 21
8.0645
 31
0.0
 12
-63.99404295748032
 22
4.762500000000001
 32
0.0
 13
-63.99404295748032
 23
4.762500000000001
 33
0.0
  0
MTEXT
  5
153
330
149
100
AcDbEntity
  8
치수문자_일반주서
 62
     0
100
AcDbMText
 10
-66.61904295748033
 20
24.4915
 30
0.0
 40
3.5
 41
0.0
 71
     5
 72
     1
  1
\A1;{%%c9.53 [3/8]}
  7
SLDTEXTSTYLE0
 11
0.0
 21
1.0
 31
0.0
 73
     1
 44
1.0
  0
POINT
  5
154
330
149
100
AcDbEntity
  8
Defpoints
 62
     0
100
AcDbPoint
 10
-50.18199999999997
 20
-4.762499999999999
 30
0.0
  0
POINT
  5
155
330
149
100
AcDbEntity
  8
Defpoints
 62
     0
100
AcDbPoint
 10
-50.18199999999997
 20
4.7625
 30
0.0
  0
POINT
  5
156
330
149
100
AcDbEntity
  8
Defpoints
 62
     0
100
AcDbPoint
 10
-63.99404295748032
 20
4.762500000000001
 30
0.0
  0
ENDBLK
  5
14B
330
149
100
AcDbEntity
  8
0
100
AcDbBlockEnd
  0
BLOCK
  5
15E
330
15D
100
AcDbEntity
  8
0
100
AcDbBlockBegin
  2
*D8
 70
     1
 10
0.0
 20
0.0
 30
0.0
  3
*D8
  1
*D8
  0
LINE
  5
160
330
15D
100
AcDbEntity
  8
치수문자_일반주서
 62
     0
370
    -2
100
AcDbLine
 10
38.38764349641996
 20
-1.587500000000008
 30
0.0
 11
53.14303516642224
 21
-1.587500000000009
 31
0.0
  0
LINE
  5
161
330
15D
100
AcDbEntity
  8
치수문자_일반주서
 62
     0
370
    -2
100
AcDbLine
 10
37.9705
 20
1.587499999999992
 30
0.0
 11
53.14303516642224
 21
1.587499999999991
 31
0.0
  0
LINE
  5
162
330
15D
100
AcDbEntity
  8
치수문자_일반주서
 62
     0
370
    -2
100
AcDbLine
 10
53.14303516642224
 20
4.889499999999991
 30
0.0
 11
53.14303516642224
 21
32.69149999999998
 31
0.0
  0
LINE
  5
163
330
15D
100
AcDbEntity
  8
치수문자_일반주서
 62
     0
370
    -2
100
AcDbLine
 10
53.14303516642224
 20
-1.587500000000009
 30
0.0
 11
53.14303516642224
 21
1.587499999999991
 31
0.0
  0
LINE
  5
164
330
15D
100
AcDbEntity
  8
치수문자_일반주서
 62
     0
370
    -2
100
AcDbLine
 10
53.14303516642224
 20
-4.889500000000008
 30
0.0
 11
53.14303516642224
 21
-8.191500000000008
 31
0.0
  0
SOLID
  5
165
330
15D
100
AcDbEntity
  8
치수문자_일반주서
 62
     0
100
AcDbTrace
 10
53.69336849975558
 20
-4.889500000000008
 30
0.0
 11
52.59270183308891
 21
-4.889500000000008
 31
0.0
 12
53.14303516642224
 22
-1.587500000000009
 32
0.0
 13
53.14303516642224
 23
-1.587500000000009
 33
0.0
  0
SOLID
  5
166
330
15D
100
AcDbEntity
  8
치수문자_일반주서
 62
     0
100
AcDbTrace
 10
52.59270183308891
 20
4.889499999999991
 30
0.0
 11
53.69336849975558
 21
4.889499999999991
 31
0.0
 12
53.14303516642224
 22
1.587499999999991
 32
0.0
 13
53.14303516642224
 23
1.587499999999991
 33
0.0
  0
MTEXT
  5
167
330
15D
100
AcDbEntity
  8
치수문자_일반주서
 62
     0
100
AcDbMText
 10
50.51803516642224
 20
20.44149999999999
 30
0.0
 40
3.5
 41
0.0
 71
     5
 72
     1
  1
\A1;{%%c3.18 [1/8]}
  7
SLDTEXTSTYLE0
 11
0.0
 21
1.0
 31
0.0
 73
     1
 44
1.0
  0
POINT
  5
168
330
15D
100
AcDbEntity
  8
Defpoints
 62
     0
100
AcDbPoint
 10
38.32514349641996
 20
-1.587500000000008
 30
0.0
  0
POINT
  5
169
330
15D
100
AcDbEntity
  8
Defpoints
 62
     0
100
AcDbPoint
 10
37.908
 20
1.587499999999992
 30
0.0
  0
POINT
  5
16A
330
15D
100
AcDbEntity
  8
Defpoints
 62
     0
100
AcDbPoint
 10
53.14303516642224
 20
1.587499999999991
 30
0.0
  0
ENDBLK
  5
15F
330
15D
100
AcDbEntity
  8
0
100
AcDbBlockEnd
  0
BLOCK
  5
174
330
173
100
AcDbEntity
  8
0
100
AcDbBlockBegin
  2
*D9
 70
     1
 10
0.0
 20
0.0
 30
0.0
  3
*D9
  1
*D9
  0
LINE
  5
176
330
173
100
AcDbEntity
  8
치수문자_일반주서
 62
     0
370
    -2
100
AcDbLine
 10
17.76898667875156
 20
10.48994023196374
 30
0.0
 11
19.42407248061441
 21
15.47222795834727
 31
0.0
  0
LINE
  5
177
330
173
100
AcDbEntity
  8
치수문자_일반주서
 62
     0
370
    -2
100
AcDbLine
 10
16.64781751212747
 20
4.01492352897162
 30
0.0
 11
16.32024847916538
 21
4.055143948849259
 31
0.0
  0
ARC
  5
178
330
173
100
AcDbEntity
  8
치수문자_일반주서
 62
     0
370
    -2
100
AcDbCircle
 10
49.34674561389866
 20
-0.000000000000008
 30
0.0
 40
33.27452036373229
100
AcDbArc
 50
161.6238253104141
 51
167.3119126552071
  0
ARC
  5
179
330
173
100
AcDbEntity
  8
치수문자_일반주서
 62
     0
370
    -2
100
AcDbCircle
 10
49.34674561389866
 20
-0.000000000000008
 30
0.0
 40
33.27452036373229
100
AcDbArc
 50
185.6880873447929
 51
191.3761746895859
  0
ARC
  5
17A
330
173
100
AcDbEntity
  8
치수문자_일반주서
 62
     0
370
    -2
100
AcDbCircle
 10
49.34674561389866
 20
-0.000000000000008
 30
0.0
 40
33.27452036373229
100
AcDbArc
 50
173.0
 51
180.0
  0
SOLID
  5
17B
330
173
100
AcDbEntity
  8
치수문자_일반주서
 62
     0
100
AcDbTrace
 10
16.34255066429691
 20
7.402616635864963
 30
0.0
 11
17.42701195818678
 21
7.214439025172807
 31
0.0
 12
16.32024847916538
 22
4.055143948849259
 32
0.0
 13
16.32024847916538
 23
4.055143948849259
 33
0.0
  0
SOLID
  5
17C
330
173
100
AcDbEntity
  8
치수문자_일반주서
 62
     0
100
AcDbTrace
 10
16.78571786547157
 20
-3.270626708397457
 30
0.0
 11
15.6864068997586
 21
-3.32523908588036
 31
0.0
 12
16.07222525016638
 22
-0.000000000000008
 32
0.0
 13
16.07222525016638
 23
-0.000000000000008
 33
0.0
  0
MTEXT
  5
17D
330
173
100
AcDbEntity
  8
치수문자_일반주서
 62
     0
100
AcDbMText
 10
16.10538571649122
 20
13.80862699608693
 30
0.0
 40
3.5
 41
0.0
 71
     5
 72
     1
  1
\A1;7%%d
  7
SLDTEXTSTYLE0
 11
0.3152544384500671
 21
0.9490071859778159
 31
0.0
 73
     1
 44
1.0
  0
POINT
  5
17E
330
173
100
AcDbEntity
  8
Defpoints
 62
     0
100
AcDbPoint
 10
16.09981387739906
 20
1.354708656859458
 30
0.0
  0
POINT
  5
17F
330
173
100
AcDbEntity
  8
Defpoints
 62
     0
100
AcDbPoint
 10
19.93351983709693
 20
3.611490011742592
 30
0.0
  0
POINT
  5
180
330
173
100
AcDbEntity
  8
Defpoints
 62
     0
100
AcDbPoint
 10
-53.99200000000001
 20
-0.0000000000000078
 30
0.0
  0
POINT
  5
181
330
173
100
AcDbEntity
  8
Defpoints
 62
     0
100
AcDbPoint
 10
42.51396758265566
 20
-0.0000000000000077
 30
0.0
  0
POINT
  5
182
330
173
100
AcDbEntity
  8
Defpoints
 62
     0
100
AcDbPoint
 10
16.70985164660505
 20
4.007306695008798
 30
0.0
  0
ENDBLK
  5
175
330
173
100
AcDbEntity
  8
0
100
AcDbBlockEnd
  0
ENDSEC
  0
SECTION
  2
ENTITIES
  0
LINE
  5
95
330
1F
100
AcDbEntity
  8
0
  6
Continuous
 62
     4
370
    15
100
AcDbLine
 10
11.70174073233906
 20
4.715089386098516
 30
0.0
 11
11.492
 21
4.765000000000008
 31
0.0
  0
LINE
  5
96
102
{ACAD_REACTORS
102
}
330
1F
100
AcDbEntity
  8
0
  6
Continuous
 62
     4
370
    15
100
AcDbLine
 10
11.492
 20
4.762500000000008
 30
0.0
 11
-50.18199999999997
 21
4.7625
 31
0.0
  0
LINE
  5
97
330
1F
100
AcDbEntity
  8
0
  6
Continuous
 62
     4
370
    15
100
AcDbLine
 10
-50.18199999999997
 20
-4.762499999999998
 30
0.0
 11
11.492
 21
-4.76249999999999
 31
0.0
  0
LINE
  5
98
330
1F
100
AcDbEntity
  8
0
  6
Continuous
 62
     4
370
    15
100
AcDbLine
 10
-50.18199999999997
 20
4.762499999999999
 30
0.0
 11
-50.99200000000001
 21
3.952499999999976
 31
0.0
  0
LINE
  5
99
102
{ACAD_REACTORS
102
}
330
1F
100
AcDbEntity
  8
0
  6
Continuous
 62
     4
370
    15
100
AcDbLine
 10
-50.99200000000001
 20
-3.952499999999976
 30
0.0
 11
-50.18199999999997
 21
-4.762499999999999
 31
0.0
  0
LINE
  5
9A
330
1F
100
AcDbEntity
  8
0
  6
Continuous
 62
     1
370
    15
100
AcDbLine
 10
27.44081924993875
 20
-2.689709549770158
 30
0.0
 11
29.84002885336903
 21
-2.395123652098941
 31
0.0
  0
LINE
  5
9B
330
1F
100
AcDbEntity
  8
0
  6
Continuous
 62
     1
370
    15
100
AcDbLine
 10
14.54493166862692
 20
-4.273125443894751
 30
0.0
 11
17.88908368017337
 21
-3.862515207564456
 31
0.0
  0
LINE
  5
9C
330
1F
100
AcDbEntity
  8
0
  6
Continuous
 62
     1
370
    15
100
AcDbLine
 10
23.96564683820705
 20
3.116407068406538
 30
0.0
 11
21.02728841775939
 21
3.477192116836558
 31
0.0
  0
LINE
  5
9D
330
1F
100
AcDbEntity
  8
0
  6
Continuous
 62
     1
370
    15
100
AcDbLine
 10
35.559291611448
 20
1.692886485659893
 30
0.0
 11
33.70285406162333
 21
1.920828355058777
 31
0.0
  0
LINE
  5
9E
330
1F
100
AcDbEntity
  8
0
  6
Continuous
 62
     1
370
    15
100
AcDbLine
 10
31.64111810067252
 20
-2.173977699721838
 30
0.0
 11
33.65635264452521
 21
-1.926538011138521
 31
0.0
  0
LINE
  5
9F
330
1F
100
AcDbEntity
  8
0
  6
Continuous
 62
     1
370
    15
100
AcDbLine
 10
18.87334033011205
 20
-3.741663686985971
 30
0.0
 11
21.96302133647946
 21
-3.362298561289104
 31
0.0
  0
LINE
  5
A0
330
1F
100
AcDbEntity
  8
0
  6
Continuous
 62
     1
370
    15
100
AcDbLine
 10
15.82438259605919
 20
4.116028623573183
 30
0.0
 11
12.50799999999998
 21
4.523229204416348
 31
0.0
  0
LINE
  5
A1
330
1F
100
AcDbEntity
  8
0
  6
Continuous
 62
     1
370
    15
100
AcDbLine
 10
27.9064322998897
 20
2.632539455881283
 30
0.0
 11
25.31416171330135
 21
2.950830261597049
 31
0.0
  0
LINE
  5
A2
330
1F
100
AcDbEntity
  8
0
  6
Continuous
 62
     4
370
    15
100
AcDbLine
 10
11.492
 20
-4.764999999999991
 30
0.0
 11
12.50799999999998
 21
-4.523229204416332
 31
0.0
  0
LINE
  5
A3
330
1F
100
AcDbEntity
  8
0
  6
Continuous
 62
     1
370
    15
100
AcDbLine
 10
35.72399422596713
 20
-1.672663547456588
 30
0.0
 11
36.51396758265567
 21
-1.575667015730591
 31
0.0
  0
LINE
  5
A4
330
1F
100
AcDbEntity
  8
0
  6
Continuous
 62
     1
370
    15
100
AcDbLine
 10
23.17475913064717
 20
-3.213515868302768
 30
0.0
 11
25.94895074520304
 21
-2.872887969049006
 31
0.0
  0
LINE
  5
A5
330
1F
100
AcDbEntity
  8
0
  6
Continuous
 62
     1
370
    15
100
AcDbLine
 10
12.50799999999998
 20
-4.523229204416332
 30
0.0
 11
13.74185437780793
 21
-4.371730936419055
 31
0.0
  0
LINE
  5
A6
102
{ACAD_REACTORS
102
}
330
1F
100
AcDbEntity
  8
0
  6
Continuous
 62
     1
370
    15
100
AcDbLine
 10
19.93351983709693
 20
3.611490011742592
 30
0.0
 11
16.70985164660505
 21
4.007306695008798
 31
0.0
  0
LINE
  5
A7
330
1F
100
AcDbEntity
  8
0
  6
Continuous
 62
     1
370
    15
100
AcDbLine
 10
31.75410886302832
 20
2.16010417857991
 30
0.0
 11
29.54980371665044
 21
2.430758818073932
 31
0.0
  0
LINE
  5
A8
330
1F
100
AcDbEntity
  8
0
  6
Continuous
 62
     1
370
    15
100
AcDbLine
 10
12.50799999999998
 20
4.523229204416349
 30
0.0
 11
12.36730935026871
 21
4.556708427169018
 31
0.0
  0
ARC
  5
A9
330
1F
100
AcDbEntity
  8
0
  6
Continuous
 62
     1
370
    15
100
AcDbCircle
 10
36.3205
 20
0.0000000000000061
 30
0.0
 40
1.587499999999999
100
AcDbArc
 50
277.0000000000008
 51
288.9407102666348
  0
ARC
  5
AA
330
1F
100
AcDbEntity
  8
0
  6
Continuous
 62
     1
370
    15
100
AcDbCircle
 10
36.3205
 20
0.0000000000000061
 30
0.0
 40
1.587500000000005
100
AcDbArc
 50
27.85617637447575
 51
43.56324695997203
  0
SPLINE
  5
AB
330
1F
100
AcDbEntity
  8
0
  6
Continuous
 62
     1
370
    15
100
AcDbSpline
210
0.0
220
0.0
230
1.0
 70
     8
 71
     3
 72
    19
 73
    15
 74
     0
 42
0.000000001
 43
0.00000001
 40
0.0
 40
0.0
 40
0.0
 40
0.0
 40
0.0818649435159306
 40
0.1689809741092791
 40
0.2585922312748186
 40
0.3461399302568526
 40
0.436245290267616
 40
0.523448109366189
 40
0.6131699628830019
 40
0.7005283058811846
 40
0.7903899655819776
 40
0.8782622581774464
 40
0.9686383483752762
 40
1.0
 40
1.0
 40
1.0
 40
1.0
 10
36.48683496475938
 20
-1.354402855386034
 30
0.0
 10
36.34676408918656
 20
-1.299319155501399
 30
0.0
 10
36.05763773079573
 20
-1.185618505818089
 30
0.0
 10
35.62407553273846
 20
-0.9075576591482899
 30
0.0
 10
35.18752847987938
 20
-0.5590841366791744
 30
0.0
 10
34.75318747319486
 20
-0.1537900375969293
 30
0.0
 10
34.32909736739829
 20
0.2751513679631484
 30
0.0
 10
33.9079344613538
 20
0.7104380672225937
 30
0.0
 10
33.49681085759585
 20
1.120309886555558
 30
0.0
 10
33.08741536765399
 20
1.489563491125699
 30
0.0
 10
32.68596978837022
 20
1.794640374803186
 30
0.0
 10
32.28569799476992
 20
2.015829499303146
 30
0.0
 10
31.97557361069665
 20
2.136189220650183
 30
0.0
 10
31.79839217976491
 20
2.146387933236649
 30
0.0
 10
31.75274731870489
 20
2.149015289932847
 30
0.0
  0
SPLINE
  5
AC
330
1F
100
AcDbEntity
  8
0
  6
Continuous
 62
     1
370
    15
100
AcDbSpline
210
0.0
220
0.0
230
1.0
 70
     8
 71
     3
 72
    27
 73
    23
 74
     0
 42
0.000000001
 43
0.00000001
 40
0.0
 40
0.0
 40
0.0
 40
0.0
 40
0.0137166158589981
 40
0.0642994464530488
 40
0.1163040363199181
 40
0.167688859490123
 40
0.2205175099882104
 40
0.2727250500382963
 40
0.3263998314638475
 40
0.3794470644499924
 40
0.4339860688990582
 40
0.4878771841392814
 40
0.5432841900132979
 40
0.5980300532610506
 40
0.6543159260884215
 40
0.7099282845500062
 40
0.7671047331178663
 40
0.8235952493309733
 40
0.8816740971255848
 40
0.9390542711708414
 40
0.9980477118229991
 40
1.0
 40
1.0
 40
1.0
 40
1.0
 10
26.66936589422089
 20
-2.570849156864318
 30
0.0
 10
26.63577026351897
 20
-2.59621551313674
 30
0.0
 10
26.47828386311375
 20
-2.715125504027647
 30
0.0
 10
26.19707733964552
 20
-2.830425752712233
 30
0.0
 10
25.82706664564406
 20
-2.902217279490712
 30
0.0
 10
25.4557876181382
 20
-2.853031116003749
 30
0.0
 10
25.08692761508614
 20
-2.693138194144395
 30
0.0
 10
24.71664046186766
 20
-2.421624401106181
 30
0.0
 10
24.34868831073485
 20
-2.051334758836858
 30
0.0
 10
23.97910883537124
 20
-1.589438799535932
 30
0.0
 10
23.61208296306867
 20
-1.057959654733153
 30
0.0
 10
23.24300598918233
 20
-0.4691109727754464
 30
0.0
 10
22.87688636459712
 20
0.1487302056361512
 30
0.0
 10
22.50826227101725
 20
0.7802003530210031
 30
0.0
 10
22.14286342913807
 20
1.394628422487058
 30
0.0
 10
21.77478526124191
 20
1.97590319082662
 30
0.0
 10
21.40981144331819
 20
2.495480864465689
 30
0.0
 10
21.04242637692276
 20
2.938038566549668
 30
0.0
 10
20.67756778074173
 20
3.285454404186585
 30
0.0
 10
20.31112268122641
 20
3.509287546512706
 30
0.0
 10
20.06334138586256
 20
3.61526986444682
 30
0.0
 10
19.93731069885907
 20
3.609663585706004
 30
0.0
 10
19.9332735296447
 20
3.609483998523883
 30
0.0
  0
SPLINE
  5
AD
330
1F
100
AcDbEntity
  8
0
  6
Continuous
 62
     1
370
    15
100
AcDbSpline
210
0.0
220
0.0
230
1.0
 70
     8
 71
     3
 72
    13
 73
     9
 74
     0
 42
0.000000001
 43
0.00000001
 40
0.0
 40
0.0
 40
0.0
 40
0.0
 40
0.0187399875240765
 40
0.2352333296230651
 40
0.4578343662810104
 40
0.6774227058389102
 40
0.903208863218225
 40
1.0
 40
1.0
 40
1.0
 40
1.0
 10
14.14803381254274
 20
-4.226670080056413
 30
0.0
 10
14.13757370705345
 20
-4.23429399669888
 30
0.0
 10
14.00627343594639
 20
-4.329993062361122
 30
0.0
 10
13.75365749161443
 20
-4.385008764922213
 30
0.0
 10
13.39137914871563
 20
-4.374255026347188
 30
0.0
 10
13.02709624727256
 20
-4.199425632582876
 30
0.0
 10
12.7335961596119
 20
-3.949895342848176
 30
0.0
 10
12.56006807935768
 20
-3.748423806239414
 30
0.0
 10
12.508
 20
-3.687971135172632
 30
0.0
  0
SPLINE
  5
AE
330
1F
100
AcDbEntity
  8
0
  6
Continuous
 62
     4
370
    15
100
AcDbSpline
210
0.0
220
0.0
230
1.0
 70
     8
 71
     3
 72
    10
 73
     6
 74
     0
 42
0.000000001
 43
0.00000001
 40
0.0
 40
0.0
 40
0.0
 40
0.0
 40
0.5
 40
0.5
 40
1.0
 40
1.0
 40
1.0
 40
1.0
 10
12.50799999999998
 20
-3.687971135172609
 30
0.0
 10
12.33296949874109
 20
-3.479532619428539
 30
0.0
 10
12.16142568882121
 20
-3.220005794402394
 30
0.0
 10
11.82248941989453
 20
-2.616892378684167
 30
0.0
 10
11.65662538605558
 20
-2.276981165296619
 30
0.0
 10
11.49199999999999
 20
-1.90485735145524
 30
0.0
  0
SPLINE
  5
AF
330
1F
100
AcDbEntity
  8
0
  6
Continuous
 62
     4
370
    15
100
AcDbSpline
210
0.0
220
0.0
230
1.0
 70
     8
 71
     3
 72
     8
 73
     4
 74
     0
 42
0.000000001
 43
0.00000001
 40
0.0
 40
0.0
 40
0.0
 40
0.0
 40
1.0
 40
1.0
 40
1.0
 40
1.0
 10
11.492
 20
-1.907684006623889
 30
0.0
 10
11.19759909207802
 20
-1.322044040176967
 30
0.0
 10
10.90768959214848
 20
-0.6859120670683176
 30
0.0
 10
10.618
 20
-0.0446268229585887
 30
0.0
  0
SPLINE
  5
B0
330
1F
100
AcDbEntity
  8
0
  6
Continuous
 62
     4
370
    15
100
AcDbSpline
210
0.0
220
0.0
230
1.0
 70
     8
 71
     3
 72
     8
 73
     4
 74
     0
 42
0.000000001
 43
0.00000001
 40
0.0
 40
0.0
 40
0.0
 40
0.0
 40
1.0
 40
1.0
 40
1.0
 40
1.0
 10
10.618
 20
1.491646408214097
 30
0.0
 10
10.91223977614359
 20
0.8080054478180584
 30
0.0
 10
11.20275853200036
 20
0.0765927861183473
 30
0.0
 10
11.49200000000328
 20
-0.6387780050573718
 30
0.0
  0
SPLINE
  5
B1
330
1F
100
AcDbEntity
  8
0
  6
Continuous
 62
     4
370
    15
100
AcDbSpline
210
0.0
220
0.0
230
1.0
 70
     8
 71
     3
 72
    10
 73
     6
 74
     0
 42
0.000000001
 43
0.00000001
 40
0.0
 40
0.0
 40
0.0
 40
0.0
 40
0.5
 40
0.5
 40
1.0
 40
1.0
 40
1.0
 40
1.0
 10
11.492
 20
-0.6432524148647129
 30
0.0
 10
11.66117372832016
 20
-0.989743730892818
 30
0.0
 10
11.83018451918382
 20
-1.325315207610884
 30
0.0
 10
12.16682789085868
 20
-1.951620014529984
 30
0.0
 10
12.33536445581879
 20
-2.24506354630082
 30
0.0
 10
12.50799999999998
 20
-2.516032061256574
 30
0.0
  0
SPLINE
  5
B2
330
1F
100
AcDbEntity
  8
0
  6
Continuous
 62
     1
370
    15
100
AcDbSpline
210
0.0
220
0.0
230
1.0
 70
     8
 71
     3
 72
    13
 73
     9
 74
     0
 42
0.000000001
 43
0.00000001
 40
0.0
 40
0.0
 40
0.0
 40
0.0
 40
0.0921001180569349
 40
0.3121313958672693
 40
0.4993758982901056
 40
0.6920650252845741
 40
0.8788550996540889
 40
1.0
 40
1.0
 40
1.0
 40
1.0
 10
12.508
 20
-2.516032061256606
 30
0.0
 10
12.56905095370917
 20
-2.620215925674111
 30
0.0
 10
12.77595535081852
 20
-2.973299675332057
 30
0.0
 10
13.11083802812849
 20
-3.453990777338393
 30
0.0
 10
13.5153611837234
 20
-3.896275254680178
 30
0.0
 10
13.90161155787166
 20
-4.167236014140385
 30
0.0
 10
14.24489664551324
 20
-4.29596704085786
 30
0.0
 10
14.45860613300731
 20
-4.26642374978722
 30
0.0
 10
14.54268172263259
 20
-4.254801104272692
 30
0.0
  0
SPLINE
  5
B3
330
1F
100
AcDbEntity
  8
0
  6
Continuous
 62
     1
370
    15
100
AcDbSpline
210
0.0
220
0.0
230
1.0
 70
     8
 71
     3
 72
    25
 73
    21
 74
     0
 42
0.000000001
 43
0.00000001
 40
0.0
 40
0.0
 40
0.0
 40
0.0
 40
0.031473336711506
 40
0.0955960147695326
 40
0.1569461594658225
 40
0.2201271178567455
 40
0.2805770907501532
 40
0.3428308945336553
 40
0.4023961458396906
 40
0.4637385861285415
 40
0.5224358682534757
 40
0.5828840764065676
 40
0.6407315912287385
 40
0.7003041876964742
 40
0.7573217678849895
 40
0.8160390448447074
 40
0.8722483652423415
 40
0.930132500041141
 40
0.9855573119441573
 40
1.0
 40
1.0
 40
1.0
 40
1.0
 10
20.46672485850147
 20
3.399275363324244
 30
0.0
 10
20.53365984573777
 20
3.425467454499545
 30
0.0
 10
20.73696584049428
 20
3.505022398349007
 30
0.0
 10
21.07516315464845
 20
3.488785974882715
 30
0.0
 10
21.48488573643905
 20
3.358245960739897
 30
0.0
 10
21.89115832073684
 20
3.094812767008333
 30
0.0
 10
22.30334080503415
 20
2.713823746639019
 30
0.0
 10
22.7120182466344
 20
2.239119493279575
 30
0.0
 10
23.12671134502261
 20
1.681282409203871
 30
0.0
 10
23.53799580228043
 20
1.077112394886979
 30
0.0
 10
23.95539299798141
 20
0.4383947556332955
 30
0.0
 10
24.36947233867959
 20
-0.1932158752428645
 30
0.0
 10
24.78979009695691
 20
-0.8060502948957683
 30
0.0
 10
25.20687375132172
 20
-1.360587341011321
 30
0.0
 10
25.63034031708758
 20
-1.84737145010529
 30
0.0
 10
26.05068108116929
 20
-2.234777477270498
 30
0.0
 10
26.47747380727652
 20
-2.520249283683283
 30
0.0
 10
26.90161273143808
 20
-2.674177607372102
 30
0.0
 10
27.22354343565422
 20
-2.725405425237355
 30
0.0
 10
27.40241895785391
 20
-2.686213782514459
 30
0.0
 10
27.439395282604
 20
-2.678112266493759
 30
0.0
  0
SPLINE
  5
B4
330
1F
100
AcDbEntity
  8
0
  6
Continuous
 62
     1
370
    15
100
AcDbSpline
210
0.0
220
0.0
230
1.0
 70
     8
 71
     3
 72
    15
 73
    11
 74
     0
 42
0.000000001
 43
0.00000001
 40
0.0
 40
0.0
 40
0.0
 40
0.0
 40
0.1144133011069557
 40
0.2376068642483734
 40
0.3644411430681664
 40
0.4864035789884526
 40
0.6119660083583396
 40
0.7327812515178511
 40
0.8571597267463504
 40
1.0
 40
1.0
 40
1.0
 40
1.0
 10
32.69262212971522
 20
1.775608738701593
 30
0.0
 10
32.83163471466725
 20
1.82533127346734
 30
0.0
 10
33.12032793548984
 20
1.928592130848996
 30
0.0
 10
33.57000414028619
 20
1.94991999680392
 30
0.0
 10
34.03435578630617
 20
1.870027273536306
 30
0.0
 10
34.50741659401024
 20
1.681299042566769
 30
0.0
 10
34.97874937291061
 20
1.404584657534627
 30
0.0
 10
35.45898619601988
 20
1.052735757357693
 30
0.0
 10
35.96731278429426
 20
0.6310496236004719
 30
0.0
 10
36.32354543210079
 20
0.3251583411267784
 30
0.0
 10
36.51396758265567
 20
0.1616458831774794
 30
0.0
  0
SPLINE
  5
B5
330
1F
100
AcDbEntity
  8
0
  6
Continuous
 62
     1
370
    15
100
AcDbSpline
210
0.0
220
0.0
230
1.0
 70
     8
 71
     3
 72
    14
 73
    10
 74
     0
 42
0.000000001
 43
0.00000001
 40
0.0
 40
0.0
 40
0.0
 40
0.0
 40
0.25
 40
0.25
 40
0.5
 40
0.5
 40
0.75
 40
0.75
 40
1.0
 40
1.0
 40
1.0
 40
1.0
 10
36.51396758265567
 20
0.1616458831774837
 30
0.0
 10
36.61125973261024
 20
0.079197330186889
 30
0.0
 10
36.70621944784705
 20
-0.0014852614881118
 30
0.0
 10
36.89487258021489
 20
-0.1552416691488507
 30
0.0
 10
36.98847747268427
 20
-0.2280536757350228
 30
0.0
 10
37.16512583754406
 20
-0.3561657830329706
 30
0.0
 10
37.25064940552267
 20
-0.4131186231471708
 30
0.0
 10
37.40430359108392
 20
-0.5102384935286368
 30
0.0
 10
37.47302568572608
 20
-0.5505672308308114
 30
0.0
 10
37.52929911582426
 20
-0.589250546108349
 30
0.0
  0
SPLINE
  5
B6
330
1F
100
AcDbEntity
  8
0
  6
Continuous
 62
     1
370
    15
100
AcDbSpline
210
0.0
220
0.0
230
1.0
 70
     8
 71
     3
 72
    14
 73
    10
 74
     0
 42
0.000000001
 43
0.00000001
 40
0.0
 40
0.0
 40
0.0
 40
0.0
 40
0.5000000000000027
 40
0.5000000000000027
 40
0.7500000000000013
 40
0.7500000000000013
 40
0.8750000000000007
 40
0.8750000000000007
 40
1.0
 40
1.0
 40
1.0
 40
1.0
 10
36.48683496475938
 20
-1.354402855386038
 30
0.0
 10
36.59273948583494
 20
-1.208523010797549
 30
0.0
 10
36.76324110042753
 20
-1.031116028148731
 30
0.0
 10
37.07335795814329
 20
-0.7914496877793198
 30
0.0
 10
37.18577481126691
 20
-0.7165874572283651
 30
0.0
 10
37.33753566793748
 20
-0.6385347741814952
 30
0.0
 10
37.38536151870381
 20
-0.6182652724920483
 30
0.0
 10
37.4673426054357
 20
-0.5930005751126096
 30
0.0
 10
37.50214182883446
 20
-0.5877659687661093
 30
0.0
 10
37.52929911582393
 20
-0.5892505461082018
 30
0.0
  0
SPLINE
  5
B7
330
1F
100
AcDbEntity
  8
0
  6
Continuous
 62
     4
370
    15
100
AcDbSpline
210
0.0
220
0.0
230
1.0
 70
     8
 71
     3
 72
    11
 73
     7
 74
     0
 42
0.000000001
 43
0.00000001
 40
0.0
 40
0.0
 40
0.0
 40
0.0
 40
0.2568571733977078
 40
0.6960404010387243
 40
0.9797487778756768
 40
1.0
 40
1.0
 40
1.0
 40
1.0
 10
12.50799999999998
 20
4.111992072507304
 30
0.0
 10
12.43753205131169
 20
4.193139613552387
 30
0.0
 10
12.24657558076988
 20
4.413036010702529
 30
0.0
 10
11.98336445358536
 20
4.605087973242749
 30
0.0
 10
11.78582432489411
 20
4.704807230964926
 30
0.0
 10
11.70651163480846
 20
4.712424879199792
 30
0.0
 10
11.70122744931246
 20
4.71293240285424
 30
0.0
  0
LINE
  5
B8
330
1F
100
AcDbEntity
  8
0
  6
Continuous
 62
     4
370
    15
100
AcDbLine
 10
12.508
 20
4.111992072507284
 30
0.0
 11
12.50799999999998
 21
-2.516032061256601
 31
0.0
  0
LINE
  5
B9
330
1F
100
AcDbEntity
  8
0
  6
Continuous
 62
     4
370
    15
100
AcDbLine
 10
11.492
 20
4.765000000000008
 30
0.0
 11
11.492
 21
-0.6432524148647129
 31
0.0
  0
LINE
  5
BA
330
1F
100
AcDbEntity
  8
0
  6
Continuous
 62
     4
370
    15
100
AcDbLine
 10
-50.18199999999997
 20
4.7625
 30
0.0
 11
-50.18199999999997
 21
-4.762499999999998
 31
0.0
  0
LINE
  5
BB
330
1F
100
AcDbEntity
  8
0
  6
Continuous
 62
     4
370
    15
100
AcDbLine
 10
10.618
 20
-0.0446268229586299
 30
0.0
 11
10.618
 21
1.491646408214097
 31
0.0
  0
LINE
  5
BC
330
1F
100
AcDbEntity
  8
0
  6
Continuous
 62
     4
370
    15
100
AcDbLine
 10
-50.99200000000001
 20
-3.952499999999976
 30
0.0
 11
-50.99200000000001
 21
3.952499999999976
 31
0.0
  0
SPLINE
  5
BD
330
1F
100
AcDbEntity
  8
0
  6
Continuous
 62
     1
370
    15
100
AcDbSpline
210
0.0
220
0.0
230
1.0
 70
     8
 71
     3
 72
    10
 73
     6
 74
     0
 42
0.000000001
 43
0.00000001
 40
0.0
 40
0.0
 40
0.0
 40
0.0
 40
0.4466597285991874
 40
0.9219696831451365
 40
1.0
 40
1.0
 40
1.0
 40
1.0
 10
36.48683496475938
 20
1.380139429463485
 30
0.0
 10
36.34687461499497
 20
1.446032668033438
 30
0.0
 10
36.05797639771025
 20
1.582045754496985
 30
0.0
 10
35.74939539282482
 20
1.680143008453523
 30
0.0
 10
35.58206020389967
 20
1.68539791851987
 30
0.0
 10
35.5584631181865
 20
1.686138949525046
 30
0.0
  0
SPLINE
  5
BE
330
1F
100
AcDbEntity
  8
0
  6
Continuous
 62
     1
370
    15
100
AcDbSpline
210
0.0
220
0.0
230
1.0
 70
     8
 71
     3
 72
    26
 73
    22
 74
     0
 42
0.000000001
 43
0.00000001
 40
0.0
 40
0.0
 40
0.0
 40
0.0
 40
0.0505086218536169
 40
0.1024896225629475
 40
0.1559390738238063
 40
0.2086210745155016
 40
0.2627892145737258
 40
0.3162235526816046
 40
0.3711635770365285
 40
0.4253924783969485
 40
0.4811480128020846
 40
0.5362069648596538
 40
0.592814560612136
 40
0.6487338734579031
 40
0.7062249410005585
 40
0.7630308565381729
 40
0.8214329230047672
 40
0.8791483519493869
 40
0.938485816049638
 40
0.9971295254292277
 40
1.0
 40
1.0
 40
1.0
 40
1.0
 10
30.70882629747899
 20
-2.032359691035907
 30
0.0
 10
30.58445018891598
 20
-2.110558939904186
 30
0.0
 10
30.33207227887488
 20
-2.269237027072031
 30
0.0
 10
29.9536796696298
 20
-2.392225289007792
 30
0.0
 10
29.57375992271666
 20
-2.420888659232664
 30
0.0
 10
29.19284156459281
 20
-2.341812074744568
 30
0.0
 10
28.81602943327352
 20
-2.1597233226256
 30
0.0
 10
28.43771122831638
 20
-1.877619654093332
 30
0.0
 10
28.06337056710134
 20
-1.509052080036118
 30
0.0
 10
27.68720441632203
 20
-1.063476880657117
 30
0.0
 10
27.31481424573121
 20
-0.5631302968817941
 30
0.0
 10
26.94050201270686
 20
-0.021675552653557
 30
0.0
 10
26.56959219370141
 20
0.53311205771607
 30
0.0
 10
26.19689398826403
 20
1.085857758683622
 30
0.0
 10
25.82711666813288
 20
1.607340282341047
 30
0.0
 10
25.45577007129941
 20
2.083189919896329
 30
0.0
 10
25.08694688546329
 20
2.486363947026569
 30
0.0
 10
24.71658110944817
 20
2.80938063929847
 30
0.0
 10
24.34891217738196
 20
3.017052147233897
 30
0.0
 10
24.09765863760265
 20
3.117660883880112
 30
0.0
 10
23.97121812843087
 20
3.113903857662896
 30
0.0
 10
23.96531795642199
 20
3.113728541215117
 30
0.0
  0
SPLINE
  5
BF
330
1F
100
AcDbEntity
  8
0
  6
Continuous
 62
     1
370
    15
100
AcDbSpline
210
0.0
220
0.0
230
1.0
 70
     8
 71
     3
 72
    24
 73
    20
 74
     0
 42
0.000000001
 43
0.00000001
 40
0.0
 40
0.0
 40
0.0
 40
0.0
 40
0.039168959224531
 40
0.0987242778893581
 40
0.1575241661845754
 40
0.2179807770535796
 40
0.2776642682756678
 40
0.3390291749178768
 40
0.3996043496270387
 40
0.4618856402749215
 40
0.5233611251866649
 40
0.5865681255886867
 40
0.648952889997799
 40
0.7130958681063853
 40
0.7763949260379664
 40
0.8414797724282942
 40
0.9056837562183353
 40
0.9716998790123911
 40
1.0
 40
1.0
 40
1.0
 40
1.0
 10
18.36784422295479
 20
-3.676254536515255
 30
0.0
 10
18.28633173167082
 20
-3.724300793890345
 30
0.0
 10
18.08088175290463
 20
-3.845400056126326
 30
0.0
 10
17.75664011994752
 20
-3.889708412980434
 30
0.0
 10
17.39056125081752
 20
-3.822974200398657
 30
0.0
 10
17.02787951212758
 20
-3.617494868328107
 30
0.0
 10
16.66216145493173
 20
-3.282166405701007
 30
0.0
 10
16.29961908682359
 20
-2.828522038216329
 30
0.0
 10
15.9344330517066
 20
-2.265215401275866
 30
0.0
 10
15.57179775458216
 20
-1.616736525281099
 30
0.0
 10
15.20718404069405
 20
-0.8953817359158283
 30
0.0
 10
14.84446907911796
 20
-0.1342916723490531
 30
0.0
 10
14.48022153899548
 20
0.6517980361472122
 30
0.0
 10
14.11769736362902
 20
1.425794778620424
 30
0.0
 10
13.75345994991455
 20
2.171836966657215
 30
0.0
 10
13.39143193222991
 20
2.854712648716422
 30
0.0
 10
13.02708142352673
 20
3.457499251782372
 30
0.0
 10
12.73359755374692
 20
3.86402186808168
 30
0.0
 10
12.56006840112704
 20
4.054760015434215
 30
0.0
 10
12.508
 20
4.111992072507277
 30
0.0
  0
ELLIPSE
  5
C0
330
1F
100
AcDbEntity
  8
0
  6
Continuous
 62
     1
370
    15
100
AcDbEllipse
 10
37.54510900028151
 20
0.0441238306501643
 30
0.0
 11
2.047802616875429
 21
-0.4517639955932529
 31
0.0
210
0.0
220
0.0
230
1.0
 40
0.6611505908906697
 41
2.252414174868362
 42
2.466602684194639
  0
LINE
  5
C1
330
1F
100
AcDbEntity
  8
0
  6
Continuous
 62
     1
370
    15
100
AcDbLine
 10
36.13300693853915
 20
1.242863521904827
 30
0.0
 11
36.51396758265567
 21
0.9761120071332128
 31
0.0
  0
LINE
  5
C2
330
1F
100
AcDbEntity
  8
0
  6
Continuous
 62
     1
370
    15
100
AcDbLine
 10
36.51396758265567
 20
0.9761120071332132
 30
0.0
 11
36.51396758265567
 21
0.1616458831774815
 31
0.0
  0
SPLINE
  5
C3
330
1F
100
AcDbEntity
  8
0
  6
Continuous
 62
     4
370
    15
100
AcDbSpline
210
0.0
220
0.0
230
1.0
 70
     8
 71
     3
 72
     9
 73
     5
 74
     0
 42
0.000000001
 43
0.00000001
 40
0.0
 40
0.0
 40
0.0
 40
0.0
 40
0.1637970726898457
 40
1.0
 40
1.0
 40
1.0
 40
1.0
 10
12.0044458706097
 20
4.570936033129654
 30
0.0
 10
12.03170350456961
 20
4.57757139851365
 30
0.0
 10
12.19811450027481
 20
4.618081068650188
 30
0.0
 10
12.36687879920724
 20
4.561018340488607
 30
0.0
 10
12.50799999999998
 20
4.513302320159588
 30
0.0
  0
SPLINE
  5
C4
330
1F
100
AcDbEntity
  8
0
  6
Continuous
 62
     1
370
    15
100
AcDbSpline
210
0.0
220
0.0
230
1.0
 70
     8
 71
     3
 72
    24
 73
    20
 74
     0
 42
0.000000001
 43
0.00000001
 40
0.0
 40
0.0
 40
0.0
 40
0.0
 40
0.0309076353249765
 40
0.1047473506057575
 40
0.1675842385445337
 40
0.2322482736606613
 40
0.2949326612894509
 40
0.3594848383454315
 40
0.4212907874981821
 40
0.4849391431742118
 40
0.5458638522836374
 40
0.6086050456224386
 40
0.6686542265648928
 40
0.7304941328216183
 40
0.7896746519284343
 40
0.8506203265555109
 40
0.9089400833229383
 40
0.9689996347946811
 40
1.0
 40
1.0
 40
1.0
 40
1.0
 10
12.508
 20
4.513302320159583
 30
0.0
 10
12.56905112948934
 20
4.493455110478248
 30
0.0
 10
12.77595612232553
 20
4.426192034245532
 30
0.0
 10
13.11083006246448
 20
4.193948082968593
 30
0.0
 10
13.5153858200684
 20
3.766501985825724
 30
0.0
 10
13.90151750745981
 20
3.235982084073253
 30
0.0
 10
14.2940700662971
 20
2.593930709724149
 30
0.0
 10
14.6844547524832
 20
1.877324265002224
 30
0.0
 10
15.08020871434862
 20
1.099634849053664
 30
0.0
 10
15.47185074335506
 20
0.3072366949627262
 30
0.0
 10
15.86917992039373
 20
-0.4886311566930756
 30
0.0
 10
16.26216020695221
 20
-1.241392274089835
 30
0.0
 10
16.66107521461274
 20
-1.9408407189839
 30
0.0
 10
17.05552418057185
 20
-2.547091536537233
 30
0.0
 10
17.45606709201582
 20
-3.051934443238547
 30
0.0
 10
17.85209266898047
 20
-3.429864170552946
 30
0.0
 10
18.25443943050925
 20
-3.668241788058697
 30
0.0
 10
18.59190958045114
 20
-3.770110167519322
 30
0.0
 10
18.80033162428389
 20
-3.736410544233345
 30
0.0
 10
18.8712866581938
 20
-3.72493787143427
 30
0.0
  0
SPLINE
  5
C5
330
1F
100
AcDbEntity
  8
0
  6
Continuous
 62
     1
370
    15
100
AcDbSpline
210
0.0
220
0.0
230
1.0
 70
     8
 71
     3
 72
    24
 73
    20
 74
     0
 42
0.000000001
 43
0.00000001
 40
0.0
 40
0.0
 40
0.0
 40
0.0
 40
0.0262337439059008
 40
0.0922698992430003
 40
0.155473821944498
 40
0.2205618565810856
 40
0.282869824224921
 40
0.3470343217249981
 40
0.4084726625960283
 40
0.471740560093829
 40
0.532338175768567
 40
0.5947390424841885
 40
0.6545276687447018
 40
0.7160939773876518
 40
0.7751083975313159
 40
0.8358757520267147
 40
0.8941539016569703
 40
0.954161160323661
 40
1.0
 40
1.0
 40
1.0
 40
1.0
 10
24.61868235062144
 20
2.84770865812104
 30
0.0
 10
24.67454587074766
 20
2.872582481143193
 30
0.0
 10
24.87103026854824
 20
2.960069236837485
 30
0.0
 10
25.20703968268764
 20
2.976768341478516
 30
0.0
 10
25.63029983231649
 20
2.897781154286606
 30
0.0
 10
26.05067370396502
 20
2.691685468891116
 30
0.0
 10
26.4775394190486
 20
2.374426223111456
 30
0.0
 10
26.90135262685469
 20
1.966857834815044
 30
0.0
 10
27.33191493084681
 20
1.480311496487859
 30
0.0
 10
27.75950241600548
 20
0.9489935022027846
 30
0.0
 10
28.19404863929713
 20
0.3860818153062444
 30
0.0
 10
28.62572849723537
 20
-0.1692862078727035
 30
0.0
 10
29.06458624793083
 20
-0.7036908805031158
 30
0.0
 10
29.50070223719336
 20
-1.180495432854004
 30
0.0
 10
29.94423698756696
 20
-1.588198606407224
 30
0.0
 10
30.3851351963391
 20
-1.900582866598202
 30
0.0
 10
30.83384870846202
 20
-2.106601252903838
 30
0.0
 10
31.2497440148394
 20
-2.203000720033988
 30
0.0
 10
31.52209252520645
 20
-2.176613854979955
 30
0.0
 10
31.64003867436299
 20
-2.165186477913555
 30
0.0
  0
SPLINE
  5
C6
330
1F
100
AcDbEntity
  8
0
  6
Continuous
 62
     1
370
    15
100
AcDbSpline
210
0.0
220
0.0
230
1.0
 70
     8
 71
     3
 72
    14
 73
    10
 74
     0
 42
0.000000001
 43
0.00000001
 40
0.0
 40
0.0
 40
0.0
 40
0.0
 40
0.25
 40
0.25
 40
0.5
 40
0.5
 40
0.75
 40
0.75
 40
1.0
 40
1.0
 40
1.0
 40
1.0
 10
36.51396758265567
 20
1.276545050035079
 30
0.0
 10
36.61125973261024
 20
1.314732894296011
 30
0.0
 10
36.70621944784706
 20
1.338838760819122
 30
0.0
 10
36.8948725802149
 20
1.356911516789212
 30
0.0
 10
36.98847747268427
 20
1.350286363339176
 30
0.0
 10
37.16512583754404
 20
1.305825880301607
 30
0.0
 10
37.25064940552266
 20
1.267315664824044
 30
0.0
 10
37.40430359108392
 20
1.163886305892516
 30
0.0
 10
37.47302568572606
 20
1.099131797184617
 30
0.0
 10
37.52929911582424
 20
1.025247306748858
 30
0.0
  0
SPLINE
  5
C7
330
1F
100
AcDbEntity
  8
0
  6
Continuous
 62
     1
370
    15
100
AcDbSpline
210
0.0
220
0.0
230
1.0
 70
     8
 71
     3
 72
    14
 73
    10
 74
     0
 42
0.000000001
 43
0.00000001
 40
0.0
 40
0.0
 40
0.0
 40
0.0
 40
0.5000000000000027
 40
0.5000000000000027
 40
0.7500000000000014
 40
0.7500000000000014
 40
0.8750000000000008
 40
0.8750000000000008
 40
1.0
 40
1.0
 40
1.0
 40
1.0
 10
36.48683496475937
 20
1.380139429463486
 30
0.0
 10
36.59273948583493
 20
1.147862573860947
 30
0.0
 10
36.76324110042753
 20
0.9393367961311531
 30
0.0
 10
37.07335795814328
 20
0.7990784549894601
 30
0.0
 10
37.18577481126691
 20
0.7828349539242156
 30
0.0
 10
37.33753566793749
 20
0.8271613463914967
 30
0.0
 10
37.38536151870381
 20
0.8535922887458217
 30
0.0
 10
37.46734260543572
 20
0.9261969524824866
 30
0.0
 10
37.50214182883447
 20
0.9728231001682673
 30
0.0
 10
37.52929911582394
 20
1.025247306748911
 30
0.0
  0
LINE
  5
C8
330
1F
100
AcDbEntity
  8
0
  6
Continuous
 62
     1
370
    15
100
AcDbLine
 10
12.50799999999998
 20
4.523229204416348
 30
0.0
 11
12.50799999999998
 21
4.513302320159588
 31
0.0
  0
SPLINE
  5
C9
330
1F
100
AcDbEntity
  8
0
  6
Continuous
 62
     1
370
    15
100
AcDbSpline
210
0.0
220
0.0
230
1.0
 70
     8
 71
     3
 72
    25
 73
    21
 74
     0
 42
0.000000001
 43
0.00000001
 40
0.0
 40
0.0
 40
0.0
 40
0.0
 40
0.0448662172012591
 40
0.1006231058670838
 40
0.1579906479848849
 40
0.213846977572977
 40
0.2713039108127107
 40
0.3274888562732237
 40
0.3852747128694059
 40
0.4419538057226574
 40
0.5002413860483406
 40
0.5575397931703693
 40
0.6164598435333364
 40
0.6744713723673682
 40
0.7341217126969245
 40
0.7929155673833773
 40
0.8533679745320041
 40
0.9130014483699979
 40
0.9743152892640994
 40
1.0
 40
1.0
 40
1.0
 40
1.0
 10
34.66261531096313
 20
-1.524247068669295
 30
0.0
 10
34.54993903199546
 20
-1.59336764328153
 30
0.0
 10
34.29723582110489
 20
-1.748386883383758
 30
0.0
 10
33.90805998322674
 20
-1.891275780994312
 30
0.0
 10
33.49678138158664
 20
-1.956324098518412
 30
0.0
 10
33.08741055879645
 20
-1.917225307673882
 30
0.0
 10
32.68602050327768
 20
-1.778585815659274
 30
0.0
 10
32.28550313179871
 20
-1.542841617617121
 30
0.0
 10
31.89156808925909
 20
-1.224255951828801
 30
0.0
 10
31.49789199581027
 20
-0.8318463929118164
 30
0.0
 10
31.10974713959825
 20
-0.389059669218877
 30
0.0
 10
30.72138923279595
 20
0.0909104354048392
 30
0.0
 10
30.3378313793206
 20
0.5796777119656014
 30
0.0
 10
29.95362235037717
 20
1.062135174414474
 30
0.0
 10
29.5737728222617
 20
1.510091760128019
 30
0.0
 10
29.19284680632705
 20
1.908579067136867
 30
0.0
 10
28.81599423408169
 20
2.236165379827197
 30
0.0
 10
28.4378459358835
 20
2.473687759761376
 30
0.0
 10
28.1348391654418
 20
2.604840692023451
 30
0.0
 10
27.95729570520263
 20
2.61646061747197
 30
0.0
 10
27.90487928752836
 20
2.619891185203572
 30
0.0
  0
SPLINE
  5
CA
330
1F
100
AcDbEntity
  8
0
  6
Continuous
 62
     1
370
    15
100
AcDbSpline
210
0.0
220
0.0
230
1.0
 70
     8
 71
     3
 72
    27
 73
    23
 74
     0
 42
0.000000001
 43
0.00000001
 40
0.0
 40
0.0
 40
0.0
 40
0.0
 40
0.0062494045045932
 40
0.0574397221890059
 40
0.108017498704246
 40
0.1600177683852725
 40
0.2113942031076136
 40
0.2642151778923392
 40
0.3164007298011165
 40
0.3700534994320066
 40
0.4230584055351254
 40
0.4775542767130319
 40
0.5313870840217519
 40
0.5867356032994987
 40
0.6413914575029793
 40
0.6975869797490014
 40
0.7530696890155534
 40
0.8101156573215663
 40
0.8664321213063674
 40
0.9243351441370374
 40
0.9814929875377779
 40
1.0
 40
1.0
 40
1.0
 40
1.0
 10
22.55790890858622
 20
-3.125686678988286
 30
0.0
 10
22.54268862590839
 20
-3.137296583859635
 30
0.0
 10
22.40279548760852
 20
-3.244005904717474
 30
0.0
 10
22.1430709505778
 20
-3.338430500908039
 30
0.0
 10
21.77472715495936
 20
-3.392261101556649
 30
0.0
 10
21.40983093356159
 20
-3.31147344085204
 30
0.0
 10
21.04240633000954
 20
-3.109691689768263
 30
0.0
 10
20.67762964843441
 20
-2.790735186807334
 30
0.0
 10
20.31089623776117
 20
-2.360938159517493
 30
0.0
 10
19.94625195146126
 20
-1.839279246198574
 30
0.0
 10
19.58001783884033
 20
-1.235801636076597
 30
0.0
 10
19.21566109077285
 20
-0.5788841122508439
 30
0.0
 10
18.84962326009192
 20
0.1179481991070484
 30
0.0
 10
18.4857903558007
 20
0.8213318724960411
 30
0.0
 10
18.11976125394542
 20
1.515651799056657
 30
0.0
 10
17.75656711098198
 20
2.167446139801267
 30
0.0
 10
17.39057908839122
 20
2.761435038813873
 30
0.0
 10
17.02788336033499
 20
3.267767120103534
 30
0.0
 10
16.6621285151323
 20
3.676841457847511
 30
0.0
 10
16.2997505346098
 20
3.955280100116624
 30
0.0
 10
16.01866809553361
 20
4.098839069686901
 30
0.0
 10
15.86107322104716
 20
4.10050645119146
 30
0.0
 10
15.82252678792654
 20
4.100914279237019
 30
0.0
  0
LINE
  5
CB
330
1F
100
AcDbEntity
  8
0
  6
Continuous
 62
     4
370
    15
100
AcDbLine
 10
12.508
 20
-3.687971135172632
 30
0.0
 11
12.50799999999998
 21
-4.523229204416332
 31
0.0
  0
LINE
  5
CC
330
1F
100
AcDbEntity
  8
0
  6
Continuous
 62
     4
370
    15
100
AcDbLine
 10
11.49199999999999
 20
-1.904857351455236
 30
0.0
 11
11.492
 21
-4.764999999999991
 31
0.0
  0
SPLINE
  5
CD
330
1F
100
AcDbEntity
  8
0
  6
Continuous
 62
     1
370
    15
100
AcDbSpline
210
0.0
220
0.0
230
1.0
 70
     8
 71
     3
 72
    26
 73
    22
 74
     0
 42
0.000000001
 43
0.00000001
 40
0.0
 40
0.0
 40
0.0
 40
0.0
 40
0.002874295654425
 40
0.0635552275915605
 40
0.1260457242755909
 40
0.1858488555683635
 40
0.2474357128054752
 40
0.3063690260572567
 40
0.3670604376274532
 40
0.4251329200323711
 40
0.4849380943528576
 40
0.5421597114041454
 40
0.601088832330546
 40
0.6574705134041525
 40
0.7155347389956255
 40
0.7710883863104071
 40
0.828299867992071
 40
0.8830383937271463
 40
0.9394103204196268
 40
0.9933477150199681
 40
1.0
 40
1.0
 40
1.0
 40
1.0
 10
16.25035071295581
 20
3.961100338115153
 30
0.0
 10
16.25643565693472
 20
3.964102764862663
 30
0.0
 10
16.39098340217651
 20
4.030491173783359
 30
0.0
 10
16.66134824861944
 20
4.026289382657939
 30
0.0
 10
17.05545595765872
 20
3.935418871141697
 30
0.0
 10
17.45607764834302
 20
3.683093160672907
 30
0.0
 10
17.85212054781684
 20
3.308090602122901
 30
0.0
 10
18.25432272384723
 20
2.812492256875068
 30
0.0
 10
18.65215073624664
 20
2.229422507804844
 30
0.0
 10
19.05608201799528
 20
1.568973798821264
 30
0.0
 10
19.45581598351804
 20
0.8722853019833874
 30
0.0
 10
19.86158776212912
 20
0.1509480803523307
 30
0.0
 10
20.26335663799325
 20
-0.5508323528354889
 30
0.0
 10
20.67110461836225
 20
-1.222133048683153
 30
0.0
 10
21.0750382847131
 20
-1.822244598034859
 30
0.0
 10
21.48491446297421
 20
-2.342925650337309
 30
0.0
 10
21.89117096093466
 20
-2.752065720035805
 30
0.0
 10
22.30326587756918
 20
-3.049468728349001
 30
0.0
 10
22.71231083873219
 20
-3.201408701501753
 30
0.0
 10
23.00380281304726
 20
-3.250690386151793
 30
0.0
 10
23.15707526117665
 20
-3.21091373690289
 30
0.0
 10
23.17390340767958
 20
-3.206546564008313
 30
0.0
  0
SPLINE
  5
CE
330
1F
100
AcDbEntity
  8
0
  6
Continuous
 62
     1
370
    15
100
AcDbSpline
210
0.0
220
0.0
230
1.0
 70
     8
 71
     3
 72
    23
 73
    19
 74
     0
 42
0.000000001
 43
0.00000001
 40
0.0
 40
0.0
 40
0.0
 40
0.0
 40
0.0577996457414946
 40
0.1263815930991497
 40
0.1921208577204469
 40
0.2598128080570634
 40
0.3247319022522848
 40
0.3915771418917647
 40
0.4557217184021313
 40
0.5217670662448488
 40
0.5851856289632095
 40
0.6504809216030495
 40
0.7132235233963939
 40
0.7778203452335941
 40
0.8399359327331496
 40
0.9038850004057523
 40
0.965416321513995
 40
1.0
 40
1.0
 40
1.0
 40
1.0
 10
28.68937189172397
 20
2.301724900018629
 30
0.0
 10
28.81302774317906
 20
2.346939522179543
 30
0.0
 10
29.08340696959889
 20
2.445803380370462
 30
0.0
 10
29.50078215581911
 20
2.453959832876348
 30
0.0
 10
29.94420810526075
 20
2.354876790435614
 30
0.0
 10
30.38516992272432
 20
2.143847850552985
 30
0.0
 10
30.83374181211769
 20
1.832755174585423
 30
0.0
 10
31.279904050695
 20
1.44521120824312
 30
0.0
 10
31.73394865682704
 20
0.9946986447544627
 30
0.0
 10
32.18576880475676
 20
0.5157511142707694
 30
0.0
 10
32.64571117828581
 20
0.0243898874216347
 30
0.0
 10
33.10363905224677
 20
-0.4418885101120528
 30
0.0
 10
33.56991075375558
 20
-0.867607821009735
 30
0.0
 10
34.03439408644904
 20
-1.219996263878478
 30
0.0
 10
34.5073556858223
 20
-1.489309413736786
 30
0.0
 10
34.97895833256569
 20
-1.649024627572758
 30
0.0
 10
35.38523149047932
 20
-1.709215865333828
 30
0.0
 10
35.63313520820195
 20
-1.672396946592043
 30
0.0
 10
35.72233483890889
 20
-1.659148924396303
 30
0.0
  0
ELLIPSE
  5
CF
330
1F
100
AcDbEntity
  8
0
  6
Continuous
 62
     1
370
    15
100
AcDbEllipse
 10
37.54510900028151
 20
-0.2387749679831609
 30
0.0
 11
2.056784027712496
 21
1.407266461692997
 31
0.0
210
0.0
220
0.0
230
1.0
 40
0.1625811818184106
 41
3.850633425806636
 42
4.064821935132895
  0
ELLIPSE
  5
D0
330
1F
100
AcDbEntity
  8
0
  6
Continuous
 62
     1
370
    15
100
AcDbEllipse
 10
37.54510900028152
 20
-0.1270495067756579
 30
0.0
 11
2.005272192745011
 21
1.00739568077174
 31
0.0
210
0.0
220
0.0
230
1.0
 40
0.507704990643784
 41
3.711684171101141
 42
3.941061246837027
  0
LINE
  5
D1
330
1F
100
AcDbEntity
  8
0
  6
Continuous
 62
     1
370
    15
100
AcDbLine
 10
36.51396758265567
 20
0.9761120071332132
 30
0.0
 11
37.90799999999999
 21
0.0000000000000136
 31
0.0
  0
ARC
  5
D2
330
1F
100
AcDbEntity
  8
0
  6
Continuous
 62
     1
370
    15
100
AcDbCircle
 10
36.82110551188394
 20
0.2822103804088338
 30
0.0
 40
1.122934694052847
100
AcDbArc
 50
309.0990702731606
 51
345.4446567264243
  0
ARC
  5
D3
330
1F
100
AcDbEntity
  8
0
  6
Continuous
 62
     1
370
    15
100
AcDbCircle
 10
36.34121865320255
 20
0.0038348976559493
 30
0.0
 40
1.56678603999156
100
AcDbArc
 50
359.8597615345496
 51
40.68619321230177
  0
ARC
  5
D4
330
1F
100
AcDbEntity
  8
0
  6
Continuous
 62
     1
370
    15
100
AcDbCircle
 10
36.31233878232387
 20
0.0238035281518085
 30
0.0
 40
1.595838754244339
100
AcDbArc
 50
277.2585268633412
 51
359.1453445563366
  0
LINE
  5
D5
330
1F
100
AcDbEntity
  8
0
  6
Continuous
 62
     8
370
    15
100
AcDbLine
 10
36.51396758265567
 20
-1.55924642571095
 30
0.0
 11
36.51396758265567
 21
-1.575667015730591
 31
0.0
  0
LINE
  5
D6
102
{ACAD_REACTORS
102
}
330
1F
100
AcDbEntity
  8
중심선
100
AcDbLine
 10
-53.99200000000001
 20
-0.0000000000000078
 30
0.0
 11
42.51396758265567
 21
-0.0000000000000077
 31
0.0
  0
CIRCLE
  5
D7
330
1F
100
AcDbEntity
  8
외형선
100
AcDbCircle
 10
-0.5080000000000119
 20
-0.0000000000000078
 30
0.0
 40
3.0
  0
INSERT
  5
D8
330
1F
100
AcDbEntity
  8
0
  6
Continuous
 62
     7
100
AcDbBlockReference
 66
     1
  2
블럭10
 10
-1.432773799681436
 20
-52.05975325537357
 30
0.0
  0
ATTRIB
  5
D9
330
D8
100
AcDbEntity
  8
FORMAT
 62
     2
100
AcDbText
 10
-10.61406908842272
 20
-49.98438634254138
 30
0.0
 40
4.233333333333333
  1
E5078798 [ 3 FLUTE ]
 41
0.75
  7
SLDTEXTSTYLE0
 11
-10.61406908842272
 21
-52.10105300920804
 31
0.0
100
AcDbAttribute
  2
AUTOATTR0
 70
     0
 74
     1
  0
SEQEND
  5
DA
330
D8
100
AcDbEntity
  8
0
  6
Continuous
 62
     7
  0
HATCH
  5
DB
330
1F
100
AcDbEntity
  8
중심선
100
AcDbHatch
 10
0.0
 20
0.0
 30
0.0
210
0.0
220
0.0
230
1.0
  2
SOLID
 70
     1
 71
     0
 91
        1
 92
        0
 93
        4
 72
     1
 10
4.282135504699413
 20
-35.81257895372963
 11
0.8358602608621313
 21
-35.81257895372963
 72
     1
 10
0.8358602608621313
 20
-35.81257895372963
 11
-1.292369598341891
 21
-38.34890453430223
 72
     1
 10
-1.292369598341891
 20
-38.34890453430223
 11
2.15393873060854
 21
-38.34886510499974
 72
     1
 10
2.15393873060854
 20
-38.34886510499974
 11
4.282135504699413
 21
-35.81257895372963
 97
        0
 75
     0
 76
     1
 98
        1
 10
0.0
 20
0.0
  0
HATCH
  5
DC
330
1F
100
AcDbEntity
  8
중심선
100
AcDbHatch
 10
0.0
 20
0.0
 30
0.0
210
0.0
220
0.0
230
1.0
  2
SOLID
 70
     1
 71
     0
 91
        1
 92
        0
 93
        4
 72
     1
 10
9.294899495735365
 20
-35.81257895372963
 11
5.848624251898082
 21
-35.81257895372963
 72
     1
 10
5.848624251898082
 20
-35.81257895372963
 11
1.317486243540694
 21
-41.21257895372965
 72
     1
 10
1.317486243540694
 20
-41.21257895372965
 11
4.763761487377977
 21
-41.21257895372965
 72
     1
 10
4.763761487377977
 20
-41.21257895372965
 11
9.294899495735365
 21
-35.81257895372963
 97
        0
 75
     0
 76
     1
 98
        1
 10
0.0
 20
0.0
  0
HATCH
  5
DD
330
1F
100
AcDbEntity
  8
중심선
100
AcDbHatch
 10
0.0
 20
0.0
 30
0.0
210
0.0
220
0.0
230
1.0
  2
SOLID
 70
     1
 71
     0
 91
        1
 92
        0
 93
        4
 72
     1
 10
14.30766348677126
 20
-35.81257895372966
 11
10.86138824293414
 21
-35.81257895372963
 72
     1
 10
10.86138824293414
 20
-35.81257895372963
 11
3.812951341044895
 21
-44.21257895372965
 72
     1
 10
3.812951341044895
 20
-44.21257895372965
 11
7.259226584882178
 21
-44.21257895372965
 72
     1
 10
7.259226584882178
 20
-44.21257895372965
 11
14.30766348677126
 21
-35.81257895372966
 97
        0
 75
     0
 76
     1
 98
        1
 10
0.0
 20
0.0
  0
HATCH
  5
DE
330
1F
100
AcDbEntity
  8
중심선
100
AcDbHatch
 10
0.0
 20
0.0
 30
0.0
210
0.0
220
0.0
230
1.0
  2
SOLID
 70
     1
 71
     0
 91
        1
 92
        0
 93
        6
 72
     3
 10
19.10755391778346
 20
-40.01257895378091
 11
3.960054785062284
 21
1.540850780301639E-10
 40
0.3939339440162633
 50
17.09539180608434
 51
320.0019657685079
 73
     0
 72
     1
 10
20.79055357348405
 20
-38.60047295836794
 11
23.09585544718509
 21
-36.66614624832001
 72
     3
 10
19.10755391773061
 20
-40.01257895372979
 11
6.600054785286829
 21
-1.249000902703301E-13
 40
0.6363583540795982
 50
39.99873849337412
 51
368.4976242363725
 73
     1
 72
     1
 10
25.53288640963122
 20
-39.05257895365965
 11
17.78762122456654
 21
-39.05257895365963
 72
     1
 10
17.78762122456654
 20
-39.05257895365963
 11
17.7875961801206
 21
-40.97257895365955
 72
     1
 10
17.7875961801206
 20
-40.97257895365955
 11
22.22897594959264
 21
-40.97257895365952
 97
        0
 75
     0
 76
     1
 98
        1
 10
0.0
 20
0.0
  0
DIMENSION
  5
DF
330
1F
100
AcDbEntity
  8
치수문자_일반주서
100
AcDbDimension
  2
_D
 10
12.508
 20
44.2461699413596
 30
0.0
 11
-6.56475
 21
44.2461699413596
 31
0.0
 70
   160
  1
<>
 71
     2
 42
25.4
  3
SLDDIMSTYLE0
100
AcDbAlignedDimension
 13
37.908
 23
1.649999999999992
 33
0.0
 14
12.508
 24
3.851774598917539
 34
0.0
100
AcDbRotatedDimension
1001
ACAD
1000
DSTYLE
1002
{
1070
   171
1070
     6
1070
   273
1070
     7
1002
}
  0
DIMENSION
  5
F5
102
{ACAD_REACTORS
102
}
330
1F
100
AcDbEntity
  8
치수문자_일반주서
100
AcDbDimension
  2
_D_1
 10
-50.992
 20
57.94173636249309
 30
0.0
 11
-5.425713359609247
 21
57.94173636249309
 31
0.0
 70
   160
  1
<>
 71
     2
 42
88.9
  3
SLDDIMSTYLE1
100
AcDbAlignedDimension
 13
37.908
 23
1.587499999999992
 33
0.0
 14
-50.992
 24
3.952499999999977
 34
0.0
100
AcDbRotatedDimension
1001
ACAD
1000
DSTYLE
1002
{
1070
   171
1070
     6
1070
   273
1070
     7
1002
}
  0
INSERT
  5
120
330
1F
100
AcDbEntity
  8
외형선
100
AcDbBlockReference
  2
SW_DOWELSYMBOL_0
 10
-0.5080000000000119
 20
-0.0000000000000078
 30
0.0
  0
DIMENSION
  5
146
102
{ACAD_REACTORS
102
}
102
{ACAD_XDICTIONARY
360
147
102
}
330
1F
100
AcDbEntity
  8
치수문자_일반주서
100
AcDbDimension
  2
*D7
 10
-63.99404295748032
 20
4.762500000000001
 30
0.0
 11
-66.61904295748033
 21
24.4915
 31
0.0
 70
    32
  1
{%%c<>[]}
 71
     5
 42
9.524999999999999
  3
SLDDIMSTYLE0
100
AcDbAlignedDimension
 13
-50.18199999999997
 23
-4.762499999999999
 33
0.0
 14
-50.18199999999997
 24
4.7625
 34
0.0
 50
90.0
100
AcDbRotatedDimension
1001
ACAD
1000
DSTYLE
1002
{
1070
   171
1070
     6
1070
   273
1070
     7
1070
   283
1070
     1
1070
   170
1070
     1
1002
}
  0
DIMENSION
  5
15A
102
{ACAD_XDICTIONARY
360
15B
102
}
330
1F
100
AcDbEntity
  8
치수문자_일반주서
100
AcDbDimension
  2
*D8
 10
53.14303516642224
 20
1.587499999999991
 30
0.0
 11
50.51803516642224
 21
20.44149999999999
 31
0.0
 70
    32
  1
{%%c<>[]}
 71
     5
 42
3.175
  3
SLDDIMSTYLE0
100
AcDbAlignedDimension
 13
38.32514349641996
 23
-1.587500000000008
 33
0.0
 14
37.908
 24
1.587499999999992
 34
0.0
 50
90.0
100
AcDbRotatedDimension
1001
ACAD
1000
DSTYLE
1002
{
1070
   171
1070
     6
1070
   273
1070
     7
1070
   283
1070
     1
1070
   170
1070
     1
1002
}
  0
DIMENSION
  5
170
102
{ACAD_REACTORS
102
}
102
{ACAD_XDICTIONARY
360
171
102
}
330
1F
100
AcDbEntity
  8
치수문자_일반주서
100
AcDbDimension
  2
*D9
 10
16.70985164660505
 20
4.007306695008798
 30
0.0
 11
16.10538571649122
 21
13.80862699608693
 31
0.0
 70
    34
  1
<>
 71
     5
 42
0.1221730476396032
  3
SLDDIMSTYLE0
100
AcDb2LineAngularDimension
 13
-53.99200000000001
 23
-0.0000000000000078
 33
0.0
 14
42.51396758265566
 24
-0.0000000000000077
 34
0.0
 15
19.93351983709693
 25
3.611490011742592
 35
0.0
 16
16.09981387739906
 26
1.354708656859458
 36
0.0
1001
ACAD
1000
DSTYLE
1002
{
1070
   171
1070
     6
1070
   273
1070
     7
1002
}
  0
ENDSEC
  0
SECTION
  2
OBJECTS
  0
DICTIONARY
  5
C
330
0
100
AcDbDictionary
281
     1
  3
ACAD_GROUP
350
D
  3
ACAD_IMAGE_VARS
350
144
  3
ACAD_LAYOUT
350
1A
  3
ACAD_MLINESTYLE
350
17
  3
ACAD_PLOTSETTINGS
350
19
  3
ACAD_PLOTSTYLENAME
350
E
  3
ACAD_SCALELIST
350
47
  3
APPDATA
350
142
  3
DWGPROPS
350
183
  0
DICTIONARY
  5
147
330
146
100
AcDbDictionary
280
     1
281
     1
  0
DICTIONARY
  5
15B
330
15A
100
AcDbDictionary
280
     1
281
     1
  0
DICTIONARY
  5
171
330
170
100
AcDbDictionary
280
     1
281
     1
  0
DICTIONARY
  5
D
102
{ACAD_REACTORS
330
C
102
}
330
C
100
AcDbDictionary
281
     1
  0
RASTERVARIABLES
  5
144
102
{ACAD_REACTORS
330
C
102
}
330
C
100
AcDbRasterVariables
 90
        0
 70
     1
 71
     1
 72
     1
  0
DICTIONARY
  5
1A
102
{ACAD_REACTORS
330
C
102
}
330
C
100
AcDbDictionary
281
     1
  3
Layout1
350
1E
  3
Layout2
350
26
  3
Model
350
22
  0
DICTIONARY
  5
17
102
{ACAD_REACTORS
330
C
102
}
330
C
100
AcDbDictionary
281
     1
  3
Standard
350
18
  0
DICTIONARY
  5
19
102
{ACAD_REACTORS
330
C
102
}
330
C
100
AcDbDictionary
281
     1
  0
ACDBDICTIONARYWDFLT
  5
E
102
{ACAD_REACTORS
330
C
102
}
330
C
100
AcDbDictionary
281
     1
  3
Normal
350
F
100
AcDbDictionaryWithDefault
340
F
  0
DICTIONARY
  5
47
102
{ACAD_REACTORS
330
C
102
}
330
C
100
AcDbDictionary
281
     1
  3
A0
350
48
  3
A1
350
49
  3
A2
350
4A
  3
A3
350
4B
  3
A4
350
4C
  3
A5
350
4D
  3
A6
350
4E
  3
A7
350
4F
  3
A8
350
50
  3
A9
350
51
  3
B0
350
52
  3
B1
350
53
  3
B2
350
54
  3
B3
350
55
  3
B4
350
56
  3
B5
350
57
  3
B6
350
58
  3
B7
350
59
  3
B8
350
5A
  3
B9
350
5B
  3
C0
350
5C
  3
C1
350
5D
  3
C2
350
5E
  3
C3
350
5F
  3
C4
350
60
  3
C5
350
61
  3
C6
350
62
  3
C7
350
63
  3
C8
350
64
  3
C9
350
65
  3
D0
350
66
  3
D1
350
67
  3
D2
350
68
  0
DICTIONARY
  5
142
102
{ACAD_REACTORS
330
C
102
}
330
C
100
AcDbDictionary
281
     1
  0
XRECORD
  5
183
102
{ACAD_REACTORS
330
C
102
}
330
C
100
AcDbXrecord
280
     1
  1
DWGPROPS COOKIE
  2

  3

  4

  6

  7

  8
12015048
  9

300
=
301
=
302
=
303
=
304
=
305
=
306
=
307
=
308
=
309
=
 40
0.0
 41
2458340.219778206
 42
2458347.378074849
  1

 90
        0
  0
LAYOUT
  5
1E
102
{ACAD_REACTORS
330
1A
102
}
330
1A
100
AcDbPlotSettings
  1

  2
none_device
  4

  6

 40
0.0
 41
0.0
 42
0.0
 43
0.0
 44
0.0
 45
0.0
 46
0.0
 47
0.0
 48
0.0
 49
0.0
140
0.0
141
0.0
142
1.0
143
1.0
 70
   688
 72
     1
 73
     0
 74
     5
  7

 75
    16
147
1.0
148
0.0
149
0.0
100
AcDbLayout
  1
Layout1
 70
     1
 71
     1
 10
0.0
 20
0.0
 11
420.0
 21
297.0
 12
0.0
 22
0.0
 32
0.0
 14
1.000000000000000E+20
 24
1.000000000000000E+20
 34
1.000000000000000E+20
 15
-1.000000000000000E+20
 25
-1.000000000000000E+20
 35
-1.000000000000000E+20
146
0.0
 13
0.0
 23
0.0
 33
0.0
 16
1.0
 26
0.0
 36
0.0
 17
0.0
 27
1.0
 37
0.0
 76
     0
330
1B
  0
LAYOUT
  5
26
102
{ACAD_REACTORS
330
1A
102
}
330
1A
100
AcDbPlotSettings
  1

  2
none_device
  4

  6

 40
0.0
 41
0.0
 42
0.0
 43
0.0
 44
0.0
 45
0.0
 46
0.0
 47
0.0
 48
0.0
 49
0.0
140
0.0
141
0.0
142
1.0
143
1.0
 70
   688
 72
     1
 73
     0
 74
     5
  7

 75
    16
147
1.0
148
0.0
149
0.0
100
AcDbLayout
  1
Layout2
 70
     1
 71
     2
 10
0.0
 20
0.0
 11
0.0
 21
0.0
 12
0.0
 22
0.0
 32
0.0
 14
0.0
 24
0.0
 34
0.0
 15
0.0
 25
0.0
 35
0.0
146
0.0
 13
0.0
 23
0.0
 33
0.0
 16
1.0
 26
0.0
 36
0.0
 17
0.0
 27
1.0
 37
0.0
 76
     0
330
23
  0
LAYOUT
  5
22
102
{ACAD_REACTORS
330
1A
102
}
330
1A
100
AcDbPlotSettings
  1

  2
none_device
  4
ANSI_A_(11.00_x_8.50_Inches)
  6

 40
6.35
 41
19.05
 42
6.35000508
 43
19.05000254
 44
279.4
 45
215.9
 46
164.1502890732204
 47
99.72373013199675
 48
0.0
 49
0.0
140
0.0
141
0.0
142
0.0890234731039778
143
1.0
 70
  1696
 72
     0
 73
     0
 74
     0
  7

 75
     0
147
0.0235690232323232
148
0.0
149
0.0
100
AcDbLayout
  1
Model
 70
     1
 71
     0
 10
0.0
 20
0.0
 11
420.0
 21
297.0
 12
0.0
 22
0.0
 32
0.0
 14
-68.36904295748033
 24
-49.98438634254138
 34
0.0
 15
53.69336849975558
 25
62.31673636249308
 35
0.0
146
0.0
 13
0.0
 23
0.0
 33
0.0
 16
1.0
 26
0.0
 36
0.0
 17
0.0
 27
1.0
 37
0.0
 76
     0
330
1F
331
29
  0
MLINESTYLE
  5
18
102
{ACAD_REACTORS
330
17
102
}
330
17
100
AcDbMlineStyle
  2
Standard
 70
     0
  3

 62
   256
 51
90.0
 52
90.0
 71
     2
 49
0.5
 62
   256
  6
BYLAYER
 49
-0.5
 62
   256
  6
BYLAYER
  0
ACDBPLACEHOLDER
  5
F
102
{ACAD_REACTORS
330
E
102
}
330
E
  0
SCALE
  5
48
102
{ACAD_REACTORS
330
47
102
}
330
47
100
AcDbScale
 70
     0
300
1:1
140
1.0
141
1.0
290
     1
  0
SCALE
  5
49
102
{ACAD_REACTORS
330
47
102
}
330
47
100
AcDbScale
 70
     0
300
1:2
140
1.0
141
2.0
290
     0
  0
SCALE
  5
4A
102
{ACAD_REACTORS
330
47
102
}
330
47
100
AcDbScale
 70
     0
300
1:4
140
1.0
141
4.0
290
     0
  0
SCALE
  5
4B
102
{ACAD_REACTORS
330
47
102
}
330
47
100
AcDbScale
 70
     0
300
1:5
140
1.0
141
5.0
290
     0
  0
SCALE
  5
4C
102
{ACAD_REACTORS
330
47
102
}
330
47
100
AcDbScale
 70
     0
300
1:8
140
1.0
141
8.0
290
     0
  0
SCALE
  5
4D
102
{ACAD_REACTORS
330
47
102
}
330
47
100
AcDbScale
 70
     0
300
1:10
140
1.0
141
10.0
290
     0
  0
SCALE
  5
4E
102
{ACAD_REACTORS
330
47
102
}
330
47
100
AcDbScale
 70
     0
300
1:16
140
1.0
141
16.0
290
     0
  0
SCALE
  5
4F
102
{ACAD_REACTORS
330
47
102
}
330
47
100
AcDbScale
 70
     0
300
1:20
140
1.0
141
20.0
290
     0
  0
SCALE
  5
50
102
{ACAD_REACTORS
330
47
102
}
330
47
100
AcDbScale
 70
     0
300
1:30
140
1.0
141
30.0
290
     0
  0
SCALE
  5
51
102
{ACAD_REACTORS
330
47
102
}
330
47
100
AcDbScale
 70
     0
300
1:40
140
1.0
141
40.0
290
     0
  0
SCALE
  5
52
102
{ACAD_REACTORS
330
47
102
}
330
47
100
AcDbScale
 70
     0
300
1:50
140
1.0
141
50.0
290
     0
  0
SCALE
  5
53
102
{ACAD_REACTORS
330
47
102
}
330
47
100
AcDbScale
 70
     0
300
1:100
140
1.0
141
100.0
290
     0
  0
SCALE
  5
54
102
{ACAD_REACTORS
330
47
102
}
330
47
100
AcDbScale
 70
     0
300
2:1
140
2.0
141
1.0
290
     0
  0
SCALE
  5
55
102
{ACAD_REACTORS
330
47
102
}
330
47
100
AcDbScale
 70
     0
300
4:1
140
4.0
141
1.0
290
     0
  0
SCALE
  5
56
102
{ACAD_REACTORS
330
47
102
}
330
47
100
AcDbScale
 70
     0
300
8:1
140
8.0
141
1.0
290
     0
  0
SCALE
  5
57
102
{ACAD_REACTORS
330
47
102
}
330
47
100
AcDbScale
 70
     0
300
10:1
140
10.0
141
1.0
290
     0
  0
SCALE
  5
58
102
{ACAD_REACTORS
330
47
102
}
330
47
100
AcDbScale
 70
     0
300
100:1
140
100.0
141
1.0
290
     0
  0
SCALE
  5
59
102
{ACAD_REACTORS
330
47
102
}
330
47
100
AcDbScale
 70
     0
300
1/128" = 1'-0"
140
0.0078125
141
12.0
290
     0
  0
SCALE
  5
5A
102
{ACAD_REACTORS
330
47
102
}
330
47
100
AcDbScale
 70
     0
300
1/64" = 1'-0"
140
0.015625
141
12.0
290
     0
  0
SCALE
  5
5B
102
{ACAD_REACTORS
330
47
102
}
330
47
100
AcDbScale
 70
     0
300
1/32" = 1'-0"
140
0.03125
141
12.0
290
     0
  0
SCALE
  5
5C
102
{ACAD_REACTORS
330
47
102
}
330
47
100
AcDbScale
 70
     0
300
1/16" = 1'-0"
140
0.0625
141
12.0
290
     0
  0
SCALE
  5
5D
102
{ACAD_REACTORS
330
47
102
}
330
47
100
AcDbScale
 70
     0
300
3/32" = 1'-0"
140
0.09375
141
12.0
290
     0
  0
SCALE
  5
5E
102
{ACAD_REACTORS
330
47
102
}
330
47
100
AcDbScale
 70
     0
300
1/8" = 1'-0"
140
0.125
141
12.0
290
     0
  0
SCALE
  5
5F
102
{ACAD_REACTORS
330
47
102
}
330
47
100
AcDbScale
 70
     0
300
3/16" = 1'-0"
140
0.1875
141
12.0
290
     0
  0
SCALE
  5
60
102
{ACAD_REACTORS
330
47
102
}
330
47
100
AcDbScale
 70
     0
300
1/4" = 1'-0"
140
0.25
141
12.0
290
     0
  0
SCALE
  5
61
102
{ACAD_REACTORS
330
47
102
}
330
47
100
AcDbScale
 70
     0
300
3/8" = 1'-0"
140
0.375
141
12.0
290
     0
  0
SCALE
  5
62
102
{ACAD_REACTORS
330
47
102
}
330
47
100
AcDbScale
 70
     0
300
1/2" = 1'-0"
140
0.5
141
12.0
290
     0
  0
SCALE
  5
63
102
{ACAD_REACTORS
330
47
102
}
330
47
100
AcDbScale
 70
     0
300
3/4" = 1'-0"
140
0.75
141
12.0
290
     0
  0
SCALE
  5
64
102
{ACAD_REACTORS
330
47
102
}
330
47
100
AcDbScale
 70
     0
300
1" = 1'-0"
140
1.0
141
12.0
290
     0
  0
SCALE
  5
65
102
{ACAD_REACTORS
330
47
102
}
330
47
100
AcDbScale
 70
     0
300
1-1/2" = 1'-0"
140
1.5
141
12.0
290
     0
  0
SCALE
  5
66
102
{ACAD_REACTORS
330
47
102
}
330
47
100
AcDbScale
 70
     0
300
3" = 1'-0"
140
3.0
141
12.0
290
     0
  0
SCALE
  5
67
102
{ACAD_REACTORS
330
47
102
}
330
47
100
AcDbScale
 70
     0
300
6" = 1'-0"
140
6.0
141
12.0
290
     0
  0
SCALE
  5
68
102
{ACAD_REACTORS
330
47
102
}
330
47
100
AcDbScale
 70
     0
300
1'-0" = 1'-0"
140
12.0
141
12.0
290
     0
  0
ENDSEC
  0
EOF
