  0
SECTION
  2
HEADER
  9
$ACADVER
  1
AC1015
  9
$ACADMAINTVER
 70
     6
  9
$DWGCODEPAGE
  3
ANSI_949
  9
$INSBASE
 10
0.0
 20
0.0
 30
0.0
  9
$EXTMIN
 10
-59.81198122939549
 20
-49.98438634254138
 30
0.0
  9
$EXTMAX
 10
61.16155481788402
 20
68.72135472064839
 30
0.0
  9
$LIMMIN
 10
0.0
 20
0.0
  9
$LIMMAX
 10
420.0
 20
297.0
  9
$ORTHOMODE
 70
     1
  9
$REGENMODE
 70
     1
  9
$FILLMODE
 70
     1
  9
$QTEXTMODE
 70
     0
  9
$MIRRTEXT
 70
     1
  9
$LTSCALE
 40
1.0
  9
$ATTMODE
 70
     1
  9
$TEXTSIZE
 40
3.5
  9
$TRACEWID
 40
1.0
  9
$TEXTSTYLE
  7
Standard
  9
$CLAYER
  8
0
  9
$CELTYPE
  6
ByLayer
  9
$CECOLOR
 62
   256
  9
$CELTSCALE
 40
1.0
  9
$DISPSILH
 70
     0
  9
$DIMSCALE
 40
1.0
  9
$DIMASZ
 40
3.302
  9
$DIMEXO
 40
1.0
  9
$DIMDLI
 40
3.75
  9
$DIMRND
 40
0.0
  9
$DIMDLE
 40
0.0
  9
$DIMEXE
 40
1.0
  9
$DIMTP
 40
0.0
  9
$DIMTM
 40
0.0
  9
$DIMTXT
 40
3.5
  9
$DIMCEN
 40
2.5
  9
$DIMTSZ
 40
0.0
  9
$DIMTOL
 70
     0
  9
$DIMLIM
 70
     0
  9
$DIMTIH
 70
     1
  9
$DIMTOH
 70
     1
  9
$DIMSE1
 70
     0
  9
$DIMSE2
 70
     0
  9
$DIMTAD
 70
     1
  9
$DIMZIN
 70
     0
  9
$DIMBLK
  1

  9
$DIMASO
 70
     1
  9
$DIMSHO
 70
     1
  9
$DIMPOST
  1

  9
$DIMAPOST
  1

  9
$DIMALT
 70
     0
  9
$DIMALTD
 70
     3
  9
$DIMALTF
 40
0.0393700787401575
  9
$DIMLFAC
 40
1.0
  9
$DIMTOFL
 70
     1
  9
$DIMTVP
 40
0.0
  9
$DIMTIX
 70
     0
  9
$DIMSOXD
 70
     0
  9
$DIMSAH
 70
     0
  9
$DIMBLK1
  1

  9
$DIMBLK2
  1

  9
$DIMSTYLE
  2
ISO-25
  9
$DIMCLRD
 70
     0
  9
$DIMCLRE
 70
     0
  9
$DIMCLRT
 70
     0
  9
$DIMTFAC
 40
1.0
  9
$DIMGAP
 40
1.524
  9
$DIMJUST
 70
     0
  9
$DIMSD1
 70
     0
  9
$DIMSD2
 70
     0
  9
$DIMTOLJ
 70
     0
  9
$DIMTZIN
 70
     0
  9
$DIMALTZ
 70
     0
  9
$DIMALTTZ
 70
     0
  9
$DIMUPT
 70
     0
  9
$DIMDEC
 70
     2
  9
$DIMTDEC
 70
     2
  9
$DIMALTU
 70
     2
  9
$DIMALTTD
 70
     3
  9
$DIMTXSTY
  7
Standard
  9
$DIMAUNIT
 70
     0
  9
$DIMADEC
 70
     2
  9
$DIMALTRND
 40
0.0
  9
$DIMAZIN
 70
     0
  9
$DIMDSEP
 70
    44
  9
$DIMATFIT
 70
     3
  9
$DIMFRAC
 70
     0
  9
$DIMLDRBLK
  1

  9
$DIMLUNIT
 70
     2
  9
$DIMLWD
 70
    -2
  9
$DIMLWE
 70
    -2
  9
$DIMTMOVE
 70
     0
  9
$LUNITS
 70
     2
  9
$LUPREC
 70
     2
  9
$SKETCHINC
 40
1.0
  9
$FILLETRAD
 40
10.0
  9
$AUNITS
 70
     0
  9
$AUPREC
 70
     2
  9
$MENU
  1
.
  9
$ELEVATION
 40
0.0
  9
$PELEVATION
 40
0.0
  9
$THICKNESS
 40
0.0
  9
$LIMCHECK
 70
     0
  9
$CHAMFERA
 40
0.0
  9
$CHAMFERB
 40
0.0
  9
$CHAMFERC
 40
0.0
  9
$CHAMFERD
 40
0.0
  9
$SKPOLY
 70
     0
  9
$TDCREATE
 40
2458340.594205602
  9
$TDUCREATE
 40
2458340.219205602
  9
$TDUPDATE
 40
2458341.734261898
  9
$TDUUPDATE
 40
2458341.359261898
  9
$TDINDWG
 40
0.1101158912
  9
$TDUSRTIMER
 40
2458341.243778229
  9
$USRTIMER
 70
     1
  9
$ANGBASE
 50
0.0
  9
$ANGDIR
 70
     0
  9
$PDMODE
 70
     0
  9
$PDSIZE
 40
-1.0
  9
$PLINEWID
 40
0.0
  9
$SPLFRAME
 70
     0
  9
$SPLINETYPE
 70
     6
  9
$SPLINESEGS
 70
     8
  9
$HANDSEED
  5
1A1
  9
$SURFTAB1
 70
     6
  9
$SURFTAB2
 70
     6
  9
$SURFTYPE
 70
     6
  9
$SURFU
 70
     6
  9
$SURFV
 70
     6
  9
$UCSBASE
  2

  9
$UCSNAME
  2

  9
$UCSORG
 10
0.0
 20
0.0
 30
0.0
  9
$UCSXDIR
 10
1.0
 20
0.0
 30
0.0
  9
$UCSYDIR
 10
0.0
 20
1.0
 30
0.0
  9
$UCSORTHOREF
  2

  9
$UCSORTHOVIEW
 70
     0
  9
$UCSORGTOP
 10
0.0
 20
0.0
 30
0.0
  9
$UCSORGBOTTOM
 10
0.0
 20
0.0
 30
0.0
  9
$UCSORGLEFT
 10
0.0
 20
0.0
 30
0.0
  9
$UCSORGRIGHT
 10
0.0
 20
0.0
 30
0.0
  9
$UCSORGFRONT
 10
0.0
 20
0.0
 30
0.0
  9
$UCSORGBACK
 10
0.0
 20
0.0
 30
0.0
  9
$PUCSBASE
  2

  9
$PUCSNAME
  2

  9
$PUCSORG
 10
0.0
 20
0.0
 30
0.0
  9
$PUCSXDIR
 10
1.0
 20
0.0
 30
0.0
  9
$PUCSYDIR
 10
0.0
 20
1.0
 30
0.0
  9
$PUCSORTHOREF
  2

  9
$PUCSORTHOVIEW
 70
     0
  9
$PUCSORGTOP
 10
0.0
 20
0.0
 30
0.0
  9
$PUCSORGBOTTOM
 10
0.0
 20
0.0
 30
0.0
  9
$PUCSORGLEFT
 10
0.0
 20
0.0
 30
0.0
  9
$PUCSORGRIGHT
 10
0.0
 20
0.0
 30
0.0
  9
$PUCSORGFRONT
 10
0.0
 20
0.0
 30
0.0
  9
$PUCSORGBACK
 10
0.0
 20
0.0
 30
0.0
  9
$USERI1
 70
     0
  9
$USERI2
 70
     0
  9
$USERI3
 70
     0
  9
$USERI4
 70
     0
  9
$USERI5
 70
     0
  9
$USERR1
 40
0.0
  9
$USERR2
 40
0.0
  9
$USERR3
 40
0.0
  9
$USERR4
 40
0.0
  9
$USERR5
 40
0.0
  9
$WORLDVIEW
 70
     1
  9
$SHADEDGE
 70
     3
  9
$SHADEDIF
 70
    70
  9
$TILEMODE
 70
     1
  9
$MAXACTVP
 70
    64
  9
$PINSBASE
 10
0.0
 20
0.0
 30
0.0
  9
$PLIMCHECK
 70
     0
  9
$PEXTMIN
 10
1.000000000000000E+20
 20
1.000000000000000E+20
 30
1.000000000000000E+20
  9
$PEXTMAX
 10
-1.000000000000000E+20
 20
-1.000000000000000E+20
 30
-1.000000000000000E+20
  9
$PLIMMIN
 10
0.0
 20
0.0
  9
$PLIMMAX
 10
0.0
 20
0.0
  9
$UNITMODE
 70
     0
  9
$VISRETAIN
 70
     1
  9
$PLINEGEN
 70
     0
  9
$PSLTSCALE
 70
     1
  9
$TREEDEPTH
 70
  3020
  9
$CMLSTYLE
  2
Standard
  9
$CMLJUST
 70
     0
  9
$CMLSCALE
 40
20.0
  9
$PROXYGRAPHICS
 70
     1
  9
$MEASUREMENT
 70
     1
  9
$CELWEIGHT
370
    -1
  9
$ENDCAPS
280
     0
  9
$JOINSTYLE
280
     0
  9
$LWDISPLAY
290
     1
  9
$INSUNITS
 70
     4
  9
$HYPERLINKBASE
  1

  9
$STYLESHEET
  1

  9
$XEDIT
290
     1
  9
$CEPSNTYPE
380
     0
  9
$PSTYLEMODE
290
     1
  9
$FINGERPRINTGUID
  2
{31A32351-3E86-4A66-96A2-38654EAA2BF5}
  9
$VERSIONGUID
  2
{FAEB1C32-E019-11D5-929B-00C0DF256EC4}
  9
$EXTNAMES
290
     1
  9
$PSVPSCALE
 40
0.0
  9
$OLESTARTUP
290
     0
  0
ENDSEC
  0
SECTION
  2
CLASSES
  0
CLASS
  1
ACDBDICTIONARYWDFLT
  2
AcDbDictionaryWithDefault
  3
ObjectDBX Classes
 90
        0
280
     0
281
     0
  0
CLASS
  1
VISUALSTYLE
  2
AcDbVisualStyle
  3
ObjectDBX Classes
 90
     4095
280
     0
281
     0
  0
CLASS
  1
MATERIAL
  2
AcDbMaterial
  3
ObjectDBX Classes
 90
     1153
280
     0
281
     0
  0
CLASS
  1
SCALE
  2
AcDbScale
  3
ObjectDBX Classes
 90
     1153
280
     0
281
     0
  0
CLASS
  1
SUN
  2
AcDbSun
  3
SCENEOE
 90
     1153
280
     0
281
     0
  0
CLASS
  1
ACDBPLACEHOLDER
  2
AcDbPlaceHolder
  3
ObjectDBX Classes
 90
        0
280
     0
281
     0
  0
CLASS
  1
LAYOUT
  2
AcDbLayout
  3
ObjectDBX Classes
 90
        0
280
     0
281
     0
  0
CLASS
  1
TABLESTYLE
  2
AcDbTableStyle
  3
ObjectDBX Classes
 90
     4095
280
     0
281
     0
  0
CLASS
  1
MLEADERSTYLE
  2
AcDbMLeaderStyle
  3
ACDB_MLEADERSTYLE_CLASS
 90
     4095
280
     0
281
     0
  0
CLASS
  1
RASTERVARIABLES
  2
AcDbRasterVariables
  3
ISM
 90
        0
280
     0
281
     0
  0
CLASS
  1
DIMASSOC
  2
AcDbDimAssoc
  3
"AcDbDimAssoc|Product Desc:     AcDim ARX App For Dimension|Company:          Autodesk, Inc.|WEB Address:      www.autodesk.com"
 90
        0
280
     0
281
     0
  0
CLASS
  1
DICTIONARYVAR
  2
AcDbDictionaryVar
  3
ObjectDBX Classes
 90
        0
280
     0
281
     0
  0
ENDSEC
  0
SECTION
  2
TABLES
  0
TABLE
  2
VPORT
  5
8
330
0
100
AcDbSymbolTable
 70
     1
  0
VPORT
  5
29
330
8
100
AcDbSymbolTableRecord
100
AcDbViewportTableRecord
  2
*Active
 70
     0
 10
0.0
 20
0.0
 11
1.0
 21
1.0
 12
3.500468138422871
 22
5.36192060425968
 13
0.0
 23
0.0
 14
10.0
 24
10.0
 15
10.0
 25
10.0
 16
0.0
 26
0.0
 36
1.0
 17
0.0
 27
0.0
 37
0.0
 40
148.626668639779
 41
1.444267515923567
 42
50.0
 43
0.0
 44
0.0
 50
0.0
 51
0.0
 71
    16
 72
  2000
 73
     1
 74
     3
 75
     0
 76
     0
 77
     0
 78
     0
281
     0
 65
     1
110
0.0
120
0.0
130
0.0
111
1.0
121
0.0
131
0.0
112
0.0
122
1.0
132
0.0
 79
     0
146
0.0
  0
ENDTAB
  0
TABLE
  2
LTYPE
  5
5
330
0
100
AcDbSymbolTable
 70
     6
  0
LTYPE
  5
14
330
5
100
AcDbSymbolTableRecord
100
AcDbLinetypeTableRecord
  2
ByBlock
 70
     0
  3

 72
    65
 73
     0
 40
0.0
  0
LTYPE
  5
15
330
5
100
AcDbSymbolTableRecord
100
AcDbLinetypeTableRecord
  2
ByLayer
 70
     0
  3

 72
    65
 73
     0
 40
0.0
  0
LTYPE
  5
16
330
5
100
AcDbSymbolTableRecord
100
AcDbLinetypeTableRecord
  2
Continuous
 70
     0
  3
Solid line
 72
    65
 73
     0
 40
0.0
  0
LTYPE
  5
6A
330
5
100
AcDbSymbolTableRecord
100
AcDbLinetypeTableRecord
  2
HIDDEN
 70
     0
  3
Hidden __ __ __ __ __ __ __ __ __ __ __ __ __ __
 72
    65
 73
     2
 40
1.905
 49
1.27
 74
     0
 49
-0.635
 74
     0
  0
LTYPE
  5
6B
330
5
100
AcDbSymbolTableRecord
100
AcDbLinetypeTableRecord
  2
PHANTOM
 70
     0
  3
Phantom ______  __  __  ______  __  __  ______
 72
    65
 73
     6
 40
12.7
 49
6.35
 74
     0
 49
-1.27
 74
     0
 49
1.27
 74
     0
 49
-1.27
 74
     0
 49
1.27
 74
     0
 49
-1.27
 74
     0
  0
LTYPE
  5
6C
330
5
100
AcDbSymbolTableRecord
100
AcDbLinetypeTableRecord
  2
CENTER
 70
     0
  3
Center ____ _ ____ _ ____ _ ____ _ ____ _ ____
 72
    65
 73
     4
 40
10.16
 49
6.35
 74
     0
 49
-1.27
 74
     0
 49
1.27
 74
     0
 49
-1.27
 74
     0
  0
LTYPE
  5
6D
330
5
100
AcDbSymbolTableRecord
100
AcDbLinetypeTableRecord
  2
CENTERX2
 70
     0
  3
Center (2x) ________  __  ________  __  _____
 72
    65
 73
     4
 40
20.32
 49
12.7
 74
     0
 49
-2.54
 74
     0
 49
2.54
 74
     0
 49
-2.54
 74
     0
  0
LTYPE
  5
6E
330
5
100
AcDbSymbolTableRecord
100
AcDbLinetypeTableRecord
  2
DOT2
 70
     0
  3
Dot (.5x) ........................................
 72
    65
 73
     2
 40
0.635
 49
0.0
 74
     0
 49
-0.635
 74
     0
  0
ENDTAB
  0
TABLE
  2
LAYER
  5
2
330
0
100
AcDbSymbolTable
 70
    17
  0
LAYER
  5
10
330
2
100
AcDbSymbolTableRecord
100
AcDbLayerTableRecord
  2
0
 70
     0
 62
     7
  6
Continuous
370
    -3
390
F
  0
LAYER
  5
6F
330
2
100
AcDbSymbolTableRecord
100
AcDbLayerTableRecord
  2
FORMAT
 70
     0
 62
     2
  6
Continuous
370
    -3
390
F
  0
LAYER
  5
70
330
2
100
AcDbSymbolTableRecord
100
AcDbLayerTableRecord
  2
외형선
 70
     0
 62
   100
  6
Continuous
370
    30
390
F
  0
LAYER
  5
71
330
2
100
AcDbSymbolTableRecord
100
AcDbLayerTableRecord
  2
숨은선
 70
     0
 62
     2
  6
HIDDEN
370
    15
390
F
  0
LAYER
  5
72
330
2
100
AcDbSymbolTableRecord
100
AcDbLayerTableRecord
  2
중심선
 70
     0
 62
     1
  6
CENTERX2
370
    -3
390
F
  0
LAYER
  5
73
330
2
100
AcDbSymbolTableRecord
100
AcDbLayerTableRecord
  2
파단선
 70
     0
 62
     4
  6
Continuous
370
    -3
390
F
  0
LAYER
  5
74
330
2
100
AcDbSymbolTableRecord
100
AcDbLayerTableRecord
  2
해칭선
 70
     0
 62
     4
  6
Continuous
370
    -3
390
F
  0
LAYER
  5
75
330
2
100
AcDbSymbolTableRecord
100
AcDbLayerTableRecord
  2
가는실선
 70
     0
 62
     4
  6
Continuous
370
    -3
390
F
  0
LAYER
  5
76
330
2
100
AcDbSymbolTableRecord
100
AcDbLayerTableRecord
  2
치수_보조선
 70
     0
 62
     4
  6
Continuous
370
    -3
390
F
  0
LAYER
  5
77
330
2
100
AcDbSymbolTableRecord
100
AcDbLayerTableRecord
  2
치수문자_일반주서
 70
     0
 62
     7
  6
Continuous
370
    15
390
F
  0
LAYER
  5
78
330
2
100
AcDbSymbolTableRecord
100
AcDbLayerTableRecord
  2
개별주서
 70
     0
 62
   100
  6
Continuous
370
    30
390
F
  0
LAYER
  5
79
330
2
100
AcDbSymbolTableRecord
100
AcDbLayerTableRecord
  2
중간선
 70
     0
 62
     2
  6
Continuous
370
    15
390
F
  0
LAYER
  5
7A
330
2
100
AcDbSymbolTableRecord
100
AcDbLayerTableRecord
  2
윤곽선
 70
     0
 62
     3
  6
Continuous
370
    40
390
F
  0
LAYER
  5
7B
330
2
100
AcDbSymbolTableRecord
100
AcDbLayerTableRecord
  2
중심마크
 70
     0
 62
   100
  6
Continuous
370
    30
390
F
  0
LAYER
  5
7C
330
2
100
AcDbSymbolTableRecord
100
AcDbLayerTableRecord
  2
가상선
 70
     0
 62
     4
  6
PHANTOM
370
    -3
390
F
  0
LAYER
  5
7D
330
2
100
AcDbSymbolTableRecord
100
AcDbLayerTableRecord
  2
특수지정선
 70
     0
 62
     5
  6
CENTERX2
370
    60
390
F
  0
LAYER
  5
15F
330
2
100
AcDbSymbolTableRecord
100
AcDbLayerTableRecord
  2
Defpoints
 70
     0
 62
     7
  6
Continuous
290
     0
370
    -3
390
F
  0
ENDTAB
  0
TABLE
  2
STYLE
  5
3
330
0
100
AcDbSymbolTable
 70
     2
  0
STYLE
  5
11
330
3
100
AcDbSymbolTableRecord
100
AcDbTextStyleTableRecord
  2
Standard
 70
     0
 40
0.0
 41
1.0
 50
0.0
 71
     0
 42
3.5
  3
txt
  4

  0
STYLE
  5
93
330
3
100
AcDbSymbolTableRecord
100
AcDbTextStyleTableRecord
  2
SLDTEXTSTYLE0
 70
     0
 40
0.0
 41
0.75
 50
0.0
 71
     0
 42
3.5
  3
TXT
  4

  0
ENDTAB
  0
TABLE
  2
VIEW
  5
6
330
0
100
AcDbSymbolTable
 70
     0
  0
ENDTAB
  0
TABLE
  2
UCS
  5
7
330
0
100
AcDbSymbolTable
 70
     0
  0
ENDTAB
  0
TABLE
  2
APPID
  5
9
330
0
100
AcDbSymbolTable
 70
     2
  0
APPID
  5
12
330
9
100
AcDbSymbolTableRecord
100
AcDbRegAppTableRecord
  2
ACAD
 70
     0
  0
APPID
  5
18C
330
9
100
AcDbSymbolTableRecord
100
AcDbRegAppTableRecord
  2
PE_DIMMEASUREMENT
 70
     0
  0
ENDTAB
  0
TABLE
  2
DIMSTYLE
  5
A
330
0
100
AcDbSymbolTable
 70
     4
100
AcDbDimStyleTable
  0
DIMSTYLE
105
27
330
A
100
AcDbSymbolTableRecord
100
AcDbDimStyleTableRecord
  2
ISO-25
 70
     0
 41
2.5
 42
0.625
 43
3.75
 44
1.25
 73
     0
 74
     0
 77
     1
 78
     8
140
2.5
141
2.5
143
0.03937007874016
147
0.625
171
     3
172
     1
178
     0
271
     2
272
     2
274
     3
278
    44
283
     0
284
     8
340
11
  0
DIMSTYLE
105
FA
102
{ACAD_REACTORS
330
F9
330
160
330
172
330
18D
102
}
330
A
100
AcDbSymbolTableRecord
100
AcDbDimStyleTableRecord
  2
SLDDIMSTYLE0
 70
     0
 41
3.302
 44
0.0
 45
0.000000001
 73
     0
 74
     0
 77
     1
 78
    12
 79
     3
140
3.5
143
0.0393700787401575
147
0.875
148
0.000000001
170
     1
173
     1
178
     0
271
     2
272
     2
276
     2
284
    12
340
93
  0
DIMSTYLE
105
10E
102
{ACAD_REACTORS
330
10D
102
}
330
A
100
AcDbSymbolTableRecord
100
AcDbDimStyleTableRecord
  2
SLDDIMSTYLE1
 70
     0
 41
3.302
 44
0.0
 45
0.000000001
 73
     0
 74
     0
 77
     1
 78
     4
 79
     1
140
3.5
143
0.0393700787401575
147
0.875
148
0.000000001
170
     1
173
     1
178
     0
271
     2
272
     2
276
     2
284
    12
340
93
  0
DIMSTYLE
105
122
330
A
100
AcDbSymbolTableRecord
100
AcDbDimStyleTableRecord
  2
SLDDIMSTYLE2
 70
     0
 41
3.302
 44
0.0
 45
0.000000001
 73
     0
 74
     0
 77
     1
 78
     8
 79
     2
140
3.5
143
0.0393700787401575
147
0.875
148
0.000000001
170
     1
172
     1
173
     1
178
     0
271
     2
272
     2
276
     2
284
    12
289
     0
340
93
341
123
343
123
344
123
  0
ENDTAB
  0
TABLE
  2
BLOCK_RECORD
  5
1
330
0
100
AcDbSymbolTable
 70
    10
  0
BLOCK_RECORD
  5
1F
330
1
100
AcDbSymbolTableRecord
100
AcDbBlockTableRecord
  2
*Model_Space
340
22
  0
BLOCK_RECORD
  5
1B
330
1
100
AcDbSymbolTableRecord
100
AcDbBlockTableRecord
  2
*Paper_Space
340
1E
  0
BLOCK_RECORD
  5
23
330
1
100
AcDbSymbolTableRecord
100
AcDbBlockTableRecord
  2
*Paper_Space0
340
26
  0
BLOCK_RECORD
  5
7E
330
1
100
AcDbSymbolTableRecord
100
AcDbBlockTableRecord
  2
블럭10
340
0
102
{BLKREFS
331
F2
102
}
  0
BLOCK_RECORD
  5
FB
330
1
100
AcDbSymbolTableRecord
100
AcDbBlockTableRecord
  2
_D
340
0
  0
BLOCK_RECORD
  5
10F
330
1
100
AcDbSymbolTableRecord
100
AcDbBlockTableRecord
  2
_D_1
340
0
  0
BLOCK_RECORD
  5
123
330
1
100
AcDbSymbolTableRecord
100
AcDbBlockTableRecord
  2
_NONE
340
0
  0
BLOCK_RECORD
  5
126
330
1
100
AcDbSymbolTableRecord
100
AcDbBlockTableRecord
  2
_D_2
340
0
  0
BLOCK_RECORD
  5
132
330
1
100
AcDbSymbolTableRecord
100
AcDbBlockTableRecord
  2
SW_DOWELSYMBOL_0
340
0
102
{BLKREFS
331
138
102
}
  0
BLOCK_RECORD
  5
163
330
1
100
AcDbSymbolTableRecord
100
AcDbBlockTableRecord
  2
*D7
340
0
  0
BLOCK_RECORD
  5
175
330
1
100
AcDbSymbolTableRecord
100
AcDbBlockTableRecord
  2
*D8
340
0
  0
BLOCK_RECORD
  5
190
330
1
100
AcDbSymbolTableRecord
100
AcDbBlockTableRecord
  2
*D9
340
0
  0
ENDTAB
  0
ENDSEC
  0
SECTION
  2
BLOCKS
  0
BLOCK
  5
20
330
1F
100
AcDbEntity
  8
0
100
AcDbBlockBegin
  2
*Model_Space
 70
     0
 10
0.0
 20
0.0
 30
0.0
  3
*Model_Space
  1
*Model_Space
  0
ENDBLK
  5
21
330
1F
100
AcDbEntity
  8
0
100
AcDbBlockEnd
  0
BLOCK
  5
1C
330
1B
100
AcDbEntity
 67
     1
  8
0
100
AcDbBlockBegin
  2
*Paper_Space
 70
     0
 10
0.0
 20
0.0
 30
0.0
  3
*Paper_Space
  1
*Paper_Space
  0
ENDBLK
  5
1D
330
1B
100
AcDbEntity
 67
     1
  8
0
100
AcDbBlockEnd
  0
BLOCK
  5
24
330
23
100
AcDbEntity
  8
0
100
AcDbBlockBegin
  2
*Paper_Space0
 70
     0
 10
0.0
 20
0.0
 30
0.0
  3
*Paper_Space0
  1
*Paper_Space0
  0
ENDBLK
  5
25
330
23
100
AcDbEntity
  8
0
100
AcDbBlockEnd
  0
BLOCK
  5
7F
330
7E
100
AcDbEntity
  8
0
100
AcDbBlockBegin
  2
블럭10
 70
     2
 10
0.0
 20
0.0
 30
0.0
  3
블럭10
  1
블럭10
  0
ELLIPSE
  5
81
330
7E
100
AcDbEntity
  8
중심선
100
AcDbEllipse
 10
20.54032771741204
 20
12.0471743016438
 30
0.0
 11
6.600054785286829
 21
-1.261213355974178E-13
 31
0.0
210
0.0
220
0.0
230
1.0
 40
0.636358354079598
 41
0.9219305317359503
 42
6.513795318482858
  0
ELLIPSE
  5
82
330
7E
100
AcDbEntity
  8
중심선
100
AcDbEllipse
 10
20.54032771746488
 20
12.04717430159265
 30
0.0
 11
3.960054785062283
 21
1.540847449632565E-10
 31
0.0
210
0.0
220
0.0
230
1.0
 40
0.3939339440162632
 41
1.131841032648279
 42
5.62031148352944
  0
LINE
  5
83
330
7E
100
AcDbEntity
  8
중심선
100
AcDbLine
 10
2.268634060543552
 20
16.24717430164393
 30
0.0
 11
5.714909304380834
 21
16.24717430164393
 31
0.0
  0
LINE
  5
84
330
7E
100
AcDbEntity
  8
중심선
100
AcDbLine
 10
5.245725140726316
 20
7.84717430164391
 30
0.0
 11
8.692000384563599
 21
7.84717430164391
 31
0.0
  0
LINE
  5
85
330
7E
100
AcDbEntity
  8
중심선
100
AcDbLine
 10
15.74043728645272
 20
16.24717430164393
 30
0.0
 11
8.692000384563599
 21
7.84717430164391
 31
0.0
  0
LINE
  5
86
330
7E
100
AcDbEntity
  8
중심선
100
AcDbLine
 10
0.1404042013395286
 20
13.71084872107135
 30
0.0
 11
3.58671253028996
 21
13.71088815037384
 31
0.0
  0
LINE
  5
87
330
7E
100
AcDbEntity
  8
중심선
100
AcDbLine
 10
2.750260043222114
 20
10.84717430164391
 30
0.0
 11
6.196535287059397
 21
10.84717430164391
 31
0.0
  0
LINE
  5
88
330
7E
100
AcDbEntity
  8
중심선
100
AcDbLine
 10
12.29416204261559
 20
16.24717430164393
 30
0.0
 11
5.245725140726316
 21
7.84717430164391
 31
0.0
  0
LINE
  5
89
330
7E
100
AcDbEntity
  8
중심선
100
AcDbLine
 10
10.72767329541681
 20
16.24717430164393
 30
0.0
 11
6.196535287059397
 21
10.84717430164391
 31
0.0
  0
LINE
  5
8A
330
7E
100
AcDbEntity
  8
중심선
100
AcDbLine
 10
7.28139805157953
 20
16.24717430164393
 30
0.0
 11
2.750260043222114
 21
10.84717430164391
 31
0.0
  0
LINE
  5
8B
330
7E
100
AcDbEntity
  8
중심선
100
AcDbLine
 10
5.714909304380834
 20
16.24717430164393
 30
0.0
 11
3.58671253028996
 21
13.71088815037384
 31
0.0
  0
LINE
  5
8C
330
7E
100
AcDbEntity
  8
중심선
100
AcDbLine
 10
2.268634060543552
 20
16.24717430164393
 30
0.0
 11
0.1404042013395286
 21
13.71084872107135
 31
0.0
  0
LINE
  5
8D
330
7E
100
AcDbEntity
  8
중심선
100
AcDbLine
 10
7.28139805157953
 20
16.24717430164393
 30
0.0
 11
10.72767329541681
 21
16.24717430164393
 31
0.0
  0
LINE
  5
8E
330
7E
100
AcDbEntity
  8
중심선
100
AcDbLine
 10
12.29416204261559
 20
16.24717430164393
 30
0.0
 11
15.74043728645272
 21
16.24717430164393
 31
0.0
  0
LINE
  5
8F
330
7E
100
AcDbEntity
  8
중심선
100
AcDbLine
 10
19.22036997980202
 20
11.08717430171403
 30
0.0
 11
23.66174974927406
 21
11.08717430171406
 31
0.0
  0
LINE
  5
90
330
7E
100
AcDbEntity
  8
중심선
100
AcDbLine
 10
19.22039502424796
 20
13.00717430171391
 30
0.0
 11
19.22036997980202
 21
11.08717430171403
 31
0.0
  0
LINE
  5
91
330
7E
100
AcDbEntity
  8
중심선
100
AcDbLine
 10
19.22039502424796
 20
13.00717430171391
 30
0.0
 11
26.96566020931264
 21
13.00717430171391
 31
0.0
  0
LINE
  5
92
330
7E
100
AcDbEntity
  8
중심선
100
AcDbLine
 10
22.22332737316547
 20
13.45928029700563
 30
0.0
 11
24.52862924686651
 21
15.39360700705356
 31
0.0
  0
ATTDEF
  5
94
330
7E
100
AcDbEntity
  8
FORMAT
 62
     2
100
AcDbText
 10
-9.18129528874128
 20
2.075366912832191
 30
0.0
 40
4.233333333333333
  1
E5078598 [ 3 FLUTE ]
 41
0.75
  7
SLDTEXTSTYLE0
 11
-9.18129528874128
 21
-0.0412997538344756
 31
0.0
100
AcDbAttributeDefinition
  3

  2
AUTOATTR0
 70
     0
 74
     1
  0
ENDBLK
  5
80
330
7E
100
AcDbEntity
  8
0
100
AcDbBlockEnd
  0
BLOCK
  5
FC
330
FB
100
AcDbEntity
  8
0
100
AcDbBlockBegin
  2
_D
 70
     0
 10
0.0
 20
0.0
 30
0.0
  3
_D
  1
_D
  0
LINE
  5
FE
330
FB
100
AcDbEntity
  8
치수문자_일반주서
 62
     0
370
    -2
100
AcDbLine
 10
50.60799999999999
 20
1.649999999999994
 30
0.0
 11
50.60799999999999
 21
49.85052119487378
 31
0.0
  0
LINE
  5
FF
330
FB
100
AcDbEntity
  8
치수문자_일반주서
 62
     0
370
    -2
100
AcDbLine
 10
12.508
 20
5.749616544453415
 30
0.0
 11
12.508
 21
49.85052119487378
 31
0.0
  0
LINE
  5
100
330
FB
100
AcDbEntity
  8
치수문자_일반주서
 62
     0
370
    -2
100
AcDbLine
 10
47.30599999999999
 20
49.85052119487378
 30
0.0
 11
15.81
 21
49.85052119487378
 31
0.0
  0
SOLID
  5
101
330
FB
100
AcDbEntity
  8
치수문자_일반주서
 62
     0
100
AcDbTrace
 10
47.30599999999999
 20
49.30018786154044
 30
0.0
 11
47.30599999999999
 21
50.40085452820711
 31
0.0
 12
50.60799999999999
 22
49.85052119487378
 32
0.0
 13
50.60799999999999
 23
49.85052119487378
 33
0.0
  0
SOLID
  5
102
330
FB
100
AcDbEntity
  8
치수문자_일반주서
 62
     0
100
AcDbTrace
 10
15.81
 20
50.40085452820711
 30
0.0
 11
15.81
 21
49.30018786154044
 31
0.0
 12
12.508
 22
49.85052119487378
 32
0.0
 13
12.508
 23
49.85052119487378
 33
0.0
  0
MTEXT
  5
103
330
FB
100
AcDbEntity
  8
치수문자_일반주서
 62
     0
100
AcDbMText
 10
28.10376209249801
 20
54.22552119487378
 30
0.0
 40
3.5
 41
0.0
 71
     2
 72
     1
  1
\A1;38.1 [1 1/2]
  7
SLDTEXTSTYLE0
 73
     1
 44
1.0
  0
POINT
  5
104
330
FB
100
AcDbEntity
  8
Defpoints
 62
     0
100
AcDbPoint
 10
50.60799999999999
 20
1.587499999999994
 30
0.0
  0
POINT
  5
105
330
FB
100
AcDbEntity
  8
Defpoints
 62
     0
100
AcDbPoint
 10
12.508
 20
5.687116544453415
 30
0.0
  0
POINT
  5
106
330
FB
100
AcDbEntity
  8
Defpoints
 62
     0
100
AcDbPoint
 10
12.508
 20
49.85052119487378
 30
0.0
  0
ENDBLK
  5
FD
330
FB
100
AcDbEntity
  8
0
100
AcDbBlockEnd
  0
BLOCK
  5
110
330
10F
100
AcDbEntity
  8
0
100
AcDbBlockBegin
  2
_D_1
 70
     0
 10
0.0
 20
0.0
 30
0.0
  3
_D_1
  1
_D_1
  0
LINE
  5
112
330
10F
100
AcDbEntity
  8
치수문자_일반주서
 62
     0
370
    -2
100
AcDbLine
 10
50.608
 20
0.0625000000000158
 30
0.0
 11
50.608
 21
64.34635472064839
 31
0.0
  0
LINE
  5
113
330
10F
100
AcDbEntity
  8
치수문자_일반주서
 62
     0
370
    -2
100
AcDbLine
 10
-38.29200000000001
 20
4.014999999999992
 30
0.0
 11
-38.29200000000001
 21
64.34635472064839
 31
0.0
  0
LINE
  5
114
330
10F
100
AcDbEntity
  8
치수문자_일반주서
 62
     0
370
    -2
100
AcDbLine
 10
47.306
 20
64.34635472064839
 30
0.0
 11
-34.99000000000001
 21
64.34635472064839
 31
0.0
  0
SOLID
  5
115
330
10F
100
AcDbEntity
  8
치수문자_일반주서
 62
     0
100
AcDbTrace
 10
47.306
 20
63.79602138731506
 30
0.0
 11
47.306
 21
64.89668805398172
 31
0.0
 12
50.608
 22
64.34635472064839
 32
0.0
 13
50.608
 23
64.34635472064839
 33
0.0
  0
SOLID
  5
116
330
10F
100
AcDbEntity
  8
치수문자_일반주서
 62
     0
100
AcDbTrace
 10
-34.99000000000001
 20
64.89668805398172
 30
0.0
 11
-34.99000000000001
 21
63.79602138731506
 31
0.0
 12
-38.29200000000001
 22
64.34635472064839
 32
0.0
 13
-38.29200000000001
 23
64.34635472064839
 33
0.0
  0
MTEXT
  5
117
330
10F
100
AcDbEntity
  8
치수문자_일반주서
 62
     0
100
AcDbMText
 10
8.145983491953608
 20
68.72135472064839
 30
0.0
 40
3.5
 41
0.0
 71
     2
 72
     1
  1
\A1;88.90 [3 1/2]
  7
SLDTEXTSTYLE0
 73
     1
 44
1.0
  0
POINT
  5
118
330
10F
100
AcDbEntity
  8
Defpoints
 62
     0
100
AcDbPoint
 10
50.608
 20
0.0000000000000158
 30
0.0
  0
POINT
  5
119
330
10F
100
AcDbEntity
  8
Defpoints
 62
     0
100
AcDbPoint
 10
-38.29200000000001
 20
3.952499999999992
 30
0.0
  0
POINT
  5
11A
330
10F
100
AcDbEntity
  8
Defpoints
 62
     0
100
AcDbPoint
 10
-38.29200000000001
 20
64.34635472064839
 30
0.0
  0
ENDBLK
  5
111
330
10F
100
AcDbEntity
  8
0
100
AcDbBlockEnd
  0
BLOCK
  5
124
330
123
100
AcDbEntity
  8
0
100
AcDbBlockBegin
  2
_NONE
 70
     0
 10
0.0
 20
0.0
 30
0.0
  3
_NONE
  1
_NONE
  0
ENDBLK
  5
125
330
123
100
AcDbEntity
  8
0
100
AcDbBlockEnd
  0
BLOCK
  5
127
330
126
100
AcDbEntity
  8
0
100
AcDbBlockBegin
  2
_D_2
 70
     0
 10
0.0
 20
0.0
 30
0.0
  3
_D_2
  1
_D_2
  0
LINE
  5
129
330
126
100
AcDbEntity
  8
치수문자_일반주서
 62
     0
370
    -2
100
AcDbLine
 10
-37.5445
 20
4.762500000000002
 30
0.0
 11
-51.29200000000002
 21
4.762499999999955
 31
0.0
  0
LINE
  5
12A
330
126
100
AcDbEntity
  8
치수문자_일반주서
 62
     0
370
    -2
100
AcDbLine
 10
-37.5445
 20
4.762500000000002
 30
0.0
 11
-51.29200000000002
 21
4.762499999999955
 31
0.0
  0
LINE
  5
12B
330
126
100
AcDbEntity
  8
치수문자_일반주서
 62
     0
370
    -2
100
AcDbLine
 10
-51.29200000000002
 20
4.762499999999955
 30
0.0
 11
-51.292
 21
-1.841500000000044
 31
0.0
  0
LINE
  5
12C
330
126
100
AcDbEntity
  8
치수문자_일반주서
 62
     0
370
    -2
100
AcDbLine
 10
-51.29200000000002
 20
4.762499999999955
 30
0.0
 11
-51.29200000000002
 21
4.762499999999955
 31
0.0
  0
MTEXT
  5
12D
330
126
100
AcDbEntity
  8
치수문자_일반주서
 62
     0
100
AcDbMText
 10
-55.66699999999997
 20
-11.46650000000006
 30
0.0
 40
3.5
 41
0.0
 71
     2
 72
     1
  1
\A1;%%c0 [0.00]
  7
SLDTEXTSTYLE0
 11
-3.491481338843133E-15
 21
1.0
 31
0.0
 73
     1
 44
1.0
  0
POINT
  5
12E
330
126
100
AcDbEntity
  8
Defpoints
 62
     0
100
AcDbPoint
 10
-37.482
 20
4.762500000000002
 30
0.0
  0
POINT
  5
12F
330
126
100
AcDbEntity
  8
Defpoints
 62
     0
100
AcDbPoint
 10
-37.482
 20
4.762500000000002
 30
0.0
  0
POINT
  5
130
330
126
100
AcDbEntity
  8
Defpoints
 62
     0
100
AcDbPoint
 10
-51.29200000000003
 20
4.762499999999954
 30
0.0
  0
ENDBLK
  5
128
330
126
100
AcDbEntity
  8
0
100
AcDbBlockEnd
  0
BLOCK
  5
133
330
132
100
AcDbEntity
  8
0
100
AcDbBlockBegin
  2
SW_DOWELSYMBOL_0
 70
     0
 10
0.0
 20
0.0
 30
0.0
  3
SW_DOWELSYMBOL_0
  1
SW_DOWELSYMBOL_0
  0
CIRCLE
  5
135
330
132
100
AcDbEntity
  8
외형선
 62
     0
100
AcDbCircle
 10
0.0
 20
0.0
 30
0.0
 40
3.000000000000001
  0
HATCH
  5
136
330
132
100
AcDbEntity
  8
0
  6
Continuous
 62
     0
370
    30
100
AcDbHatch
 10
0.0
 20
0.0
 30
0.0
210
0.0
220
0.0
230
1.0
  2
SOLID
 70
     1
 71
     0
 91
        1
 92
        0
 93
        3
 72
     2
 10
0.0
 20
0.0
 40
3.000000000000001
 50
0.0
 51
90.0
 73
     1
 72
     1
 10
0.0
 20
3.000000000000001
 11
0.0
 21
0.0
 72
     1
 10
0.0
 20
0.0
 11
3.000000000000003
 21
0.0
 97
        0
 75
     0
 76
     1
 98
        1
 10
0.0
 20
0.0
  0
HATCH
  5
137
330
132
100
AcDbEntity
  8
0
  6
Continuous
 62
     0
370
    30
100
AcDbHatch
 10
0.0
 20
0.0
 30
0.0
210
0.0
220
0.0
230
1.0
  2
SOLID
 70
     1
 71
     0
 91
        1
 92
        0
 93
        3
 72
     2
 10
0.0
 20
0.0
 40
3.000000000000001
 50
180.0
 51
270.0000000000008
 73
     1
 72
     1
 10
0.0
 20
-3.000000000000001
 11
0.0
 21
0.0
 72
     1
 10
0.0
 20
0.0
 11
-3.000000000000003
 21
0.0
 97
        0
 75
     0
 76
     1
 98
        1
 10
0.0
 20
0.0
  0
ENDBLK
  5
134
330
132
100
AcDbEntity
  8
0
100
AcDbBlockEnd
  0
BLOCK
  5
164
330
163
100
AcDbEntity
  8
0
100
AcDbBlockBegin
  2
*D7
 70
     1
 10
0.0
 20
0.0
 30
0.0
  3
*D7
  1
*D7
  0
LINE
  5
166
330
163
100
AcDbEntity
  8
치수문자_일반주서
 62
     0
370
    -2
100
AcDbLine
 10
50.60495486025749
 20
-1.587500000000006
 30
0.0
 11
60.61122148455068
 21
-1.587500000000006
 31
0.0
  0
LINE
  5
167
330
163
100
AcDbEntity
  8
치수문자_일반주서
 62
     0
370
    -2
100
AcDbLine
 10
50.67049999999999
 20
1.587499999999994
 30
0.0
 11
60.61122148455068
 21
1.587499999999993
 31
0.0
  0
LINE
  5
168
330
163
100
AcDbEntity
  8
치수문자_일반주서
 62
     0
370
    -2
100
AcDbLine
 10
60.61122148455068
 20
4.889499999999993
 30
0.0
 11
60.61122148455068
 21
32.69149999999999
 31
0.0
  0
LINE
  5
169
330
163
100
AcDbEntity
  8
치수문자_일반주서
 62
     0
370
    -2
100
AcDbLine
 10
60.61122148455068
 20
-4.889500000000005
 30
0.0
 11
60.61122148455068
 21
-8.191500000000005
 31
0.0
  0
SOLID
  5
16A
330
163
100
AcDbEntity
  8
치수문자_일반주서
 62
     0
100
AcDbTrace
 10
61.16155481788402
 20
-4.889500000000005
 30
0.0
 11
60.06088815121735
 21
-4.889500000000005
 31
0.0
 12
60.61122148455068
 22
-1.587500000000006
 32
0.0
 13
60.61122148455068
 23
-1.587500000000006
 33
0.0
  0
SOLID
  5
16B
330
163
100
AcDbEntity
  8
치수문자_일반주서
 62
     0
100
AcDbTrace
 10
60.06088815121735
 20
4.889499999999993
 30
0.0
 11
61.16155481788402
 21
4.889499999999993
 31
0.0
 12
60.61122148455068
 22
1.587499999999993
 32
0.0
 13
60.61122148455068
 23
1.587499999999993
 33
0.0
  0
MTEXT
  5
16C
330
163
100
AcDbEntity
  8
치수문자_일반주서
 62
     0
100
AcDbMText
 10
57.98622148455068
 20
20.44149999999999
 30
0.0
 40
3.5
 41
0.0
 71
     5
 72
     1
  1
\A1;{%%c3.18 [1/8]}
  7
SLDTEXTSTYLE0
 11
0.0
 21
1.0
 31
0.0
 73
     1
 44
1.0
  0
POINT
  5
16D
330
163
100
AcDbEntity
  8
Defpoints
 62
     0
100
AcDbPoint
 10
50.54245486025749
 20
-1.587500000000006
 30
0.0
  0
POINT
  5
16E
330
163
100
AcDbEntity
  8
Defpoints
 62
     0
100
AcDbPoint
 10
50.60799999999999
 20
1.587499999999994
 30
0.0
  0
POINT
  5
16F
330
163
100
AcDbEntity
  8
Defpoints
 62
     0
100
AcDbPoint
 10
60.61122148455068
 20
1.587499999999993
 30
0.0
  0
ENDBLK
  5
165
330
163
100
AcDbEntity
  8
0
100
AcDbBlockEnd
  0
BLOCK
  5
176
330
175
100
AcDbEntity
  8
0
100
AcDbBlockBegin
  2
*D8
 70
     1
 10
0.0
 20
0.0
 30
0.0
  3
*D8
  1
*D8
  0
LINE
  5
178
330
175
100
AcDbEntity
  8
치수문자_일반주서
 62
     0
370
    -2
100
AcDbLine
 10
-37.5445
 20
-4.762499999999997
 30
0.0
 11
-55.43698122939549
 21
-4.762499999999994
 31
0.0
  0
LINE
  5
179
330
175
100
AcDbEntity
  8
치수문자_일반주서
 62
     0
370
    -2
100
AcDbLine
 10
-37.5445
 20
4.762500000000002
 30
0.0
 11
-55.43698122939549
 21
4.762500000000003
 31
0.0
  0
LINE
  5
17A
330
175
100
AcDbEntity
  8
치수문자_일반주서
 62
     0
370
    -2
100
AcDbLine
 10
-55.43698122939549
 20
4.762500000000003
 30
0.0
 11
-55.43698122939549
 21
34.3145
 31
0.0
  0
LINE
  5
17B
330
175
100
AcDbEntity
  8
치수문자_일반주서
 62
     0
370
    -2
100
AcDbLine
 10
-55.43698122939549
 20
-1.460499999999994
 30
0.0
 11
-55.43698122939549
 21
1.460500000000003
 31
0.0
  0
SOLID
  5
17C
330
175
100
AcDbEntity
  8
치수문자_일반주서
 62
     0
100
AcDbTrace
 10
-55.98731456272882
 20
-1.460499999999994
 30
0.0
 11
-54.88664789606215
 21
-1.460499999999994
 31
0.0
 12
-55.43698122939549
 22
-4.762499999999994
 32
0.0
 13
-55.43698122939549
 23
-4.762499999999994
 33
0.0
  0
SOLID
  5
17D
330
175
100
AcDbEntity
  8
치수문자_일반주서
 62
     0
100
AcDbTrace
 10
-54.88664789606215
 20
1.460500000000003
 30
0.0
 11
-55.98731456272882
 21
1.460500000000003
 31
0.0
 12
-55.43698122939549
 22
4.762500000000003
 32
0.0
 13
-55.43698122939549
 23
4.762500000000003
 33
0.0
  0
MTEXT
  5
17E
330
175
100
AcDbEntity
  8
치수문자_일반주서
 62
     0
100
AcDbMText
 10
-58.06198122939549
 20
21.1895
 30
0.0
 40
3.5
 41
0.0
 71
     5
 72
     1
  1
\A1;{%%c9.53 [3/8]}
  7
SLDTEXTSTYLE0
 11
0.0
 21
1.0
 31
0.0
 73
     1
 44
1.0
  0
POINT
  5
17F
330
175
100
AcDbEntity
  8
Defpoints
 62
     0
100
AcDbPoint
 10
-37.482
 20
-4.762499999999997
 30
0.0
  0
POINT
  5
180
330
175
100
AcDbEntity
  8
Defpoints
 62
     0
100
AcDbPoint
 10
-37.482
 20
4.762500000000002
 30
0.0
  0
POINT
  5
181
330
175
100
AcDbEntity
  8
Defpoints
 62
     0
100
AcDbPoint
 10
-55.43698122939549
 20
4.762500000000003
 30
0.0
  0
ENDBLK
  5
177
330
175
100
AcDbEntity
  8
0
100
AcDbBlockEnd
  0
BLOCK
  5
191
330
190
100
AcDbEntity
  8
0
100
AcDbBlockBegin
  2
*D9
 70
     1
 10
0.0
 20
0.0
 30
0.0
  3
*D9
  1
*D9
  0
LINE
  5
193
330
190
100
AcDbEntity
  8
치수문자_일반주서
 62
     0
370
    -2
100
AcDbLine
 10
26.75556421203915
 20
10.14479372560084
 30
0.0
 11
28.03182783435146
 21
15.23730304482278
 31
0.0
  0
LINE
  5
194
330
190
100
AcDbEntity
  8
치수문자_일반주서
 62
     0
370
    -2
100
AcDbLine
 10
23.9826959822815
 20
3.784088003234276
 30
0.0
 11
25.66249893111756
 21
3.637124288253702
 31
0.0
  0
ARC
  5
195
330
190
100
AcDbEntity
  8
치수문자_일반주서
 62
     0
370
    -2
100
AcDbCircle
 10
67.23501977750101
 20
-0.0000000000000061
 30
0.0
 40
41.73132112228406
100
AcDbArc
 50
165.9305506176445
 51
170.4652753088223
  0
ARC
  5
196
330
190
100
AcDbEntity
  8
치수문자_일반주서
 62
     0
370
    -2
100
AcDbCircle
 10
67.23501977750101
 20
-0.0000000000000061
 30
0.0
 40
41.73132112228406
100
AcDbArc
 50
184.5347246911778
 51
189.0694493823555
  0
SOLID
  5
197
330
190
100
AcDbEntity
  8
치수문자_일반주서
 62
     0
100
AcDbTrace
 10
25.5342881938638
 20
6.982215136740574
 30
0.0
 11
26.62611283322461
 21
6.842981275931692
 31
0.0
 12
25.66249893111756
 22
3.637124288253702
 32
0.0
 13
25.66249893111756
 23
3.637124288253702
 33
0.0
  0
SOLID
  5
198
330
190
100
AcDbEntity
  8
치수문자_일반주서
 62
     0
100
AcDbTrace
 10
26.18423686859965
 20
-3.277642219325304
 30
0.0
 11
25.08443192106805
 21
-3.321187465864271
 31
0.0
 12
25.50369865521695
 22
-0.0000000000000061
 32
0.0
 13
25.50369865521695
 23
-0.0000000000000061
 33
0.0
  0
MTEXT
  5
199
330
190
100
AcDbEntity
  8
치수문자_일반주서
 62
     0
100
AcDbMText
 10
24.84744136358433
 20
13.32918019636797
 30
0.0
 40
3.5
 41
0.0
 71
     5
 72
     1
  1
\A1;5%%d
  7
SLDTEXTSTYLE0
 11
0.2430978328213924
 21
0.9700017750898925
 31
0.0
 73
     1
 44
1.0
  0
POINT
  5
19A
330
190
100
AcDbEntity
  8
Defpoints
 62
     0
100
AcDbPoint
 10
25.52135308718739
 20
1.213743737620092
 30
0.0
  0
POINT
  5
19B
330
190
100
AcDbEntity
  8
Defpoints
 62
     0
100
AcDbPoint
 10
-41.29200000000002
 20
-0.0000000000000061
 30
0.0
  0
POINT
  5
19C
330
190
100
AcDbEntity
  8
Defpoints
 62
     0
100
AcDbPoint
 10
23.92043381365076
 20
3.789535237156004
 30
0.0
  0
POINT
  5
19D
330
190
100
AcDbEntity
  8
Defpoints
 62
     0
100
AcDbPoint
 10
20.56206676215527
 20
4.083354282120843
 30
0.0
  0
POINT
  5
19E
330
190
100
AcDbEntity
  8
Defpoints
 62
     0
100
AcDbPoint
 10
55.15885974161189
 20
-0.0000000000000061
 30
0.0
  0
ENDBLK
  5
192
330
190
100
AcDbEntity
  8
0
100
AcDbBlockEnd
  0
ENDSEC
  0
SECTION
  2
ENTITIES
  0
LINE
  5
95
330
1F
100
AcDbEntity
  8
0
  6
Continuous
 62
     1
370
    15
100
AcDbLine
 10
44.21093617447777
 20
-2.014346303337626
 30
0.0
 11
46.18673308319294
 21
-1.841486472395484
 31
0.0
  0
LINE
  5
96
330
1F
100
AcDbEntity
  8
0
  6
Continuous
 62
     1
370
    15
100
AcDbLine
 10
31.40684928065955
 20
-3.134558753347582
 30
0.0
 11
34.22383786789978
 21
-2.888104186682154
 31
0.0
  0
LINE
  5
97
330
1F
100
AcDbEntity
  8
0
  6
Continuous
 62
     1
370
    15
100
AcDbLine
 10
18.38463315429996
 20
-4.273855038388519
 30
0.0
 11
21.82599142342237
 21
-3.972775202709112
 31
0.0
  0
LINE
  5
98
330
1F
100
AcDbEntity
  8
0
  6
Continuous
 62
     1
370
    15
100
AcDbLine
 10
15.48872318371136
 20
4.52721433140673
 30
0.0
 11
12.50800000000001
 21
4.787993819090374
 31
0.0
  0
LINE
  5
99
330
1F
100
AcDbEntity
  8
0
  6
Continuous
 62
     1
370
    15
100
AcDbLine
 10
28.07857112505377
 20
3.425745361024076
 30
0.0
 11
24.90944713258189
 21
3.703007783673382
 31
0.0
  0
LINE
  5
9A
330
1F
100
AcDbEntity
  8
0
  6
Continuous
 62
     1
370
    15
100
AcDbLine
 10
40.24874672382449
 20
2.360992963011813
 30
0.0
 11
37.85296734352667
 21
2.570596499097035
 31
0.0
  0
LINE
  5
9B
330
1F
100
AcDbEntity
  8
0
  6
Continuous
 62
     1
370
    15
100
AcDbLine
 10
39.9863298203916
 20
-2.383951467179751
 30
0.0
 11
42.23285966224247
 21
-2.187405573745114
 31
0.0
  0
LINE
  5
9C
330
1F
100
AcDbEntity
  8
0
  6
Continuous
 62
     1
370
    15
100
AcDbLine
 10
27.08100897076582
 20
-3.513020740686755
 30
0.0
 11
30.1404516358876
 21
-3.245354190781058
 31
0.0
  0
LINE
  5
9D
330
1F
100
AcDbEntity
  8
0
  6
Continuous
 62
     1
370
    15
100
AcDbLine
 10
14.02157862755186
 20
-4.655572847824443
 30
0.0
 11
17.60895447330564
 21
-4.341718129514264
 31
0.0
  0
LINE
  5
9E
102
{ACAD_REACTORS
102
}
330
1F
100
AcDbEntity
  8
0
  6
Continuous
 62
     1
370
    15
100
AcDbLine
 10
23.92043381365076
 20
3.789535237156004
 30
0.0
 11
20.56206676215527
 21
4.083354282120843
 31
0.0
  0
LINE
  5
9F
330
1F
100
AcDbEntity
  8
0
  6
Continuous
 62
     1
370
    15
100
AcDbLine
 10
36.24573593701186
 20
2.711211026829908
 30
0.0
 11
33.56141018962146
 21
2.946059098937321
 31
0.0
  0
LINE
  5
A0
330
1F
100
AcDbEntity
  8
0
  6
Continuous
 62
     1
370
    15
100
AcDbLine
 10
48.16808378443129
 20
1.668140747568003
 30
0.0
 11
46.29448416668482
 21
1.832059474107325
 31
0.0
  0
LINE
  5
A1
330
1F
100
AcDbEntity
  8
0
  6
Continuous
 62
     4
370
    15
100
AcDbLine
 10
-37.482
 20
4.762500000000001
 30
0.0
 11
-38.29200000000001
 21
3.952499999999992
 31
0.0
  0
LINE
  5
A2
330
1F
100
AcDbEntity
  8
0
  6
Continuous
 62
     4
370
    15
100
AcDbLine
 10
-38.29200000000001
 20
-3.952499999999988
 30
0.0
 11
-37.482
 21
-4.762499999999998
 31
0.0
  0
LINE
  5
A3
102
{ACAD_REACTORS
102
}
330
1F
100
AcDbEntity
  8
0
  6
Continuous
 62
     4
370
    15
100
AcDbLine
 10
11.1524719174377
 20
4.762500000000008
 30
0.0
 11
-37.482
 21
4.762500000000002
 31
0.0
  0
LINE
  5
A4
330
1F
100
AcDbEntity
  8
0
  6
Continuous
 62
     4
370
    15
100
AcDbLine
 10
12.0
 20
4.762500000000008
 30
0.0
 11
11.87966178250721
 21
4.762500000000008
 31
0.0
  0
LINE
  5
A5
330
1F
100
AcDbEntity
  8
0
  6
Continuous
 62
     4
370
    15
100
AcDbLine
 10
-37.482
 20
-4.762499999999997
 30
0.0
 11
12.00000000000001
 21
-4.76249999999999
 31
0.0
  0
LINE
  5
A6
330
1F
100
AcDbEntity
  8
0
  6
Continuous
 62
     1
370
    15
100
AcDbLine
 10
20.33193721995378
 20
-3.019533482427881
 30
0.0
 11
20.3974263261611
 21
-3.10399184558584
 31
0.0
  0
LINE
  5
A7
330
1F
100
AcDbEntity
  8
0
  6
Continuous
 62
     1
370
    15
100
AcDbLine
 10
17.64695910173184
 20
3.325704977946802
 30
0.0
 11
17.5755366216197
 21
3.424906481402942
 31
0.0
  0
LINE
  5
A8
330
1F
100
AcDbEntity
  8
0
  6
Continuous
 62
     1
370
    15
100
AcDbLine
 10
30.9655507887923
 20
2.125616151673
 30
0.0
 11
30.92250527587016
 21
2.17854841785633
 31
0.0
  0
LINE
  5
A9
330
1F
100
AcDbEntity
  8
0
  6
Continuous
 62
     1
370
    15
100
AcDbLine
 10
43.62051875149992
 20
-0.4384403647931067
 30
0.0
 11
43.70446611101482
 21
-0.5244088935035043
 31
0.0
  0
LINE
  5
AA
330
1F
100
AcDbEntity
  8
0
  6
Continuous
 62
     1
370
    15
100
AcDbLine
 10
32.33249964640596
 20
-1.71655126223075
 30
0.0
 11
32.43402724909487
 21
-1.840003807539659
 31
0.0
  0
LINE
  5
AB
330
1F
100
AcDbEntity
  8
0
  6
Continuous
 62
     1
370
    15
100
AcDbLine
 10
48.35541524507742
 20
-1.651751368439698
 30
0.0
 11
49.15885974161191
 21
-1.581459083220637
 31
0.0
  0
LINE
  5
AC
330
1F
100
AcDbEntity
  8
0
  6
Continuous
 62
     1
370
    15
100
AcDbLine
 10
35.7107591922634
 20
-2.758015427245384
 30
0.0
 11
38.25342403458416
 21
-2.535561078396385
 31
0.0
  0
LINE
  5
AD
330
1F
100
AcDbEntity
  8
0
  6
Continuous
 62
     1
370
    15
100
AcDbLine
 10
22.73862525555838
 20
-3.89293008844699
 30
0.0
 11
26.00495071318188
 21
-3.607163639518808
 31
0.0
  0
LINE
  5
AE
330
1F
100
AcDbEntity
  8
0
  6
Continuous
 62
     1
370
    15
100
AcDbLine
 10
12.50800000000001
 20
-4.787993819090357
 30
0.0
 11
13.36025262106758
 21
-4.71343137628669
 31
0.0
  0
LINE
  5
AF
330
1F
100
AcDbEntity
  8
0
  6
Continuous
 62
     1
370
    15
100
AcDbLine
 10
19.71994548859565
 20
4.157030346871323
 30
0.0
 11
16.20267070415553
 21
4.464752017015422
 31
0.0
  0
LINE
  5
B0
330
1F
100
AcDbEntity
  8
0
  6
Continuous
 62
     1
370
    15
100
AcDbLine
 10
32.18727567791088
 20
3.066280290871727
 30
0.0
 11
29.24653095349938
 21
3.323562116581403
 31
0.0
  0
LINE
  5
B1
330
1F
100
AcDbEntity
  8
0
  6
Continuous
 62
     1
370
    15
100
AcDbLine
 10
44.2078752672664
 20
2.014614098018742
 30
0.0
 11
42.10544287201213
 21
2.198553098433145
 31
0.0
  0
LINE
  5
B2
330
1F
100
AcDbEntity
  8
0
  6
Continuous
 62
     4
370
    15
100
AcDbLine
 10
12.00000000000001
 20
-4.946649999999992
 30
0.0
 11
12.50800000000001
 21
-4.787993819090358
 31
0.0
  0
LINE
  5
B3
330
1F
100
AcDbEntity
  8
0
  6
Continuous
 62
     4
370
    15
100
AcDbLine
 10
12.50800000000001
 20
4.787993819090375
 30
0.0
 11
12.0
 21
4.946650000000009
 31
0.0
  0
ARC
  5
B4
330
1F
100
AcDbEntity
  8
0
  6
Continuous
 62
     1
370
    15
100
AcDbCircle
 10
49.0205
 20
0.0000000000000077
 30
0.0
 40
1.5875
100
AcDbArc
 50
275.0000000000011
 51
288.9407102666348
  0
ARC
  5
B5
330
1F
100
AcDbEntity
  8
0
  6
Continuous
 62
     1
370
    15
100
AcDbCircle
 10
49.0205
 20
0.0000000000000077
 30
0.0
 40
1.587500000000005
100
AcDbArc
 50
27.85617637447579
 51
43.87943962094369
  0
SPLINE
  5
B6
330
1F
100
AcDbEntity
  8
0
  6
Continuous
 62
     4
370
    15
100
AcDbSpline
210
0.0
220
0.0
230
1.0
 70
     8
 71
     3
 72
     8
 73
     4
 74
     0
 42
0.000000001
 43
0.00000001
 40
0.0
 40
0.0
 40
0.0
 40
0.0
 40
1.0
 40
1.0
 40
1.0
 40
1.0
 10
12.50800000000001
 20
3.871802808606879
 30
0.0
 10
12.33222523139184
 20
4.191947181903767
 30
0.0
 10
12.16256295133572
 20
4.459556456272392
 30
0.0
 10
12.0
 20
4.665061420734649
 30
0.0
  0
LINE
  5
B7
330
1F
100
AcDbEntity
  8
0
  6
Continuous
 62
     4
370
    15
100
AcDbLine
 10
12.50799999999998
 20
3.871802808606979
 30
0.0
 11
12.50800000000001
 21
-3.585163042288174
 31
0.0
  0
SPLINE
  5
B8
330
1F
100
AcDbEntity
  8
0
  6
Continuous
 62
     4
370
    15
100
AcDbSpline
210
0.0
220
0.0
230
1.0
 70
     8
 71
     3
 72
     8
 73
     4
 74
     0
 42
0.000000001
 43
0.00000001
 40
0.0
 40
0.0
 40
0.0
 40
0.0
 40
1.0
 40
1.0
 40
1.0
 40
1.0
 10
12.0
 20
-2.967231674509722
 30
0.0
 10
12.17371977384769
 20
-3.196298551077735
 30
0.0
 10
12.34087987094496
 20
-3.405017298324093
 30
0.0
 10
12.50800000000001
 20
-3.585163042288172
 30
0.0
  0
LINE
  5
B9
330
1F
100
AcDbEntity
  8
0
  6
Continuous
 62
     4
370
    15
100
AcDbLine
 10
12.00000000000001
 20
4.665061420734652
 30
0.0
 11
12.0
 21
-2.967231674509722
 31
0.0
  0
SPLINE
  5
BA
330
1F
100
AcDbEntity
  8
0
  6
Continuous
 62
     1
370
    15
100
AcDbSpline
210
0.0
220
0.0
230
1.0
 70
     8
 71
     3
 72
     8
 73
     4
 74
     0
 42
0.000000001
 43
0.00000001
 40
0.0
 40
0.0
 40
0.0
 40
0.0
 40
1.0
 40
1.0
 40
1.0
 40
1.0
 10
49.15953907324517
 20
1.371017196673929
 30
0.0
 10
49.15931263765918
 20
1.37112779056854
 30
0.0
 10
49.15908619379319
 20
1.371238321608615
 30
0.0
 10
49.15885974161191
 20
1.371348789761057
 30
0.0
  0
SPLINE
  5
BB
330
1F
100
AcDbEntity
  8
0
  6
Continuous
 62
     1
370
    15
100
AcDbSpline
210
0.0
220
0.0
230
1.0
 70
     8
 71
     3
 72
    10
 73
     6
 74
     0
 42
0.000000001
 43
0.00000001
 40
0.0
 40
0.0
 40
0.0
 40
0.0
 40
0.4512480409879942
 40
0.9025125518378841
 40
1.0
 40
1.0
 40
1.0
 40
1.0
 10
49.15885974161192
 20
1.371348789761055
 30
0.0
 10
49.00836271645987
 20
1.436824603017631
 30
0.0
 10
48.70736317324503
 20
1.567778619297615
 30
0.0
 10
48.3775803610595
 20
1.657908199023706
 30
0.0
 10
48.19910174806567
 20
1.659906905119658
 30
0.0
 10
48.16739448170144
 20
1.660261981313411
 30
0.0
  0
SPLINE
  5
BC
330
1F
100
AcDbEntity
  8
0
  6
Continuous
 62
     1
370
    15
100
AcDbSpline
210
0.0
220
0.0
230
1.0
 70
     8
 71
     3
 72
    25
 73
    21
 74
     0
 42
0.000000001
 43
0.00000001
 40
0.0
 40
0.0
 40
0.0
 40
0.0
 40
0.0362938458414017
 40
0.0937454347744146
 40
0.1498777297030957
 40
0.207617433969922
 40
0.2640994503473377
 40
0.3221958068891246
 40
0.3790909099101151
 40
0.4376097960329105
 40
0.4949627677310184
 40
0.5539506959920356
 40
0.6117956061269225
 40
0.6712877622289278
 40
0.7296655481246674
 40
0.789704563515688
 40
0.8486450190027763
 40
0.9092617465115033
 40
0.9687818784728109
 40
1.0
 40
1.0
 40
1.0
 40
1.0
 10
43.19267270109241
 20
-1.826947183952178
 30
0.0
 10
43.10213030480892
 20
-1.883411513034224
 30
0.0
 10
42.86826320948359
 20
-2.029256434020903
 30
0.0
 10
42.4987744323165
 20
-2.157441278082215
 30
0.0
 10
42.07977035479696
 20
-2.212365829530676
 30
0.0
 10
41.66693683503217
 20
-2.156082867576416
 30
0.0
 10
41.25305081497874
 20
-1.993621439723878
 30
0.0
 10
40.84475235848428
 20
-1.732760489170786
 30
0.0
 10
40.43518186878871
 20
-1.38098191501646
 30
0.0
 10
40.03074172059249
 20
-0.9588170177752017
 30
0.0
 10
39.62492638265707
 20
-0.4785175016212878
 30
0.0
 10
39.2238920066624
 20
0.0314632608927035
 30
0.0
 10
38.82131413414069
 20
0.5560580815119689
 30
0.0
 10
38.42331896229263
 20
1.064215568369888
 30
0.0
 10
38.02356000954267
 20
1.540727710525114
 30
0.0
 10
37.62816030255948
 20
1.956831174762832
 30
0.0
 10
37.23090640925819
 20
2.301534515863183
 30
0.0
 10
36.83787950641437
 20
2.546680684455058
 30
0.0
 10
36.50786808372062
 20
2.684201395678655
 30
0.0
 10
36.31190476671215
 20
2.693653794272498
 30
0.0
 10
36.24448439647087
 20
2.696905852987331
 30
0.0
  0
SPLINE
  5
BD
330
1F
100
AcDbEntity
  8
0
  6
Continuous
 62
     1
370
    15
100
AcDbSpline
210
0.0
220
0.0
230
1.0
 70
     8
 71
     3
 72
    26
 73
    22
 74
     0
 42
0.000000001
 43
0.00000001
 40
0.0
 40
0.0
 40
0.0
 40
0.0
 40
0.0164842378606239
 40
0.068862217851568
 40
0.1227269839490723
 40
0.1756730121943946
 40
0.2301218458388007
 40
0.2836481894872821
 40
0.338694026700862
 40
0.3928080142885459
 40
0.4484583019543292
 40
0.5031631031267323
 40
0.5594210282439701
 40
0.6147157927611979
 40
0.6715803354010585
 40
0.7274730611878792
 40
0.7849527315478112
 40
0.8414518461800081
 40
0.8995554427178614
 40
0.9566654395717049
 40
0.9999999999999999
 40
0.9999999999999999
 40
0.9999999999999999
 40
0.9999999999999999
 10
30.75624798754554
 20
-3.02222580615732
 30
0.0
 10
30.71631058372137
 20
-3.049132920199611
 30
0.0
 10
30.54947374080397
 20
-3.161536269666148
 30
0.0
 10
30.25489121832645
 20
-3.24477815636997
 30
0.0
 10
29.87443717210729
 20
-3.261228677004373
 30
0.0
 10
29.4919024385052
 20
-3.144797513719784
 30
0.0
 10
29.11259413216701
 20
-2.910428311164388
 30
0.0
 10
28.73081709119977
 20
-2.559289556261496
 30
0.0
 10
28.35237960471728
 20
-2.108666176299724
 30
0.0
 10
27.97142807051661
 20
-1.567672435260481
 30
0.0
 10
27.59367761299677
 20
-0.9629408724081152
 30
0.0
 10
27.21357265114213
 20
-0.3075155068027176
 30
0.0
 10
26.83649573006164
 20
0.3655949667123026
 30
0.0
 10
26.45714724485115
 20
1.041525030876988
 30
0.0
 10
26.0808415725308
 20
1.685755250560772
 30
0.0
 10
25.70208916458486
 20
2.283676175518372
 30
0.0
 10
25.32654052443452
 20
2.804063401611731
 30
0.0
 10
24.94833939835785
 20
3.235910559786699
 30
0.0
 10
24.5734555759407
 20
3.550720587314194
 30
0.0
 10
24.22912518132362
 20
3.742926762744132
 30
0.0
 10
24.0126700111592
 20
3.766316337506378
 30
0.0
 10
23.91928526334096
 20
3.776407247042468
 30
0.0
  0
SPLINE
  5
BE
330
1F
100
AcDbEntity
  8
0
  6
Continuous
 62
     1
370
    15
100
AcDbSpline
210
0.0
220
0.0
230
1.0
 70
     8
 71
     3
 72
    23
 73
    19
 74
     0
 42
0.000000001
 43
0.00000001
 40
0.0
 40
0.0
 40
0.0
 40
0.0
 40
0.0256482061091866
 40
0.0903346654892789
 40
0.1568602517013165
 40
0.2222088101556751
 40
0.2894156005134358
 40
0.3554263848135379
 40
0.4233143787315861
 40
0.4899843644029904
 40
0.5585503104058874
 40
0.6258834759809729
 40
0.695131687430078
 40
0.7631354479221915
 40
0.8330738452129817
 40
0.9017515308271651
 40
0.9723833999650536
 40
1.0
 40
1.0
 40
1.0
 40
1.0
 10
17.98769453714018
 20
-4.215225345843008
 30
0.0
 10
17.93882039344255
 20
-4.243295556003562
 30
0.0
 10
17.76668245119409
 20
-4.342160678744418
 30
0.0
 10
17.46987989280195
 20
-4.362786533401385
 30
0.0
 10
17.09972178827791
 20
-4.274901875120269
 30
0.0
 10
16.72693260694836
 20
-4.030146008018894
 30
0.0
 10
16.35712668663344
 20
-3.650255855107228
 30
0.0
 10
15.98481559087764
 20
-3.137854013883773
 30
0.0
 10
15.61528423518615
 20
-2.517128813989106
 30
0.0
 10
15.24340522083522
 20
-1.79836629214298
 30
0.0
 10
14.87429789523201
 20
-1.015300780193384
 30
0.0
 10
14.5026844448187
 20
-0.1819376567397544
 30
0.0
 10
14.13406993295977
 20
0.6623165527624584
 30
0.0
 10
13.76266285161838
 20
1.501489214363887
 30
0.0
 10
13.39444223648105
 20
2.296024434268663
 30
0.0
 10
13.0234004953243
 20
3.028580942361051
 30
0.0
 10
12.72887774300113
 20
3.542114274793565
 30
0.0
 10
12.55646374235101
 20
3.799464419316437
 30
0.0
 10
12.50799999999995
 20
3.871802808606973
 30
0.0
  0
SPLINE
  5
BF
330
1F
100
AcDbEntity
  8
0
  6
Continuous
 62
     4
370
    15
100
AcDbSpline
210
0.0
220
0.0
230
1.0
 70
     8
 71
     3
 72
    10
 73
     6
 74
     0
 42
0.000000001
 43
0.00000001
 40
0.0
 40
0.0
 40
0.0
 40
0.0
 40
0.2684214577805577
 40
0.7051132597368058
 40
1.0
 40
1.0
 40
1.0
 40
1.0
 10
12.00000000000001
 20
4.389327457883772
 30
0.0
 10
11.92405485789588
 20
4.449619355877958
 30
0.0
 10
11.72455543205642
 20
4.607999453661179
 30
0.0
 10
11.44190013467368
 20
4.746691764782809
 30
0.0
 10
11.23561992543898
 20
4.745066991235543
 30
0.0
 10
11.1524719174377
 20
4.744412072935773
 30
0.0
  0
SPLINE
  5
C0
330
1F
100
AcDbEntity
  8
0
  6
Continuous
 62
     4
370
    15
100
AcDbSpline
210
0.0
220
0.0
230
1.0
 70
     8
 71
     3
 72
     9
 73
     5
 74
     0
 42
0.000000001
 43
0.00000001
 40
0.0
 40
0.0
 40
0.0
 40
0.0
 40
0.2045795903593027
 40
1.0
 40
1.0
 40
1.0
 40
1.0
 10
11.52618837721641
 20
4.673199376916248
 30
0.0
 10
11.55856452296594
 20
4.691380662951944
 30
0.0
 10
11.71682149128164
 20
4.780252118817922
 30
0.0
 10
11.87454416570254
 20
4.765551959484545
 30
0.0
 10
12.00000000000003
 20
4.753859152725807
 30
0.0
  0
SPLINE
  5
C1
330
1F
100
AcDbEntity
  8
0
  6
Continuous
 62
     4
370
    15
100
AcDbSpline
210
0.0
220
0.0
230
1.0
 70
    24
 71
     3
 72
    10
 73
     6
 74
     0
 42
0.000000001
 43
0.00000001
 40
0.0
 40
0.0
 40
0.0
 40
0.0
 40
0.5
 40
0.5
 40
1.0
 40
1.0
 40
1.0
 40
1.0
 10
12.00000000000001
 20
4.75385915271651
 30
0.0
 10
12.00000000000001
 20
4.785075395297185
 30
0.0
 10
12.00000000000001
 20
4.814733871348617
 30
0.0
 10
12.00000000000001
 20
4.868195584214253
 30
0.0
 10
12.00000000000001
 20
4.891988146734014
 30
0.0
 10
12.00000000000001
 20
4.911247936709925
 30
0.0
  0
SPLINE
  5
C2
330
1F
100
AcDbEntity
  8
0
  6
Continuous
 62
     4
370
    15
100
AcDbSpline
210
0.0
220
0.0
230
1.0
 70
     8
 71
     3
 72
     8
 73
     4
 74
     0
 42
0.000000001
 43
0.00000001
 40
0.0
 40
0.0
 40
0.0
 40
0.0
 40
1.0
 40
1.0
 40
1.0
 40
1.0
 10
12.0
 20
4.911247936709927
 30
0.0
 10
12.17371977384769
 20
4.818332761968747
 30
0.0
 10
12.34087987094496
 20
4.695334299726511
 30
0.0
 10
12.50800000000001
 20
4.540966151957969
 30
0.0
  0
SPLINE
  5
C3
330
1F
100
AcDbEntity
  8
0
  6
Continuous
 62
     1
370
    15
100
AcDbSpline
210
0.0
220
0.0
230
1.0
 70
     8
 71
     3
 72
    23
 73
    19
 74
     0
 42
0.000000001
 43
0.00000001
 40
0.0
 40
0.0
 40
0.0
 40
0.0
 40
0.0284628866831807
 40
0.0954506145074543
 40
0.1621016877601015
 40
0.2306901169258317
 40
0.2972157296066013
 40
0.3657077588836743
 40
0.4315796541263409
 40
0.4993985351988438
 40
0.5646215862606581
 40
0.6317723760111127
 40
0.6963541212733743
 40
0.7628450858202445
 40
0.8267873600620134
 40
0.8926206115071823
 40
0.9559182136465185
 40
1.0
 40
1.0
 40
1.0
 40
1.0
 10
12.508
 20
4.540966151957983
 30
0.0
 10
12.56125820023505
 20
4.495140894112128
 30
0.0
 10
12.73986018100323
 20
4.341465370261129
 30
0.0
 10
13.04523569062582
 20
3.98496705131944
 30
0.0
 10
13.42785104244872
 20
3.418569550007169
 30
0.0
 10
13.81219097300011
 20
2.740593495979705
 30
0.0
 10
14.20208885417125
 20
1.968480943648349
 30
0.0
 10
14.58922014853222
 20
1.144813905743954
 30
0.0
 10
14.98119388746072
 20
0.2836364329368173
 30
0.0
 10
15.36909367850403
 20
-0.5666893598536373
 30
0.0
 10
15.76190868070389
 20
-1.394525575008844
 30
0.0
 10
16.15081041586453
 20
-2.153784677452465
 30
0.0
 10
16.54444144415486
 20
-2.834878685518494
 30
0.0
 10
16.93435527500734
 20
-3.399732761400169
 30
0.0
 10
17.32897341753002
 20
-3.843860850624255
 30
0.0
 10
17.71982824531621
 20
-4.135886525983657
 30
0.0
 10
18.07236283107324
 20
-4.28360139699426
 30
0.0
 10
18.29267964319281
 20
-4.264469820792768
 30
0.0
 10
18.38312492117635
 20
-4.256615854900832
 30
0.0
  0
SPLINE
  5
C4
330
1F
100
AcDbEntity
  8
0
  6
Continuous
 62
     1
370
    15
100
AcDbSpline
210
0.0
220
0.0
230
1.0
 70
     8
 71
     3
 72
    25
 73
    21
 74
     0
 42
0.000000001
 43
0.00000001
 40
0.0
 40
0.0
 40
0.0
 40
0.0
 40
0.0130853473354227
 40
0.075146271432732
 40
0.1348091569557816
 40
0.1962367747718603
 40
0.2552902556589323
 40
0.316090889384146
 40
0.3745330654618049
 40
0.4347037451267416
 40
0.4925481554134693
 40
0.5521031947149211
 40
0.609360794040799
 40
0.6683120818330083
 40
0.7249821327990714
 40
0.7833279808545828
 40
0.8394228134884933
 40
0.8971759864402039
 40
0.9527099890909869
 40
0.9999999999999999
 40
0.9999999999999999
 40
0.9999999999999999
 40
0.9999999999999999
 10
24.39994224293575
 20
3.623666833971242
 30
0.0
 10
24.42860503472926
 20
3.637355657120329
 30
0.0
 10
24.59320914319677
 20
3.715967557407551
 30
0.0
 10
24.8912897835287
 20
3.721002483884741
 30
0.0
 10
25.29808177837172
 20
3.629140278358978
 30
0.0
 10
25.7014560492812
 20
3.391776266604135
 30
0.0
 10
26.11005804210902
 20
3.028971451232565
 30
0.0
 10
26.5149340176916
 20
2.560100368600657
 30
0.0
 10
26.92526424684126
 20
1.995656171345363
 30
0.0
 10
27.3318116609595
 20
1.370299576049845
 30
0.0
 10
27.74383798805036
 20
0.6959304832470035
 30
0.0
 10
28.15225658827029
 20
0.0137566659026211
 30
0.0
 10
28.56615080622886
 20
-0.6638501862088009
 30
0.0
 10
28.97642922384176
 20
-1.295804019890969
 30
0.0
 10
29.39234158491756
 20
-1.87103354366067
 30
0.0
 10
29.80457662744008
 20
-2.354916145930458
 30
0.0
 10
30.22249099770514
 20
-2.740678799676128
 30
0.0
 10
30.6369762829722
 20
-3.001150979252884
 30
0.0
 10
31.03247618629461
 20
-3.142018021880138
 30
0.0
 10
31.28833863240135
 20
-3.130360173379208
 30
0.0
 10
31.40601287452337
 20
-3.12499858746461
 30
0.0
  0
SPLINE
  5
C5
330
1F
100
AcDbEntity
  8
0
  6
Continuous
 62
     1
370
    15
100
AcDbSpline
210
0.0
220
0.0
230
1.0
 70
     8
 71
     3
 72
    24
 73
    20
 74
     0
 42
0.000000001
 43
0.00000001
 40
0.0
 40
0.0
 40
0.0
 40
0.0
 40
0.0038802350900958
 40
0.0700957409055038
 40
0.1338492258429048
 40
0.1994819250626228
 40
0.262688997370157
 40
0.3277578524336011
 40
0.3904443443198702
 40
0.4549756673154525
 40
0.5171734865217494
 40
0.5812005168289669
 40
0.6429338266399744
 40
0.7064805796216768
 40
0.7677883862052868
 40
0.8308954430426511
 40
0.8918090393762255
 40
0.9545079562146385
 40
1.0
 40
1.0
 40
1.0
 40
1.0
 10
37.01405219608316
 20
2.421748712995458
 30
0.0
 10
37.02269795048225
 20
2.426554075578103
 30
0.0
 10
37.17888193063315
 20
2.513362076312355
 30
0.0
 10
37.48061950167454
 20
2.573157858704646
 30
0.0
 10
37.9236849791631
 20
2.584876120025482
 30
0.0
 10
38.36424615862291
 20
2.464595408569724
 30
0.0
 10
38.81148089855642
 20
2.232666563875091
 30
0.0
 10
39.25591263211649
 20
1.902388430543291
 30
0.0
 10
39.70726459150922
 20
1.485479995337457
 30
0.0
 10
40.15595406544028
 20
1.011630170231046
 30
0.0
 10
40.61175154058964
 20
0.4956019775281144
 30
0.0
 10
41.06500173093936
 20
-0.025920578926935
 30
0.0
 10
41.52553613507789
 20
-0.5367591317155018
 30
0.0
 10
41.98369361995399
 20
-1.000840224902289
 30
0.0
 10
42.44934395387744
 20
-1.403487572865775
 30
0.0
 10
42.91275496854841
 20
-1.717710506559224
 30
0.0
 10
43.3840022599522
 20
-1.92928893185795
 30
0.0
 10
43.81434269357707
 20
-2.032582991420039
 30
0.0
 10
44.09290870334138
 20
-2.012532639446103
 30
0.0
 10
44.21003990395415
 20
-2.004101884375151
 30
0.0
  0
SPLINE
  5
C6
330
1F
100
AcDbEntity
  8
0
  6
Continuous
 62
     1
370
    15
100
AcDbSpline
210
0.0
220
0.0
230
1.0
 70
     8
 71
     3
 72
    14
 73
    10
 74
     0
 42
0.000000001
 43
0.00000001
 40
0.0
 40
0.0
 40
0.0
 40
0.0
 40
0.25
 40
0.25
 40
0.5
 40
0.5
 40
0.75
 40
0.75
 40
1.0
 40
1.0
 40
1.0
 40
1.0
 10
49.15885974161191
 20
1.275531139228973
 30
0.0
 10
49.26073259692693
 20
1.317527225992482
 30
0.0
 10
49.36026895934091
 20
1.344787104329773
 30
0.0
 10
49.55856653515514
 20
1.367469537433114
 30
0.0
 10
49.6569273616561
 20
1.362253862925603
 30
0.0
 10
49.84299351223957
 20
1.318539787825004
 30
0.0
 10
49.93327423305908
 20
1.279289166231373
 30
0.0
 10
50.09497743653974
 20
1.172784483932252
 30
0.0
 10
50.16780333165138
 20
1.105034412939372
 30
0.0
 10
50.22662231521252
 20
1.028276297003976
 30
0.0
  0
SPLINE
  5
C7
330
1F
100
AcDbEntity
  8
0
  6
Continuous
 62
     1
370
    15
100
AcDbSpline
210
0.0
220
0.0
230
1.0
 70
     8
 71
     3
 72
    14
 73
    10
 74
     0
 42
0.000000001
 43
0.00000001
 40
0.0
 40
0.0
 40
0.0
 40
0.0
 40
0.2499999999999999
 40
0.2499999999999999
 40
0.4999999999999999
 40
0.4999999999999999
 40
0.7499999999999999
 40
0.7499999999999999
 40
1.0
 40
1.0
 40
1.0
 40
1.0
 10
49.15953907324084
 20
1.371017196682912
 30
0.0
 10
49.21523865302224
 20
1.251968099139811
 30
0.0
 10
49.28580491041194
 20
1.142154830481161
 30
0.0
 10
49.45550870714769
 20
0.9558293061438513
 30
0.0
 10
49.55369704010678
 20
0.8806358587698644
 30
0.0
 10
49.76504971203715
 20
0.7902981545645024
 30
0.0
 10
49.87824605035259
 20
0.775896836473886
 30
0.0
 10
50.08570437110015
 20
0.8404296002427264
 30
0.0
 10
50.17182909948612
 20
0.9202512729975049
 30
0.0
 10
50.22662231521246
 20
1.028276297003959
 30
0.0
  0
LINE
  5
C8
330
1F
100
AcDbEntity
  8
0
  6
Continuous
 62
     4
370
    15
100
AcDbLine
 10
12.50800000000001
 20
4.787993819090374
 30
0.0
 11
12.50800000000001
 21
4.540966151957973
 31
0.0
  0
SPLINE
  5
C9
330
1F
100
AcDbEntity
  8
0
  6
Continuous
 62
     1
370
    15
100
AcDbSpline
210
0.0
220
0.0
230
1.0
 70
     8
 71
     3
 72
    24
 73
    20
 74
     0
 42
0.000000001
 43
0.00000001
 40
0.0
 40
0.0
 40
0.0
 40
0.0
 40
0.0490422443797853
 40
0.1095340859883982
 40
0.1717932631823019
 40
0.2320377833486659
 40
0.2940313219112986
 40
0.3542272664189868
 40
0.4161625650168325
 40
0.4764532152004816
 40
0.5384793753209574
 40
0.5989865615016401
 40
0.661230401553708
 40
0.722044900372358
 40
0.7846008885318585
 40
0.8457942803684755
 40
0.9087366704982106
 40
0.9703776060746585
 40
1.0
 40
1.0
 40
1.0
 40
1.0
 10
47.24094324502551
 20
-1.475018366250107
 30
0.0
 10
47.11696232592439
 20
-1.543110504372304
 30
0.0
 10
46.84005540974459
 20
-1.695191841728165
 30
0.0
 10
46.41209322811731
 20
-1.824046133951778
 30
0.0
 10
45.96048480199074
 20
-1.866848044752074
 30
0.0
 10
45.51028551512461
 20
-1.798771106196112
 30
0.0
 10
45.06962366184251
 20
-1.627692223006411
 30
0.0
 10
44.62952107387222
 20
-1.358424156345079
 30
0.0
 10
44.19774197347626
 20
-1.009894816531281
 30
0.0
 10
43.76598616107449
 20
-0.5939806802875078
 30
0.0
 10
43.34162767517174
 20
-0.1388932993419033
 30
0.0
 10
42.91684451519843
 20
0.3398054627991238
 30
0.0
 10
42.49867640060948
 20
0.810254998862176
 30
0.0
 10
42.07979514290098
 20
1.256548019254212
 30
0.0
 10
41.666938230947
 20
1.648789635413143
 30
0.0
 10
41.25302132741108
 20
1.975443835869262
 30
0.0
 10
40.84487195793427
 20
2.207485258950197
 30
0.0
 10
40.50843376787756
 20
2.336407808563553
 30
0.0
 10
40.31148027210228
 20
2.344665912273165
 30
0.0
 10
40.24755279905612
 20
2.347346340463741
 30
0.0
  0
SPLINE
  5
CA
330
1F
100
AcDbEntity
  8
0
  6
Continuous
 62
     1
370
    15
100
AcDbSpline
210
0.0
220
0.0
230
1.0
 70
     8
 71
     3
 72
    26
 73
    22
 74
     0
 42
0.000000001
 43
0.00000001
 40
0.0
 40
0.0
 40
0.0
 40
0.0
 40
0.0086268078300175
 40
0.0626800048324867
 40
0.1157966976108523
 40
0.1704219036975721
 40
0.2241010171111246
 40
0.2793041896733941
 40
0.3335592445544907
 40
0.3893545510614771
 40
0.4442003033968753
 40
0.5006030804451189
 40
0.5560485694835441
 40
0.6130680465080758
 40
0.6691162872671073
 40
0.7267554970874137
 40
0.7834115907138065
 40
0.8416757952073323
 40
0.8989528684407682
 40
0.9578559100903812
 40
1.0
 40
1.0
 40
1.0
 40
1.0
 10
34.94571466804317
 20
-2.622868654489694
 30
0.0
 10
34.92462264411555
 20
-2.637962958468316
 30
0.0
 10
34.77137381931739
 20
-2.747634005391495
 30
0.0
 10
34.49099663697729
 20
-2.850198615640555
 30
0.0
 10
34.10116125209437
 20
-2.914312015014564
 30
0.0
 10
33.71513085376702
 20
-2.851921761267897
 30
0.0
 10
33.32697309782402
 20
-2.674957559623899
 30
0.0
 10
32.94231328423
 20
-2.388252664303234
 30
0.0
 10
32.55543226781014
 20
-1.998558105198116
 30
0.0
 10
32.17208355163813
 20
-1.525120627287538
 30
0.0
 10
31.78636575542849
 20
-0.9789289106314237
 30
0.0
 10
31.40411529668702
 20
-0.3879659468435197
 30
0.0
 10
31.01954880840155
 20
0.233616416488652
 30
0.0
 10
30.63825528484923
 20
0.8533286546287431
 30
0.0
 10
30.2547687469696
 20
1.456076081393592
 30
0.0
 10
29.87446881711121
 20
2.009944761847753
 30
0.0
 10
29.49189706353206
 20
2.500702333924096
 30
0.0
 10
29.1125828245013
 20
2.903336709237128
 30
0.0
 10
28.73086711256703
 20
3.201747611304816
 30
0.0
 10
28.38647188691206
 20
3.381562378556556
 30
0.0
 10
28.16844550230907
 20
3.404202228058861
 30
0.0
 10
28.07751245538738
 20
3.413644711365832
 30
0.0
  0
SPLINE
  5
CB
330
1F
100
AcDbEntity
  8
0
  6
Continuous
 62
     1
370
    15
100
AcDbSpline
210
0.0
220
0.0
230
1.0
 70
     8
 71
     3
 72
    26
 73
    22
 74
     0
 42
0.000000001
 43
0.00000001
 40
0.0
 40
0.0
 40
0.0
 40
0.0
 40
0.0473910933448395
 40
0.1005947036956983
 40
0.1528770888385304
 40
0.2066450222370971
 40
0.2594786789604193
 40
0.3138137386815162
 40
0.3671986879211934
 40
0.4221008100938963
 40
0.4760348982591304
 40
0.5315017422856457
 40
0.5859911832698507
 40
0.6420294472869749
 40
0.6970797473969063
 40
0.7536952048057387
 40
0.8093089729596806
 40
0.8665041574554114
 40
0.9226815015400519
 40
0.980456412624456
 40
1.0
 40
1.0
 40
1.0
 40
1.0
 10
22.28806195481667
 20
-3.822340029918573
 30
0.0
 10
22.17488522399102
 20
-3.874553748422382
 30
0.0
 10
21.93465063771947
 20
-3.985385197351453
 30
0.0
 10
21.57237999974755
 20
-3.984892996177135
 30
0.0
 10
21.19688954229636
 20
-3.8561381214528
 30
0.0
 10
20.82464861221767
 20
-3.588868140396852
 30
0.0
 10
20.44973241195557
 20
-3.191035712707335
 30
0.0
 10
20.07781726036697
 20
-2.679501244252846
 30
0.0
 10
19.70347275481248
 20
-2.063553879632379
 30
0.0
 10
19.33194458817683
 20
-1.372192945992853
 30
0.0
 10
18.95807055780052
 20
-0.6182825175811151
 30
0.0
 10
18.58706957511983
 20
0.1619731318784181
 30
0.0
 10
18.21351127553824
 20
0.9534366863085082
 30
0.0
 10
17.84304850261811
 20
1.717815661967314
 30
0.0
 10
17.46979701569177
 20
2.439551193164189
 30
0.0
 10
17.09974225571949
 20
3.083556429596658
 30
0.0
 10
16.7269326571237
 20
3.635323890373278
 30
0.0
 10
16.35710488845923
 20
4.07058106894736
 30
0.0
 10
15.98490173981256
 20
4.366780685860292
 30
0.0
 10
15.69556782859244
 20
4.514808958815289
 30
0.0
 10
15.52930055669071
 20
4.511485823380815
 30
0.0
 10
15.48727362884255
 20
4.510645843440464
 30
0.0
  0
SPLINE
  5
CC
330
1F
100
AcDbEntity
  8
0
  6
Continuous
 62
     1
370
    15
100
AcDbSpline
210
0.0
220
0.0
230
1.0
 70
     8
 71
     3
 72
    12
 73
     8
 74
     0
 42
0.000000001
 43
0.00000001
 40
0.0
 40
0.0
 40
0.0
 40
0.0
 40
0.1069662760456939
 40
0.3587126244004185
 40
0.6091937923733562
 40
0.8669557309056598
 40
1.0
 40
1.0
 40
1.0
 40
1.0
 10
12.508
 20
-3.585163042288151
 30
0.0
 10
12.56125859517961
 20
-3.660401726723856
 30
0.0
 10
12.7398619003989
 20
-3.912715511480071
 30
0.0
 10
13.04521703028626
 20
-4.257866016191258
 30
0.0
 10
13.42791959578146
 20
-4.541218902796938
 30
0.0
 10
13.75269440818147
 20
-4.67247189315025
 30
0.0
 10
13.95202761320665
 20
-4.645445964389989
 30
0.0
 10
14.01988769334679
 20
-4.636245381419873
 30
0.0
  0
SPLINE
  5
CD
330
1F
100
AcDbEntity
  8
0
  6
Continuous
 62
     1
370
    15
100
AcDbSpline
210
0.0
220
0.0
230
1.0
 70
     8
 71
     3
 72
    25
 73
    21
 74
     0
 42
0.000000001
 43
0.00000001
 40
0.0
 40
0.0
 40
0.0
 40
0.0
 40
0.0538058500811861
 40
0.1148889870094665
 40
0.1736093180400001
 40
0.2340662580604885
 40
0.2921894410146538
 40
0.3520315407996508
 40
0.4095656209621277
 40
0.4688017347937845
 40
0.5257448949316663
 40
0.5843726025502327
 40
0.640728747971234
 40
0.6987516779827138
 40
0.7545325978020655
 40
0.8119634276061102
 40
0.8671745937027079
 40
0.9240192341363602
 40
0.9786588699715545
 40
0.9999999999999999
 40
0.9999999999999999
 40
0.9999999999999999
 40
0.9999999999999999
 10
20.13043854372289
 20
4.027110681986881
 30
0.0
 10
20.24816496238899
 20
4.056028226116736
 30
0.0
 10
20.49954039766959
 20
4.117774436740072
 30
0.0
 10
20.88259696141821
 20
4.028791976248711
 30
0.0
 10
21.28275021009406
 20
3.803187263525378
 30
0.0
 10
21.67900068848345
 20
3.44212975024087
 30
0.0
 10
22.08036630939509
 20
2.95709372261706
 30
0.0
 10
22.47798122703009
 20
2.376523118710733
 30
0.0
 10
22.88062395402478
 20
1.710862281132892
 30
0.0
 10
23.27955173928139
 20
0.9998800578688157
 30
0.0
 10
23.68365781988305
 20
0.2554586809090139
 30
0.0
 10
24.08388003310309
 20
-0.4784935239159467
 30
0.0
 10
24.48941742450655
 20
-1.190117309434776
 30
0.0
 10
24.89114573817762
 20
-1.837889076176155
 30
0.0
 10
25.2981188386409
 20
-2.412101681533592
 30
0.0
 10
25.70145482818709
 20
-2.878849314420028
 30
0.0
 10
26.11002828608932
 20
-3.234720841734837
 30
0.0
 10
26.51505685024833
 20
-3.448475864381966
 30
0.0
 10
26.83952756779193
 20
-3.537313805863654
 30
0.0
 10
27.02692809073695
 20
-3.505456053231407
 30
0.0
 10
27.07956429257184
 20
-3.496507993369006
 30
0.0
  0
SPLINE
  5
CE
330
1F
100
AcDbEntity
  8
0
  6
Continuous
 62
     1
370
    15
100
AcDbSpline
210
0.0
220
0.0
230
1.0
 70
     8
 71
     3
 72
    24
 73
    20
 74
     0
 42
0.000000001
 43
0.00000001
 40
0.0
 40
0.0
 40
0.0
 40
0.0
 40
0.0461895821271635
 40
0.1083459481628681
 40
0.1723388027447443
 40
0.2338906514560143
 40
0.2972601659333651
 40
0.3582278324954042
 40
0.4209950959626964
 40
0.4813988338304835
 40
0.543585187160592
 40
0.6034351695493804
 40
0.6650500647235164
 40
0.7243739986424776
 40
0.7854465802473362
 40
0.844262065933568
 40
0.904809978910505
 40
0.9631410537674158
 40
0.9999999999999999
 40
0.9999999999999999
 40
0.9999999999999999
 40
0.9999999999999999
 10
32.85948780857623
 20
2.821042123271194
 30
0.0
 10
32.96205487634596
 20
2.861691216372368
 30
0.0
 10
33.20264432738718
 20
2.957040953936184
 30
0.0
 10
33.58920048291622
 20
2.961686080872181
 30
0.0
 10
34.01329629676041
 20
2.856995769653075
 30
0.0
 10
34.44367003806887
 20
2.625752696771586
 30
0.0
 10
34.87068428574013
 20
2.289984983639608
 30
0.0
 10
35.30394987357226
 20
1.857349217678443
 30
0.0
 10
35.73403626874275
 20
1.357609219095526
 30
0.0
 10
36.17048763635014
 20
0.8034301159565493
 30
0.0
 10
36.60379041618104
 20
0.2318888158775283
 30
0.0
 10
37.04359914871279
 20
-0.3426457869319159
 30
0.0
 10
37.48036947221177
 20
-0.8820765004910727
 30
0.0
 10
37.92375119102732
 20
-1.373213198961185
 30
0.0
 10
38.36423643950547
 20
-1.783305244508851
 30
0.0
 10
38.81145664432806
 20
-2.104286417937459
 30
0.0
 10
39.25602192102484
 20
-2.309122800173367
 30
0.0
 10
39.64843567713609
 20
-2.403852669468934
 30
0.0
 10
39.89110915286269
 20
-2.379174044106509
 30
0.0
 10
39.9850758154551
 20
-2.369618125167565
 30
0.0
  0
SPLINE
  5
CF
330
1F
100
AcDbEntity
  8
0
  6
Continuous
 62
     1
370
    15
100
AcDbSpline
210
0.0
220
0.0
230
1.0
 70
     8
 71
     3
 72
    16
 73
    12
 74
     0
 42
0.000000001
 43
0.00000001
 40
0.0
 40
0.0
 40
0.0
 40
0.0
 40
0.0170774105893621
 40
0.1459016064680117
 40
0.2705123047112387
 40
0.398759716725513
 40
0.5229108532094014
 40
0.6506798186087822
 40
0.7744643847057205
 40
0.9018508758417012
 40
1.0
 40
1.0
 40
1.0
 40
1.0
 10
45.22026685614924
 20
1.645706207546722
 30
0.0
 10
45.24178468436885
 20
1.656697296609595
 30
0.0
 10
45.42562319363905
 20
1.750600148140562
 30
0.0
 10
45.77080968860636
 20
1.826041795218412
 30
0.0
 10
46.26068375263884
 20
1.855232442749593
 30
0.0
 10
46.74966295764208
 20
1.761790905646319
 30
0.0
 10
47.2471702814267
 20
1.563723560690143
 30
0.0
 10
47.74359792722964
 20
1.275538550048505
 30
0.0
 10
48.24894584856956
 20
0.9131414366305531
 30
0.0
 10
48.71907704219323
 20
0.534939998500115
 30
0.0
 10
49.02550687845233
 20
0.2819681961179455
 30
0.0
 10
49.15885974161571
 20
0.1718793269690119
 30
0.0
  0
LINE
  5
D0
330
1F
100
AcDbEntity
  8
0
  6
Continuous
 62
     1
370
    15
100
AcDbLine
 10
49.15885974161191
 20
1.371348789761056
 30
0.0
 11
49.15885974161191
 21
1.370784565561908
 31
0.0
  0
ELLIPSE
  5
D1
330
1F
100
AcDbEntity
  8
0
  6
Continuous
 62
     1
370
    15
100
AcDbEllipse
 10
50.34430738456296
 20
0.0320623226155238
 30
0.0
 11
2.087458491269885
 21
-0.4663164284639153
 31
0.0
210
0.0
220
0.0
230
1.0
 40
0.6660741345455983
 41
2.314953550696274
 42
2.506522210392435
  0
LINE
  5
D2
330
1F
100
AcDbEntity
  8
0
  6
Continuous
 62
     1
370
    15
100
AcDbLine
 10
48.84810019319963
 20
1.232295111215446
 30
0.0
 11
49.15885974161191
 21
1.014698932846521
 31
0.0
  0
LINE
  5
D3
330
1F
100
AcDbEntity
  8
0
  6
Continuous
 62
     1
370
    15
100
AcDbLine
 10
49.15885974161191
 20
1.014698932846521
 30
0.0
 11
49.1588597416138
 21
0.171879326966751
 31
0.0
  0
SPLINE
  5
D4
330
1F
100
AcDbEntity
  8
0
  6
Continuous
 62
     1
370
    15
100
AcDbSpline
210
0.0
220
0.0
230
1.0
 70
     8
 71
     3
 72
     8
 73
     4
 74
     0
 42
0.000000001
 43
0.00000001
 40
0.0
 40
0.0
 40
0.0
 40
0.0
 40
1.0
 40
1.0
 40
1.0
 40
1.0
 10
49.1595390732317
 20
-1.368042241753448
 30
0.0
 10
49.15931263765022
 20
-1.367965520223961
 30
0.0
 10
49.1590861937887
 20
-1.367888720249765
 30
0.0
 10
49.15885974161191
 20
-1.367811841837861
 30
0.0
  0
SPLINE
  5
D5
330
1F
100
AcDbEntity
  8
0
  6
Continuous
 62
     1
370
    15
100
AcDbSpline
210
0.0
220
0.0
230
1.0
 70
     8
 71
     3
 72
    18
 73
    14
 74
     0
 42
0.000000001
 43
0.00000001
 40
0.0
 40
0.0
 40
0.0
 40
0.0
 40
0.0861001519892438
 40
0.1722034465020748
 40
0.2604666660884292
 40
0.3526285992271985
 40
0.4474992165328897
 40
0.538998463862727
 40
0.6331709621886173
 40
0.7242961140171005
 40
0.8180668104772092
 40
0.9091184873363559
 40
1.0
 40
1.0
 40
1.0
 40
1.0
 10
49.15885974161191
 20
-1.367811841837866
 30
0.0
 10
49.00828495525955
 20
-1.308281759362616
 30
0.0
 10
48.70712988680594
 20
-1.189219421655344
 30
0.0
 10
48.25812053282132
 20
-0.9093733319097818
 30
0.0
 10
47.80336870325078
 20
-0.5646550302074008
 30
0.0
 10
47.33902512980795
 20
-0.1579304648399193
 30
0.0
 10
46.87451444624708
 20
0.2789763984510173
 30
0.0
 10
46.41198752028173
 20
0.717274631077958
 30
0.0
 10
45.96051622433724
 20
1.121731721596213
 30
0.0
 10
45.51026317089203
 20
1.477016641095225
 30
0.0
 10
45.06968231166289
 20
1.753312751800949
 30
0.0
 10
44.63374251233145
 20
1.94810552329871
 30
0.0
 10
44.34965251419152
 20
1.991430169524792
 30
0.0
 10
44.20774037143575
 20
2.013072231618966
 30
0.0
  0
SPLINE
  5
D6
330
1F
100
AcDbEntity
  8
0
  6
Continuous
 62
     1
370
    15
100
AcDbSpline
210
0.0
220
0.0
230
1.0
 70
     8
 71
     3
 72
    25
 73
    21
 74
     0
 42
0.000000001
 43
0.00000001
 40
0.0
 40
0.0
 40
0.0
 40
0.0
 40
0.0362670816835867
 40
0.0914926255089523
 40
0.1456837186655895
 40
0.2014169025499238
 40
0.256130312196872
 40
0.3123997762896447
 40
0.3676512896233481
 40
0.4244732488446006
 40
0.4802847842531284
 40
0.5376820871913331
 40
0.5940761679103237
 40
0.6520721848271858
 40
0.7090633857879935
 40
0.7676731360336221
 40
0.8252677824607771
 40
0.8844976579784002
 40
0.9427102569587273
 40
0.9999999999999999
 40
0.9999999999999999
 40
0.9999999999999999
 40
0.9999999999999999
 10
39.09321620123123
 20
-2.216128525370445
 30
0.0
 10
39.00388666708611
 20
-2.272442039897814
 30
0.0
 10
38.77853096613026
 20
-2.41450671829396
 30
0.0
 10
38.42339690924663
 20
-2.526292636218666
 30
0.0
 10
38.02354023901222
 20
-2.556853723101087
 30
0.0
 10
37.62815933326173
 20
-2.472318511254238
 30
0.0
 10
37.23092953411373
 20
-2.278267321924492
 30
0.0
 10
36.83778552422891
 20
-1.98315601978544
 30
0.0
 10
36.44281915252928
 20
-1.594261884598952
 30
0.0
 10
36.05178933138456
 20
-1.13237827838921
 30
0.0
 10
35.65876263243466
 20
-0.6093385889848958
 30
0.0
 10
35.26963323819815
 20
-0.0535617650203081
 30
0.0
 10
34.87836013948982
 20
0.5201842205669727
 30
0.0
 10
34.49083448512017
 20
1.080418219523622
 30
0.0
 10
34.10120517634689
 20
1.612027275086969
 30
0.0
 10
33.71512145997973
 20
2.085176564018602
 30
0.0
 10
33.32696730051694
 20
2.487600324598739
 30
0.0
 10
32.94234701958543
 20
2.793237955943544
 30
0.0
 10
32.56092637687299
 20
3.00184213762258
 30
0.0
 10
32.31101649970513
 20
3.043267324553701
 30
0.0
 10
32.18705994267059
 20
3.063814425791498
 30
0.0
  0
SPLINE
  5
D7
330
1F
100
AcDbEntity
  8
0
  6
Continuous
 62
     1
370
    15
100
AcDbSpline
210
0.0
220
0.0
230
1.0
 70
     8
 71
     3
 72
    26
 73
    22
 74
     0
 42
0.000000001
 43
0.00000001
 40
0.0
 40
0.0
 40
0.0
 40
0.0
 40
0.0083335054300948
 40
0.0616634747178427
 40
0.1140820331242238
 40
0.1679888951626477
 40
0.2209761506340018
 40
0.2754681569884033
 40
0.3290283236027371
 40
0.3841096771489804
 40
0.4382435127377961
 40
0.4939149153431448
 40
0.5486208637344273
 40
0.6048805839293427
 40
0.6601663635313759
 40
0.7170226746653912
 40
0.7728945137549968
 40
0.8303538916089014
 40
0.8868148499010006
 40
0.9448802902088144
 40
1.0
 40
1.0
 40
1.0
 40
1.0
 10
26.52109823248642
 20
-3.433585337561861
 30
0.0
 10
26.5010725655066
 20
-3.447059377238737
 30
0.0
 10
26.35289336050375
 20
-3.546760050854638
 30
0.0
 10
26.08097776073958
 20
-3.612474827493009
 30
0.0
 10
25.70205263589431
 20
-3.615789152004385
 30
0.0
 10
25.3265469151121
 20
-3.476706133348257
 30
0.0
 10
24.94834985787225
 20
-3.211064183418423
 30
0.0
 10
24.57340584934565
 20
-2.826607787666414
 30
0.0
 10
24.19587200950359
 20
-2.331371444427219
 30
0.0
 10
23.82139346195089
 20
-1.748469527654542
 30
0.0
 10
23.44453225833952
 20
-1.089375919401598
 30
0.0
 10
23.07056662293351
 20
-0.386178759208037
 30
0.0
 10
22.69427391395578
 20
0.3468810241599118
 30
0.0
 10
22.32093935458383
 20
1.073616946489349
 30
0.0
 10
21.94506797075082
 20
1.778739844093905
 30
0.0
 10
21.5723460785998
 20
2.427223034910003
 30
0.0
 10
21.19690044256564
 20
3.004547181317355
 30
0.0
 10
20.82463961492623
 20
3.482485493222954
 30
0.0
 10
20.44975734730044
 20
3.846255749384874
 30
0.0
 10
20.08191000269453
 20
4.087722423114386
 30
0.0
 10
19.83835670364641
 20
4.132824662975802
 30
0.0
 10
19.71974938501427
 20
4.154788872679277
 30
0.0
  0
SPLINE
  5
D8
330
1F
100
AcDbEntity
  8
0
  6
Continuous
 62
     1
370
    15
100
AcDbSpline
210
0.0
220
0.0
230
1.0
 70
     8
 71
     3
 72
    11
 73
     7
 74
     0
 42
0.000000001
 43
0.00000001
 40
0.0
 40
0.0
 40
0.0
 40
0.0
 40
0.2517134638492744
 40
0.5595776661047872
 40
0.8762019648342305
 40
0.9999999999999999
 40
0.9999999999999999
 40
0.9999999999999999
 40
0.9999999999999999
 10
13.69276214899786
 20
-4.609236344833789
 30
0.0
 10
13.59257826617065
 20
-4.650928040957888
 30
0.0
 10
13.36986207738809
 20
-4.743611768146367
 30
0.0
 10
13.0234414387036
 20
-4.700510212615822
 30
0.0
 10
12.72887428152989
 20
-4.557985242554684
 30
0.0
 10
12.55646298285462
 20
-4.415360618260213
 30
0.0
 10
12.50799999999995
 20
-4.375270352860293
 30
0.0
  0
SPLINE
  5
D9
330
1F
100
AcDbEntity
  8
0
  6
Continuous
 62
     4
370
    15
100
AcDbSpline
210
0.0
220
0.0
230
1.0
 70
     8
 71
     3
 72
     8
 73
     4
 74
     0
 42
0.000000001
 43
0.00000001
 40
0.0
 40
0.0
 40
0.0
 40
0.0
 40
1.0
 40
1.0
 40
1.0
 40
1.0
 10
12.50800000000001
 20
-4.375270352860344
 30
0.0
 10
12.33222523139184
 20
-4.235053199130497
 30
0.0
 10
12.16256295133572
 20
-4.026986572614475
 30
0.0
 10
12.0
 20
-3.757280204999612
 30
0.0
  0
SPLINE
  5
DA
330
1F
100
AcDbEntity
  8
0
  6
Continuous
 62
     4
370
    15
100
AcDbSpline
210
0.0
220
0.0
230
1.0
 70
     8
 71
     3
 72
    12
 73
     8
 74
     0
 42
0.000000001
 43
0.00000001
 40
0.0
 40
0.0
 40
0.0
 40
0.0
 40
0.2500000000000001
 40
0.2500000000000001
 40
0.5000000000000001
 40
0.5000000000000001
 40
1.0
 40
1.0
 40
1.0
 40
1.0
 10
12.00000000000001
 20
-3.795103680361727
 30
0.0
 10
11.88366203545464
 20
-3.638226037747716
 30
0.0
 10
11.76755854511758
 20
-3.464393122581554
 30
0.0
 10
11.53610103131257
 20
-3.088338483942396
 30
0.0
 10
11.4199763081263
 20
-2.88487453293989
 30
0.0
 10
11.07449851547984
 20
-2.243415186101754
 30
0.0
 10
10.84899142531538
 20
-1.77734773165486
 30
0.0
 10
10.61799999999999
 20
-1.276274247170265
 30
0.0
  0
SPLINE
  5
DB
330
1F
100
AcDbEntity
  8
0
  6
Continuous
 62
     4
370
    15
100
AcDbSpline
210
0.0
220
0.0
230
1.0
 70
     8
 71
     3
 72
    10
 73
     6
 74
     0
 42
0.000000001
 43
0.00000001
 40
0.0
 40
0.0
 40
0.0
 40
0.0
 40
0.5
 40
0.5
 40
1.0
 40
1.0
 40
1.0
 40
1.0
 10
10.61800000004425
 20
0.4992699796414377
 30
0.0
 10
10.8508401064432
 20
-0.0478053398541597
 30
0.0
 10
11.08206437303088
 20
-0.6021060762644573
 30
0.0
 10
11.54394653893743
 20
-1.667026570138774
 30
0.0
 10
11.76917751394594
 20
-2.165566866403343
 30
0.0
 10
12.00000000000003
 20
-2.625268164854242
 30
0.0
  0
SPLINE
  5
DC
330
1F
100
AcDbEntity
  8
0
  6
Continuous
 62
     1
370
    15
100
AcDbSpline
210
0.0
220
0.0
230
1.0
 70
     8
 71
     3
 72
    14
 73
    10
 74
     0
 42
0.000000001
 43
0.00000001
 40
0.0
 40
0.0
 40
0.0
 40
0.0
 40
0.25
 40
0.25
 40
0.5
 40
0.5
 40
0.75
 40
0.75
 40
1.0
 40
1.0
 40
1.0
 40
1.0
 10
49.15885974161191
 20
0.1718793269721453
 30
0.0
 10
49.26073259692694
 20
0.0882034183158796
 30
0.0
 10
49.36026895934091
 20
0.0058334668886336
 30
0.0
 10
49.55856653515515
 20
-0.1514782829828167
 30
0.0
 10
49.65692736165609
 20
-0.2259189546777656
 30
0.0
 10
49.84299351223956
 20
-0.3567574642445619
 30
0.0
 10
49.93327423305907
 20
-0.4147858129750658
 30
0.0
 10
50.09497743653974
 20
-0.5127665704895793
 30
0.0
 10
50.16780333165136
 20
-0.5533596649313541
 30
0.0
 10
50.2266223152125
 20
-0.5919507491830412
 30
0.0
  0
SPLINE
  5
DD
330
1F
100
AcDbEntity
  8
0
  6
Continuous
 62
     1
370
    15
100
AcDbSpline
210
0.0
220
0.0
230
1.0
 70
     8
 71
     3
 72
    14
 73
    10
 74
     0
 42
0.000000001
 43
0.00000001
 40
0.0
 40
0.0
 40
0.0
 40
0.0
 40
0.2499999999999999
 40
0.2499999999999999
 40
0.4999999999999999
 40
0.4999999999999999
 40
0.7499999999999999
 40
0.7499999999999999
 40
1.0
 40
1.0
 40
1.0
 40
1.0
 10
49.15953907324085
 20
-1.36804224176362
 30
0.0
 10
49.21523865302226
 20
-1.292399786676397
 30
0.0
 10
49.28580491041193
 20
-1.210810712224937
 30
0.0
 10
49.45550870714769
 20
-1.041605054747542
 30
0.0
 10
49.55369704010678
 20
-0.9550309649367554
 30
0.0
 10
49.76504971203715
 20
-0.7935161420544351
 30
0.0
 10
49.87824605035259
 20
-0.7188137252340634
 30
0.0
 10
50.08570437110015
 20
-0.6134828066396196
 30
0.0
 10
50.17182909948612
 20
-0.5881730938270887
 30
0.0
 10
50.22662231521246
 20
-0.591950749183028
 30
0.0
  0
LINE
  5
DE
102
{ACAD_REACTORS
102
}
330
1F
100
AcDbEntity
  8
0
  6
Continuous
 62
     4
370
    15
100
AcDbLine
 10
-37.482
 20
4.762500000000001
 30
0.0
 11
-37.482
 21
-4.762499999999997
 31
0.0
  0
LINE
  5
DF
330
1F
100
AcDbEntity
  8
0
  6
Continuous
 62
     4
370
    15
100
AcDbLine
 10
-38.29200000000001
 20
-3.952499999999988
 30
0.0
 11
-38.29200000000001
 21
3.952499999999992
 31
0.0
  0
LINE
  5
E0
330
1F
100
AcDbEntity
  8
0
  6
Continuous
 62
     4
370
    15
100
AcDbLine
 10
10.61799999999999
 20
-1.276274247171325
 30
0.0
 11
10.61799999999999
 21
0.4992699797454069
 31
0.0
  0
SPLINE
  5
E1
330
1F
100
AcDbEntity
  8
0
  6
Continuous
 62
     1
370
    15
100
AcDbSpline
210
0.0
220
0.0
230
1.0
 70
     8
 71
     3
 72
    25
 73
    21
 74
     0
 42
0.000000001
 43
0.00000001
 40
0.0
 40
0.0
 40
0.0
 40
0.0
 40
0.0496023168076417
 40
0.1080101784255721
 40
0.1681447418432272
 40
0.22597426457109
 40
0.285513990923372
 40
0.3427604708920942
 40
0.4016995991181437
 40
0.4583711996980262
 40
0.516718366182475
 40
0.5728225824715787
 40
0.6305859871486391
 40
0.686123973963054
 40
0.7433048493993408
 40
0.7982738654499866
 40
0.8548685482120969
 40
0.9092785646519019
 40
0.9652976858975805
 40
1.0
 40
1.0
 40
1.0
 40
1.0
 10
15.83141037422523
 20
4.41411398500167
 30
0.0
 10
15.93957266380381
 20
4.440587346312134
 30
0.0
 10
16.1750985212271
 20
4.498233695569503
 30
0.0
 10
16.54448629622618
 20
4.397618560899413
 30
0.0
 10
16.93433945787688
 20
4.155869703122274
 30
0.0
 10
17.32899272069669
 20
3.763171249433655
 30
0.0
 10
17.71976587583479
 20
3.249089884327978
 30
0.0
 10
18.11550407120933
 20
2.620851205928296
 30
0.0
 10
18.50720583377652
 20
1.915710549416553
 30
0.0
 10
18.9039306554275
 20
1.144671169229816
 30
0.0
 10
19.2967971481115
 20
0.3523495291827808
 30
0.0
 10
19.69453106914633
 20
-0.4494772517458527
 30
0.0
 10
20.08854822806775
 20
-1.214785562440098
 30
0.0
 10
20.48749259537703
 20
-1.932663593890896
 30
0.0
 10
20.88256021037923
 20
-2.562571146351471
 30
0.0
 10
21.28276485694526
 20
-3.095423207788607
 30
0.0
 10
21.67897916619049
 20
-3.503791928938446
 30
0.0
 10
22.08043572745318
 20
-3.775335331862795
 30
0.0
 10
22.43139600482774
 20
-3.906349713850028
 30
0.0
 10
22.65261260083102
 20
-3.885118213855961
 30
0.0
 10
22.73723127743945
 20
-3.876996845638706
 30
0.0
  0
SPLINE
  5
E2
330
1F
100
AcDbEntity
  8
0
  6
Continuous
 62
     1
370
    15
100
AcDbSpline
210
0.0
220
0.0
230
1.0
 70
     8
 71
     3
 72
    24
 73
    20
 74
     0
 42
0.000000001
 43
0.00000001
 40
0.0
 40
0.0
 40
0.0
 40
0.0
 40
0.0504617096577095
 40
0.1112672418778982
 40
0.1738708620154221
 40
0.2340591995051824
 40
0.29602689423756
 40
0.3556134753316963
 40
0.416961876491761
 40
0.4759488918771708
 40
0.5366793845928759
 40
0.5950810736674117
 40
0.655208276014267
 40
0.7130425731997674
 40
0.7725856579340127
 40
0.8298574731594988
 40
0.8888205620035073
 40
0.945548816429289
 40
0.9999999999999999
 40
0.9999999999999999
 40
0.9999999999999999
 40
0.9999999999999999
 10
28.64755365957999
 20
3.225096002526531
 30
0.0
 10
28.75899769185567
 20
3.26369802667619
 30
0.0
 10
29.00472995457879
 20
3.348814856588839
 30
0.0
 10
29.39240260126433
 20
3.321821362294393
 30
0.0
 10
29.80455673685183
 20
3.176245695348236
 30
0.0
 10
30.22251098912787
 20
2.899800434529143
 30
0.0
 10
30.63691534360479
 20
2.516134779129417
 30
0.0
 10
31.05704184449007
 20
2.032805301676752
 30
0.0
 10
31.47367290907638
 20
1.481441695959987
 30
0.0
 10
31.89617198086578
 20
0.8739895933424281
 30
0.0
 10
32.31513585694402
 20
0.2490963584056669
 30
0.0
 10
32.74005128463077
 20
-0.3800227890616932
 30
0.0
 10
33.16158460453014
 20
-0.9737029389147787
 30
0.0
 10
33.58912294518079
 20
-1.519832036764817
 30
0.0
 10
34.01331991893765
 20
-1.984062833526766
 30
0.0
 10
34.44365104407536
 20
-2.358197822385112
 30
0.0
 10
34.87073726396896
 20
-2.61591592288339
 30
0.0
 10
35.2939343082395
 20
-2.762925235204783
 30
0.0
 10
35.57349220423779
 20
-2.756937596853803
 30
0.0
 10
35.71040833358651
 20
-2.754005094217708
 30
0.0
  0
SPLINE
  5
E3
330
1F
100
AcDbEntity
  8
0
  6
Continuous
 62
     1
370
    15
100
AcDbSpline
210
0.0
220
0.0
230
1.0
 70
     8
 71
     3
 72
    23
 73
    19
 74
     0
 42
0.000000001
 43
0.00000001
 40
0.0
 40
0.0
 40
0.0
 40
0.0
 40
0.0560673812366112
 40
0.1248271041883081
 40
0.1911642118715138
 40
0.2594481688139497
 40
0.3253587277546103
 40
0.3932010634979037
 40
0.4587307309338661
 40
0.5261785762551108
 40
0.591370555634955
 40
0.6584680333651834
 40
0.7233709306299104
 40
0.790167993191768
 40
0.8548315298712986
 40
0.9213793957595897
 40
0.9858520059737372
 40
1.0
 40
1.0
 40
1.0
 40
1.0
 10
41.14360812540291
 20
2.022790487579789
 30
0.0
 10
41.26945594553424
 20
2.073543836650728
 30
0.0
 10
41.54964058424795
 20
2.186539904108337
 30
0.0
 10
41.98376381344104
 20
2.222983422572805
 30
0.0
 10
42.44931871291707
 20
2.1556146375755
 30
0.0
 10
42.9127848678994
 20
1.974824127911718
 30
0.0
 10
43.38391006271129
 20
1.692196728552637
 30
0.0
 10
43.85303783559097
 20
1.329110983708924
 30
0.0
 10
44.33007348821879
 20
0.9001471563945749
 30
0.0
 10
44.80532165209488
 20
0.438586885055229
 30
0.0
 10
45.28871528244557
 20
-0.0373422182724405
 30
0.0
 10
45.7705452050564
 20
-0.4905921108358841
 30
0.0
 10
46.26075124724066
 20
-0.9031911339268491
 30
0.0
 10
46.74966341622382
 20
-1.242132055793194
 30
0.0
 10
47.24710471628985
 20
-1.496939372243281
 30
0.0
 10
47.74386586196029
 20
-1.636044293978638
 30
0.0
 10
48.11463964238671
 20
-1.682712902174619
 30
0.0
 10
48.31799737758717
 20
-1.648500157550592
 30
0.0
 10
48.35459216149411
 20
-1.642343480032792
 30
0.0
  0
LINE
  5
E4
330
1F
100
AcDbEntity
  8
0
  6
Continuous
 62
     4
370
    15
100
AcDbLine
 10
12.50799999999998
 20
-4.375270352860292
 30
0.0
 11
12.50800000000001
 21
-4.787993819090357
 31
0.0
  0
LINE
  5
E5
330
1F
100
AcDbEntity
  8
0
  6
Continuous
 62
     1
370
    15
100
AcDbLine
 10
49.15885974161191
 20
-1.367811841837865
 30
0.0
 11
49.15885974161191
 21
-1.36837974975143
 31
0.0
  0
ELLIPSE
  5
E6
330
1F
100
AcDbEntity
  8
0
  6
Continuous
 62
     1
370
    15
100
AcDbEllipse
 10
50.34430738456296
 20
-0.1735044293113285
 30
0.0
 11
2.09729106207098
 21
1.435864436637158
 31
0.0
210
0.0
220
0.0
230
1.0
 40
0.1638145549349978
 41
3.812688031513195
 42
4.004256691209344
  0
ELLIPSE
  5
E7
330
1F
100
AcDbEntity
  8
0
  6
Continuous
 62
     1
370
    15
100
AcDbEllipse
 10
50.34430738456296
 20
-0.0923197785496102
 30
0.0
 11
2.043304515108098
 21
1.033082294252311
 31
0.0
210
0.0
220
0.0
230
1.0
 40
0.5111641208528658
 41
3.671465728442662
 42
3.86303438813882
  0
LINE
  5
E8
330
1F
100
AcDbEntity
  8
0
  6
Continuous
 62
     4
370
    15
100
AcDbLine
 10
12.00000000000001
 20
-3.757280204999617
 30
0.0
 11
12.00000000000001
 21
-4.946649999999992
 31
0.0
  0
LINE
  5
E9
330
1F
100
AcDbEntity
  8
0
  6
Continuous
 62
     1
370
    15
100
AcDbLine
 10
49.15885974161191
 20
1.014698932846521
 30
0.0
 11
50.608
 21
0.0000000000000158
 31
0.0
  0
ARC
  5
EA
330
1F
100
AcDbEntity
  8
0
  6
Continuous
 62
     1
370
    15
100
AcDbCircle
 10
49.51615462193703
 20
0.2846151452768811
 30
0.0
 40
1.128331560543454
100
AcDbArc
 50
309.0252020803437
 51
345.3896449829434
  0
LINE
  5
EB
330
1F
100
AcDbEntity
  8
0
  6
Continuous
 62
     1
370
    15
100
AcDbLine
 10
49.15953907324266
 20
1.371017196673114
 30
0.0
 11
49.15885974161192
 21
1.370784565561908
 31
0.0
  0
ARC
  5
EC
330
1F
100
AcDbEntity
  8
0
  6
Continuous
 62
     1
370
    15
100
AcDbCircle
 10
49.04179036436653
 20
0.0039708549143218
 30
0.0
 40
1.566214669334908
100
AcDbArc
 50
359.8547367255335
 51
40.84391877940486
  0
LWPOLYLINE
  5
ED
330
1F
100
AcDbEntity
  8
0
  6
Continuous
 62
     1
370
    15
100
AcDbPolyline
 90
        9
 70
   128
 43
0.0
 10
49.15885974161191
 20
-1.368379749751429
 10
49.15894464826135
 20
-1.368337578306711
 10
49.1590295577133
 20
-1.368295401988717
 10
49.15911446996712
 20
-1.368253220797756
 10
49.1591993850222
 20
-1.368211034734135
 10
49.15928430287791
 20
-1.368168843798163
 10
49.15936922353364
 20
-1.368126647990146
 10
49.15945414698876
 20
-1.368084447310394
 10
49.15953907324266
 20
-1.368042241759215
  0
ARC
  5
EE
330
1F
100
AcDbEntity
  8
0
  6
Continuous
 62
     1
370
    15
100
AcDbCircle
 10
49.03209895762698
 20
0.0129994710066936
 30
0.0
 40
1.575954657215375
100
AcDbArc
 50
274.6135288043492
 51
359.5273828040513
  0
LINE
  5
EF
330
1F
100
AcDbEntity
  8
0
  6
Continuous
 62
     8
370
    15
100
AcDbLine
 10
49.15885974161191
 20
-1.557848957468299
 30
0.0
 11
49.15885974161191
 21
-1.581459083220637
 31
0.0
  0
LINE
  5
F0
102
{ACAD_REACTORS
102
}
330
1F
100
AcDbEntity
  8
중심선
100
AcDbLine
 10
-41.29200000000002
 20
-0.0000000000000061
 30
0.0
 11
55.15885974161189
 21
-0.0000000000000061
 31
0.0
  0
CIRCLE
  5
F1
330
1F
100
AcDbEntity
  8
외형선
100
AcDbCircle
 10
0.0
 20
0.0
 30
0.0
 40
2.999999999999997
  0
INSERT
  5
F2
330
1F
100
AcDbEntity
  8
0
  6
Continuous
 62
     7
100
AcDbBlockReference
 66
     1
  2
블럭10
 10
-8.059440554321277
 20
-52.05975325537357
 30
0.0
  0
ATTRIB
  5
F3
330
F2
100
AcDbEntity
  8
FORMAT
 62
     2
100
AcDbText
 10
-17.24073584306256
 20
-49.98438634254138
 30
0.0
 40
4.233333333333333
  1
E5078598 [ 3 FLUTE ]
 41
0.75
  7
SLDTEXTSTYLE0
 11
-17.24073584306256
 21
-52.10105300920804
 31
0.0
100
AcDbAttribute
  2
AUTOATTR0
 70
     0
 74
     1
  0
SEQEND
  5
F4
330
F2
100
AcDbEntity
  8
0
  6
Continuous
 62
     7
  0
HATCH
  5
F5
330
1F
100
AcDbEntity
  8
중심선
100
AcDbHatch
 10
0.0
 20
0.0
 30
0.0
210
0.0
220
0.0
230
1.0
  2
SOLID
 70
     1
 71
     0
 91
        1
 92
        0
 93
        4
 72
     1
 10
-2.344531249940429
 20
-35.81257895372963
 11
-5.790806493777711
 21
-35.81257895372963
 72
     1
 10
-5.790806493777711
 20
-35.81257895372963
 11
-7.919036352981734
 21
-38.34890453430223
 72
     1
 10
-7.919036352981734
 20
-38.34890453430223
 11
-4.472728024031302
 21
-38.34886510499974
 72
     1
 10
-4.472728024031302
 20
-38.34886510499974
 11
-2.344531249940429
 21
-35.81257895372963
 97
        0
 75
     0
 76
     1
 98
        1
 10
-6.626666754639842
 20
0.0
  0
HATCH
  5
F6
330
1F
100
AcDbEntity
  8
중심선
100
AcDbHatch
 10
0.0
 20
0.0
 30
0.0
210
0.0
220
0.0
230
1.0
  2
SOLID
 70
     1
 71
     0
 91
        1
 92
        0
 93
        4
 72
     1
 10
2.668232741095522
 20
-35.81257895372963
 11
-0.7780425027417603
 21
-35.81257895372963
 72
     1
 10
-0.7780425027417603
 20
-35.81257895372963
 11
-5.309180511099148
 21
-41.21257895372965
 72
     1
 10
-5.309180511099148
 20
-41.21257895372965
 11
-1.862905267261866
 21
-41.21257895372965
 72
     1
 10
-1.862905267261866
 20
-41.21257895372965
 11
2.668232741095522
 21
-35.81257895372963
 97
        0
 75
     0
 76
     1
 98
        1
 10
-6.626666754639842
 20
0.0
  0
HATCH
  5
F7
330
1F
100
AcDbEntity
  8
중심선
100
AcDbHatch
 10
0.0
 20
0.0
 30
0.0
210
0.0
220
0.0
230
1.0
  2
SOLID
 70
     1
 71
     0
 91
        1
 92
        0
 93
        4
 72
     1
 10
7.680996732131419
 20
-35.81257895372966
 11
4.234721488294301
 21
-35.81257895372963
 72
     1
 10
4.234721488294301
 20
-35.81257895372963
 11
-2.813715413594947
 21
-44.21257895372965
 72
     1
 10
-2.813715413594947
 20
-44.21257895372965
 11
0.6325598302423359
 21
-44.21257895372965
 72
     1
 10
0.6325598302423359
 20
-44.21257895372965
 11
7.680996732131419
 21
-35.81257895372966
 97
        0
 75
     0
 76
     1
 98
        1
 10
-6.626666754639842
 20
0.0
  0
HATCH
  5
F8
330
1F
100
AcDbEntity
  8
중심선
100
AcDbHatch
 10
0.0
 20
0.0
 30
0.0
210
0.0
220
0.0
230
1.0
  2
SOLID
 70
     1
 71
     0
 91
        1
 92
        0
 93
        6
 72
     3
 10
12.48088716314362
 20
-40.01257895378091
 11
3.960054785062283
 21
1.540882976769353E-10
 40
0.3939339440162628
 50
17.09539180608437
 51
320.0019657685079
 73
     0
 72
     1
 10
14.16388681884421
 20
-38.60047295836794
 11
16.46918869254525
 21
-36.66614624832001
 72
     3
 10
12.48088716309077
 20
-40.01257895372979
 11
6.600054785286829
 21
-1.278976924368180E-13
 40
0.636358354079598
 50
39.99873849337413
 51
368.4976242363725
 73
     1
 72
     1
 10
18.90621965499138
 20
-39.05257895365965
 11
11.16095446992669
 21
-39.05257895365963
 72
     1
 10
11.16095446992669
 20
-39.05257895365963
 11
11.16092942548076
 21
-40.97257895365955
 72
     1
 10
11.16092942548076
 20
-40.97257895365955
 11
15.6023091949528
 21
-40.97257895365952
 97
        0
 75
     0
 76
     1
 98
        1
 10
-6.626666754639842
 20
0.0
  0
DIMENSION
  5
F9
330
1F
100
AcDbEntity
  8
치수문자_일반주서
100
AcDbDimension
  2
_D
 10
12.508
 20
49.85052119487378
 30
0.0
 11
28.10376209249801
 21
49.85052119487378
 31
0.0
 70
   160
  1
<>
 71
     2
 42
38.09999999999999
  3
SLDDIMSTYLE0
100
AcDbAlignedDimension
 13
50.60799999999999
 23
1.587499999999994
 33
0.0
 14
12.508
 24
5.687116544453415
 34
0.0
100
AcDbRotatedDimension
1001
ACAD
1000
DSTYLE
1002
{
1070
   171
1070
     6
1070
   273
1070
     7
1002
}
  0
DIMENSION
  5
10D
102
{ACAD_REACTORS
102
}
330
1F
100
AcDbEntity
  8
치수문자_일반주서
100
AcDbDimension
  2
_D_1
 10
-38.29200000000001
 20
64.34635472064839
 30
0.0
 11
8.145983491953608
 21
64.34635472064839
 31
0.0
 70
   160
  1
<>
 71
     2
 42
88.9
  3
SLDDIMSTYLE1
100
AcDbAlignedDimension
 13
50.608
 23
0.0000000000000158
 33
0.0
 14
-38.29200000000001
 24
3.952499999999992
 34
0.0
 50
-0.0000000000000023
100
AcDbRotatedDimension
1001
ACAD
1000
DSTYLE
1002
{
1070
   171
1070
     6
1070
   273
1070
     7
1002
}
  0
INSERT
  5
138
330
1F
100
AcDbEntity
  8
외형선
100
AcDbBlockReference
  2
SW_DOWELSYMBOL_0
 10
0.0
 20
0.0
 30
0.0
  0
DIMENSION
  5
160
102
{ACAD_XDICTIONARY
360
161
102
}
330
1F
100
AcDbEntity
  8
치수문자_일반주서
100
AcDbDimension
  2
*D7
 10
60.61122148455068
 20
1.587499999999993
 30
0.0
 11
57.98622148455068
 21
20.44149999999999
 31
0.0
 70
    32
  1
{%%c<>[]}
 71
     5
 42
3.175
  3
SLDDIMSTYLE0
100
AcDbAlignedDimension
 13
50.54245486025749
 23
-1.587500000000006
 33
0.0
 14
50.60799999999999
 24
1.587499999999994
 34
0.0
 50
90.0
100
AcDbRotatedDimension
1001
ACAD
1000
DSTYLE
1002
{
1070
   283
1070
     1
1070
   170
1070
     1
1070
   171
1070
     6
1070
   273
1070
     7
1002
}
  0
DIMENSION
  5
172
102
{ACAD_REACTORS
102
}
102
{ACAD_XDICTIONARY
360
173
102
}
330
1F
100
AcDbEntity
  8
치수문자_일반주서
100
AcDbDimension
  2
*D8
 10
-55.43698122939549
 20
4.762500000000003
 30
0.0
 11
-58.06198122939549
 21
21.1895
 31
0.0
 70
    32
  1
{%%c<>[]}
 71
     5
 42
9.524999999999999
  3
SLDDIMSTYLE0
100
AcDbAlignedDimension
 13
-37.482
 23
-4.762499999999997
 33
0.0
 14
-37.482
 24
4.762500000000002
 34
0.0
 50
90.0
100
AcDbRotatedDimension
1001
ACAD
1000
DSTYLE
1002
{
1070
   283
1070
     1
1070
   170
1070
     1
1070
   171
1070
     6
1070
   273
1070
     7
1002
}
  0
DIMENSION
  5
18D
102
{ACAD_REACTORS
102
}
102
{ACAD_XDICTIONARY
360
18E
102
}
330
1F
100
AcDbEntity
  8
치수문자_일반주서
100
AcDbDimension
  2
*D9
 10
55.15885974161189
 20
-0.0000000000000061
 30
0.0
 11
24.84744136358433
 21
13.32918019636797
 31
0.0
 70
    34
  1
<>
 71
     5
 42
0.0872664625997166
  3
SLDDIMSTYLE0
100
AcDb2LineAngularDimension
 13
23.92043381365076
 23
3.789535237156004
 33
0.0
 14
20.56206676215527
 24
4.083354282120843
 34
0.0
 15
-41.29200000000002
 25
-0.0000000000000061
 35
0.0
 16
25.52135308718739
 26
1.213743737620092
 36
0.0
1001
ACAD
1000
DSTYLE
1002
{
1070
   171
1070
     6
1070
   273
1070
     7
1002
}
  0
ENDSEC
  0
SECTION
  2
OBJECTS
  0
DICTIONARY
  5
C
330
0
100
AcDbDictionary
281
     1
  3
ACAD_DETAILVIEWSTYLE
350
18A
  3
ACAD_GROUP
350
D
  3
ACAD_IMAGE_VARS
350
15C
  3
ACAD_LAYOUT
350
1A
  3
ACAD_MLINESTYLE
350
17
  3
ACAD_PLOTSETTINGS
350
19
  3
ACAD_PLOTSTYLENAME
350
E
  3
ACAD_SCALELIST
350
47
  3
ACAD_SECTIONVIEWSTYLE
350
18B
  3
AcDbVariableDictionary
350
185
  3
APPDATA
350
15A
  3
DWGPROPS
350
1A0
  0
DICTIONARY
  5
161
330
160
100
AcDbDictionary
280
     1
281
     1
  0
DICTIONARY
  5
173
330
172
100
AcDbDictionary
280
     1
281
     1
  0
DICTIONARY
  5
18E
330
18D
100
AcDbDictionary
280
     1
281
     1
  0
DICTIONARY
  5
18A
102
{ACAD_REACTORS
330
C
102
}
330
C
100
AcDbDictionary
281
     1
  0
DICTIONARY
  5
D
102
{ACAD_REACTORS
330
C
102
}
330
C
100
AcDbDictionary
281
     1
  0
RASTERVARIABLES
  5
15C
102
{ACAD_REACTORS
330
C
102
}
330
C
100
AcDbRasterVariables
 90
        0
 70
     1
 71
     1
 72
     1
  0
DICTIONARY
  5
1A
102
{ACAD_REACTORS
330
C
102
}
330
C
100
AcDbDictionary
281
     1
  3
Layout1
350
1E
  3
Layout2
350
26
  3
Model
350
22
  0
DICTIONARY
  5
17
102
{ACAD_REACTORS
330
C
102
}
330
C
100
AcDbDictionary
281
     1
  3
Standard
350
18
  0
DICTIONARY
  5
19
102
{ACAD_REACTORS
330
C
102
}
330
C
100
AcDbDictionary
281
     1
  0
ACDBDICTIONARYWDFLT
  5
E
102
{ACAD_REACTORS
330
C
102
}
330
C
100
AcDbDictionary
281
     1
  3
Normal
350
F
100
AcDbDictionaryWithDefault
340
F
  0
DICTIONARY
  5
47
102
{ACAD_REACTORS
330
C
102
}
330
C
100
AcDbDictionary
281
     1
  3
A0
350
48
  3
A1
350
49
  3
A2
350
4A
  3
A3
350
4B
  3
A4
350
4C
  3
A5
350
4D
  3
A6
350
4E
  3
A7
350
4F
  3
A8
350
50
  3
A9
350
51
  3
B0
350
52
  3
B1
350
53
  3
B2
350
54
  3
B3
350
55
  3
B4
350
56
  3
B5
350
57
  3
B6
350
58
  3
B7
350
59
  3
B8
350
5A
  3
B9
350
5B
  3
C0
350
5C
  3
C1
350
5D
  3
C2
350
5E
  3
C3
350
5F
  3
C4
350
60
  3
C5
350
61
  3
C6
350
62
  3
C7
350
63
  3
C8
350
64
  3
C9
350
65
  3
D0
350
66
  3
D1
350
67
  3
D2
350
68
  0
DICTIONARY
  5
18B
102
{ACAD_REACTORS
330
C
102
}
330
C
100
AcDbDictionary
281
     1
  0
DICTIONARY
  5
185
102
{ACAD_REACTORS
330
C
102
}
330
C
100
AcDbDictionary
281
     1
  0
DICTIONARY
  5
15A
102
{ACAD_REACTORS
330
C
102
}
330
C
100
AcDbDictionary
281
     1
  0
XRECORD
  5
1A0
102
{ACAD_REACTORS
330
C
102
}
330
C
100
AcDbXrecord
280
     1
  1
DWGPROPS COOKIE
  2

  3

  4

  6

  7

  8
12015048
  9

300
=
301
=
302
=
303
=
304
=
305
=
306
=
307
=
308
=
309
=
 40
0.0
 41
2458340.219205602
 42
2458341.359261898
  1

 90
        0
  0
LAYOUT
  5
1E
102
{ACAD_REACTORS
330
1A
102
}
330
1A
100
AcDbPlotSettings
  1

  2
none_device
  4

  6

 40
0.0
 41
0.0
 42
0.0
 43
0.0
 44
0.0
 45
0.0
 46
0.0
 47
0.0
 48
0.0
 49
0.0
140
0.0
141
0.0
142
1.0
143
1.0
 70
   688
 72
     1
 73
     0
 74
     5
  7

 75
    16
147
1.0
148
0.0
149
0.0
100
AcDbLayout
  1
Layout1
 70
     1
 71
     1
 10
0.0
 20
0.0
 11
420.0
 21
297.0
 12
0.0
 22
0.0
 32
0.0
 14
1.000000000000000E+20
 24
1.000000000000000E+20
 34
1.000000000000000E+20
 15
-1.000000000000000E+20
 25
-1.000000000000000E+20
 35
-1.000000000000000E+20
146
0.0
 13
0.0
 23
0.0
 33
0.0
 16
1.0
 26
0.0
 36
0.0
 17
0.0
 27
1.0
 37
0.0
 76
     0
330
1B
  0
LAYOUT
  5
26
102
{ACAD_REACTORS
330
1A
102
}
330
1A
100
AcDbPlotSettings
  1

  2
none_device
  4

  6

 40
0.0
 41
0.0
 42
0.0
 43
0.0
 44
0.0
 45
0.0
 46
0.0
 47
0.0
 48
0.0
 49
0.0
140
0.0
141
0.0
142
1.0
143
1.0
 70
   688
 72
     1
 73
     0
 74
     5
  7

 75
    16
147
1.0
148
0.0
149
0.0
100
AcDbLayout
  1
Layout2
 70
     1
 71
     2
 10
0.0
 20
0.0
 11
0.0
 21
0.0
 12
0.0
 22
0.0
 32
0.0
 14
0.0
 24
0.0
 34
0.0
 15
0.0
 25
0.0
 35
0.0
146
0.0
 13
0.0
 23
0.0
 33
0.0
 16
1.0
 26
0.0
 36
0.0
 17
0.0
 27
1.0
 37
0.0
 76
     0
330
23
  0
LAYOUT
  5
22
102
{ACAD_REACTORS
330
1A
102
}
330
1A
100
AcDbPlotSettings
  1

  2
none_device
  4
ANSI_A_(11.00_x_8.50_Inches)
  6

 40
6.35
 41
19.05
 42
6.35000508
 43
19.05000254
 44
279.4
 45
215.9
 46
141.4057360995827
 47
100.0349995745547
 48
0.0
 49
0.0
140
0.0
141
0.0
142
0.0915836148719576
143
1.0
 70
  1696
 72
     0
 73
     0
 74
     0
  7

 75
     0
147
0.0235690232323232
148
0.0
149
0.0
100
AcDbLayout
  1
Model
 70
     1
 71
     0
 10
0.0
 20
0.0
 11
420.0
 21
297.0
 12
0.0
 22
0.0
 32
0.0
 14
-59.81198122939549
 24
-49.98438634254138
 34
0.0
 15
61.16155481788402
 25
68.72135472064839
 35
0.0
146
0.0
 13
0.0
 23
0.0
 33
0.0
 16
1.0
 26
0.0
 36
0.0
 17
0.0
 27
1.0
 37
0.0
 76
     0
330
1F
331
29
  0
MLINESTYLE
  5
18
102
{ACAD_REACTORS
330
17
102
}
330
17
100
AcDbMlineStyle
  2
Standard
 70
     0
  3

 62
   256
 51
90.0
 52
90.0
 71
     2
 49
0.5
 62
   256
  6
BYLAYER
 49
-0.5
 62
   256
  6
BYLAYER
  0
ACDBPLACEHOLDER
  5
F
102
{ACAD_REACTORS
330
E
102
}
330
E
  0
SCALE
  5
48
102
{ACAD_REACTORS
330
47
102
}
330
47
100
AcDbScale
 70
     0
300
1:1
140
1.0
141
1.0
290
     1
  0
SCALE
  5
49
102
{ACAD_REACTORS
330
47
102
}
330
47
100
AcDbScale
 70
     0
300
1:2
140
1.0
141
2.0
290
     0
  0
SCALE
  5
4A
102
{ACAD_REACTORS
330
47
102
}
330
47
100
AcDbScale
 70
     0
300
1:4
140
1.0
141
4.0
290
     0
  0
SCALE
  5
4B
102
{ACAD_REACTORS
330
47
102
}
330
47
100
AcDbScale
 70
     0
300
1:5
140
1.0
141
5.0
290
     0
  0
SCALE
  5
4C
102
{ACAD_REACTORS
330
47
102
}
330
47
100
AcDbScale
 70
     0
300
1:8
140
1.0
141
8.0
290
     0
  0
SCALE
  5
4D
102
{ACAD_REACTORS
330
47
102
}
330
47
100
AcDbScale
 70
     0
300
1:10
140
1.0
141
10.0
290
     0
  0
SCALE
  5
4E
102
{ACAD_REACTORS
330
47
102
}
330
47
100
AcDbScale
 70
     0
300
1:16
140
1.0
141
16.0
290
     0
  0
SCALE
  5
4F
102
{ACAD_REACTORS
330
47
102
}
330
47
100
AcDbScale
 70
     0
300
1:20
140
1.0
141
20.0
290
     0
  0
SCALE
  5
50
102
{ACAD_REACTORS
330
47
102
}
330
47
100
AcDbScale
 70
     0
300
1:30
140
1.0
141
30.0
290
     0
  0
SCALE
  5
51
102
{ACAD_REACTORS
330
47
102
}
330
47
100
AcDbScale
 70
     0
300
1:40
140
1.0
141
40.0
290
     0
  0
SCALE
  5
52
102
{ACAD_REACTORS
330
47
102
}
330
47
100
AcDbScale
 70
     0
300
1:50
140
1.0
141
50.0
290
     0
  0
SCALE
  5
53
102
{ACAD_REACTORS
330
47
102
}
330
47
100
AcDbScale
 70
     0
300
1:100
140
1.0
141
100.0
290
     0
  0
SCALE
  5
54
102
{ACAD_REACTORS
330
47
102
}
330
47
100
AcDbScale
 70
     0
300
2:1
140
2.0
141
1.0
290
     0
  0
SCALE
  5
55
102
{ACAD_REACTORS
330
47
102
}
330
47
100
AcDbScale
 70
     0
300
4:1
140
4.0
141
1.0
290
     0
  0
SCALE
  5
56
102
{ACAD_REACTORS
330
47
102
}
330
47
100
AcDbScale
 70
     0
300
8:1
140
8.0
141
1.0
290
     0
  0
SCALE
  5
57
102
{ACAD_REACTORS
330
47
102
}
330
47
100
AcDbScale
 70
     0
300
10:1
140
10.0
141
1.0
290
     0
  0
SCALE
  5
58
102
{ACAD_REACTORS
330
47
102
}
330
47
100
AcDbScale
 70
     0
300
100:1
140
100.0
141
1.0
290
     0
  0
SCALE
  5
59
102
{ACAD_REACTORS
330
47
102
}
330
47
100
AcDbScale
 70
     0
300
1/128" = 1'-0"
140
0.0078125
141
12.0
290
     0
  0
SCALE
  5
5A
102
{ACAD_REACTORS
330
47
102
}
330
47
100
AcDbScale
 70
     0
300
1/64" = 1'-0"
140
0.015625
141
12.0
290
     0
  0
SCALE
  5
5B
102
{ACAD_REACTORS
330
47
102
}
330
47
100
AcDbScale
 70
     0
300
1/32" = 1'-0"
140
0.03125
141
12.0
290
     0
  0
SCALE
  5
5C
102
{ACAD_REACTORS
330
47
102
}
330
47
100
AcDbScale
 70
     0
300
1/16" = 1'-0"
140
0.0625
141
12.0
290
     0
  0
SCALE
  5
5D
102
{ACAD_REACTORS
330
47
102
}
330
47
100
AcDbScale
 70
     0
300
3/32" = 1'-0"
140
0.09375
141
12.0
290
     0
  0
SCALE
  5
5E
102
{ACAD_REACTORS
330
47
102
}
330
47
100
AcDbScale
 70
     0
300
1/8" = 1'-0"
140
0.125
141
12.0
290
     0
  0
SCALE
  5
5F
102
{ACAD_REACTORS
330
47
102
}
330
47
100
AcDbScale
 70
     0
300
3/16" = 1'-0"
140
0.1875
141
12.0
290
     0
  0
SCALE
  5
60
102
{ACAD_REACTORS
330
47
102
}
330
47
100
AcDbScale
 70
     0
300
1/4" = 1'-0"
140
0.25
141
12.0
290
     0
  0
SCALE
  5
61
102
{ACAD_REACTORS
330
47
102
}
330
47
100
AcDbScale
 70
     0
300
3/8" = 1'-0"
140
0.375
141
12.0
290
     0
  0
SCALE
  5
62
102
{ACAD_REACTORS
330
47
102
}
330
47
100
AcDbScale
 70
     0
300
1/2" = 1'-0"
140
0.5
141
12.0
290
     0
  0
SCALE
  5
63
102
{ACAD_REACTORS
330
47
102
}
330
47
100
AcDbScale
 70
     0
300
3/4" = 1'-0"
140
0.75
141
12.0
290
     0
  0
SCALE
  5
64
102
{ACAD_REACTORS
330
47
102
}
330
47
100
AcDbScale
 70
     0
300
1" = 1'-0"
140
1.0
141
12.0
290
     0
  0
SCALE
  5
65
102
{ACAD_REACTORS
330
47
102
}
330
47
100
AcDbScale
 70
     0
300
1-1/2" = 1'-0"
140
1.5
141
12.0
290
     0
  0
SCALE
  5
66
102
{ACAD_REACTORS
330
47
102
}
330
47
100
AcDbScale
 70
     0
300
3" = 1'-0"
140
3.0
141
12.0
290
     0
  0
SCALE
  5
67
102
{ACAD_REACTORS
330
47
102
}
330
47
100
AcDbScale
 70
     0
300
6" = 1'-0"
140
6.0
141
12.0
290
     0
  0
SCALE
  5
68
102
{ACAD_REACTORS
330
47
102
}
330
47
100
AcDbScale
 70
     0
300
1'-0" = 1'-0"
140
12.0
141
12.0
290
     0
  0
ENDSEC
  0
EOF
