  0
SECTION
  2
HEADER
  9
$ACADVER
  1
AC1015
  9
$ACADMAINTVER
 70
     6
  9
$DWGCODEPAGE
  3
ANSI_949
  9
$INSBASE
 10
0.0
 20
0.0
 30
0.0
  9
$EXTMIN
 10
-65.6096726155776
 20
-49.98438634254138
 30
0.0
  9
$EXTMAX
 10
44.67177070309094
 20
62.5647714714554
 30
0.0
  9
$LIMMIN
 10
0.0
 20
0.0
  9
$LIMMAX
 10
420.0
 20
297.0
  9
$ORTHOMODE
 70
     1
  9
$REGENMODE
 70
     1
  9
$FILLMODE
 70
     1
  9
$QTEXTMODE
 70
     0
  9
$MIRRTEXT
 70
     1
  9
$LTSCALE
 40
1.0
  9
$ATTMODE
 70
     1
  9
$TEXTSIZE
 40
3.5
  9
$TRACEWID
 40
1.0
  9
$TEXTSTYLE
  7
Standard
  9
$CLAYER
  8
0
  9
$CELTYPE
  6
ByLayer
  9
$CECOLOR
 62
   256
  9
$CELTSCALE
 40
1.0
  9
$DISPSILH
 70
     0
  9
$DIMSCALE
 40
1.0
  9
$DIMASZ
 40
3.302
  9
$DIMEXO
 40
1.0
  9
$DIMDLI
 40
3.75
  9
$DIMRND
 40
0.0
  9
$DIMDLE
 40
0.0
  9
$DIMEXE
 40
1.0
  9
$DIMTP
 40
0.0
  9
$DIMTM
 40
0.0
  9
$DIMTXT
 40
3.5
  9
$DIMCEN
 40
2.5
  9
$DIMTSZ
 40
0.0
  9
$DIMTOL
 70
     0
  9
$DIMLIM
 70
     0
  9
$DIMTIH
 70
     1
  9
$DIMTOH
 70
     1
  9
$DIMSE1
 70
     0
  9
$DIMSE2
 70
     0
  9
$DIMTAD
 70
     1
  9
$DIMZIN
 70
     0
  9
$DIMBLK
  1

  9
$DIMASO
 70
     1
  9
$DIMSHO
 70
     1
  9
$DIMPOST
  1

  9
$DIMAPOST
  1

  9
$DIMALT
 70
     0
  9
$DIMALTD
 70
     3
  9
$DIMALTF
 40
0.0393700787401575
  9
$DIMLFAC
 40
1.0
  9
$DIMTOFL
 70
     1
  9
$DIMTVP
 40
0.0
  9
$DIMTIX
 70
     0
  9
$DIMSOXD
 70
     0
  9
$DIMSAH
 70
     0
  9
$DIMBLK1
  1

  9
$DIMBLK2
  1

  9
$DIMSTYLE
  2
ISO-25
  9
$DIMCLRD
 70
     0
  9
$DIMCLRE
 70
     0
  9
$DIMCLRT
 70
     0
  9
$DIMTFAC
 40
1.0
  9
$DIMGAP
 40
1.524
  9
$DIMJUST
 70
     0
  9
$DIMSD1
 70
     0
  9
$DIMSD2
 70
     0
  9
$DIMTOLJ
 70
     0
  9
$DIMTZIN
 70
     0
  9
$DIMALTZ
 70
     0
  9
$DIMALTTZ
 70
     0
  9
$DIMUPT
 70
     0
  9
$DIMDEC
 70
     2
  9
$DIMTDEC
 70
     2
  9
$DIMALTU
 70
     2
  9
$DIMALTTD
 70
     3
  9
$DIMTXSTY
  7
Standard
  9
$DIMAUNIT
 70
     0
  9
$DIMADEC
 70
     2
  9
$DIMALTRND
 40
0.0
  9
$DIMAZIN
 70
     0
  9
$DIMDSEP
 70
    44
  9
$DIMATFIT
 70
     3
  9
$DIMFRAC
 70
     0
  9
$DIMLDRBLK
  1

  9
$DIMLUNIT
 70
     2
  9
$DIMLWD
 70
    -2
  9
$DIMLWE
 70
    -2
  9
$DIMTMOVE
 70
     0
  9
$LUNITS
 70
     2
  9
$LUPREC
 70
     2
  9
$SKETCHINC
 40
1.0
  9
$FILLETRAD
 40
10.0
  9
$AUNITS
 70
     0
  9
$AUPREC
 70
     2
  9
$MENU
  1
.
  9
$ELEVATION
 40
0.0
  9
$PELEVATION
 40
0.0
  9
$THICKNESS
 40
0.0
  9
$LIMCHECK
 70
     0
  9
$CHAMFERA
 40
0.0
  9
$CHAMFERB
 40
0.0
  9
$CHAMFERC
 40
0.0
  9
$CHAMFERD
 40
0.0
  9
$SKPOLY
 70
     0
  9
$TDCREATE
 40
2458340.593883056
  9
$TDUCREATE
 40
2458340.218883056
  9
$TDUPDATE
 40
2458341.616446829
  9
$TDUUPDATE
 40
2458341.241446829
  9
$TDINDWG
 40
0.0027947338
  9
$TDUSRTIMER
 40
2458341.238652199
  9
$USRTIMER
 70
     1
  9
$ANGBASE
 50
0.0
  9
$ANGDIR
 70
     0
  9
$PDMODE
 70
     0
  9
$PDSIZE
 40
-1.0
  9
$PLINEWID
 40
0.0
  9
$SPLFRAME
 70
     0
  9
$SPLINETYPE
 70
     6
  9
$SPLINESEGS
 70
     8
  9
$HANDSEED
  5
17B
  9
$SURFTAB1
 70
     6
  9
$SURFTAB2
 70
     6
  9
$SURFTYPE
 70
     6
  9
$SURFU
 70
     6
  9
$SURFV
 70
     6
  9
$UCSBASE
  2

  9
$UCSNAME
  2

  9
$UCSORG
 10
0.0
 20
0.0
 30
0.0
  9
$UCSXDIR
 10
1.0
 20
0.0
 30
0.0
  9
$UCSYDIR
 10
0.0
 20
1.0
 30
0.0
  9
$UCSORTHOREF
  2

  9
$UCSORTHOVIEW
 70
     0
  9
$UCSORGTOP
 10
0.0
 20
0.0
 30
0.0
  9
$UCSORGBOTTOM
 10
0.0
 20
0.0
 30
0.0
  9
$UCSORGLEFT
 10
0.0
 20
0.0
 30
0.0
  9
$UCSORGRIGHT
 10
0.0
 20
0.0
 30
0.0
  9
$UCSORGFRONT
 10
0.0
 20
0.0
 30
0.0
  9
$UCSORGBACK
 10
0.0
 20
0.0
 30
0.0
  9
$PUCSBASE
  2

  9
$PUCSNAME
  2

  9
$PUCSORG
 10
0.0
 20
0.0
 30
0.0
  9
$PUCSXDIR
 10
1.0
 20
0.0
 30
0.0
  9
$PUCSYDIR
 10
0.0
 20
1.0
 30
0.0
  9
$PUCSORTHOREF
  2

  9
$PUCSORTHOVIEW
 70
     0
  9
$PUCSORGTOP
 10
0.0
 20
0.0
 30
0.0
  9
$PUCSORGBOTTOM
 10
0.0
 20
0.0
 30
0.0
  9
$PUCSORGLEFT
 10
0.0
 20
0.0
 30
0.0
  9
$PUCSORGRIGHT
 10
0.0
 20
0.0
 30
0.0
  9
$PUCSORGFRONT
 10
0.0
 20
0.0
 30
0.0
  9
$PUCSORGBACK
 10
0.0
 20
0.0
 30
0.0
  9
$USERI1
 70
     0
  9
$USERI2
 70
     0
  9
$USERI3
 70
     0
  9
$USERI4
 70
     0
  9
$USERI5
 70
     0
  9
$USERR1
 40
0.0
  9
$USERR2
 40
0.0
  9
$USERR3
 40
0.0
  9
$USERR4
 40
0.0
  9
$USERR5
 40
0.0
  9
$WORLDVIEW
 70
     1
  9
$SHADEDGE
 70
     3
  9
$SHADEDIF
 70
    70
  9
$TILEMODE
 70
     1
  9
$MAXACTVP
 70
    64
  9
$PINSBASE
 10
0.0
 20
0.0
 30
0.0
  9
$PLIMCHECK
 70
     0
  9
$PEXTMIN
 10
1.000000000000000E+20
 20
1.000000000000000E+20
 30
1.000000000000000E+20
  9
$PEXTMAX
 10
-1.000000000000000E+20
 20
-1.000000000000000E+20
 30
-1.000000000000000E+20
  9
$PLIMMIN
 10
0.0
 20
0.0
  9
$PLIMMAX
 10
0.0
 20
0.0
  9
$UNITMODE
 70
     0
  9
$VISRETAIN
 70
     1
  9
$PLINEGEN
 70
     0
  9
$PSLTSCALE
 70
     1
  9
$TREEDEPTH
 70
  3020
  9
$CMLSTYLE
  2
Standard
  9
$CMLJUST
 70
     0
  9
$CMLSCALE
 40
20.0
  9
$PROXYGRAPHICS
 70
     1
  9
$MEASUREMENT
 70
     1
  9
$CELWEIGHT
370
    -1
  9
$ENDCAPS
280
     0
  9
$JOINSTYLE
280
     0
  9
$LWDISPLAY
290
     1
  9
$INSUNITS
 70
     4
  9
$HYPERLINKBASE
  1

  9
$STYLESHEET
  1

  9
$XEDIT
290
     1
  9
$CEPSNTYPE
380
     0
  9
$PSTYLEMODE
290
     1
  9
$FINGERPRINTGUID
  2
{FB3633AB-EB15-4B16-9D64-E998F73EE588}
  9
$VERSIONGUID
  2
{FAEB1C32-E019-11D5-929B-00C0DF256EC4}
  9
$EXTNAMES
290
     1
  9
$PSVPSCALE
 40
0.0
  9
$OLESTARTUP
290
     0
  0
ENDSEC
  0
SECTION
  2
CLASSES
  0
CLASS
  1
ACDBDICTIONARYWDFLT
  2
AcDbDictionaryWithDefault
  3
ObjectDBX Classes
 90
        0
280
     0
281
     0
  0
CLASS
  1
VISUALSTYLE
  2
AcDbVisualStyle
  3
ObjectDBX Classes
 90
     4095
280
     0
281
     0
  0
CLASS
  1
MATERIAL
  2
AcDbMaterial
  3
ObjectDBX Classes
 90
     1153
280
     0
281
     0
  0
CLASS
  1
SCALE
  2
AcDbScale
  3
ObjectDBX Classes
 90
     1153
280
     0
281
     0
  0
CLASS
  1
SUN
  2
AcDbSun
  3
SCENEOE
 90
     1153
280
     0
281
     0
  0
CLASS
  1
ACDBPLACEHOLDER
  2
AcDbPlaceHolder
  3
ObjectDBX Classes
 90
        0
280
     0
281
     0
  0
CLASS
  1
LAYOUT
  2
AcDbLayout
  3
ObjectDBX Classes
 90
        0
280
     0
281
     0
  0
CLASS
  1
TABLESTYLE
  2
AcDbTableStyle
  3
ObjectDBX Classes
 90
     4095
280
     0
281
     0
  0
CLASS
  1
MLEADERSTYLE
  2
AcDbMLeaderStyle
  3
ACDB_MLEADERSTYLE_CLASS
 90
     4095
280
     0
281
     0
  0
CLASS
  1
RASTERVARIABLES
  2
AcDbRasterVariables
  3
ISM
 90
        0
280
     0
281
     0
  0
CLASS
  1
DIMASSOC
  2
AcDbDimAssoc
  3
"AcDbDimAssoc|Product Desc:     AcDim ARX App For Dimension|Company:          Autodesk, Inc.|WEB Address:      www.autodesk.com"
 90
        0
280
     0
281
     0
  0
ENDSEC
  0
SECTION
  2
TABLES
  0
TABLE
  2
VPORT
  5
8
330
0
100
AcDbSymbolTable
 70
     1
  0
VPORT
  5
29
330
8
100
AcDbSymbolTableRecord
100
AcDbViewportTableRecord
  2
*Active
 70
     0
 10
0.0
 20
0.0
 11
1.0
 21
1.0
 12
-0.5160552288064792
 22
13.62350486816222
 13
0.0
 23
0.0
 14
10.0
 24
10.0
 15
10.0
 25
10.0
 16
0.0
 26
0.0
 36
1.0
 17
0.0
 27
0.0
 37
0.0
 40
148.6266686397789
 41
1.444267515923567
 42
50.0
 43
0.0
 44
0.0
 50
0.0
 51
0.0
 71
    16
 72
  2000
 73
     1
 74
     3
 75
     0
 76
     0
 77
     0
 78
     0
281
     0
 65
     1
110
0.0
120
0.0
130
0.0
111
1.0
121
0.0
131
0.0
112
0.0
122
1.0
132
0.0
 79
     0
146
0.0
  0
ENDTAB
  0
TABLE
  2
LTYPE
  5
5
330
0
100
AcDbSymbolTable
 70
     6
  0
LTYPE
  5
14
330
5
100
AcDbSymbolTableRecord
100
AcDbLinetypeTableRecord
  2
ByBlock
 70
     0
  3

 72
    65
 73
     0
 40
0.0
  0
LTYPE
  5
15
330
5
100
AcDbSymbolTableRecord
100
AcDbLinetypeTableRecord
  2
ByLayer
 70
     0
  3

 72
    65
 73
     0
 40
0.0
  0
LTYPE
  5
16
330
5
100
AcDbSymbolTableRecord
100
AcDbLinetypeTableRecord
  2
Continuous
 70
     0
  3
Solid line
 72
    65
 73
     0
 40
0.0
  0
LTYPE
  5
6A
330
5
100
AcDbSymbolTableRecord
100
AcDbLinetypeTableRecord
  2
HIDDEN
 70
     0
  3
Hidden __ __ __ __ __ __ __ __ __ __ __ __ __ __
 72
    65
 73
     2
 40
1.905
 49
1.27
 74
     0
 49
-0.635
 74
     0
  0
LTYPE
  5
6B
330
5
100
AcDbSymbolTableRecord
100
AcDbLinetypeTableRecord
  2
PHANTOM
 70
     0
  3
Phantom ______  __  __  ______  __  __  ______
 72
    65
 73
     6
 40
12.7
 49
6.35
 74
     0
 49
-1.27
 74
     0
 49
1.27
 74
     0
 49
-1.27
 74
     0
 49
1.27
 74
     0
 49
-1.27
 74
     0
  0
LTYPE
  5
6C
330
5
100
AcDbSymbolTableRecord
100
AcDbLinetypeTableRecord
  2
CENTER
 70
     0
  3
Center ____ _ ____ _ ____ _ ____ _ ____ _ ____
 72
    65
 73
     4
 40
10.16
 49
6.35
 74
     0
 49
-1.27
 74
     0
 49
1.27
 74
     0
 49
-1.27
 74
     0
  0
LTYPE
  5
6D
330
5
100
AcDbSymbolTableRecord
100
AcDbLinetypeTableRecord
  2
CENTERX2
 70
     0
  3
Center (2x) ________  __  ________  __  _____
 72
    65
 73
     4
 40
20.32
 49
12.7
 74
     0
 49
-2.54
 74
     0
 49
2.54
 74
     0
 49
-2.54
 74
     0
  0
LTYPE
  5
6E
330
5
100
AcDbSymbolTableRecord
100
AcDbLinetypeTableRecord
  2
DOT2
 70
     0
  3
Dot (.5x) ........................................
 72
    65
 73
     2
 40
0.635
 49
0.0
 74
     0
 49
-0.635
 74
     0
  0
ENDTAB
  0
TABLE
  2
LAYER
  5
2
330
0
100
AcDbSymbolTable
 70
    17
  0
LAYER
  5
10
330
2
100
AcDbSymbolTableRecord
100
AcDbLayerTableRecord
  2
0
 70
     0
 62
     7
  6
Continuous
370
    -3
390
F
  0
LAYER
  5
6F
330
2
100
AcDbSymbolTableRecord
100
AcDbLayerTableRecord
  2
FORMAT
 70
     0
 62
     2
  6
Continuous
370
    -3
390
F
  0
LAYER
  5
70
330
2
100
AcDbSymbolTableRecord
100
AcDbLayerTableRecord
  2
외형선
 70
     0
 62
   100
  6
Continuous
370
    30
390
F
  0
LAYER
  5
71
330
2
100
AcDbSymbolTableRecord
100
AcDbLayerTableRecord
  2
숨은선
 70
     0
 62
     2
  6
HIDDEN
370
    15
390
F
  0
LAYER
  5
72
330
2
100
AcDbSymbolTableRecord
100
AcDbLayerTableRecord
  2
중심선
 70
     0
 62
     1
  6
CENTERX2
370
    -3
390
F
  0
LAYER
  5
73
330
2
100
AcDbSymbolTableRecord
100
AcDbLayerTableRecord
  2
파단선
 70
     0
 62
     4
  6
Continuous
370
    -3
390
F
  0
LAYER
  5
74
330
2
100
AcDbSymbolTableRecord
100
AcDbLayerTableRecord
  2
해칭선
 70
     0
 62
     4
  6
Continuous
370
    -3
390
F
  0
LAYER
  5
75
330
2
100
AcDbSymbolTableRecord
100
AcDbLayerTableRecord
  2
가는실선
 70
     0
 62
     4
  6
Continuous
370
    -3
390
F
  0
LAYER
  5
76
330
2
100
AcDbSymbolTableRecord
100
AcDbLayerTableRecord
  2
치수_보조선
 70
     0
 62
     4
  6
Continuous
370
    -3
390
F
  0
LAYER
  5
77
330
2
100
AcDbSymbolTableRecord
100
AcDbLayerTableRecord
  2
치수문자_일반주서
 70
     0
 62
     7
  6
Continuous
370
    15
390
F
  0
LAYER
  5
78
330
2
100
AcDbSymbolTableRecord
100
AcDbLayerTableRecord
  2
개별주서
 70
     0
 62
   100
  6
Continuous
370
    30
390
F
  0
LAYER
  5
79
330
2
100
AcDbSymbolTableRecord
100
AcDbLayerTableRecord
  2
중간선
 70
     0
 62
     2
  6
Continuous
370
    15
390
F
  0
LAYER
  5
7A
330
2
100
AcDbSymbolTableRecord
100
AcDbLayerTableRecord
  2
윤곽선
 70
     0
 62
     3
  6
Continuous
370
    40
390
F
  0
LAYER
  5
7B
330
2
100
AcDbSymbolTableRecord
100
AcDbLayerTableRecord
  2
중심마크
 70
     0
 62
   100
  6
Continuous
370
    30
390
F
  0
LAYER
  5
7C
330
2
100
AcDbSymbolTableRecord
100
AcDbLayerTableRecord
  2
가상선
 70
     0
 62
     4
  6
PHANTOM
370
    -3
390
F
  0
LAYER
  5
7D
330
2
100
AcDbSymbolTableRecord
100
AcDbLayerTableRecord
  2
특수지정선
 70
     0
 62
     5
  6
CENTERX2
370
    60
390
F
  0
LAYER
  5
13D
330
2
100
AcDbSymbolTableRecord
100
AcDbLayerTableRecord
  2
Defpoints
 70
     0
 62
     7
  6
Continuous
290
     0
370
    -3
390
F
  0
ENDTAB
  0
TABLE
  2
STYLE
  5
3
330
0
100
AcDbSymbolTable
 70
     2
  0
STYLE
  5
11
330
3
100
AcDbSymbolTableRecord
100
AcDbTextStyleTableRecord
  2
Standard
 70
     0
 40
0.0
 41
1.0
 50
0.0
 71
     0
 42
3.5
  3
txt
  4

  0
STYLE
  5
93
330
3
100
AcDbSymbolTableRecord
100
AcDbTextStyleTableRecord
  2
SLDTEXTSTYLE0
 70
     0
 40
0.0
 41
0.75
 50
0.0
 71
     0
 42
3.5
  3
TXT
  4

  0
ENDTAB
  0
TABLE
  2
VIEW
  5
6
330
0
100
AcDbSymbolTable
 70
     0
  0
ENDTAB
  0
TABLE
  2
UCS
  5
7
330
0
100
AcDbSymbolTable
 70
     0
  0
ENDTAB
  0
TABLE
  2
APPID
  5
9
330
0
100
AcDbSymbolTable
 70
     2
  0
APPID
  5
12
330
9
100
AcDbSymbolTableRecord
100
AcDbRegAppTableRecord
  2
ACAD
 70
     0
  0
APPID
  5
165
330
9
100
AcDbSymbolTableRecord
100
AcDbRegAppTableRecord
  2
PE_DIMMEASUREMENT
 70
     0
  0
ENDTAB
  0
TABLE
  2
DIMSTYLE
  5
A
330
0
100
AcDbSymbolTable
 70
     4
100
AcDbDimStyleTable
  0
DIMSTYLE
105
27
330
A
100
AcDbSymbolTableRecord
100
AcDbDimStyleTableRecord
  2
ISO-25
 70
     0
 41
2.5
 42
0.625
 43
3.75
 44
1.25
 73
     0
 74
     0
 77
     1
 78
     8
140
2.5
141
2.5
143
0.03937007874016
147
0.625
171
     3
172
     1
178
     0
271
     2
272
     2
274
     3
278
    44
283
     0
284
     8
340
11
  0
DIMSTYLE
105
DA
102
{ACAD_REACTORS
330
D9
330
152
330
140
330
166
102
}
330
A
100
AcDbSymbolTableRecord
100
AcDbDimStyleTableRecord
  2
SLDDIMSTYLE0
 70
     0
 41
3.302
 44
0.0
 45
0.000000001
 73
     0
 74
     0
 77
     1
 78
    12
 79
     3
140
3.5
143
0.0393700787401575
147
0.875
148
0.000000001
170
     1
173
     1
178
     0
271
     2
272
     2
276
     2
284
    12
340
93
  0
DIMSTYLE
105
EE
102
{ACAD_REACTORS
330
ED
102
}
330
A
100
AcDbSymbolTableRecord
100
AcDbDimStyleTableRecord
  2
SLDDIMSTYLE1
 70
     0
 41
3.302
 44
0.0
 45
0.000000001
 73
     0
 74
     0
 77
     1
 78
     4
 79
     1
140
3.5
143
0.0393700787401575
147
0.875
148
0.000000001
170
     1
173
     1
178
     0
271
     2
272
     2
276
     2
284
    12
340
93
  0
DIMSTYLE
105
102
330
A
100
AcDbSymbolTableRecord
100
AcDbDimStyleTableRecord
  2
SLDDIMSTYLE2
 70
     0
 41
3.302
 44
0.0
 45
0.000000001
 73
     0
 74
     0
 77
     1
 78
     8
 79
     2
140
3.5
143
0.0393700787401575
147
0.875
148
0.000000001
170
     1
172
     1
173
     1
178
     0
271
     2
272
     2
276
     2
284
    12
289
     0
340
93
341
103
343
103
344
103
  0
ENDTAB
  0
TABLE
  2
BLOCK_RECORD
  5
1
330
0
100
AcDbSymbolTable
 70
    10
  0
BLOCK_RECORD
  5
1F
330
1
100
AcDbSymbolTableRecord
100
AcDbBlockTableRecord
  2
*Model_Space
340
22
  0
BLOCK_RECORD
  5
1B
330
1
100
AcDbSymbolTableRecord
100
AcDbBlockTableRecord
  2
*Paper_Space
340
1E
  0
BLOCK_RECORD
  5
23
330
1
100
AcDbSymbolTableRecord
100
AcDbBlockTableRecord
  2
*Paper_Space0
340
26
  0
BLOCK_RECORD
  5
7E
330
1
100
AcDbSymbolTableRecord
100
AcDbBlockTableRecord
  2
블럭10
340
0
102
{BLKREFS
331
D2
102
}
  0
BLOCK_RECORD
  5
DB
330
1
100
AcDbSymbolTableRecord
100
AcDbBlockTableRecord
  2
_D
340
0
  0
BLOCK_RECORD
  5
EF
330
1
100
AcDbSymbolTableRecord
100
AcDbBlockTableRecord
  2
_D_1
340
0
  0
BLOCK_RECORD
  5
103
330
1
100
AcDbSymbolTableRecord
100
AcDbBlockTableRecord
  2
_NONE
340
0
  0
BLOCK_RECORD
  5
106
330
1
100
AcDbSymbolTableRecord
100
AcDbBlockTableRecord
  2
_D_2
340
0
  0
BLOCK_RECORD
  5
112
330
1
100
AcDbSymbolTableRecord
100
AcDbBlockTableRecord
  2
SW_DOWELSYMBOL_0
340
0
102
{BLKREFS
331
118
102
}
  0
BLOCK_RECORD
  5
143
330
1
100
AcDbSymbolTableRecord
100
AcDbBlockTableRecord
  2
*D7
340
0
  0
BLOCK_RECORD
  5
155
330
1
100
AcDbSymbolTableRecord
100
AcDbBlockTableRecord
  2
*D8
340
0
  0
BLOCK_RECORD
  5
169
330
1
100
AcDbSymbolTableRecord
100
AcDbBlockTableRecord
  2
*D9
340
0
  0
ENDTAB
  0
ENDSEC
  0
SECTION
  2
BLOCKS
  0
BLOCK
  5
20
330
1F
100
AcDbEntity
  8
0
100
AcDbBlockBegin
  2
*Model_Space
 70
     0
 10
0.0
 20
0.0
 30
0.0
  3
*Model_Space
  1
*Model_Space
  0
ENDBLK
  5
21
330
1F
100
AcDbEntity
  8
0
100
AcDbBlockEnd
  0
BLOCK
  5
1C
330
1B
100
AcDbEntity
 67
     1
  8
0
100
AcDbBlockBegin
  2
*Paper_Space
 70
     0
 10
0.0
 20
0.0
 30
0.0
  3
*Paper_Space
  1
*Paper_Space
  0
ENDBLK
  5
1D
330
1B
100
AcDbEntity
 67
     1
  8
0
100
AcDbBlockEnd
  0
BLOCK
  5
24
330
23
100
AcDbEntity
  8
0
100
AcDbBlockBegin
  2
*Paper_Space0
 70
     0
 10
0.0
 20
0.0
 30
0.0
  3
*Paper_Space0
  1
*Paper_Space0
  0
ENDBLK
  5
25
330
23
100
AcDbEntity
  8
0
100
AcDbBlockEnd
  0
BLOCK
  5
7F
330
7E
100
AcDbEntity
  8
0
100
AcDbBlockBegin
  2
블럭10
 70
     2
 10
0.0
 20
0.0
 30
0.0
  3
블럭10
  1
블럭10
  0
ELLIPSE
  5
81
330
7E
100
AcDbEntity
  8
중심선
100
AcDbEllipse
 10
20.54032771741204
 20
12.0471743016438
 30
0.0
 11
6.600054785286829
 21
-1.261213355974178E-13
 31
0.0
210
0.0
220
0.0
230
1.0
 40
0.636358354079598
 41
0.9219305317359503
 42
6.513795318482858
  0
ELLIPSE
  5
82
330
7E
100
AcDbEntity
  8
중심선
100
AcDbEllipse
 10
20.54032771746488
 20
12.04717430159265
 30
0.0
 11
3.960054785062283
 21
1.540847449632565E-10
 31
0.0
210
0.0
220
0.0
230
1.0
 40
0.3939339440162632
 41
1.131841032648279
 42
5.62031148352944
  0
LINE
  5
83
330
7E
100
AcDbEntity
  8
중심선
100
AcDbLine
 10
2.268634060543552
 20
16.24717430164393
 30
0.0
 11
5.714909304380834
 21
16.24717430164393
 31
0.0
  0
LINE
  5
84
330
7E
100
AcDbEntity
  8
중심선
100
AcDbLine
 10
5.245725140726316
 20
7.84717430164391
 30
0.0
 11
8.692000384563599
 21
7.84717430164391
 31
0.0
  0
LINE
  5
85
330
7E
100
AcDbEntity
  8
중심선
100
AcDbLine
 10
15.74043728645272
 20
16.24717430164393
 30
0.0
 11
8.692000384563599
 21
7.84717430164391
 31
0.0
  0
LINE
  5
86
330
7E
100
AcDbEntity
  8
중심선
100
AcDbLine
 10
0.1404042013395286
 20
13.71084872107135
 30
0.0
 11
3.58671253028996
 21
13.71088815037384
 31
0.0
  0
LINE
  5
87
330
7E
100
AcDbEntity
  8
중심선
100
AcDbLine
 10
2.750260043222114
 20
10.84717430164391
 30
0.0
 11
6.196535287059397
 21
10.84717430164391
 31
0.0
  0
LINE
  5
88
330
7E
100
AcDbEntity
  8
중심선
100
AcDbLine
 10
12.29416204261559
 20
16.24717430164393
 30
0.0
 11
5.245725140726316
 21
7.84717430164391
 31
0.0
  0
LINE
  5
89
330
7E
100
AcDbEntity
  8
중심선
100
AcDbLine
 10
10.72767329541681
 20
16.24717430164393
 30
0.0
 11
6.196535287059397
 21
10.84717430164391
 31
0.0
  0
LINE
  5
8A
330
7E
100
AcDbEntity
  8
중심선
100
AcDbLine
 10
7.28139805157953
 20
16.24717430164393
 30
0.0
 11
2.750260043222114
 21
10.84717430164391
 31
0.0
  0
LINE
  5
8B
330
7E
100
AcDbEntity
  8
중심선
100
AcDbLine
 10
5.714909304380834
 20
16.24717430164393
 30
0.0
 11
3.58671253028996
 21
13.71088815037384
 31
0.0
  0
LINE
  5
8C
330
7E
100
AcDbEntity
  8
중심선
100
AcDbLine
 10
2.268634060543552
 20
16.24717430164393
 30
0.0
 11
0.1404042013395286
 21
13.71084872107135
 31
0.0
  0
LINE
  5
8D
330
7E
100
AcDbEntity
  8
중심선
100
AcDbLine
 10
7.28139805157953
 20
16.24717430164393
 30
0.0
 11
10.72767329541681
 21
16.24717430164393
 31
0.0
  0
LINE
  5
8E
330
7E
100
AcDbEntity
  8
중심선
100
AcDbLine
 10
12.29416204261559
 20
16.24717430164393
 30
0.0
 11
15.74043728645272
 21
16.24717430164393
 31
0.0
  0
LINE
  5
8F
330
7E
100
AcDbEntity
  8
중심선
100
AcDbLine
 10
19.22036997980202
 20
11.08717430171403
 30
0.0
 11
23.66174974927406
 21
11.08717430171406
 31
0.0
  0
LINE
  5
90
330
7E
100
AcDbEntity
  8
중심선
100
AcDbLine
 10
19.22039502424796
 20
13.00717430171391
 30
0.0
 11
19.22036997980202
 21
11.08717430171403
 31
0.0
  0
LINE
  5
91
330
7E
100
AcDbEntity
  8
중심선
100
AcDbLine
 10
19.22039502424796
 20
13.00717430171391
 30
0.0
 11
26.96566020931264
 21
13.00717430171391
 31
0.0
  0
LINE
  5
92
330
7E
100
AcDbEntity
  8
중심선
100
AcDbLine
 10
22.22332737316547
 20
13.45928029700563
 30
0.0
 11
24.52862924686651
 21
15.39360700705356
 31
0.0
  0
ATTDEF
  5
94
330
7E
100
AcDbEntity
  8
FORMAT
 62
     2
100
AcDbText
 10
-9.18129528874128
 20
2.075366912832191
 30
0.0
 40
4.233333333333333
  1
E5078508 [ 3 FLUTE ]
 41
0.75
  7
SLDTEXTSTYLE0
 11
-9.18129528874128
 21
-0.0412997538344756
 31
0.0
100
AcDbAttributeDefinition
  3

  2
AUTOATTR0
 70
     0
 74
     1
  0
ENDBLK
  5
80
330
7E
100
AcDbEntity
  8
0
100
AcDbBlockEnd
  0
BLOCK
  5
DC
330
DB
100
AcDbEntity
  8
0
100
AcDbBlockBegin
  2
_D
 70
     0
 10
0.0
 20
0.0
 30
0.0
  3
_D
  1
_D
  0
LINE
  5
DE
330
DB
100
AcDbEntity
  8
치수문자_일반주서
 62
     0
370
    -2
100
AcDbLine
 10
31.558
 20
1.649999999999993
 30
0.0
 11
31.558
 21
45.46893796924502
 31
0.0
  0
LINE
  5
DF
330
DB
100
AcDbEntity
  8
치수문자_일반주서
 62
     0
370
    -2
100
AcDbLine
 10
12.508
 20
3.183834778921519
 30
0.0
 11
12.508
 21
45.46893796924502
 31
0.0
  0
LINE
  5
E0
330
DB
100
AcDbEntity
  8
치수문자_일반주서
 62
     0
370
    -2
100
AcDbLine
 10
12.508
 20
45.46893796924502
 30
0.0
 11
-15.95025
 21
45.46893796924502
 31
0.0
  0
LINE
  5
E1
330
DB
100
AcDbEntity
  8
치수문자_일반주서
 62
     0
370
    -2
100
AcDbLine
 10
28.256
 20
45.46893796924502
 30
0.0
 11
15.81
 21
45.46893796924502
 31
0.0
  0
SOLID
  5
E2
330
DB
100
AcDbEntity
  8
치수문자_일반주서
 62
     0
100
AcDbTrace
 10
28.256
 20
44.91860463591168
 30
0.0
 11
28.256
 21
46.01927130257835
 31
0.0
 12
31.558
 22
45.46893796924502
 32
0.0
 13
31.558
 23
45.46893796924502
 33
0.0
  0
SOLID
  5
E3
330
DB
100
AcDbEntity
  8
치수문자_일반주서
 62
     0
100
AcDbTrace
 10
15.81
 20
46.01927130257835
 30
0.0
 11
15.81
 21
44.91860463591168
 31
0.0
 12
12.508
 22
45.46893796924502
 32
0.0
 13
12.508
 23
45.46893796924502
 33
0.0
  0
MTEXT
  5
E4
330
DB
100
AcDbEntity
  8
치수문자_일반주서
 62
     0
100
AcDbMText
 10
-3.4815
 20
49.84393796924502
 30
0.0
 40
3.5
 41
0.0
 71
     2
 72
     1
  1
\A1;19.05 [3/4]
  7
SLDTEXTSTYLE0
 73
     1
 44
1.0
  0
POINT
  5
E5
330
DB
100
AcDbEntity
  8
Defpoints
 62
     0
100
AcDbPoint
 10
31.558
 20
1.587499999999993
 30
0.0
  0
POINT
  5
E6
330
DB
100
AcDbEntity
  8
Defpoints
 62
     0
100
AcDbPoint
 10
12.508
 20
3.121334778921519
 30
0.0
  0
POINT
  5
164
330
DB
100
AcDbEntity
  8
Defpoints
 62
     0
100
AcDbPoint
 10
12.508
 20
45.46893796924502
 30
0.0
  0
ENDBLK
  5
DD
330
DB
100
AcDbEntity
  8
0
100
AcDbBlockEnd
  0
BLOCK
  5
F0
330
EF
100
AcDbEntity
  8
0
100
AcDbBlockBegin
  2
_D_1
 70
     0
 10
0.0
 20
0.0
 30
0.0
  3
_D_1
  1
_D_1
  0
LINE
  5
F2
330
EF
100
AcDbEntity
  8
치수문자_일반주서
 62
     0
370
    -2
100
AcDbLine
 10
31.558
 20
0.0625000000000124
 30
0.0
 11
31.558
 21
58.18977147145539
 31
0.0
  0
LINE
  5
F3
330
EF
100
AcDbEntity
  8
치수문자_일반주서
 62
     0
370
    -2
100
AcDbLine
 10
-44.64200000000001
 20
2.427500000000007
 30
0.0
 11
-44.64200000000001
 21
58.18977147145539
 31
0.0
  0
LINE
  5
F4
330
EF
100
AcDbEntity
  8
치수문자_일반주서
 62
     0
370
    -2
100
AcDbLine
 10
28.256
 20
58.18977147145539
 30
0.0
 11
-41.34000000000001
 21
58.18977147145539
 31
0.0
  0
SOLID
  5
F5
330
EF
100
AcDbEntity
  8
치수문자_일반주서
 62
     0
100
AcDbTrace
 10
28.256
 20
57.63943813812206
 30
0.0
 11
28.256
 21
58.74010480478873
 31
0.0
 12
31.558
 22
58.18977147145539
 32
0.0
 13
31.558
 23
58.18977147145539
 33
0.0
  0
SOLID
  5
F6
330
EF
100
AcDbEntity
  8
치수문자_일반주서
 62
     0
100
AcDbTrace
 10
-41.34000000000001
 20
58.74010480478873
 30
0.0
 11
-41.34000000000001
 21
57.63943813812206
 31
0.0
 12
-44.64200000000001
 22
58.18977147145539
 32
0.0
 13
-44.64200000000001
 23
58.18977147145539
 33
0.0
  0
MTEXT
  5
F7
330
EF
100
AcDbEntity
  8
치수문자_일반주서
 62
     0
100
AcDbMText
 10
-4.838014149754049
 20
62.56477147145539
 30
0.0
 40
3.5
 41
0.0
 71
     2
 72
     1
  1
\A1;76.20 [3]
  7
SLDTEXTSTYLE0
 73
     1
 44
1.0
  0
POINT
  5
F8
330
EF
100
AcDbEntity
  8
Defpoints
 62
     0
100
AcDbPoint
 10
31.558
 20
0.0000000000000123
 30
0.0
  0
POINT
  5
F9
330
EF
100
AcDbEntity
  8
Defpoints
 62
     0
100
AcDbPoint
 10
-44.64200000000001
 20
2.365000000000007
 30
0.0
  0
POINT
  5
FA
330
EF
100
AcDbEntity
  8
Defpoints
 62
     0
100
AcDbPoint
 10
-44.64200000000001
 20
58.18977147145539
 30
0.0
  0
ENDBLK
  5
F1
330
EF
100
AcDbEntity
  8
0
100
AcDbBlockEnd
  0
BLOCK
  5
104
330
103
100
AcDbEntity
  8
0
100
AcDbBlockBegin
  2
_NONE
 70
     0
 10
0.0
 20
0.0
 30
0.0
  3
_NONE
  1
_NONE
  0
ENDBLK
  5
105
330
103
100
AcDbEntity
  8
0
100
AcDbBlockEnd
  0
BLOCK
  5
107
330
106
100
AcDbEntity
  8
0
100
AcDbBlockBegin
  2
_D_2
 70
     0
 10
0.0
 20
0.0
 30
0.0
  3
_D_2
  1
_D_2
  0
LINE
  5
109
330
106
100
AcDbEntity
  8
치수문자_일반주서
100
AcDbLine
 10
-68.43488171604272
 20
-8.589366431068704
 30
0.0
 11
-68.43488171604272
 21
-9.300303916633204
 31
0.0
  0
LINE
  5
10A
330
106
100
AcDbEntity
  8
치수문자_일반주서
100
AcDbLine
 10
-68.43488171604272
 20
-9.300303916633204
 30
0.0
 11
-62.87863172498342
 21
-9.300303916633165
 31
0.0
  0
LINE
  5
10B
330
106
100
AcDbEntity
  8
치수문자_일반주서
100
AcDbLine
 10
-62.87863172498342
 20
-9.300303916633165
 30
0.0
 11
-62.87863172498342
 21
-8.589366431068665
 31
0.0
  0
LINE
  5
10C
330
106
100
AcDbEntity
  8
치수문자_일반주서
100
AcDbLine
 10
-68.43488171604281
 20
2.239366431068554
 30
0.0
 11
-68.43488171604281
 21
2.950303916633054
 31
0.0
  0
LINE
  5
10D
330
106
100
AcDbEntity
  8
치수문자_일반주서
100
AcDbLine
 10
-68.43488171604281
 20
2.950303916633054
 30
0.0
 11
-62.87863172498351
 21
2.950303916633093
 31
0.0
  0
LINE
  5
10E
330
106
100
AcDbEntity
  8
치수문자_일반주서
100
AcDbLine
 10
-62.87863172498351
 20
2.950303916633093
 30
0.0
 11
-62.87863172498351
 21
2.239366431068593
 31
0.0
  0
MTEXT
  5
10F
330
106
100
AcDbEntity
  8
치수문자_일반주서
100
AcDbMText
 10
-67.39036863956234
 20
-7.700694530457326
 30
0.0
 40
3.5
 41
0.0
 71
     1
 72
     1
  1
0.00
  7
SLDTEXTSTYLE0
 11
-7.044195017643634E-15
 21
1.0
 31
0.0
 73
     1
 44
1.0
  0
MTEXT
  5
110
330
106
100
AcDbEntity
  8
치수문자_일반주서
100
AcDbMText
 10
-62.15373708920186
 20
-7.1072744123638
 30
0.0
 40
3.5
 41
0.0
 71
     1
 72
     1
  1
%%c
  7
SLDTEXTSTYLE0
 11
-7.044195017643634E-15
 21
1.0
 31
0.0
 73
     1
 44
1.0
  0
MTEXT
  5
111
330
106
100
AcDbEntity
  8
치수문자_일반주서
100
AcDbMText
 10
-62.1537370892019
 20
-1.828837013989719
 30
0.0
 40
3.5
 41
0.0
 71
     1
 72
     1
  1
0
  7
SLDTEXTSTYLE0
 11
-7.044195017643634E-15
 21
1.0
 31
0.0
 73
     1
 44
1.0
  0
ENDBLK
  5
108
330
106
100
AcDbEntity
  8
0
100
AcDbBlockEnd
  0
BLOCK
  5
113
330
112
100
AcDbEntity
  8
0
100
AcDbBlockBegin
  2
SW_DOWELSYMBOL_0
 70
     0
 10
0.0
 20
0.0
 30
0.0
  3
SW_DOWELSYMBOL_0
  1
SW_DOWELSYMBOL_0
  0
CIRCLE
  5
115
330
112
100
AcDbEntity
  8
외형선
 62
     0
100
AcDbCircle
 10
0.0
 20
0.0
 30
0.0
 40
2.999999999999997
  0
HATCH
  5
116
330
112
100
AcDbEntity
  8
0
  6
Continuous
 62
     0
370
    30
100
AcDbHatch
 10
0.0
 20
0.0
 30
0.0
210
0.0
220
0.0
230
1.0
  2
SOLID
 70
     1
 71
     0
 91
        1
 92
        0
 93
        3
 72
     2
 10
0.0
 20
0.0
 40
2.999999999999997
 50
0.0
 51
90.0
 73
     1
 72
     1
 10
0.0
 20
2.999999999999997
 11
0.0
 21
0.0
 72
     1
 10
0.0
 20
0.0
 11
2.999999999999999
 21
0.0
 97
        0
 75
     0
 76
     1
 98
        1
 10
0.0
 20
0.0
  0
HATCH
  5
117
330
112
100
AcDbEntity
  8
0
  6
Continuous
 62
     0
370
    30
100
AcDbHatch
 10
0.0
 20
0.0
 30
0.0
210
0.0
220
0.0
230
1.0
  2
SOLID
 70
     1
 71
     0
 91
        1
 92
        0
 93
        3
 72
     2
 10
0.0
 20
0.0
 40
2.999999999999997
 50
180.0
 51
270.0000000000008
 73
     1
 72
     1
 10
0.0
 20
-2.999999999999997
 11
0.0
 21
0.0
 72
     1
 10
0.0
 20
0.0
 11
-2.999999999999999
 21
0.0
 97
        0
 75
     0
 76
     1
 98
        1
 10
0.0
 20
0.0
  0
ENDBLK
  5
114
330
112
100
AcDbEntity
  8
0
100
AcDbBlockEnd
  0
BLOCK
  5
144
330
143
100
AcDbEntity
  8
0
100
AcDbBlockBegin
  2
*D7
 70
     1
 10
0.0
 20
0.0
 30
0.0
  3
*D7
  1
*D7
  0
LINE
  5
146
330
143
100
AcDbEntity
  8
치수문자_일반주서
 62
     0
370
    -2
100
AcDbLine
 10
31.76778774639101
 20
-1.587500000000007
 30
0.0
 11
44.12143736975761
 21
-1.587500000000007
 31
0.0
  0
LINE
  5
147
330
143
100
AcDbEntity
  8
치수문자_일반주서
 62
     0
370
    -2
100
AcDbLine
 10
31.76778774639101
 20
1.587499999999993
 30
0.0
 11
44.12143736975761
 21
1.587499999999992
 31
0.0
  0
LINE
  5
148
330
143
100
AcDbEntity
  8
치수문자_일반주서
 62
     0
370
    -2
100
AcDbLine
 10
44.12143736975761
 20
4.889499999999992
 30
0.0
 11
44.12143736975761
 21
32.69149999999999
 31
0.0
  0
LINE
  5
149
330
143
100
AcDbEntity
  8
치수문자_일반주서
 62
     0
370
    -2
100
AcDbLine
 10
44.12143736975761
 20
-4.889500000000007
 30
0.0
 11
44.12143736975761
 21
-8.191500000000007
 31
0.0
  0
SOLID
  5
14A
330
143
100
AcDbEntity
  8
치수문자_일반주서
 62
     0
100
AcDbTrace
 10
44.67177070309094
 20
-4.889500000000007
 30
0.0
 11
43.57110403642427
 21
-4.889500000000007
 31
0.0
 12
44.12143736975761
 22
-1.587500000000007
 32
0.0
 13
44.12143736975761
 23
-1.587500000000007
 33
0.0
  0
SOLID
  5
14B
330
143
100
AcDbEntity
  8
치수문자_일반주서
 62
     0
100
AcDbTrace
 10
43.57110403642427
 20
4.889499999999992
 30
0.0
 11
44.67177070309094
 21
4.889499999999992
 31
0.0
 12
44.12143736975761
 22
1.587499999999992
 32
0.0
 13
44.12143736975761
 23
1.587499999999992
 33
0.0
  0
MTEXT
  5
14C
330
143
100
AcDbEntity
  8
치수문자_일반주서
 62
     0
100
AcDbMText
 10
41.49643736975761
 20
20.44149999999999
 30
0.0
 40
3.5
 41
0.0
 71
     5
 72
     1
  1
\A1;{%%c3.18 [1/8]}
  7
SLDTEXTSTYLE0
 11
0.0
 21
1.0
 31
0.0
 73
     1
 44
1.0
  0
POINT
  5
14D
330
143
100
AcDbEntity
  8
Defpoints
 62
     0
100
AcDbPoint
 10
31.70528774639101
 20
-1.587500000000007
 30
0.0
  0
POINT
  5
14E
330
143
100
AcDbEntity
  8
Defpoints
 62
     0
100
AcDbPoint
 10
31.70528774639101
 20
1.587499999999993
 30
0.0
  0
POINT
  5
14F
330
143
100
AcDbEntity
  8
Defpoints
 62
     0
100
AcDbPoint
 10
44.12143736975761
 20
1.587499999999992
 30
0.0
  0
ENDBLK
  5
145
330
143
100
AcDbEntity
  8
0
100
AcDbBlockEnd
  0
BLOCK
  5
156
330
155
100
AcDbEntity
  8
0
100
AcDbBlockBegin
  2
*D8
 70
     1
 10
0.0
 20
0.0
 30
0.0
  3
*D8
  1
*D8
  0
LINE
  5
158
330
155
100
AcDbEntity
  8
치수문자_일반주서
 62
     0
370
    -2
100
AcDbLine
 10
-43.89450000000001
 20
-3.174999999999998
 30
0.0
 11
-61.23467261557759
 21
-3.174999999999997
 31
0.0
  0
LINE
  5
159
330
155
100
AcDbEntity
  8
치수문자_일반주서
 62
     0
370
    -2
100
AcDbLine
 10
-43.89450000000001
 20
3.175
 30
0.0
 11
-61.23467261557759
 21
3.175000000000001
 31
0.0
  0
LINE
  5
15A
330
155
100
AcDbEntity
  8
치수문자_일반주서
 62
     0
370
    -2
100
AcDbLine
 10
-61.23467261557759
 20
6.477
 30
0.0
 11
-61.23467261557759
 21
35.154
 31
0.0
  0
LINE
  5
15B
330
155
100
AcDbEntity
  8
치수문자_일반주서
 62
     0
370
    -2
100
AcDbLine
 10
-61.23467261557759
 20
-6.476999999999997
 30
0.0
 11
-61.23467261557759
 21
-9.778999999999996
 31
0.0
  0
SOLID
  5
15C
330
155
100
AcDbEntity
  8
치수문자_일반주서
 62
     0
100
AcDbTrace
 10
-60.68433928224426
 20
-6.476999999999997
 30
0.0
 11
-61.78500594891093
 21
-6.476999999999997
 31
0.0
 12
-61.23467261557759
 22
-3.174999999999997
 32
0.0
 13
-61.23467261557759
 23
-3.174999999999997
 33
0.0
  0
SOLID
  5
15D
330
155
100
AcDbEntity
  8
치수문자_일반주서
 62
     0
100
AcDbTrace
 10
-61.78500594891093
 20
6.477
 30
0.0
 11
-60.68433928224426
 21
6.477
 31
0.0
 12
-61.23467261557759
 22
3.175000000000001
 32
0.0
 13
-61.23467261557759
 23
3.175000000000001
 33
0.0
  0
MTEXT
  5
15E
330
155
100
AcDbEntity
  8
치수문자_일반주서
 62
     0
100
AcDbMText
 10
-63.85967261557759
 20
22.4665
 30
0.0
 40
3.5
 41
0.0
 71
     5
 72
     1
  1
\A1;{%%c6.35 [1/4]}
  7
SLDTEXTSTYLE0
 11
0.0
 21
1.0
 31
0.0
 73
     1
 44
1.0
  0
POINT
  5
15F
330
155
100
AcDbEntity
  8
Defpoints
 62
     0
100
AcDbPoint
 10
-43.83200000000001
 20
-3.174999999999998
 30
0.0
  0
POINT
  5
160
330
155
100
AcDbEntity
  8
Defpoints
 62
     0
100
AcDbPoint
 10
-43.83200000000001
 20
3.175
 30
0.0
  0
POINT
  5
161
330
155
100
AcDbEntity
  8
Defpoints
 62
     0
100
AcDbPoint
 10
-61.23467261557759
 20
3.175000000000001
 30
0.0
  0
ENDBLK
  5
157
330
155
100
AcDbEntity
  8
0
100
AcDbBlockEnd
  0
BLOCK
  5
16A
330
169
100
AcDbEntity
  8
0
100
AcDbBlockBegin
  2
*D9
 70
     1
 10
0.0
 20
0.0
 30
0.0
  3
*D9
  1
*D9
  0
LINE
  5
16C
330
169
100
AcDbEntity
  8
치수문자_일반주서
 62
     0
370
    -2
100
AcDbLine
 10
16.5073481323843
 20
9.359295436879277
 30
0.0
 11
17.99491294028858
 21
14.39413912286246
 31
0.0
  0
LINE
  5
16D
330
169
100
AcDbEntity
  8
치수문자_일반주서
 62
     0
370
    -2
100
AcDbLine
 10
18.74205642086276
 20
2.57592551431503
 30
0.0
 11
15.27934580390688
 21
2.878873438369527
 31
0.0
  0
ARC
  5
16E
330
169
100
AcDbEntity
  8
치수문자_일반주서
 62
     0
370
    -2
100
AcDbCircle
 10
48.18501977750113
 20
-0.0000000000000069
 30
0.0
 40
33.03136830242774
100
AcDbArc
 50
163.5400128687378
 51
169.2700064343689
  0
ARC
  5
16F
330
169
100
AcDbEntity
  8
치수문자_일반주서
 62
     0
370
    -2
100
AcDbCircle
 10
48.18501977750113
 20
-0.0000000000000069
 30
0.0
 40
33.03136830242774
100
AcDbArc
 50
185.7299935656311
 51
191.4599871312623
  0
SOLID
  5
170
330
169
100
AcDbEntity
  8
치수문자_일반주서
 62
     0
100
AcDbTrace
 10
15.18603300966986
 20
6.225119618824494
 30
0.0
 11
16.27634597599239
 21
6.074505055849744
 31
0.0
 12
15.27934580390688
 22
2.878873438369527
 32
0.0
 13
15.27934580390688
 23
2.878873438369527
 33
0.0
  0
SOLID
  5
171
330
169
100
AcDbEntity
  8
치수문자_일반주서
 62
     0
100
AcDbTrace
 10
15.86834011333215
 20
-3.270365564905805
 30
0.0
 11
14.76904919291628
 21
-3.325379957589413
 31
0.0
 12
15.15365147507339
 22
-0.0000000000000069
 32
0.0
 13
15.15365147507339
 23
-0.0000000000000069
 33
0.0
  0
MTEXT
  5
172
330
169
100
AcDbEntity
  8
치수문자_일반주서
 62
     0
100
AcDbMText
 10
14.73370869334485
 20
12.62049968382301
 30
0.0
 40
3.5
 41
0.0
 71
     5
 72
     1
  1
\A1;5%%d
  7
SLDTEXTSTYLE0
 11
0.2833456776960522
 21
0.9590178449491776
 31
0.0
 73
     1
 44
1.0
  0
POINT
  5
173
330
169
100
AcDbEntity
  8
Defpoints
 62
     0
100
AcDbPoint
 10
15.16762539271853
 20
0.9607080567762263
 30
0.0
  0
POINT
  5
174
330
169
100
AcDbEntity
  8
Defpoints
 62
     0
100
AcDbPoint
 10
-47.64200000000002
 20
-0.0000000000000069
 30
0.0
  0
POINT
  5
175
330
169
100
AcDbEntity
  8
Defpoints
 62
     0
100
AcDbPoint
 10
21.19609541988319
 20
2.361224922050237
 30
0.0
  0
POINT
  5
176
330
169
100
AcDbEntity
  8
Defpoints
 62
     0
100
AcDbPoint
 10
18.80431858949349
 20
2.570478280393302
 30
0.0
  0
POINT
  5
177
330
169
100
AcDbEntity
  8
Defpoints
 62
     0
100
AcDbPoint
 10
36.10885974161189
 20
-0.0000000000000069
 30
0.0
  0
ENDBLK
  5
16B
330
169
100
AcDbEntity
  8
0
100
AcDbBlockEnd
  0
ENDSEC
  0
SECTION
  2
ENTITIES
  0
LINE
  5
95
330
1F
100
AcDbEntity
  8
0
  6
Continuous
 62
     4
370
    15
100
AcDbLine
 10
12.34460275613979
 20
-3.172092531265945
 30
0.0
 11
12.508
 21
-3.121334778921502
 31
0.0
  0
LINE
  5
96
102
{ACAD_REACTORS
102
}
330
1F
100
AcDbEntity
  8
0
  6
Continuous
 62
     4
370
    15
100
AcDbLine
 10
-43.83200000000001
 20
3.175
 30
0.0
 11
-44.64200000000001
 21
2.365000000000006
 31
0.0
  0
LINE
  5
97
102
{ACAD_REACTORS
102
}
330
1F
100
AcDbEntity
  8
0
  6
Continuous
 62
     4
370
    15
100
AcDbLine
 10
-44.64200000000001
 20
-2.365000000000004
 30
0.0
 11
-43.83200000000001
 21
-3.174999999999998
 31
0.0
  0
LINE
  5
98
330
1F
100
AcDbEntity
  8
0
  6
Continuous
 62
     4
370
    15
100
AcDbLine
 10
12.0
 20
3.175000000000008
 30
0.0
 11
-43.83200000000001
 21
3.175000000000001
 31
0.0
  0
LINE
  5
99
330
1F
100
AcDbEntity
  8
0
  6
Continuous
 62
     4
370
    15
100
AcDbLine
 10
-43.83200000000001
 20
-3.174999999999997
 30
0.0
 11
11.05571719192587
 21
-3.17499999999999
 31
0.0
  0
LINE
  5
9A
330
1F
100
AcDbEntity
  8
0
  6
Continuous
 62
     1
370
    15
100
AcDbLine
 10
29.30348305860191
 20
-1.651920412852126
 30
0.0
 11
30.10885974161191
 21
-1.581459083220639
 31
0.0
  0
LINE
  5
9B
330
1F
100
AcDbEntity
  8
0
  6
Continuous
 62
     1
370
    15
100
AcDbLine
 10
16.66229756668316
 20
-2.757880836923395
 30
0.0
 11
19.20144130121018
 21
-2.535734545089402
 31
0.0
  0
LINE
  5
9C
330
1F
100
AcDbEntity
  8
0
  6
Continuous
 62
     1
370
    15
100
AcDbLine
 10
13.13928085589662
 20
3.066104860529622
 30
0.0
 11
12.508
 21
3.121334778921519
 31
0.0
  0
LINE
  5
9D
330
1F
100
AcDbEntity
  8
0
  6
Continuous
 62
     1
370
    15
100
AcDbLine
 10
25.16080755950006
 20
2.014357555690149
 30
0.0
 11
23.05346999873652
 21
2.198725702479333
 31
0.0
  0
LINE
  5
9E
330
1F
100
AcDbEntity
  8
0
  6
Continuous
 62
     1
370
    15
100
AcDbLine
 10
25.16184514653271
 20
-2.014266778587357
 30
0.0
 11
27.13346994626519
 21
-1.841771959884196
 31
0.0
  0
LINE
  5
9F
330
1F
100
AcDbEntity
  8
0
  6
Continuous
 62
     1
370
    15
100
AcDbLine
 10
12.508
 20
-3.121334778921502
 30
0.0
 11
15.17359268889158
 21
-2.888125637065904
 31
0.0
  0
LINE
  5
A0
102
{ACAD_REACTORS
102
}
330
1F
100
AcDbEntity
  8
0
  6
Continuous
 62
     1
370
    15
100
AcDbLine
 10
21.19609541988319
 20
2.361224922050237
 30
0.0
 11
18.80431858949349
 21
2.570478280393302
 31
0.0
  0
LINE
  5
A1
330
1F
100
AcDbEntity
  8
0
  6
Continuous
 62
     1
370
    15
100
AcDbLine
 10
20.93589136682161
 20
-2.383989826896608
 30
0.0
 11
23.18199324322921
 21
-2.187481375586636
 31
0.0
  0
LINE
  5
A2
330
1F
100
AcDbEntity
  8
0
  6
Continuous
 62
     1
370
    15
100
AcDbLine
 10
17.19363487491734
 20
2.71139484594454
 30
0.0
 11
14.51326287066805
 21
2.945897010348614
 31
0.0
  0
LINE
  5
A3
330
1F
100
AcDbEntity
  8
0
  6
Continuous
 62
     1
370
    15
100
AcDbLine
 10
29.11798616845983
 20
1.668149287858883
 30
0.0
 11
27.24607570149457
 21
1.831920232853862
 31
0.0
  0
LINE
  5
A4
330
1F
100
AcDbEntity
  8
0
  6
Continuous
 62
     4
370
    15
100
AcDbLine
 10
12.508
 20
3.121334778921519
 30
0.0
 11
12.0
 21
3.279140000000008
 31
0.0
  0
ARC
  5
A5
330
1F
100
AcDbEntity
  8
0
  6
Continuous
 62
     1
370
    15
100
AcDbCircle
 10
29.9705
 20
0.0000000000000054
 30
0.0
 40
1.587499999999999
100
AcDbArc
 50
275.0000000000007
 51
293.3409628545134
  0
ARC
  5
A6
330
1F
100
AcDbEntity
  8
0
  6
Continuous
 62
     1
370
    15
100
AcDbCircle
 10
29.9705
 20
0.0000000000000054
 30
0.0
 40
1.587499999999999
100
AcDbArc
 50
27.85617637447633
 51
44.05942239550641
  0
SPLINE
  5
A7
330
1F
100
AcDbEntity
  8
0
  6
Continuous
 62
     1
370
    15
100
AcDbSpline
210
0.0
220
0.0
230
1.0
 70
     8
 71
     3
 72
    24
 73
    20
 74
     0
 42
0.000000001
 43
0.00000001
 40
0.0
 40
0.0
 40
0.0
 40
0.0
 40
0.0173720029359793
 40
0.0799107404950931
 40
0.1402386669388372
 40
0.2023262218076541
 40
0.2624584976200851
 40
0.3243343067880997
 40
0.3844581308816248
 40
0.4463174865440352
 40
0.5065671206826331
 40
0.5685497523435207
 40
0.6290368998700557
 40
0.6912590617938464
 40
0.7520761724964392
 40
0.8146339937219235
 40
0.875847786614232
 40
0.938810536379114
 40
1.0
 40
1.0
 40
1.0
 40
1.0
 10
28.20032145486764
 20
-1.469414002747926
 30
0.0
 10
28.15613391426891
 20
-1.496696818008596
 30
0.0
 10
27.95287243066715
 20
-1.622197025342526
 30
0.0
 10
27.60145589103247
 20
-1.758711869557639
 30
0.0
 10
27.14172724592941
 20
-1.8598040413691
 30
0.0
 10
26.693158657684
 20
-1.847219854015691
 30
0.0
 10
26.24553912515487
 20
-1.728319881073988
 30
0.0
 10
25.80720427606972
 20
-1.509361511085862
 30
0.0
 10
25.36926090844016
 20
-1.198280513585029
 30
0.0
 10
24.93938443287323
 20
-0.816421516909595
 30
0.0
 10
24.50943842270649
 20
-0.376881609996103
 30
0.0
 10
24.08667772394638
 20
0.0906712177505263
 30
0.0
 10
23.66340494879815
 20
0.570239682207302
 30
0.0
 10
23.2466279724645
 20
1.030166337261156
 30
0.0
 10
22.82902115213697
 20
1.454488729967924
 30
0.0
 10
22.41727110274347
 20
1.816075619160125
 30
0.0
 10
22.00457294496253
 20
2.099718618422982
 30
0.0
 10
21.59807498438599
 20
2.295898437561541
 30
0.0
 10
21.32878342169005
 20
2.33939276086865
 30
0.0
 10
21.1960608078145
 20
2.36082930429495
 30
0.0
  0
SPLINE
  5
A8
330
1F
100
AcDbEntity
  8
0
  6
Continuous
 62
     1
370
    15
100
AcDbSpline
210
0.0
220
0.0
230
1.0
 70
     8
 71
     3
 72
    16
 73
    12
 74
     0
 42
0.000000001
 43
0.00000001
 40
0.0
 40
0.0
 40
0.0
 40
0.0
 40
0.0697802502943155
 40
0.1834517488084439
 40
0.2951504135145103
 40
0.4100210107524585
 40
0.5229041569056029
 40
0.6389919858030967
 40
0.7530917540906983
 40
0.8704306542022991
 40
1.0
 40
1.0
 40
1.0
 40
1.0
 10
15.88727974837865
 20
-2.622968893492708
 30
0.0
 10
15.80617658664352
 20
-2.67318121075572
 30
0.0
 10
15.59295698953046
 20
-2.805189012028602
 30
0.0
 10
15.25302754716358
 20
-2.895226444025076
 30
0.0
 10
14.86370964105426
 20
-2.89872302314227
 30
0.0
 10
14.47798094215497
 20
-2.78100452399494
 30
0.0
 10
14.09017611917974
 20
-2.548991634015712
 30
0.0
 10
13.70582769780109
 20
-2.212446989482403
 30
0.0
 10
13.31927976287966
 20
-1.778131625867414
 30
0.0
 10
12.92038153925195
 20
-1.25014783076164
 30
0.0
 10
12.6499261263802
 20
-0.8397285348935036
 30
0.0
 10
12.508
 20
-0.6243539552696156
 30
0.0
  0
SPLINE
  5
A9
330
1F
100
AcDbEntity
  8
0
  6
Continuous
 62
     4
370
    15
100
AcDbSpline
210
0.0
220
0.0
230
1.0
 70
     8
 71
     3
 72
     8
 73
     4
 74
     0
 42
0.000000001
 43
0.00000001
 40
0.0
 40
0.0
 40
0.0
 40
0.0
 40
1.0
 40
1.0
 40
1.0
 40
1.0
 10
12.508
 20
-0.6243539552696185
 30
0.0
 10
12.33375635656903
 20
-0.3343225657054399
 30
0.0
 10
12.1654011567251
 20
-0.0269040713816329
 30
0.0
 10
12.0
 20
0.2887642409546637
 30
0.0
  0
SPLINE
  5
AA
330
1F
100
AcDbEntity
  8
0
  6
Continuous
 62
     4
370
    15
100
AcDbSpline
210
0.0
220
0.0
230
1.0
 70
     8
 71
     3
 72
    14
 73
    10
 74
     0
 42
0.000000001
 43
0.00000001
 40
0.0
 40
0.0
 40
0.0
 40
0.0
 40
0.25
 40
0.25
 40
0.5
 40
0.5
 40
0.75
 40
0.75
 40
1.0
 40
1.0
 40
1.0
 40
1.0
 10
12.0
 20
0.1923613175393018
 30
0.0
 10
11.8839783885959
 20
0.3724433224271887
 30
0.0
 10
11.76878172530139
 20
0.5504752823961787
 30
0.0
 10
11.53751466668306
 20
0.9008695318215039
 30
0.0
 10
11.42173664634362
 20
1.072697057251834
 30
0.0
 10
11.1926824616888
 20
1.401101864023551
 30
0.0
 10
11.07874329261336
 20
1.558768764578959
 30
0.0
 10
10.84959468985731
 20
1.859588138189916
 30
0.0
 10
10.73384242130612
 20
2.003347219644597
 30
0.0
 10
10.618
 20
2.136870168664279
 30
0.0
  0
SPLINE
  5
AB
330
1F
100
AcDbEntity
  8
0
  6
Continuous
 62
     4
370
    15
100
AcDbSpline
210
0.0
220
0.0
230
1.0
 70
     8
 71
     3
 72
    14
 73
    10
 74
     0
 42
0.000000001
 43
0.00000001
 40
0.0
 40
0.0
 40
0.0
 40
0.0
 40
0.2500000000000001
 40
0.2500000000000001
 40
0.5000000000000001
 40
0.5000000000000001
 40
0.7500000000000002
 40
0.7500000000000002
 40
1.0
 40
1.0
 40
1.0
 40
1.0
 10
10.618
 20
3.123482150909443
 30
0.0
 10
10.73421808161226
 20
3.090232243874405
 30
0.0
 10
10.84954996399089
 20
3.041309801713012
 30
0.0
 10
11.08104991298664
 20
2.912753200366834
 30
0.0
 10
11.19677126531153
 20
2.833166359431714
 30
0.0
 10
11.42566396698544
 20
2.648189988843512
 30
0.0
 10
11.53953664107966
 20
2.542435172119387
 30
0.0
 10
11.76866703480846
 20
2.305086153588672
 30
0.0
 10
11.88442318731954
 20
2.172790140431127
 30
0.0
 10
12.0
 20
2.029978380962911
 30
0.0
  0
SPLINE
  5
AC
330
1F
100
AcDbEntity
  8
0
  6
Continuous
 62
     4
370
    15
100
AcDbSpline
210
0.0
220
0.0
230
1.0
 70
     8
 71
     3
 72
     8
 73
     4
 74
     0
 42
0.000000001
 43
0.00000001
 40
0.0
 40
0.0
 40
0.0
 40
0.0
 40
1.0
 40
1.0
 40
1.0
 40
1.0
 10
12.0
 20
2.026307090974517
 30
0.0
 10
12.16880938348231
 20
1.811111397396777
 30
0.0
 10
12.33703108577794
 20
1.587078522076208
 30
0.0
 10
12.50799999999995
 20
1.356123097496122
 30
0.0
  0
SPLINE
  5
AD
330
1F
100
AcDbEntity
  8
0
  6
Continuous
 62
     1
370
    15
100
AcDbSpline
210
0.0
220
0.0
230
1.0
 70
     8
 71
     3
 72
    17
 73
    13
 74
     0
 42
0.000000001
 43
0.00000001
 40
0.0
 40
0.0
 40
0.0
 40
0.0
 40
0.1122133207735605
 40
0.2138249939517004
 40
0.3183847863166072
 40
0.4198798109653455
 40
0.5243728524958907
 40
0.6248939510706425
 40
0.7283845766082785
 40
0.8279361171646229
 40
0.9304267177343513
 40
1.0
 40
1.0
 40
1.0
 40
1.0
 10
12.508
 20
1.356123097496057
 30
0.0
 10
12.65778453550693
 20
1.141357845106789
 30
0.0
 10
12.94320231993786
 20
0.7321178504555421
 30
0.0
 10
13.37245146770421
 20
0.0883378786056069
 30
0.0
 10
13.79038603854507
 20
-0.52488397914886
 30
0.0
 10
14.21554779034084
 20
-1.112595086059512
 30
0.0
 10
14.63871147697852
 20
-1.636580594551323
 30
0.0
 10
15.06796318345052
 20
-2.084403061867469
 30
0.0
 10
15.49386309814011
 20
-2.429896491845246
 30
0.0
 10
15.92613255932084
 20
-2.660970652443596
 30
0.0
 10
16.31321254160756
 20
-2.773327675322326
 30
0.0
 10
16.56102040817566
 20
-2.753561569103828
 30
0.0
 10
16.66122044065363
 20
-2.745569230069215
 30
0.0
  0
SPLINE
  5
AE
330
1F
100
AcDbEntity
  8
0
  6
Continuous
 62
     1
370
    15
100
AcDbSpline
210
0.0
220
0.0
230
1.0
 70
     8
 71
     3
 72
    23
 73
    19
 74
     0
 42
0.000000001
 43
0.00000001
 40
0.0
 40
0.0
 40
0.0
 40
0.0
 40
0.0046259368665022
 40
0.0735739500804507
 40
0.1400784810665714
 40
0.2085356526151448
 40
0.2745977501287563
 40
0.3425969386422207
 40
0.4082625102939259
 40
0.4758512516274705
 40
0.5411615696468494
 40
0.6083819577255025
 40
0.6733838990435703
 40
0.740283945669376
 40
0.8050287997576921
 40
0.8716615314969439
 40
0.9361951951484615
 40
1.0
 40
1.0
 40
1.0
 40
1.0
 10
22.09211284405048
 20
2.026142876758019
 30
0.0
 10
22.10244123566876
 20
2.031784923586223
 30
0.0
 10
22.26671078608933
 20
2.121519756479371
 30
0.0
 10
22.58334497051037
 20
2.192018082907454
 30
0.0
 10
23.04666093469607
 20
2.220574368902484
 30
0.0
 10
23.50814019213768
 20
2.121829546017946
 30
0.0
 10
23.97711074649131
 20
1.915104241712025
 30
0.0
 10
24.44403040105487
 20
1.613374845255715
 30
0.0
 10
24.91876517204403
 20
1.229711895702986
 30
0.0
 10
25.39163589900667
 20
0.7937707903213048
 30
0.0
 10
25.87256226155042
 20
0.3227675201044509
 30
0.0
 10
26.35182780707386
 20
-0.146727417707874
 30
0.0
 10
26.83938565160255
 20
-0.5960326234828383
 30
0.0
 10
27.32553833556166
 20
-0.9899502504461223
 30
0.0
 10
27.82020962444719
 20
-1.313338183542774
 30
0.0
 10
28.31378931528371
 20
-1.538125751219684
 30
0.0
 10
28.80916489377977
 20
-1.665041499190183
 30
0.0
 10
29.13920929934719
 20
-1.654836513816009
 30
0.0
 10
29.3032943093617
 20
-1.649762999164426
 30
0.0
  0
LINE
  5
AF
330
1F
100
AcDbEntity
  8
0
  6
Continuous
 62
     4
370
    15
100
AcDbLine
 10
12.0
 20
-3.245893797845275
 30
0.0
 11
12.3398596705948
 21
-3.156823787682022
 31
0.0
  0
LINE
  5
B0
330
1F
100
AcDbEntity
  8
0
  6
Continuous
 62
     4
370
    15
100
AcDbLine
 10
12.508
 20
-0.6243539552696141
 30
0.0
 11
12.508
 21
-3.121334778921502
 31
0.0
  0
LINE
  5
B1
330
1F
100
AcDbEntity
  8
0
  6
Continuous
 62
     4
370
    15
100
AcDbLine
 10
12.0
 20
0.288764240954664
 30
0.0
 11
12.0
 21
-3.245893797845275
 31
0.0
  0
LINE
  5
B2
330
1F
100
AcDbEntity
  8
0
  6
Continuous
 62
     4
370
    15
100
AcDbLine
 10
-43.83200000000001
 20
3.175
 30
0.0
 11
-43.83200000000001
 21
-3.174999999999997
 31
0.0
  0
LINE
  5
B3
330
1F
100
AcDbEntity
  8
0
  6
Continuous
 62
     4
370
    15
100
AcDbLine
 10
-44.64200000000001
 20
-2.365000000000004
 30
0.0
 11
-44.64200000000001
 21
2.365000000000009
 31
0.0
  0
SPLINE
  5
B4
330
1F
100
AcDbEntity
  8
0
  6
Continuous
 62
     4
370
    15
100
AcDbSpline
210
0.0
220
0.0
230
1.0
 70
     8
 71
     3
 72
    14
 73
    10
 74
     0
 42
0.000000001
 43
0.00000001
 40
0.0
 40
0.0
 40
0.0
 40
0.0
 40
0.2499999999999999
 40
0.2499999999999999
 40
0.4999999999999999
 40
0.4999999999999999
 40
0.7499999999999999
 40
0.7499999999999999
 40
1.0
 40
1.0
 40
1.0
 40
1.0
 10
10.618
 20
-2.05505962336529
 30
0.0
 10
10.73421808161226
 20
-2.196327817566228
 30
0.0
 10
10.84954996399089
 20
-2.326225083842937
 30
0.0
 10
11.08104991298664
 20
-2.562278448236889
 30
0.0
 10
11.19677126531153
 20
-2.667789118017343
 30
0.0
 10
11.42566396698544
 20
-2.849203958543439
 30
0.0
 10
11.53953664107966
 20
-2.92584811812961
 30
0.0
 10
11.76866703480846
 20
-3.050098878182167
 30
0.0
 10
11.88442318731954
 20
-3.09775750419538
 30
0.0
 10
12.0
 20
-3.129193433126274
 30
0.0
  0
LINE
  5
B5
330
1F
100
AcDbEntity
  8
0
  6
Continuous
 62
     4
370
    15
100
AcDbLine
 10
10.618
 20
-3.102103730327468
 30
0.0
 11
10.618
 21
-2.055059623365289
 31
0.0
  0
SPLINE
  5
B6
330
1F
100
AcDbEntity
  8
0
  6
Continuous
 62
     4
370
    15
100
AcDbSpline
210
0.0
220
0.0
230
1.0
 70
     8
 71
     3
 72
    11
 73
     7
 74
     0
 42
0.000000001
 43
0.00000001
 40
0.0
 40
0.0
 40
0.0
 40
0.0
 40
0.1328849810211701
 40
0.5040198910385405
 40
0.8858950447921865
 40
1.0
 40
1.0
 40
1.0
 40
1.0
 10
11.70408783728877
 20
-3.000523058955165
 30
0.0
 10
11.65593664437417
 20
-3.02826017595374
 30
0.0
 10
11.47330382296958
 20
-3.133464380220569
 30
0.0
 10
11.15259580934655
 20
-3.186201477276012
 30
0.0
 10
10.83852589147361
 20
-3.169325846399804
 30
0.0
 10
10.65924522701276
 20
-3.114676364856481
 30
0.0
 10
10.618
 20
-3.10210373032747
 30
0.0
  0
LINE
  5
B7
330
1F
100
AcDbEntity
  8
0
  6
Continuous
 62
     4
370
    15
100
AcDbLine
 10
10.618
 20
2.136870168664276
 30
0.0
 11
10.618
 21
3.123482150909442
 31
0.0
  0
SPLINE
  5
B8
330
1F
100
AcDbEntity
  8
0
  6
Continuous
 62
     1
370
    15
100
AcDbSpline
210
0.0
220
0.0
230
1.0
 70
     8
 71
     3
 72
    18
 73
    14
 74
     0
 42
0.000000001
 43
0.00000001
 40
0.0
 40
0.0
 40
0.0
 40
0.0
 40
0.1191520241320334
 40
0.2111262040191811
 40
0.3057556735701036
 40
0.3978181861312755
 40
0.4925858900759701
 40
0.5840034545481355
 40
0.6780874614869766
 40
0.7692085479388205
 40
0.8629716872895339
 40
0.9540799664794101
 40
1.0
 40
1.0
 40
1.0
 40
1.0
 10
30.10885974161191
 20
-1.367811224871682
 30
0.0
 10
29.90058122840183
 20
-1.28118065376752
 30
0.0
 10
29.5315312505007
 20
-1.127679412286567
 30
0.0
 10
29.00725540230047
 20
-0.764838134122533
 30
0.0
 10
28.53437358829198
 20
-0.3785985478456562
 30
0.0
 10
28.06252786684883
 20
0.0530048279323855
 30
0.0
 10
27.60120979365764
 20
0.4918719189660781
 30
0.0
 10
27.14179183634741
 20
0.9191140720584332
 30
0.0
 10
26.69315145049845
 20
1.300467445910971
 30
0.0
 10
26.24550606726834
 20
1.622899608079623
 30
0.0
 10
25.80734729688369
 20
1.854873589576136
 30
0.0
 10
25.44401370035527
 20
1.986609690846777
 30
0.0
 10
25.23101136314096
 20
1.99732370215829
 30
0.0
 10
25.15963141055035
 20
2.000914111679016
 30
0.0
  0
SPLINE
  5
B9
330
1F
100
AcDbEntity
  8
0
  6
Continuous
 62
     1
370
    15
100
AcDbSpline
210
0.0
220
0.0
230
1.0
 70
     8
 71
     3
 72
    26
 73
    22
 74
     0
 42
0.000000001
 43
0.00000001
 40
0.0
 40
0.0
 40
0.0
 40
0.0
 40
0.0092351294470276
 40
0.0630353092406127
 40
0.1183673837420198
 40
0.1726663735115756
 40
0.2285102897905334
 40
0.2833291402872133
 40
0.3397066263297169
 40
0.3950725247693763
 40
0.452012018079043
 40
0.5079468827541064
 40
0.5654710391909992
 40
0.621991539441458
 40
0.6801175067565932
 40
0.7372346646960751
 40
0.7959737916346817
 40
0.8536966346471871
 40
0.9130581934933745
 40
0.971403156732557
 40
0.9999999999999999
 40
0.9999999999999999
 40
0.9999999999999999
 40
0.9999999999999999
 10
20.04624276875773
 20
-2.217863156495717
 30
0.0
 10
20.02341082241592
 20
-2.234335219446307
 30
0.0
 10
19.8675690655162
 20
-2.346766949599854
 30
0.0
 10
19.57813438014767
 20
-2.466289855506506
 30
0.0
 10
19.18047223217533
 20
-2.557323190487499
 30
0.0
 10
18.78146836109179
 20
-2.528988542304612
 30
0.0
 10
18.38657205947724
 20
-2.392429434261178
 30
0.0
 10
17.98995034361308
 20
-2.147090051401157
 30
0.0
 10
17.59739755168842
 20
-1.806408990761867
 30
0.0
 10
17.20287778929011
 20
-1.378499497036273
 30
0.0
 10
16.81237886753769
 20
-0.886348981676318
 30
0.0
 10
16.41975927035524
 20
-0.3427977236064336
 30
0.0
 10
16.03101409050463
 20
0.2225987166417591
 30
0.0
 10
15.6401652296005
 20
0.7947514438577112
 30
0.0
 10
15.25295521496011
 20
1.34206380532867
 30
0.0
 10
14.86372783815586
 20
1.849887680317048
 30
0.0
 10
14.47798248885153
 20
2.289185189826287
 30
0.0
 10
14.09015219940342
 20
2.649868016920572
 30
0.0
 10
13.70592436164513
 20
2.903086864580252
 30
0.0
 10
13.38731176709543
 20
3.041917562147899
 30
0.0
 10
13.19967715411848
 20
3.048761869645827
 30
0.0
 10
13.13796049748977
 20
3.051013094880922
 30
0.0
  0
SPLINE
  5
BA
330
1F
100
AcDbEntity
  8
0
  6
Continuous
 62
     1
370
    15
100
AcDbSpline
210
0.0
220
0.0
230
1.0
 70
     8
 71
     3
 72
    24
 73
    20
 74
     0
 42
0.000000001
 43
0.00000001
 40
0.0
 40
0.0
 40
0.0
 40
0.0
 40
0.0621687533684484
 40
0.1262661553142806
 40
0.1879271153648983
 40
0.2514096221954835
 40
0.3124758426432975
 40
0.3753449210447262
 40
0.435838980064474
 40
0.4981181411494557
 40
0.5580610624978933
 40
0.6197724713134815
 40
0.6791753398115535
 40
0.7403294491157583
 40
0.7992175461869111
 40
0.8598404351673882
 40
0.9182403790747693
 40
0.9783599110618836
 40
1.0
 40
1.0
 40
1.0
 40
1.0
 10
13.79571544029696
 20
2.828547696432043
 30
0.0
 10
13.93424471341902
 20
2.874632361182404
 30
0.0
 10
14.21560082509687
 20
2.96823136585424
 30
0.0
 10
14.63875163207449
 20
2.948713278611907
 30
0.0
 10
15.06794671422532
 20
2.811457126771788
 30
0.0
 10
15.49388851096943
 20
2.555968354896732
 30
0.0
 10
15.92604978240091
 20
2.192573611346602
 30
0.0
 10
16.35491714282905
 20
1.745424838708802
 30
0.0
 10
16.79011240637602
 20
1.226349293962054
 30
0.0
 10
17.22218813941735
 20
0.6701464736824121
 30
0.0
 10
17.66068195382685
 20
0.0908176344827288
 30
0.0
 10
18.09611396596328
 20
-0.4730885773241076
 30
0.0
 10
18.53813794473937
 20
-1.007456880934203
 30
0.0
 10
18.9771446908538
 20
-1.477285893587237
 30
0.0
 10
19.4228948964064
 20
-1.870397465936374
 30
0.0
 10
19.8657443126452
 20
-2.163912001765035
 30
0.0
 10
20.31571570709469
 20
-2.34156711366508
 30
0.0
 10
20.67020199883741
 20
-2.410575071908142
 30
0.0
 10
20.8793746953189
 20
-2.379133363525761
 30
0.0
 10
20.93473840302768
 20
-2.370811390428756
 30
0.0
  0
SPLINE
  5
BB
330
1F
100
AcDbEntity
  8
0
  6
Continuous
 62
     1
370
    15
100
AcDbSpline
210
0.0
220
0.0
230
1.0
 70
     8
 71
     3
 72
    16
 73
    12
 74
     0
 42
0.000000001
 43
0.00000001
 40
0.0
 40
0.0
 40
0.0
 40
0.0
 40
0.0470021964860288
 40
0.172125243904709
 40
0.3009019778996638
 40
0.4255301549039109
 40
0.5537923311403169
 40
0.6780139850392232
 40
0.8058518391447634
 40
0.9020955152945422
 40
1.0
 40
1.0
 40
1.0
 40
1.0
 10
26.18024860899602
 20
1.643211657994288
 30
0.0
 10
26.23942396801841
 20
1.671295654473549
 30
0.0
 10
26.45612816200019
 20
1.774141161815926
 30
0.0
 10
26.83957577803691
 20
1.843553005653758
 30
0.0
 10
27.32548509294057
 20
1.843156571778769
 30
0.0
 10
27.82023706647091
 20
1.723056996854451
 30
0.0
 10
28.31373270124297
 20
1.503339616304256
 30
0.0
 10
28.81598423265213
 20
1.193270243250677
 30
0.0
 10
29.28056665210741
 20
0.8480923856887431
 30
0.0
 10
29.71297173458855
 20
0.4986606757133832
 30
0.0
 10
29.97614664375833
 20
0.2814241548479069
 30
0.0
 10
30.10885974161191
 20
0.1718767373454597
 30
0.0
  0
SPLINE
  5
BC
330
1F
100
AcDbEntity
  8
0
  6
Continuous
 62
     1
370
    15
100
AcDbSpline
210
0.0
220
0.0
230
1.0
 70
     8
 71
     3
 72
    14
 73
    10
 74
     0
 42
0.000000001
 43
0.00000001
 40
0.0
 40
0.0
 40
0.0
 40
0.0
 40
0.25
 40
0.25
 40
0.5
 40
0.5
 40
0.75
 40
0.75
 40
1.0
 40
1.0
 40
1.0
 40
1.0
 10
30.10885974161191
 20
0.1718767373454595
 30
0.0
 10
30.21078192209866
 20
0.0881598501159698
 30
0.0
 10
30.31029829431842
 20
0.0058163200318339
 30
0.0
 10
30.50840957309002
 20
-0.1513489043766077
 30
0.0
 10
30.60700326653744
 20
-0.2259717048996971
 30
0.0
 10
30.79298139475171
 20
-0.3567504923721353
 30
0.0
 10
30.8831339599668
 20
-0.4147025839346829
 30
0.0
 10
31.04515208681956
 20
-0.5128654566475881
 30
0.0
 10
31.11764099360673
 20
-0.5532456184597496
 30
0.0
 10
31.17662676099933
 20
-0.5919462696981314
 30
0.0
  0
SPLINE
  5
BD
330
1F
100
AcDbEntity
  8
0
  6
Continuous
 62
     1
370
    15
100
AcDbSpline
210
0.0
220
0.0
230
1.0
 70
     8
 71
     3
 72
    14
 73
    10
 74
     0
 42
0.000000001
 43
0.00000001
 40
0.0
 40
0.0
 40
0.0
 40
0.0
 40
0.25
 40
0.25
 40
0.5
 40
0.5
 40
0.75
 40
0.75
 40
1.0
 40
1.0
 40
1.0
 40
1.0
 10
30.36192978368852
 20
-1.085913955058991
 30
0.0
 10
30.42450319388685
 20
-1.026083699835254
 30
0.0
 10
30.49436532966175
 20
-0.9648906858031906
 30
0.0
 10
30.64146621403577
 20
-0.848213953463916
 30
0.0
 10
30.72003361636787
 20
-0.7917229683220772
 30
0.0
 10
30.87427640702765
 20
-0.6946894437662761
 30
0.0
 10
30.95083173041256
 20
-0.6537865805521531
 30
0.0
 10
31.0829092717272
 20
-0.6008571133781972
 30
0.0
 10
31.1378921780525
 20
-0.589275052574692
 30
0.0
 10
31.17662676100879
 20
-0.5919462697025
 30
0.0
  0
SPLINE
  5
BE
330
1F
100
AcDbEntity
  8
0
  6
Continuous
 62
     1
370
    15
100
AcDbSpline
210
0.0
220
0.0
230
1.0
 70
     8
 71
     3
 72
     8
 73
     4
 74
     0
 42
0.000000001
 43
0.00000001
 40
0.0
 40
0.0
 40
0.0
 40
0.0
 40
1.0
 40
1.0
 40
1.0
 40
1.0
 10
30.36192978368855
 20
-1.085913955058972
 30
0.0
 10
30.46639532296278
 20
-1.185508234351039
 30
0.0
 10
30.56813430798329
 20
-1.284873246762669
 30
0.0
 10
30.66829149624098
 20
-1.384105251144546
 30
0.0
  0
SPLINE
  5
BF
330
1F
100
AcDbEntity
  8
0
  6
Continuous
 62
     1
370
    15
100
AcDbSpline
210
0.0
220
0.0
230
1.0
 70
     8
 71
     3
 72
     8
 73
     4
 74
     0
 42
0.000000001
 43
0.00000001
 40
0.0
 40
0.0
 40
0.0
 40
0.0
 40
1.0
 40
1.0
 40
1.0
 40
1.0
 10
30.66829149625224
 20
-1.384105251141772
 30
0.0
 10
30.48100679509375
 20
-1.443307596896883
 30
0.0
 10
30.2963104313744
 20
-1.431446500945831
 30
0.0
 10
30.1088597416119
 20
-1.367811224871678
 30
0.0
  0
LINE
  5
C0
330
1F
100
AcDbEntity
  8
0
  6
Continuous
 62
     4
370
    15
100
AcDbLine
 10
12.508
 20
3.121334778921519
 30
0.0
 11
12.508
 21
1.356123097496118
 31
0.0
  0
SPLINE
  5
C1
330
1F
100
AcDbEntity
  8
0
  6
Continuous
 62
     1
370
    15
100
AcDbSpline
210
0.0
220
0.0
230
1.0
 70
     8
 71
     3
 72
    24
 73
    20
 74
     0
 42
0.000000001
 43
0.00000001
 40
0.0
 40
0.0
 40
0.0
 40
0.0
 40
0.0179140932533495
 40
0.0820502076175491
 40
0.1480771024013007
 40
0.2116574281320042
 40
0.2771107747303462
 40
0.3401640510452468
 40
0.4050739329505769
 40
0.4676194548252373
 40
0.5320047868002904
 40
0.5940767230618639
 40
0.6579728049362408
 40
0.7196044424385457
 40
0.7830456474023895
 40
0.8442672692412164
 40
0.9072840483203344
 40
0.968138198382142
 40
1.0
 40
1.0
 40
1.0
 40
1.0
 10
17.98259773031025
 20
2.421010835848596
 30
0.0
 10
18.02246610433692
 20
2.441437155131073
 30
0.0
 10
18.20507140397448
 20
2.53499387130347
 30
0.0
 10
18.53832126927998
 20
2.586922171878328
 30
0.0
 10
18.97710004413359
 20
2.567148670296949
 30
0.0
 10
19.42289633137501
 20
2.418262611493739
 30
0.0
 10
19.86578504157
 20
2.163351412150124
 30
0.0
 10
20.31555685647772
 20
1.807930913155641
 30
0.0
 10
20.7625910749305
 20
1.378593249167842
 30
0.0
 10
21.21667144549372
 20
0.8885700284310956
 30
0.0
 10
21.66813882021515
 20
0.3728575417612821
 30
0.0
 10
22.12681344802713
 20
-0.1526451065421667
 30
0.0
 10
22.58307305229117
 20
-0.6505987995185625
 30
0.0
 10
23.04673252754059
 20
-1.1057611752753
 30
0.0
 10
23.50813145005858
 20
-1.485471363100017
 30
0.0
 10
23.97707745515876
 20
-1.780136523277866
 30
0.0
 10
24.44417571021229
 20
-1.961899706110199
 30
0.0
 10
24.84001122315649
 20
-2.038802873702815
 30
0.0
 10
25.0785877615525
 20
-2.00973304143369
 30
0.0
 10
25.16057449845525
 20
-1.999743204603633
 30
0.0
  0
SPLINE
  5
C2
330
1F
100
AcDbEntity
  8
0
  6
Continuous
 62
     1
370
    15
100
AcDbSpline
210
0.0
220
0.0
230
1.0
 70
     8
 71
     3
 72
     9
 73
     5
 74
     0
 42
0.000000001
 43
0.00000001
 40
0.0
 40
0.0
 40
0.0
 40
0.0
 40
0.6244460508366303
 40
1.0
 40
1.0
 40
1.0
 40
1.0
 10
30.10885974161191
 20
1.371349401964904
 30
0.0
 10
29.90039328469043
 20
1.464075769981893
 30
0.0
 10
29.56655106302506
 20
1.612569571636583
 30
0.0
 10
29.23990053982405
 20
1.646655405147076
 30
0.0
 10
29.11722564583962
 20
1.659456474532466
 30
0.0
  0
SPLINE
  5
C3
330
1F
100
AcDbEntity
  8
0
  6
Continuous
 62
     1
370
    15
100
AcDbSpline
210
0.0
220
0.0
230
1.0
 70
     8
 71
     3
 72
    26
 73
    22
 74
     0
 42
0.000000001
 43
0.00000001
 40
0.0
 40
0.0
 40
0.0
 40
0.0
 40
0.0084266721441801
 40
0.0642932717768873
 40
0.121762349930274
 40
0.1779337072082686
 40
0.2357128040116916
 40
0.2922505413552126
 40
0.3504036346440951
 40
0.4073592735254297
 40
0.4659398300085876
 40
0.5233641314157205
 40
0.5824249729045591
 40
0.640357883119799
 40
0.6999403625169259
 40
0.7584103994418395
 40
0.8185440384049195
 40
0.8775738698313472
 40
0.9382820654097336
 40
0.997900966974693
 40
0.9999999999999999
 40
0.9999999999999999
 40
0.9999999999999999
 40
0.9999999999999999
 10
24.14723362445645
 20
-1.828421190590181
 30
0.0
 10
24.12611262538211
 20
-1.843210360638557
 30
0.0
 10
23.9649650085706
 20
-1.956047802632966
 30
0.0
 10
23.66365109685338
 20
-2.087050052709833
 30
0.0
 10
23.24656368699044
 20
-2.199522981723101
 30
0.0
 10
22.82903612178947
 20
-2.197816408364511
 30
0.0
 10
22.41727730317061
 20
-2.091071732030152
 30
0.0
 10
22.00453403255921
 20
-1.878693286957756
 30
0.0
 10
21.59718263631828
 20
-1.573575476505068
 30
0.0
 10
21.18858190439523
 20
-1.184036888905218
 30
0.0
 10
20.78507224895423
 20
-0.7330337639758804
 30
0.0
 10
20.38004196427094
 20
-0.2337959444521298
 30
0.0
 10
19.97981353881708
 20
0.2842782193498526
 30
0.0
 10
19.57793886201924
 20
0.8057121623737451
 30
0.0
 10
19.18052510965333
 20
1.299574740461493
 30
0.0
 10
18.78145012052216
 20
1.751270791456831
 30
0.0
 10
18.38659123700798
 20
2.132608362609393
 30
0.0
 10
17.98989235783172
 20
2.436186132283826
 30
0.0
 10
17.59761556459645
 20
2.626687304072185
 30
0.0
 10
17.33101853891554
 20
2.71681351307312
 30
0.0
 10
17.19799249174183
 20
2.709731326526994
 30
0.0
 10
17.19346826279448
 20
2.709490460666034
 30
0.0
  0
SPLINE
  5
C4
330
1F
100
AcDbEntity
  8
0
  6
Continuous
 62
     1
370
    15
100
AcDbSpline
210
0.0
220
0.0
230
1.0
 70
     8
 71
     3
 72
    11
 73
     7
 74
     0
 42
0.000000001
 43
0.00000001
 40
0.0
 40
0.0
 40
0.0
 40
0.0
 40
0.2620822416810544
 40
0.6304053559734536
 40
0.9866612391378191
 40
1.0
 40
1.0
 40
1.0
 40
1.0
 10
30.22543580042471
 20
1.300723656363028
 30
0.0
 10
30.32076854457339
 20
1.328511880448197
 30
0.0
 10
30.55007928354408
 20
1.39535290402888
 30
0.0
 10
30.88745026504349
 20
1.300049711640499
 30
0.0
 10
31.09542634657459
 20
1.133089239215081
 30
0.0
 10
31.17379829814888
 20
1.031922416506756
 30
0.0
 10
31.17662676099932
 20
1.028271281196482
 30
0.0
  0
SPLINE
  5
C5
330
1F
100
AcDbEntity
  8
0
  6
Continuous
 62
     1
370
    15
100
AcDbSpline
210
0.0
220
0.0
230
1.0
 70
     8
 71
     3
 72
    12
 73
     8
 74
     0
 42
0.000000001
 43
0.00000001
 40
0.0
 40
0.0
 40
0.0
 40
0.0
 40
0.1347582058203158
 40
0.4114243813059601
 40
0.6896186155424482
 40
0.9322420521490136
 40
1.0
 40
1.0
 40
1.0
 40
1.0
 10
30.62557583595343
 20
0.8392517444650502
 30
0.0
 10
30.65306835581633
 20
0.8255981546639701
 30
0.0
 10
30.73700456516463
 20
0.7839129771096998
 30
0.0
 10
30.88801643896864
 20
0.7860000771756775
 30
0.0
 10
31.04559360717704
 20
0.8505352535822184
 30
0.0
 10
31.13483510516693
 20
0.9508095624874134
 30
0.0
 10
31.16913820693551
 20
1.01439108771019
 30
0.0
 10
31.17662676100851
 20
1.028271281194926
 30
0.0
  0
SPLINE
  5
C6
330
1F
100
AcDbEntity
  8
0
  6
Continuous
 62
     1
370
    15
100
AcDbSpline
210
0.0
220
0.0
230
1.0
 70
     8
 71
     3
 72
     8
 73
     4
 74
     0
 42
0.000000001
 43
0.00000001
 40
0.0
 40
0.0
 40
0.0
 40
0.0
 40
1.0
 40
1.0
 40
1.0
 40
1.0
 10
30.66829149624036
 20
0.988906038294456
 30
0.0
 10
30.48100679508613
 20
1.141657372458273
 30
0.0
 10
30.29631043137044
 20
1.279909681766002
 30
0.0
 10
30.1088597416119
 20
1.371349401964904
 30
0.0
  0
LINE
  5
C7
330
1F
100
AcDbEntity
  8
0
  6
Continuous
 62
     1
370
    15
100
AcDbLine
 10
30.10885974161191
 20
1.371349401964905
 30
0.0
 11
30.10885974161191
 21
0.1718767373454582
 31
0.0
  0
LINE
  5
C8
330
1F
100
AcDbEntity
  8
0
  6
Continuous
 62
     4
370
    15
100
AcDbLine
 10
12.0
 20
3.279140000000008
 30
0.0
 11
12.0
 21
2.026307090974517
 31
0.0
  0
ARC
  5
C9
330
1F
100
AcDbEntity
  8
0
  6
Continuous
 62
     1
370
    15
100
AcDbCircle
 10
29.50804071296145
 20
1.155165305267443
 30
0.0
 40
1.172102394826011
100
AcDbArc
 50
336.2941864539758
 51
351.8452588086175
  0
LINE
  5
CA
330
1F
100
AcDbEntity
  8
0
  6
Continuous
 62
     1
370
    15
100
AcDbLine
 10
30.5812432231063
 20
0.6839324581783978
 30
0.0
 11
31.558
 21
0.0000000000000123
 31
0.0
  0
ARC
  5
CB
330
1F
100
AcDbEntity
  8
0
  6
Continuous
 62
     1
370
    15
100
AcDbCircle
 10
30.46616283859977
 20
0.2846111488536803
 30
0.0
 40
1.128322601504699
100
AcDbArc
 50
309.025324331148
 51
345.3897361113855
  0
ARC
  5
CC
330
1F
100
AcDbEntity
  8
0
  6
Continuous
 62
     1
370
    15
100
AcDbCircle
 10
30.55560735917724
 20
-1.347533310543913
 30
0.0
 40
0.11847034052991
100
AcDbArc
 50
291.7308924136162
 51
342.0190216062896
  0
ARC
  5
CD
330
1F
100
AcDbEntity
  8
0
  6
Continuous
 62
     1
370
    15
100
AcDbCircle
 10
29.86273378000458
 20
0.0718832404425376
 30
0.0
 40
1.69678954408439
100
AcDbArc
 50
296.5637109238115
 51
357.5719798189125
  0
ARC
  5
CE
330
1F
100
AcDbEntity
  8
0
  6
Continuous
 62
     1
370
    15
100
AcDbCircle
 10
29.99178941240932
 20
0.0039706280887619
 30
0.0
 40
1.566215620714013
100
AcDbArc
 50
359.8547451116009
 51
40.84365710734062
  0
LINE
  5
CF
330
1F
100
AcDbEntity
  8
0
  6
Continuous
 62
     8
370
    15
100
AcDbLine
 10
30.10885974161191
 20
-1.367811224871682
 30
0.0
 11
30.10885974161191
 21
-1.581459083220639
 31
0.0
  0
LINE
  5
D0
102
{ACAD_REACTORS
102
}
330
1F
100
AcDbEntity
  8
중심선
100
AcDbLine
 10
-47.64200000000002
 20
-0.0000000000000069
 30
0.0
 11
36.10885974161189
 21
-0.0000000000000069
 31
0.0
  0
CIRCLE
  5
D1
330
1F
100
AcDbEntity
  8
외형선
100
AcDbCircle
 10
0.0
 20
0.0
 30
0.0
 40
2.999999999999997
  0
INSERT
  5
D2
330
1F
100
AcDbEntity
  8
0
  6
Continuous
 62
     7
100
AcDbBlockReference
 66
     1
  2
블럭10
 10
-21.25360739614874
 20
-52.05975325537357
 30
0.0
  0
ATTRIB
  5
D3
330
D2
100
AcDbEntity
  8
FORMAT
 62
     2
100
AcDbText
 10
-30.43490268489003
 20
-49.98438634254138
 30
0.0
 40
4.233333333333333
  1
E5078508 [ 3 FLUTE ]
 41
0.75
  7
SLDTEXTSTYLE0
 11
-30.43490268489003
 21
-52.10105300920804
 31
0.0
100
AcDbAttribute
  2
AUTOATTR0
 70
     0
 74
     1
  0
SEQEND
  5
D4
330
D2
100
AcDbEntity
  8
0
  6
Continuous
 62
     7
  0
HATCH
  5
D5
330
1F
100
AcDbEntity
  8
중심선
100
AcDbHatch
 10
0.0
 20
0.0
 30
0.0
210
0.0
220
0.0
230
1.0
  2
SOLID
 70
     1
 71
     0
 91
        1
 92
        0
 93
        4
 72
     1
 10
-15.5386980917679
 20
-35.81257895372963
 11
-18.98497333560518
 21
-35.81257895372963
 72
     1
 10
-18.98497333560518
 20
-35.81257895372963
 11
-21.1132031948092
 21
-38.34890453430223
 72
     1
 10
-21.1132031948092
 20
-38.34890453430223
 11
-17.66689486585877
 21
-38.34886510499974
 72
     1
 10
-17.66689486585877
 20
-38.34886510499974
 11
-15.53869809176789
 21
-35.81257895372963
 97
        0
 75
     0
 76
     1
 98
        1
 10
-19.82083359646731
 20
0.0
  0
HATCH
  5
D6
330
1F
100
AcDbEntity
  8
중심선
100
AcDbHatch
 10
0.0
 20
0.0
 30
0.0
210
0.0
220
0.0
230
1.0
  2
SOLID
 70
     1
 71
     0
 91
        1
 92
        0
 93
        4
 72
     1
 10
-10.52593410073194
 20
-35.81257895372963
 11
-13.97220934456923
 21
-35.81257895372963
 72
     1
 10
-13.97220934456923
 20
-35.81257895372963
 11
-18.50334735292662
 21
-41.21257895372965
 72
     1
 10
-18.50334735292661
 20
-41.21257895372965
 11
-15.05707210908933
 21
-41.21257895372965
 72
     1
 10
-15.05707210908933
 20
-41.21257895372965
 11
-10.52593410073194
 21
-35.81257895372963
 97
        0
 75
     0
 76
     1
 98
        1
 10
-19.82083359646731
 20
0.0
  0
HATCH
  5
D7
330
1F
100
AcDbEntity
  8
중심선
100
AcDbHatch
 10
0.0
 20
0.0
 30
0.0
210
0.0
220
0.0
230
1.0
  2
SOLID
 70
     1
 71
     0
 91
        1
 92
        0
 93
        4
 72
     1
 10
-5.513170109696048
 20
-35.81257895372966
 11
-8.959445353533166
 21
-35.81257895372963
 72
     1
 10
-8.959445353533166
 20
-35.81257895372963
 11
-16.00788225542242
 21
-44.21257895372965
 72
     1
 10
-16.00788225542242
 20
-44.21257895372965
 11
-12.56160701158513
 21
-44.21257895372965
 72
     1
 10
-12.56160701158513
 20
-44.21257895372965
 11
-5.513170109696048
 21
-35.81257895372966
 97
        0
 75
     0
 76
     1
 98
        1
 10
-19.82083359646731
 20
0.0
  0
HATCH
  5
D8
330
1F
100
AcDbEntity
  8
중심선
100
AcDbHatch
 10
0.0
 20
0.0
 30
0.0
210
0.0
220
0.0
230
1.0
  2
SOLID
 70
     1
 71
     0
 91
        1
 92
        0
 93
        6
 72
     3
 10
-0.7132796786838504
 20
-40.01257895378091
 11
3.960054785062283
 21
1.540882976769353E-10
 40
0.3939339440162628
 50
17.09539180608437
 51
320.0019657685079
 73
     0
 72
     1
 10
0.9697199770167444
 20
-38.60047295836794
 11
3.275021850717785
 21
-36.66614624832001
 72
     3
 10
-0.7132796787366971
 20
-40.01257895372979
 11
6.600054785286829
 21
-1.278976924368180E-13
 40
0.636358354079598
 50
39.99873849337413
 51
368.4976242363725
 73
     1
 72
     1
 10
5.712052813163911
 20
-39.05257895365965
 11
-2.033212371900774
 21
-39.05257895365963
 72
     1
 10
-2.033212371900774
 20
-39.05257895365963
 11
-2.033237416346708
 21
-40.97257895365955
 72
     1
 10
-2.033237416346708
 20
-40.97257895365955
 11
2.408142353125328
 21
-40.97257895365952
 97
        0
 75
     0
 76
     1
 98
        1
 10
-19.82083359646731
 20
0.0
  0
DIMENSION
  5
D9
330
1F
100
AcDbEntity
  8
치수문자_일반주서
100
AcDbDimension
  2
_D
 10
12.508
 20
45.46893796924502
 30
0.0
 11
-3.4815
 21
45.46893796924502
 31
0.0
 70
   160
  1
<>
 71
     2
 42
19.05
  3
SLDDIMSTYLE0
100
AcDbAlignedDimension
 13
31.558
 23
1.587499999999993
 33
0.0
 14
12.508
 24
3.121334778921519
 34
0.0
100
AcDbRotatedDimension
1001
ACAD
1000
DSTYLE
1002
{
1070
   171
1070
     6
1070
   273
1070
     7
1002
}
  0
DIMENSION
  5
ED
330
1F
100
AcDbEntity
  8
치수문자_일반주서
100
AcDbDimension
  2
_D_1
 10
-44.64200000000001
 20
58.18977147145539
 30
0.0
 11
-4.838014149754049
 21
58.18977147145539
 31
0.0
 70
   160
  1
<>
 71
     2
 42
76.20000000000002
  3
SLDDIMSTYLE1
100
AcDbAlignedDimension
 13
31.558
 23
0.0000000000000123
 33
0.0
 14
-44.64200000000001
 24
2.365000000000007
 34
0.0
100
AcDbRotatedDimension
1001
ACAD
1000
DSTYLE
1002
{
1070
   171
1070
     6
1070
   273
1070
     7
1002
}
  0
INSERT
  5
118
330
1F
100
AcDbEntity
  8
외형선
100
AcDbBlockReference
  2
SW_DOWELSYMBOL_0
 10
0.0
 20
0.0
 30
0.0
  0
DIMENSION
  5
140
102
{ACAD_XDICTIONARY
360
141
102
}
330
1F
100
AcDbEntity
  8
치수문자_일반주서
100
AcDbDimension
  2
*D7
 10
44.12143736975761
 20
1.587499999999992
 30
0.0
 11
41.49643736975761
 21
20.44149999999999
 31
0.0
 70
    32
  1
{%%c<>[]}
 71
     5
 42
3.175
  3
SLDDIMSTYLE0
100
AcDbAlignedDimension
 13
31.70528774639101
 23
-1.587500000000007
 33
0.0
 14
31.70528774639101
 24
1.587499999999993
 34
0.0
 50
90.0
100
AcDbRotatedDimension
1001
ACAD
1000
DSTYLE
1002
{
1070
   171
1070
     6
1070
   273
1070
     7
1070
   283
1070
     1
1070
   170
1070
     1
1002
}
  0
DIMENSION
  5
152
102
{ACAD_REACTORS
102
}
102
{ACAD_XDICTIONARY
360
153
102
}
330
1F
100
AcDbEntity
  8
치수문자_일반주서
100
AcDbDimension
  2
*D8
 10
-61.23467261557759
 20
3.175000000000001
 30
0.0
 11
-63.85967261557759
 21
22.4665
 31
0.0
 70
    32
  1
{%%c<>[]}
 71
     5
 42
6.349999999999998
  3
SLDDIMSTYLE0
100
AcDbAlignedDimension
 13
-43.83200000000001
 23
-3.174999999999998
 33
0.0
 14
-43.83200000000001
 24
3.175
 34
0.0
 50
90.0
100
AcDbRotatedDimension
1001
ACAD
1000
DSTYLE
1002
{
1070
   171
1070
     6
1070
   273
1070
     7
1070
   283
1070
     1
1070
   170
1070
     1
1002
}
  0
DIMENSION
  5
166
102
{ACAD_REACTORS
102
}
102
{ACAD_XDICTIONARY
360
167
102
}
330
1F
100
AcDbEntity
  8
치수문자_일반주서
100
AcDbDimension
  2
*D9
 10
36.10885974161189
 20
-0.0000000000000069
 30
0.0
 11
14.73370869334485
 21
12.62049968382301
 31
0.0
 70
    34
  1
<>
 71
     5
 42
0.0872664625997163
  3
SLDDIMSTYLE0
100
AcDb2LineAngularDimension
 13
21.19609541988319
 23
2.361224922050237
 33
0.0
 14
18.80431858949349
 24
2.570478280393302
 34
0.0
 15
-47.64200000000002
 25
-0.0000000000000069
 35
0.0
 16
15.16762539271853
 26
0.9607080567762263
 36
0.0
1001
ACAD
1000
DSTYLE
1002
{
1070
   171
1070
     6
1070
   273
1070
     7
1002
}
  0
ENDSEC
  0
SECTION
  2
OBJECTS
  0
DICTIONARY
  5
C
330
0
100
AcDbDictionary
281
     1
  3
ACAD_GROUP
350
D
  3
ACAD_IMAGE_VARS
350
13C
  3
ACAD_LAYOUT
350
1A
  3
ACAD_MLINESTYLE
350
17
  3
ACAD_PLOTSETTINGS
350
19
  3
ACAD_PLOTSTYLENAME
350
E
  3
ACAD_SCALELIST
350
47
  3
APPDATA
350
13A
  3
DWGPROPS
350
17A
  0
DICTIONARY
  5
141
330
140
100
AcDbDictionary
280
     1
281
     1
  0
DICTIONARY
  5
153
330
152
100
AcDbDictionary
280
     1
281
     1
  0
DICTIONARY
  5
167
330
166
100
AcDbDictionary
280
     1
281
     1
  0
DICTIONARY
  5
D
102
{ACAD_REACTORS
330
C
102
}
330
C
100
AcDbDictionary
281
     1
  0
RASTERVARIABLES
  5
13C
102
{ACAD_REACTORS
330
C
102
}
330
C
100
AcDbRasterVariables
 90
        0
 70
     1
 71
     1
 72
     1
  0
DICTIONARY
  5
1A
102
{ACAD_REACTORS
330
C
102
}
330
C
100
AcDbDictionary
281
     1
  3
Layout1
350
1E
  3
Layout2
350
26
  3
Model
350
22
  0
DICTIONARY
  5
17
102
{ACAD_REACTORS
330
C
102
}
330
C
100
AcDbDictionary
281
     1
  3
Standard
350
18
  0
DICTIONARY
  5
19
102
{ACAD_REACTORS
330
C
102
}
330
C
100
AcDbDictionary
281
     1
  0
ACDBDICTIONARYWDFLT
  5
E
102
{ACAD_REACTORS
330
C
102
}
330
C
100
AcDbDictionary
281
     1
  3
Normal
350
F
100
AcDbDictionaryWithDefault
340
F
  0
DICTIONARY
  5
47
102
{ACAD_REACTORS
330
C
102
}
330
C
100
AcDbDictionary
281
     1
  3
A0
350
48
  3
A1
350
49
  3
A2
350
4A
  3
A3
350
4B
  3
A4
350
4C
  3
A5
350
4D
  3
A6
350
4E
  3
A7
350
4F
  3
A8
350
50
  3
A9
350
51
  3
B0
350
52
  3
B1
350
53
  3
B2
350
54
  3
B3
350
55
  3
B4
350
56
  3
B5
350
57
  3
B6
350
58
  3
B7
350
59
  3
B8
350
5A
  3
B9
350
5B
  3
C0
350
5C
  3
C1
350
5D
  3
C2
350
5E
  3
C3
350
5F
  3
C4
350
60
  3
C5
350
61
  3
C6
350
62
  3
C7
350
63
  3
C8
350
64
  3
C9
350
65
  3
D0
350
66
  3
D1
350
67
  3
D2
350
68
  0
DICTIONARY
  5
13A
102
{ACAD_REACTORS
330
C
102
}
330
C
100
AcDbDictionary
281
     1
  0
XRECORD
  5
17A
102
{ACAD_REACTORS
330
C
102
}
330
C
100
AcDbXrecord
280
     1
  1
DWGPROPS COOKIE
  2

  3

  4

  6

  7

  8
12015048
  9

300
=
301
=
302
=
303
=
304
=
305
=
306
=
307
=
308
=
309
=
 40
0.0
 41
2458340.218883056
 42
2458341.241446829
  1

 90
        0
  0
LAYOUT
  5
1E
102
{ACAD_REACTORS
330
1A
102
}
330
1A
100
AcDbPlotSettings
  1

  2
none_device
  4

  6

 40
0.0
 41
0.0
 42
0.0
 43
0.0
 44
0.0
 45
0.0
 46
0.0
 47
0.0
 48
0.0
 49
0.0
140
0.0
141
0.0
142
1.0
143
1.0
 70
   688
 72
     1
 73
     0
 74
     5
  7

 75
    16
147
1.0
148
0.0
149
0.0
100
AcDbLayout
  1
Layout1
 70
     1
 71
     1
 10
0.0
 20
0.0
 11
420.0
 21
297.0
 12
0.0
 22
0.0
 32
0.0
 14
1.000000000000000E+20
 24
1.000000000000000E+20
 34
1.000000000000000E+20
 15
-1.000000000000000E+20
 25
-1.000000000000000E+20
 35
-1.000000000000000E+20
146
0.0
 13
0.0
 23
0.0
 33
0.0
 16
1.0
 26
0.0
 36
0.0
 17
0.0
 27
1.0
 37
0.0
 76
     0
330
1B
  0
LAYOUT
  5
26
102
{ACAD_REACTORS
330
1A
102
}
330
1A
100
AcDbPlotSettings
  1

  2
none_device
  4

  6

 40
0.0
 41
0.0
 42
0.0
 43
0.0
 44
0.0
 45
0.0
 46
0.0
 47
0.0
 48
0.0
 49
0.0
140
0.0
141
0.0
142
1.0
143
1.0
 70
   688
 72
     1
 73
     0
 74
     5
  7

 75
    16
147
1.0
148
0.0
149
0.0
100
AcDbLayout
  1
Layout2
 70
     1
 71
     2
 10
0.0
 20
0.0
 11
0.0
 21
0.0
 12
0.0
 22
0.0
 32
0.0
 14
0.0
 24
0.0
 34
0.0
 15
0.0
 25
0.0
 35
0.0
146
0.0
 13
0.0
 23
0.0
 33
0.0
 16
1.0
 26
0.0
 36
0.0
 17
0.0
 27
1.0
 37
0.0
 76
     0
330
23
  0
LAYOUT
  5
22
102
{ACAD_REACTORS
330
1A
102
}
330
1A
100
AcDbPlotSettings
  1

  2
none_device
  4
ANSI_A_(11.00_x_8.50_Inches)
  6

 40
6.35
 41
19.05
 42
6.35000508
 43
19.05000254
 44
279.4
 45
215.9
 46
146.0085084556109
 47
99.45911250341575
 48
0.0
 49
0.0
140
0.0
141
0.0
142
0.0868470351025255
143
1.0
 70
  1696
 72
     0
 73
     0
 74
     0
  7

 75
     0
147
0.0235690232323232
148
0.0
149
0.0
100
AcDbLayout
  1
Model
 70
     1
 71
     0
 10
0.0
 20
0.0
 11
420.0
 21
297.0
 12
0.0
 22
0.0
 32
0.0
 14
-65.6096726155776
 24
-49.98438634254138
 34
0.0
 15
44.67177070309094
 25
62.5647714714554
 35
0.0
146
0.0
 13
0.0
 23
0.0
 33
0.0
 16
1.0
 26
0.0
 36
0.0
 17
0.0
 27
1.0
 37
0.0
 76
     0
330
1F
331
29
  0
MLINESTYLE
  5
18
102
{ACAD_REACTORS
330
17
102
}
330
17
100
AcDbMlineStyle
  2
Standard
 70
     0
  3

 62
   256
 51
90.0
 52
90.0
 71
     2
 49
0.5
 62
   256
  6
BYLAYER
 49
-0.5
 62
   256
  6
BYLAYER
  0
ACDBPLACEHOLDER
  5
F
102
{ACAD_REACTORS
330
E
102
}
330
E
  0
SCALE
  5
48
102
{ACAD_REACTORS
330
47
102
}
330
47
100
AcDbScale
 70
     0
300
1:1
140
1.0
141
1.0
290
     1
  0
SCALE
  5
49
102
{ACAD_REACTORS
330
47
102
}
330
47
100
AcDbScale
 70
     0
300
1:2
140
1.0
141
2.0
290
     0
  0
SCALE
  5
4A
102
{ACAD_REACTORS
330
47
102
}
330
47
100
AcDbScale
 70
     0
300
1:4
140
1.0
141
4.0
290
     0
  0
SCALE
  5
4B
102
{ACAD_REACTORS
330
47
102
}
330
47
100
AcDbScale
 70
     0
300
1:5
140
1.0
141
5.0
290
     0
  0
SCALE
  5
4C
102
{ACAD_REACTORS
330
47
102
}
330
47
100
AcDbScale
 70
     0
300
1:8
140
1.0
141
8.0
290
     0
  0
SCALE
  5
4D
102
{ACAD_REACTORS
330
47
102
}
330
47
100
AcDbScale
 70
     0
300
1:10
140
1.0
141
10.0
290
     0
  0
SCALE
  5
4E
102
{ACAD_REACTORS
330
47
102
}
330
47
100
AcDbScale
 70
     0
300
1:16
140
1.0
141
16.0
290
     0
  0
SCALE
  5
4F
102
{ACAD_REACTORS
330
47
102
}
330
47
100
AcDbScale
 70
     0
300
1:20
140
1.0
141
20.0
290
     0
  0
SCALE
  5
50
102
{ACAD_REACTORS
330
47
102
}
330
47
100
AcDbScale
 70
     0
300
1:30
140
1.0
141
30.0
290
     0
  0
SCALE
  5
51
102
{ACAD_REACTORS
330
47
102
}
330
47
100
AcDbScale
 70
     0
300
1:40
140
1.0
141
40.0
290
     0
  0
SCALE
  5
52
102
{ACAD_REACTORS
330
47
102
}
330
47
100
AcDbScale
 70
     0
300
1:50
140
1.0
141
50.0
290
     0
  0
SCALE
  5
53
102
{ACAD_REACTORS
330
47
102
}
330
47
100
AcDbScale
 70
     0
300
1:100
140
1.0
141
100.0
290
     0
  0
SCALE
  5
54
102
{ACAD_REACTORS
330
47
102
}
330
47
100
AcDbScale
 70
     0
300
2:1
140
2.0
141
1.0
290
     0
  0
SCALE
  5
55
102
{ACAD_REACTORS
330
47
102
}
330
47
100
AcDbScale
 70
     0
300
4:1
140
4.0
141
1.0
290
     0
  0
SCALE
  5
56
102
{ACAD_REACTORS
330
47
102
}
330
47
100
AcDbScale
 70
     0
300
8:1
140
8.0
141
1.0
290
     0
  0
SCALE
  5
57
102
{ACAD_REACTORS
330
47
102
}
330
47
100
AcDbScale
 70
     0
300
10:1
140
10.0
141
1.0
290
     0
  0
SCALE
  5
58
102
{ACAD_REACTORS
330
47
102
}
330
47
100
AcDbScale
 70
     0
300
100:1
140
100.0
141
1.0
290
     0
  0
SCALE
  5
59
102
{ACAD_REACTORS
330
47
102
}
330
47
100
AcDbScale
 70
     0
300
1/128" = 1'-0"
140
0.0078125
141
12.0
290
     0
  0
SCALE
  5
5A
102
{ACAD_REACTORS
330
47
102
}
330
47
100
AcDbScale
 70
     0
300
1/64" = 1'-0"
140
0.015625
141
12.0
290
     0
  0
SCALE
  5
5B
102
{ACAD_REACTORS
330
47
102
}
330
47
100
AcDbScale
 70
     0
300
1/32" = 1'-0"
140
0.03125
141
12.0
290
     0
  0
SCALE
  5
5C
102
{ACAD_REACTORS
330
47
102
}
330
47
100
AcDbScale
 70
     0
300
1/16" = 1'-0"
140
0.0625
141
12.0
290
     0
  0
SCALE
  5
5D
102
{ACAD_REACTORS
330
47
102
}
330
47
100
AcDbScale
 70
     0
300
3/32" = 1'-0"
140
0.09375
141
12.0
290
     0
  0
SCALE
  5
5E
102
{ACAD_REACTORS
330
47
102
}
330
47
100
AcDbScale
 70
     0
300
1/8" = 1'-0"
140
0.125
141
12.0
290
     0
  0
SCALE
  5
5F
102
{ACAD_REACTORS
330
47
102
}
330
47
100
AcDbScale
 70
     0
300
3/16" = 1'-0"
140
0.1875
141
12.0
290
     0
  0
SCALE
  5
60
102
{ACAD_REACTORS
330
47
102
}
330
47
100
AcDbScale
 70
     0
300
1/4" = 1'-0"
140
0.25
141
12.0
290
     0
  0
SCALE
  5
61
102
{ACAD_REACTORS
330
47
102
}
330
47
100
AcDbScale
 70
     0
300
3/8" = 1'-0"
140
0.375
141
12.0
290
     0
  0
SCALE
  5
62
102
{ACAD_REACTORS
330
47
102
}
330
47
100
AcDbScale
 70
     0
300
1/2" = 1'-0"
140
0.5
141
12.0
290
     0
  0
SCALE
  5
63
102
{ACAD_REACTORS
330
47
102
}
330
47
100
AcDbScale
 70
     0
300
3/4" = 1'-0"
140
0.75
141
12.0
290
     0
  0
SCALE
  5
64
102
{ACAD_REACTORS
330
47
102
}
330
47
100
AcDbScale
 70
     0
300
1" = 1'-0"
140
1.0
141
12.0
290
     0
  0
SCALE
  5
65
102
{ACAD_REACTORS
330
47
102
}
330
47
100
AcDbScale
 70
     0
300
1-1/2" = 1'-0"
140
1.5
141
12.0
290
     0
  0
SCALE
  5
66
102
{ACAD_REACTORS
330
47
102
}
330
47
100
AcDbScale
 70
     0
300
3" = 1'-0"
140
3.0
141
12.0
290
     0
  0
SCALE
  5
67
102
{ACAD_REACTORS
330
47
102
}
330
47
100
AcDbScale
 70
     0
300
6" = 1'-0"
140
6.0
141
12.0
290
     0
  0
SCALE
  5
68
102
{ACAD_REACTORS
330
47
102
}
330
47
100
AcDbScale
 70
     0
300
1'-0" = 1'-0"
140
12.0
141
12.0
290
     0
  0
ENDSEC
  0
EOF
