  0
SECTION
  2
HEADER
  9
$ACADVER
  1
AC1015
  9
$ACADMAINTVER
 70
     6
  9
$DWGCODEPAGE
  3
ANSI_949
  9
$INSBASE
 10
0.0
 20
0.0
 30
0.0
  9
$EXTMIN
 10
-56.87661715793821
 20
-49.98438634254138
 30
0.0
  9
$EXTMAX
 10
59.3576834786751
 20
61.97549052575066
 30
0.0
  9
$LIMMIN
 10
0.0
 20
0.0
  9
$LIMMAX
 10
420.0
 20
297.0
  9
$ORTHOMODE
 70
     1
  9
$REGENMODE
 70
     1
  9
$FILLMODE
 70
     1
  9
$QTEXTMODE
 70
     0
  9
$MIRRTEXT
 70
     1
  9
$LTSCALE
 40
1.0
  9
$ATTMODE
 70
     1
  9
$TEXTSIZE
 40
3.5
  9
$TRACEWID
 40
1.0
  9
$TEXTSTYLE
  7
Standard
  9
$CLAYER
  8
0
  9
$CELTYPE
  6
ByLayer
  9
$CECOLOR
 62
   256
  9
$CELTSCALE
 40
1.0
  9
$DISPSILH
 70
     0
  9
$DIMSCALE
 40
1.0
  9
$DIMASZ
 40
3.302
  9
$DIMEXO
 40
1.0
  9
$DIMDLI
 40
3.75
  9
$DIMRND
 40
0.0
  9
$DIMDLE
 40
0.0
  9
$DIMEXE
 40
1.0
  9
$DIMTP
 40
0.0
  9
$DIMTM
 40
0.0
  9
$DIMTXT
 40
3.5
  9
$DIMCEN
 40
2.5
  9
$DIMTSZ
 40
0.0
  9
$DIMTOL
 70
     0
  9
$DIMLIM
 70
     0
  9
$DIMTIH
 70
     1
  9
$DIMTOH
 70
     1
  9
$DIMSE1
 70
     0
  9
$DIMSE2
 70
     0
  9
$DIMTAD
 70
     1
  9
$DIMZIN
 70
     0
  9
$DIMBLK
  1

  9
$DIMASO
 70
     1
  9
$DIMSHO
 70
     1
  9
$DIMPOST
  1

  9
$DIMAPOST
  1

  9
$DIMALT
 70
     0
  9
$DIMALTD
 70
     3
  9
$DIMALTF
 40
0.0393700787401575
  9
$DIMLFAC
 40
1.0
  9
$DIMTOFL
 70
     1
  9
$DIMTVP
 40
0.0
  9
$DIMTIX
 70
     0
  9
$DIMSOXD
 70
     0
  9
$DIMSAH
 70
     0
  9
$DIMBLK1
  1

  9
$DIMBLK2
  1

  9
$DIMSTYLE
  2
ISO-25
  9
$DIMCLRD
 70
     0
  9
$DIMCLRE
 70
     0
  9
$DIMCLRT
 70
     0
  9
$DIMTFAC
 40
1.0
  9
$DIMGAP
 40
1.524
  9
$DIMJUST
 70
     0
  9
$DIMSD1
 70
     0
  9
$DIMSD2
 70
     0
  9
$DIMTOLJ
 70
     0
  9
$DIMTZIN
 70
     0
  9
$DIMALTZ
 70
     0
  9
$DIMALTTZ
 70
     0
  9
$DIMUPT
 70
     0
  9
$DIMDEC
 70
     2
  9
$DIMTDEC
 70
     2
  9
$DIMALTU
 70
     2
  9
$DIMALTTD
 70
     3
  9
$DIMTXSTY
  7
Standard
  9
$DIMAUNIT
 70
     0
  9
$DIMADEC
 70
     2
  9
$DIMALTRND
 40
0.0
  9
$DIMAZIN
 70
     0
  9
$DIMDSEP
 70
    44
  9
$DIMATFIT
 70
     3
  9
$DIMFRAC
 70
     0
  9
$DIMLDRBLK
  1

  9
$DIMLUNIT
 70
     2
  9
$DIMLWD
 70
    -2
  9
$DIMLWE
 70
    -2
  9
$DIMTMOVE
 70
     0
  9
$LUNITS
 70
     2
  9
$LUPREC
 70
     2
  9
$SKETCHINC
 40
1.0
  9
$FILLETRAD
 40
10.0
  9
$AUNITS
 70
     0
  9
$AUPREC
 70
     2
  9
$MENU
  1
.
  9
$ELEVATION
 40
0.0
  9
$PELEVATION
 40
0.0
  9
$THICKNESS
 40
0.0
  9
$LIMCHECK
 70
     0
  9
$CHAMFERA
 40
0.0
  9
$CHAMFERB
 40
0.0
  9
$CHAMFERC
 40
0.0
  9
$CHAMFERD
 40
0.0
  9
$SKPOLY
 70
     0
  9
$TDCREATE
 40
2458340.593417141
  9
$TDUCREATE
 40
2458340.218417141
  9
$TDUPDATE
 40
2458341.456316979
  9
$TDUUPDATE
 40
2458341.081316979
  9
$TDINDWG
 40
0.0030941782
  9
$TDUSRTIMER
 40
2458341.078222894
  9
$USRTIMER
 70
     1
  9
$ANGBASE
 50
0.0
  9
$ANGDIR
 70
     0
  9
$PDMODE
 70
     0
  9
$PDSIZE
 40
-1.0
  9
$PLINEWID
 40
0.0
  9
$SPLFRAME
 70
     0
  9
$SPLINETYPE
 70
     6
  9
$SPLINESEGS
 70
     8
  9
$HANDSEED
  5
18A
  9
$SURFTAB1
 70
     6
  9
$SURFTAB2
 70
     6
  9
$SURFTYPE
 70
     6
  9
$SURFU
 70
     6
  9
$SURFV
 70
     6
  9
$UCSBASE
  2

  9
$UCSNAME
  2

  9
$UCSORG
 10
0.0
 20
0.0
 30
0.0
  9
$UCSXDIR
 10
1.0
 20
0.0
 30
0.0
  9
$UCSYDIR
 10
0.0
 20
1.0
 30
0.0
  9
$UCSORTHOREF
  2

  9
$UCSORTHOVIEW
 70
     0
  9
$UCSORGTOP
 10
0.0
 20
0.0
 30
0.0
  9
$UCSORGBOTTOM
 10
0.0
 20
0.0
 30
0.0
  9
$UCSORGLEFT
 10
0.0
 20
0.0
 30
0.0
  9
$UCSORGRIGHT
 10
0.0
 20
0.0
 30
0.0
  9
$UCSORGFRONT
 10
0.0
 20
0.0
 30
0.0
  9
$UCSORGBACK
 10
0.0
 20
0.0
 30
0.0
  9
$PUCSBASE
  2

  9
$PUCSNAME
  2

  9
$PUCSORG
 10
0.0
 20
0.0
 30
0.0
  9
$PUCSXDIR
 10
1.0
 20
0.0
 30
0.0
  9
$PUCSYDIR
 10
0.0
 20
1.0
 30
0.0
  9
$PUCSORTHOREF
  2

  9
$PUCSORTHOVIEW
 70
     0
  9
$PUCSORGTOP
 10
0.0
 20
0.0
 30
0.0
  9
$PUCSORGBOTTOM
 10
0.0
 20
0.0
 30
0.0
  9
$PUCSORGLEFT
 10
0.0
 20
0.0
 30
0.0
  9
$PUCSORGRIGHT
 10
0.0
 20
0.0
 30
0.0
  9
$PUCSORGFRONT
 10
0.0
 20
0.0
 30
0.0
  9
$PUCSORGBACK
 10
0.0
 20
0.0
 30
0.0
  9
$USERI1
 70
     0
  9
$USERI2
 70
     0
  9
$USERI3
 70
     0
  9
$USERI4
 70
     0
  9
$USERI5
 70
     0
  9
$USERR1
 40
0.0
  9
$USERR2
 40
0.0
  9
$USERR3
 40
0.0
  9
$USERR4
 40
0.0
  9
$USERR5
 40
0.0
  9
$WORLDVIEW
 70
     1
  9
$SHADEDGE
 70
     3
  9
$SHADEDIF
 70
    70
  9
$TILEMODE
 70
     1
  9
$MAXACTVP
 70
    64
  9
$PINSBASE
 10
0.0
 20
0.0
 30
0.0
  9
$PLIMCHECK
 70
     0
  9
$PEXTMIN
 10
1.000000000000000E+20
 20
1.000000000000000E+20
 30
1.000000000000000E+20
  9
$PEXTMAX
 10
-1.000000000000000E+20
 20
-1.000000000000000E+20
 30
-1.000000000000000E+20
  9
$PLIMMIN
 10
0.0
 20
0.0
  9
$PLIMMAX
 10
0.0
 20
0.0
  9
$UNITMODE
 70
     0
  9
$VISRETAIN
 70
     1
  9
$PLINEGEN
 70
     0
  9
$PSLTSCALE
 70
     1
  9
$TREEDEPTH
 70
  3020
  9
$CMLSTYLE
  2
Standard
  9
$CMLJUST
 70
     0
  9
$CMLSCALE
 40
20.0
  9
$PROXYGRAPHICS
 70
     1
  9
$MEASUREMENT
 70
     1
  9
$CELWEIGHT
370
    -1
  9
$ENDCAPS
280
     0
  9
$JOINSTYLE
280
     0
  9
$LWDISPLAY
290
     1
  9
$INSUNITS
 70
     4
  9
$HYPERLINKBASE
  1

  9
$STYLESHEET
  1

  9
$XEDIT
290
     1
  9
$CEPSNTYPE
380
     0
  9
$PSTYLEMODE
290
     1
  9
$FINGERPRINTGUID
  2
{2316E20C-5837-4622-8294-4091FD83E72F}
  9
$VERSIONGUID
  2
{FAEB1C32-E019-11D5-929B-00C0DF256EC4}
  9
$EXTNAMES
290
     1
  9
$PSVPSCALE
 40
0.0
  9
$OLESTARTUP
290
     0
  0
ENDSEC
  0
SECTION
  2
CLASSES
  0
CLASS
  1
ACDBDICTIONARYWDFLT
  2
AcDbDictionaryWithDefault
  3
ObjectDBX Classes
 90
        0
280
     0
281
     0
  0
CLASS
  1
VISUALSTYLE
  2
AcDbVisualStyle
  3
ObjectDBX Classes
 90
     4095
280
     0
281
     0
  0
CLASS
  1
MATERIAL
  2
AcDbMaterial
  3
ObjectDBX Classes
 90
     1153
280
     0
281
     0
  0
CLASS
  1
SCALE
  2
AcDbScale
  3
ObjectDBX Classes
 90
     1153
280
     0
281
     0
  0
CLASS
  1
SUN
  2
AcDbSun
  3
SCENEOE
 90
     1153
280
     0
281
     0
  0
CLASS
  1
ACDBPLACEHOLDER
  2
AcDbPlaceHolder
  3
ObjectDBX Classes
 90
        0
280
     0
281
     0
  0
CLASS
  1
LAYOUT
  2
AcDbLayout
  3
ObjectDBX Classes
 90
        0
280
     0
281
     0
  0
CLASS
  1
TABLESTYLE
  2
AcDbTableStyle
  3
ObjectDBX Classes
 90
     4095
280
     0
281
     0
  0
CLASS
  1
MLEADERSTYLE
  2
AcDbMLeaderStyle
  3
ACDB_MLEADERSTYLE_CLASS
 90
     4095
280
     0
281
     0
  0
CLASS
  1
RASTERVARIABLES
  2
AcDbRasterVariables
  3
ISM
 90
        0
280
     0
281
     0
  0
CLASS
  1
DIMASSOC
  2
AcDbDimAssoc
  3
"AcDbDimAssoc|Product Desc:     AcDim ARX App For Dimension|Company:          Autodesk, Inc.|WEB Address:      www.autodesk.com"
 90
        0
280
     0
281
     0
  0
ENDSEC
  0
SECTION
  2
TABLES
  0
TABLE
  2
VPORT
  5
8
330
0
100
AcDbSymbolTable
 70
     1
  0
VPORT
  5
29
330
8
100
AcDbSymbolTableRecord
100
AcDbViewportTableRecord
  2
*Active
 70
     0
 10
0.0
 20
0.0
 11
1.0
 21
1.0
 12
-1.213053504800101
 22
21.03576907222436
 13
0.0
 23
0.0
 14
10.0
 24
10.0
 15
10.0
 25
10.0
 16
0.0
 26
0.0
 36
1.0
 17
0.0
 27
0.0
 37
0.0
 40
185.7833357997237
 41
1.444267515923567
 42
50.0
 43
0.0
 44
0.0
 50
0.0
 51
0.0
 71
    16
 72
  2000
 73
     1
 74
     3
 75
     0
 76
     0
 77
     0
 78
     0
281
     0
 65
     1
110
0.0
120
0.0
130
0.0
111
1.0
121
0.0
131
0.0
112
0.0
122
1.0
132
0.0
 79
     0
146
0.0
  0
ENDTAB
  0
TABLE
  2
LTYPE
  5
5
330
0
100
AcDbSymbolTable
 70
     6
  0
LTYPE
  5
14
330
5
100
AcDbSymbolTableRecord
100
AcDbLinetypeTableRecord
  2
ByBlock
 70
     0
  3

 72
    65
 73
     0
 40
0.0
  0
LTYPE
  5
15
330
5
100
AcDbSymbolTableRecord
100
AcDbLinetypeTableRecord
  2
ByLayer
 70
     0
  3

 72
    65
 73
     0
 40
0.0
  0
LTYPE
  5
16
330
5
100
AcDbSymbolTableRecord
100
AcDbLinetypeTableRecord
  2
Continuous
 70
     0
  3
Solid line
 72
    65
 73
     0
 40
0.0
  0
LTYPE
  5
6A
330
5
100
AcDbSymbolTableRecord
100
AcDbLinetypeTableRecord
  2
HIDDEN
 70
     0
  3
Hidden __ __ __ __ __ __ __ __ __ __ __ __ __ __
 72
    65
 73
     2
 40
1.905
 49
1.27
 74
     0
 49
-0.635
 74
     0
  0
LTYPE
  5
6B
330
5
100
AcDbSymbolTableRecord
100
AcDbLinetypeTableRecord
  2
PHANTOM
 70
     0
  3
Phantom ______  __  __  ______  __  __  ______
 72
    65
 73
     6
 40
12.7
 49
6.35
 74
     0
 49
-1.27
 74
     0
 49
1.27
 74
     0
 49
-1.27
 74
     0
 49
1.27
 74
     0
 49
-1.27
 74
     0
  0
LTYPE
  5
6C
330
5
100
AcDbSymbolTableRecord
100
AcDbLinetypeTableRecord
  2
CENTER
 70
     0
  3
Center ____ _ ____ _ ____ _ ____ _ ____ _ ____
 72
    65
 73
     4
 40
10.16
 49
6.35
 74
     0
 49
-1.27
 74
     0
 49
1.27
 74
     0
 49
-1.27
 74
     0
  0
LTYPE
  5
6D
330
5
100
AcDbSymbolTableRecord
100
AcDbLinetypeTableRecord
  2
CENTERX2
 70
     0
  3
Center (2x) ________  __  ________  __  _____
 72
    65
 73
     4
 40
20.32
 49
12.7
 74
     0
 49
-2.54
 74
     0
 49
2.54
 74
     0
 49
-2.54
 74
     0
  0
LTYPE
  5
6E
330
5
100
AcDbSymbolTableRecord
100
AcDbLinetypeTableRecord
  2
DOT2
 70
     0
  3
Dot (.5x) ........................................
 72
    65
 73
     2
 40
0.635
 49
0.0
 74
     0
 49
-0.635
 74
     0
  0
ENDTAB
  0
TABLE
  2
LAYER
  5
2
330
0
100
AcDbSymbolTable
 70
    17
  0
LAYER
  5
10
330
2
100
AcDbSymbolTableRecord
100
AcDbLayerTableRecord
  2
0
 70
     0
 62
     7
  6
Continuous
370
    -3
390
F
  0
LAYER
  5
6F
330
2
100
AcDbSymbolTableRecord
100
AcDbLayerTableRecord
  2
FORMAT
 70
     0
 62
     2
  6
Continuous
370
    -3
390
F
  0
LAYER
  5
70
330
2
100
AcDbSymbolTableRecord
100
AcDbLayerTableRecord
  2
외형선
 70
     0
 62
   100
  6
Continuous
370
    30
390
F
  0
LAYER
  5
71
330
2
100
AcDbSymbolTableRecord
100
AcDbLayerTableRecord
  2
숨은선
 70
     0
 62
     2
  6
HIDDEN
370
    15
390
F
  0
LAYER
  5
72
330
2
100
AcDbSymbolTableRecord
100
AcDbLayerTableRecord
  2
중심선
 70
     0
 62
     1
  6
CENTERX2
370
    -3
390
F
  0
LAYER
  5
73
330
2
100
AcDbSymbolTableRecord
100
AcDbLayerTableRecord
  2
파단선
 70
     0
 62
     4
  6
Continuous
370
    -3
390
F
  0
LAYER
  5
74
330
2
100
AcDbSymbolTableRecord
100
AcDbLayerTableRecord
  2
해칭선
 70
     0
 62
     4
  6
Continuous
370
    -3
390
F
  0
LAYER
  5
75
330
2
100
AcDbSymbolTableRecord
100
AcDbLayerTableRecord
  2
가는실선
 70
     0
 62
     4
  6
Continuous
370
    -3
390
F
  0
LAYER
  5
76
330
2
100
AcDbSymbolTableRecord
100
AcDbLayerTableRecord
  2
치수_보조선
 70
     0
 62
     4
  6
Continuous
370
    -3
390
F
  0
LAYER
  5
77
330
2
100
AcDbSymbolTableRecord
100
AcDbLayerTableRecord
  2
치수문자_일반주서
 70
     0
 62
     7
  6
Continuous
370
    15
390
F
  0
LAYER
  5
78
330
2
100
AcDbSymbolTableRecord
100
AcDbLayerTableRecord
  2
개별주서
 70
     0
 62
   100
  6
Continuous
370
    30
390
F
  0
LAYER
  5
79
330
2
100
AcDbSymbolTableRecord
100
AcDbLayerTableRecord
  2
중간선
 70
     0
 62
     2
  6
Continuous
370
    15
390
F
  0
LAYER
  5
7A
330
2
100
AcDbSymbolTableRecord
100
AcDbLayerTableRecord
  2
윤곽선
 70
     0
 62
     3
  6
Continuous
370
    40
390
F
  0
LAYER
  5
7B
330
2
100
AcDbSymbolTableRecord
100
AcDbLayerTableRecord
  2
중심마크
 70
     0
 62
   100
  6
Continuous
370
    30
390
F
  0
LAYER
  5
7C
330
2
100
AcDbSymbolTableRecord
100
AcDbLayerTableRecord
  2
가상선
 70
     0
 62
     4
  6
PHANTOM
370
    -3
390
F
  0
LAYER
  5
7D
330
2
100
AcDbSymbolTableRecord
100
AcDbLayerTableRecord
  2
특수지정선
 70
     0
 62
     5
  6
CENTERX2
370
    60
390
F
  0
LAYER
  5
14E
330
2
100
AcDbSymbolTableRecord
100
AcDbLayerTableRecord
  2
Defpoints
 70
     0
 62
     7
  6
Continuous
290
     0
370
    -3
390
F
  0
ENDTAB
  0
TABLE
  2
STYLE
  5
3
330
0
100
AcDbSymbolTable
 70
     2
  0
STYLE
  5
11
330
3
100
AcDbSymbolTableRecord
100
AcDbTextStyleTableRecord
  2
Standard
 70
     0
 40
0.0
 41
1.0
 50
0.0
 71
     0
 42
3.5
  3
txt
  4

  0
STYLE
  5
93
330
3
100
AcDbSymbolTableRecord
100
AcDbTextStyleTableRecord
  2
SLDTEXTSTYLE0
 70
     0
 40
0.0
 41
0.75
 50
0.0
 71
     0
 42
3.5
  3
TXT
  4

  0
ENDTAB
  0
TABLE
  2
VIEW
  5
6
330
0
100
AcDbSymbolTable
 70
     0
  0
ENDTAB
  0
TABLE
  2
UCS
  5
7
330
0
100
AcDbSymbolTable
 70
     0
  0
ENDTAB
  0
TABLE
  2
APPID
  5
9
330
0
100
AcDbSymbolTable
 70
     2
  0
APPID
  5
12
330
9
100
AcDbSymbolTableRecord
100
AcDbRegAppTableRecord
  2
ACAD
 70
     0
  0
APPID
  5
188
330
9
100
AcDbSymbolTableRecord
100
AcDbRegAppTableRecord
  2
PE_DIMMEASUREMENT
 70
     0
  0
ENDTAB
  0
TABLE
  2
DIMSTYLE
  5
A
330
0
100
AcDbSymbolTable
 70
     4
100
AcDbDimStyleTable
  0
DIMSTYLE
105
27
330
A
100
AcDbSymbolTableRecord
100
AcDbDimStyleTableRecord
  2
ISO-25
 70
     0
 41
2.5
 42
0.625
 43
3.75
 44
1.25
 73
     0
 74
     0
 77
     1
 78
     8
140
2.5
141
2.5
143
0.03937007874016
147
0.625
171
     3
172
     1
178
     0
271
     2
272
     2
274
     3
278
    44
283
     0
284
     8
340
11
  0
DIMSTYLE
105
EB
102
{ACAD_REACTORS
330
EA
330
163
330
175
102
}
330
A
100
AcDbSymbolTableRecord
100
AcDbDimStyleTableRecord
  2
SLDDIMSTYLE0
 70
     0
 41
3.302
 44
0.0
 45
0.000000001
 73
     0
 74
     0
 77
     1
 78
    12
 79
     3
140
3.5
143
0.0393700787401575
147
0.875
148
0.000000001
170
     1
173
     1
178
     0
271
     2
272
     2
276
     2
284
    12
340
93
  0
DIMSTYLE
105
FF
102
{ACAD_REACTORS
330
FE
330
14F
102
}
330
A
100
AcDbSymbolTableRecord
100
AcDbDimStyleTableRecord
  2
SLDDIMSTYLE1
 70
     0
 41
3.302
 44
0.0
 45
0.000000001
 73
     0
 74
     0
 77
     1
 78
     4
 79
     1
140
3.5
143
0.0393700787401575
147
0.875
148
0.000000001
170
     1
173
     1
178
     0
271
     2
272
     2
276
     2
284
    12
340
93
  0
DIMSTYLE
105
113
330
A
100
AcDbSymbolTableRecord
100
AcDbDimStyleTableRecord
  2
SLDDIMSTYLE2
 70
     0
 41
3.302
 44
0.0
 45
0.000000001
 73
     0
 74
     0
 77
     1
 78
     8
 79
     2
140
3.5
143
0.0393700787401575
147
0.875
148
0.000000001
170
     1
172
     1
173
     1
178
     0
271
     2
272
     2
276
     2
284
    12
289
     0
340
93
341
114
343
114
344
114
  0
ENDTAB
  0
TABLE
  2
BLOCK_RECORD
  5
1
330
0
100
AcDbSymbolTable
 70
    10
  0
BLOCK_RECORD
  5
1F
330
1
100
AcDbSymbolTableRecord
100
AcDbBlockTableRecord
  2
*Model_Space
340
22
  0
BLOCK_RECORD
  5
1B
330
1
100
AcDbSymbolTableRecord
100
AcDbBlockTableRecord
  2
*Paper_Space
340
1E
  0
BLOCK_RECORD
  5
23
330
1
100
AcDbSymbolTableRecord
100
AcDbBlockTableRecord
  2
*Paper_Space0
340
26
  0
BLOCK_RECORD
  5
7E
330
1
100
AcDbSymbolTableRecord
100
AcDbBlockTableRecord
  2
블럭10
340
0
102
{BLKREFS
331
E3
102
}
  0
BLOCK_RECORD
  5
EC
330
1
100
AcDbSymbolTableRecord
100
AcDbBlockTableRecord
  2
_D
340
0
  0
BLOCK_RECORD
  5
100
330
1
100
AcDbSymbolTableRecord
100
AcDbBlockTableRecord
  2
_D_1
340
0
  0
BLOCK_RECORD
  5
114
330
1
100
AcDbSymbolTableRecord
100
AcDbBlockTableRecord
  2
_NONE
340
0
  0
BLOCK_RECORD
  5
117
330
1
100
AcDbSymbolTableRecord
100
AcDbBlockTableRecord
  2
_D_2
340
0
  0
BLOCK_RECORD
  5
123
330
1
100
AcDbSymbolTableRecord
100
AcDbBlockTableRecord
  2
SW_DOWELSYMBOL_0
340
0
102
{BLKREFS
331
129
102
}
  0
BLOCK_RECORD
  5
152
330
1
100
AcDbSymbolTableRecord
100
AcDbBlockTableRecord
  2
*D7
340
0
  0
BLOCK_RECORD
  5
166
330
1
100
AcDbSymbolTableRecord
100
AcDbBlockTableRecord
  2
*D8
340
0
  0
BLOCK_RECORD
  5
178
330
1
100
AcDbSymbolTableRecord
100
AcDbBlockTableRecord
  2
*D9
340
0
  0
ENDTAB
  0
ENDSEC
  0
SECTION
  2
BLOCKS
  0
BLOCK
  5
20
330
1F
100
AcDbEntity
  8
0
100
AcDbBlockBegin
  2
*Model_Space
 70
     0
 10
0.0
 20
0.0
 30
0.0
  3
*Model_Space
  1
*Model_Space
  0
ENDBLK
  5
21
330
1F
100
AcDbEntity
  8
0
100
AcDbBlockEnd
  0
BLOCK
  5
1C
330
1B
100
AcDbEntity
 67
     1
  8
0
100
AcDbBlockBegin
  2
*Paper_Space
 70
     0
 10
0.0
 20
0.0
 30
0.0
  3
*Paper_Space
  1
*Paper_Space
  0
ENDBLK
  5
1D
330
1B
100
AcDbEntity
 67
     1
  8
0
100
AcDbBlockEnd
  0
BLOCK
  5
24
330
23
100
AcDbEntity
  8
0
100
AcDbBlockBegin
  2
*Paper_Space0
 70
     0
 10
0.0
 20
0.0
 30
0.0
  3
*Paper_Space0
  1
*Paper_Space0
  0
ENDBLK
  5
25
330
23
100
AcDbEntity
  8
0
100
AcDbBlockEnd
  0
BLOCK
  5
7F
330
7E
100
AcDbEntity
  8
0
100
AcDbBlockBegin
  2
블럭10
 70
     2
 10
0.0
 20
0.0
 30
0.0
  3
블럭10
  1
블럭10
  0
ELLIPSE
  5
81
330
7E
100
AcDbEntity
  8
중심선
100
AcDbEllipse
 10
20.54032771741204
 20
12.0471743016438
 30
0.0
 11
6.600054785286829
 21
-1.261213355974178E-13
 31
0.0
210
0.0
220
0.0
230
1.0
 40
0.636358354079598
 41
0.9219305317359503
 42
6.513795318482858
  0
ELLIPSE
  5
82
330
7E
100
AcDbEntity
  8
중심선
100
AcDbEllipse
 10
20.54032771746488
 20
12.04717430159265
 30
0.0
 11
3.960054785062283
 21
1.540847449632565E-10
 31
0.0
210
0.0
220
0.0
230
1.0
 40
0.3939339440162632
 41
1.131841032648279
 42
5.62031148352944
  0
LINE
  5
83
330
7E
100
AcDbEntity
  8
중심선
100
AcDbLine
 10
2.268634060543552
 20
16.24717430164393
 30
0.0
 11
5.714909304380834
 21
16.24717430164393
 31
0.0
  0
LINE
  5
84
330
7E
100
AcDbEntity
  8
중심선
100
AcDbLine
 10
5.245725140726316
 20
7.84717430164391
 30
0.0
 11
8.692000384563599
 21
7.84717430164391
 31
0.0
  0
LINE
  5
85
330
7E
100
AcDbEntity
  8
중심선
100
AcDbLine
 10
15.74043728645272
 20
16.24717430164393
 30
0.0
 11
8.692000384563599
 21
7.84717430164391
 31
0.0
  0
LINE
  5
86
330
7E
100
AcDbEntity
  8
중심선
100
AcDbLine
 10
0.1404042013395286
 20
13.71084872107135
 30
0.0
 11
3.58671253028996
 21
13.71088815037384
 31
0.0
  0
LINE
  5
87
330
7E
100
AcDbEntity
  8
중심선
100
AcDbLine
 10
2.750260043222114
 20
10.84717430164391
 30
0.0
 11
6.196535287059397
 21
10.84717430164391
 31
0.0
  0
LINE
  5
88
330
7E
100
AcDbEntity
  8
중심선
100
AcDbLine
 10
12.29416204261559
 20
16.24717430164393
 30
0.0
 11
5.245725140726316
 21
7.84717430164391
 31
0.0
  0
LINE
  5
89
330
7E
100
AcDbEntity
  8
중심선
100
AcDbLine
 10
10.72767329541681
 20
16.24717430164393
 30
0.0
 11
6.196535287059397
 21
10.84717430164391
 31
0.0
  0
LINE
  5
8A
330
7E
100
AcDbEntity
  8
중심선
100
AcDbLine
 10
7.28139805157953
 20
16.24717430164393
 30
0.0
 11
2.750260043222114
 21
10.84717430164391
 31
0.0
  0
LINE
  5
8B
330
7E
100
AcDbEntity
  8
중심선
100
AcDbLine
 10
5.714909304380834
 20
16.24717430164393
 30
0.0
 11
3.58671253028996
 21
13.71088815037384
 31
0.0
  0
LINE
  5
8C
330
7E
100
AcDbEntity
  8
중심선
100
AcDbLine
 10
2.268634060543552
 20
16.24717430164393
 30
0.0
 11
0.1404042013395286
 21
13.71084872107135
 31
0.0
  0
LINE
  5
8D
330
7E
100
AcDbEntity
  8
중심선
100
AcDbLine
 10
7.28139805157953
 20
16.24717430164393
 30
0.0
 11
10.72767329541681
 21
16.24717430164393
 31
0.0
  0
LINE
  5
8E
330
7E
100
AcDbEntity
  8
중심선
100
AcDbLine
 10
12.29416204261559
 20
16.24717430164393
 30
0.0
 11
15.74043728645272
 21
16.24717430164393
 31
0.0
  0
LINE
  5
8F
330
7E
100
AcDbEntity
  8
중심선
100
AcDbLine
 10
19.22036997980202
 20
11.08717430171403
 30
0.0
 11
23.66174974927406
 21
11.08717430171406
 31
0.0
  0
LINE
  5
90
330
7E
100
AcDbEntity
  8
중심선
100
AcDbLine
 10
19.22039502424796
 20
13.00717430171391
 30
0.0
 11
19.22036997980202
 21
11.08717430171403
 31
0.0
  0
LINE
  5
91
330
7E
100
AcDbEntity
  8
중심선
100
AcDbLine
 10
19.22039502424796
 20
13.00717430171391
 30
0.0
 11
26.96566020931264
 21
13.00717430171391
 31
0.0
  0
LINE
  5
92
330
7E
100
AcDbEntity
  8
중심선
100
AcDbLine
 10
22.22332737316547
 20
13.45928029700563
 30
0.0
 11
24.52862924686651
 21
15.39360700705356
 31
0.0
  0
ATTDEF
  5
94
330
7E
100
AcDbEntity
  8
FORMAT
 62
     2
100
AcDbText
 10
-9.18129528874128
 20
2.075366912832191
 30
0.0
 40
4.233333333333333
  1
E5078308 [ 3 FLUTE ]
 41
0.75
  7
SLDTEXTSTYLE0
 11
-9.18129528874128
 21
-0.0412997538344756
 31
0.0
100
AcDbAttributeDefinition
  3

  2
AUTOATTR0
 70
     0
 74
     1
  0
ENDBLK
  5
80
330
7E
100
AcDbEntity
  8
0
100
AcDbBlockEnd
  0
BLOCK
  5
ED
330
EC
100
AcDbEntity
  8
0
100
AcDbBlockBegin
  2
_D
 70
     0
 10
0.0
 20
0.0
 30
0.0
  3
_D
  1
_D
  0
LINE
  5
EF
330
EC
100
AcDbEntity
  8
치수문자_일반주서
 62
     0
370
    -2
100
AcDbLine
 10
37.90799999999999
 20
1.649999999999994
 30
0.0
 11
37.90799999999999
 21
42.07515698630877
 31
0.0
  0
LINE
  5
F0
330
EC
100
AcDbEntity
  8
치수문자_일반주서
 62
     0
370
    -2
100
AcDbLine
 10
12.508
 20
3.914274598917539
 30
0.0
 11
12.508
 21
42.07515698630877
 31
0.0
  0
LINE
  5
F1
330
EC
100
AcDbEntity
  8
치수문자_일반주서
 62
     0
370
    -2
100
AcDbLine
 10
34.60599999999999
 20
42.07515698630877
 30
0.0
 11
15.81
 21
42.07515698630877
 31
0.0
  0
SOLID
  5
F2
330
EC
100
AcDbEntity
  8
치수문자_일반주서
 62
     0
100
AcDbTrace
 10
34.60599999999999
 20
41.52482365297544
 30
0.0
 11
34.60599999999999
 21
42.6254903196421
 31
0.0
 12
37.90799999999999
 22
42.07515698630877
 32
0.0
 13
37.90799999999999
 23
42.07515698630877
 33
0.0
  0
SOLID
  5
F3
330
EC
100
AcDbEntity
  8
치수문자_일반주서
 62
     0
100
AcDbTrace
 10
15.81
 20
42.6254903196421
 30
0.0
 11
15.81
 21
41.52482365297544
 31
0.0
 12
12.508
 22
42.07515698630877
 32
0.0
 13
12.508
 23
42.07515698630877
 33
0.0
  0
MTEXT
  5
F4
330
EC
100
AcDbEntity
  8
치수문자_일반주서
 62
     0
100
AcDbMText
 10
25.208
 20
46.45015698630877
 30
0.0
 40
3.5
 41
0.0
 71
     2
 72
     1
  1
\A1;25.4 [1]
  7
SLDTEXTSTYLE0
 73
     1
 44
1.0
  0
POINT
  5
F5
330
EC
100
AcDbEntity
  8
Defpoints
 62
     0
100
AcDbPoint
 10
37.90799999999999
 20
1.587499999999994
 30
0.0
  0
POINT
  5
F6
330
EC
100
AcDbEntity
  8
Defpoints
 62
     0
100
AcDbPoint
 10
12.508
 20
3.851774598917539
 30
0.0
  0
POINT
  5
F7
330
EC
100
AcDbEntity
  8
Defpoints
 62
     0
100
AcDbPoint
 10
12.508
 20
42.07515698630877
 30
0.0
  0
ENDBLK
  5
EE
330
EC
100
AcDbEntity
  8
0
100
AcDbBlockEnd
  0
BLOCK
  5
101
330
100
100
AcDbEntity
  8
0
100
AcDbBlockBegin
  2
_D_1
 70
     0
 10
0.0
 20
0.0
 30
0.0
  3
_D_1
  1
_D_1
  0
LINE
  5
103
330
100
100
AcDbEntity
  8
치수문자_일반주서
 62
     0
370
    -2
100
AcDbLine
 10
37.90799999999999
 20
1.649999999999994
 30
0.0
 11
37.908
 21
57.60049052575066
 31
0.0
  0
LINE
  5
104
330
100
100
AcDbEntity
  8
치수문자_일반주서
 62
     0
370
    -2
100
AcDbLine
 10
-38.29200000000002
 20
2.427499999999987
 30
0.0
 11
-38.29200000000001
 21
57.60049052575066
 31
0.0
  0
LINE
  5
105
330
100
100
AcDbEntity
  8
치수문자_일반주서
 62
     0
370
    -2
100
AcDbLine
 10
34.606
 20
57.60049052575066
 30
0.0
 11
-34.99000000000001
 21
57.60049052575066
 31
0.0
  0
SOLID
  5
106
330
100
100
AcDbEntity
  8
치수문자_일반주서
 62
     0
100
AcDbTrace
 10
34.606
 20
57.05015719241732
 30
0.0
 11
34.606
 21
58.15082385908399
 31
0.0
 12
37.908
 22
57.60049052575066
 32
0.0
 13
37.908
 23
57.60049052575066
 33
0.0
  0
SOLID
  5
107
330
100
100
AcDbEntity
  8
치수문자_일반주서
 62
     0
100
AcDbTrace
 10
-34.99000000000001
 20
58.15082385908399
 30
0.0
 11
-34.99000000000001
 21
57.05015719241732
 31
0.0
 12
-38.29200000000001
 22
57.60049052575066
 32
0.0
 13
-38.29200000000001
 23
57.60049052575066
 33
0.0
  0
MTEXT
  5
108
330
100
100
AcDbEntity
  8
치수문자_일반주서
 62
     0
100
AcDbMText
 10
1.511985850245942
 20
61.97549052575066
 30
0.0
 40
3.5
 41
0.0
 71
     2
 72
     1
  1
\A1;76.20 [3]
  7
SLDTEXTSTYLE0
 73
     1
 44
1.0
  0
POINT
  5
109
330
100
100
AcDbEntity
  8
Defpoints
 62
     0
100
AcDbPoint
 10
37.90799999999999
 20
1.587499999999994
 30
0.0
  0
POINT
  5
10A
330
100
100
AcDbEntity
  8
Defpoints
 62
     0
100
AcDbPoint
 10
-38.29200000000002
 20
2.364999999999987
 30
0.0
  0
POINT
  5
10B
330
100
100
AcDbEntity
  8
Defpoints
 62
     0
100
AcDbPoint
 10
-38.29200000000002
 20
57.60049052575066
 30
0.0
  0
ENDBLK
  5
102
330
100
100
AcDbEntity
  8
0
100
AcDbBlockEnd
  0
BLOCK
  5
115
330
114
100
AcDbEntity
  8
0
100
AcDbBlockBegin
  2
_NONE
 70
     0
 10
0.0
 20
0.0
 30
0.0
  3
_NONE
  1
_NONE
  0
ENDBLK
  5
116
330
114
100
AcDbEntity
  8
0
100
AcDbBlockEnd
  0
BLOCK
  5
118
330
117
100
AcDbEntity
  8
0
100
AcDbBlockBegin
  2
_D_2
 70
     0
 10
0.0
 20
0.0
 30
0.0
  3
_D_2
  1
_D_2
  0
LINE
  5
11A
330
117
100
AcDbEntity
  8
치수문자_일반주서
100
AcDbLine
 10
-62.08488171604273
 20
-8.589366431068704
 30
0.0
 11
-62.08488171604272
 21
-9.300303916633204
 31
0.0
  0
LINE
  5
11B
330
117
100
AcDbEntity
  8
치수문자_일반주서
100
AcDbLine
 10
-62.08488171604272
 20
-9.300303916633204
 30
0.0
 11
-56.52863172498342
 21
-9.300303916633165
 31
0.0
  0
LINE
  5
11C
330
117
100
AcDbEntity
  8
치수문자_일반주서
100
AcDbLine
 10
-56.52863172498342
 20
-9.300303916633165
 30
0.0
 11
-56.52863172498343
 21
-8.589366431068665
 31
0.0
  0
LINE
  5
11D
330
117
100
AcDbEntity
  8
치수문자_일반주서
100
AcDbLine
 10
-62.0848817160428
 20
2.239366431068554
 30
0.0
 11
-62.08488171604281
 21
2.950303916633054
 31
0.0
  0
LINE
  5
11E
330
117
100
AcDbEntity
  8
치수문자_일반주서
100
AcDbLine
 10
-62.08488171604281
 20
2.950303916633054
 30
0.0
 11
-56.52863172498351
 21
2.950303916633093
 31
0.0
  0
LINE
  5
11F
330
117
100
AcDbEntity
  8
치수문자_일반주서
100
AcDbLine
 10
-56.52863172498351
 20
2.950303916633093
 30
0.0
 11
-56.5286317249835
 21
2.239366431068593
 31
0.0
  0
MTEXT
  5
120
330
117
100
AcDbEntity
  8
치수문자_일반주서
100
AcDbMText
 10
-61.04036863956232
 20
-7.700694530457326
 30
0.0
 40
3.5
 41
0.0
 71
     1
 72
     1
  1
0.00
  7
SLDTEXTSTYLE0
 11
-7.044195017643634E-15
 21
1.0
 31
0.0
 73
     1
 44
1.0
  0
MTEXT
  5
121
330
117
100
AcDbEntity
  8
치수문자_일반주서
100
AcDbMText
 10
-55.80373708920185
 20
-7.1072744123638
 30
0.0
 40
3.5
 41
0.0
 71
     1
 72
     1
  1
%%c
  7
SLDTEXTSTYLE0
 11
-7.044195017643634E-15
 21
1.0
 31
0.0
 73
     1
 44
1.0
  0
MTEXT
  5
122
330
117
100
AcDbEntity
  8
치수문자_일반주서
100
AcDbMText
 10
-55.80373708920189
 20
-1.828837013989719
 30
0.0
 40
3.5
 41
0.0
 71
     1
 72
     1
  1
0
  7
SLDTEXTSTYLE0
 11
-7.044195017643634E-15
 21
1.0
 31
0.0
 73
     1
 44
1.0
  0
ENDBLK
  5
119
330
117
100
AcDbEntity
  8
0
100
AcDbBlockEnd
  0
BLOCK
  5
124
330
123
100
AcDbEntity
  8
0
100
AcDbBlockBegin
  2
SW_DOWELSYMBOL_0
 70
     0
 10
0.0
 20
0.0
 30
0.0
  3
SW_DOWELSYMBOL_0
  1
SW_DOWELSYMBOL_0
  0
CIRCLE
  5
126
330
123
100
AcDbEntity
  8
외형선
 62
     0
100
AcDbCircle
 10
0.0
 20
0.0
 30
0.0
 40
3.000000000000001
  0
HATCH
  5
127
330
123
100
AcDbEntity
  8
0
  6
Continuous
 62
     0
370
    30
100
AcDbHatch
 10
0.0
 20
0.0
 30
0.0
210
0.0
220
0.0
230
1.0
  2
SOLID
 70
     1
 71
     0
 91
        1
 92
        0
 93
        3
 72
     2
 10
0.0
 20
0.0
 40
3.000000000000001
 50
0.0
 51
90.0
 73
     1
 72
     1
 10
0.0
 20
3.000000000000001
 11
0.0
 21
0.0
 72
     1
 10
0.0
 20
0.0
 11
3.000000000000003
 21
0.0
 97
        0
 75
     0
 76
     1
 98
        1
 10
0.0
 20
0.0
  0
HATCH
  5
128
330
123
100
AcDbEntity
  8
0
  6
Continuous
 62
     0
370
    30
100
AcDbHatch
 10
0.0
 20
0.0
 30
0.0
210
0.0
220
0.0
230
1.0
  2
SOLID
 70
     1
 71
     0
 91
        1
 92
        0
 93
        3
 72
     2
 10
0.0
 20
0.0
 40
3.000000000000001
 50
180.0
 51
270.0000000000008
 73
     1
 72
     1
 10
0.0
 20
-3.000000000000001
 11
0.0
 21
0.0
 72
     1
 10
0.0
 20
0.0
 11
-3.000000000000003
 21
0.0
 97
        0
 75
     0
 76
     1
 98
        1
 10
0.0
 20
0.0
  0
ENDBLK
  5
125
330
123
100
AcDbEntity
  8
0
100
AcDbBlockEnd
  0
BLOCK
  5
153
330
152
100
AcDbEntity
  8
0
100
AcDbBlockBegin
  2
*D7
 70
     1
 10
0.0
 20
0.0
 30
0.0
  3
*D7
  1
*D7
  0
LINE
  5
155
330
152
100
AcDbEntity
  8
치수문자_일반주서
 62
     0
370
    -2
100
AcDbLine
 10
-37.54449999999999
 20
-3.174999999999996
 30
0.0
 11
-52.50161715793821
 21
-3.174999999999995
 31
0.0
  0
LINE
  5
156
330
152
100
AcDbEntity
  8
치수문자_일반주서
 62
     0
370
    -2
100
AcDbLine
 10
-37.54449999999999
 20
3.175000000000001
 30
0.0
 11
-52.50161715793821
 21
3.175000000000002
 31
0.0
  0
LINE
  5
157
330
152
100
AcDbEntity
  8
치수문자_일반주서
 62
     0
370
    -2
100
AcDbLine
 10
-52.50161715793821
 20
6.477000000000002
 30
0.0
 11
-52.50161715793821
 21
35.154
 31
0.0
  0
LINE
  5
158
330
152
100
AcDbEntity
  8
치수문자_일반주서
 62
     0
370
    -2
100
AcDbLine
 10
-52.50161715793821
 20
-6.476999999999995
 30
0.0
 11
-52.50161715793821
 21
-9.778999999999995
 31
0.0
  0
SOLID
  5
159
330
152
100
AcDbEntity
  8
치수문자_일반주서
 62
     0
100
AcDbTrace
 10
-51.95128382460488
 20
-6.476999999999995
 30
0.0
 11
-53.05195049127155
 21
-6.476999999999995
 31
0.0
 12
-52.50161715793821
 22
-3.174999999999995
 32
0.0
 13
-52.50161715793821
 23
-3.174999999999995
 33
0.0
  0
SOLID
  5
15A
330
152
100
AcDbEntity
  8
치수문자_일반주서
 62
     0
100
AcDbTrace
 10
-53.05195049127155
 20
6.477000000000002
 30
0.0
 11
-51.95128382460488
 21
6.477000000000002
 31
0.0
 12
-52.50161715793821
 22
3.175000000000002
 32
0.0
 13
-52.50161715793821
 23
3.175000000000002
 33
0.0
  0
MTEXT
  5
15B
330
152
100
AcDbEntity
  8
치수문자_일반주서
 62
     0
100
AcDbMText
 10
-55.12661715793821
 20
22.4665
 30
0.0
 40
3.5
 41
0.0
 71
     5
 72
     1
  1
\A1;{%%c6.35 [1/4]}
  7
SLDTEXTSTYLE0
 11
0.0
 21
1.0
 31
0.0
 73
     1
 44
1.0
  0
POINT
  5
15C
330
152
100
AcDbEntity
  8
Defpoints
 62
     0
100
AcDbPoint
 10
-37.48199999999999
 20
-3.174999999999996
 30
0.0
  0
POINT
  5
15D
330
152
100
AcDbEntity
  8
Defpoints
 62
     0
100
AcDbPoint
 10
-37.48199999999999
 20
3.175000000000001
 30
0.0
  0
POINT
  5
15E
330
152
100
AcDbEntity
  8
Defpoints
 62
     0
100
AcDbPoint
 10
-52.50161715793821
 20
3.175000000000002
 30
0.0
  0
ENDBLK
  5
154
330
152
100
AcDbEntity
  8
0
100
AcDbBlockEnd
  0
BLOCK
  5
167
330
166
100
AcDbEntity
  8
0
100
AcDbBlockBegin
  2
*D8
 70
     1
 10
0.0
 20
0.0
 30
0.0
  3
*D8
  1
*D8
  0
LINE
  5
169
330
166
100
AcDbEntity
  8
치수문자_일반주서
 62
     0
370
    -2
100
AcDbLine
 10
38.01026800182052
 20
1.587499999999994
 30
0.0
 11
58.80735014534176
 21
1.587499999999995
 31
0.0
  0
LINE
  5
16A
330
166
100
AcDbEntity
  8
치수문자_일반주서
 62
     0
370
    -2
100
AcDbLine
 10
38.01026800182053
 20
-1.587500000000006
 30
0.0
 11
58.80735014534176
 21
-1.587500000000006
 31
0.0
  0
LINE
  5
16B
330
166
100
AcDbEntity
  8
치수문자_일반주서
 62
     0
370
    -2
100
AcDbLine
 10
58.80735014534176
 20
1.587499999999995
 30
0.0
 11
58.80735014534176
 21
32.69149999999999
 31
0.0
  0
LINE
  5
16C
330
166
100
AcDbEntity
  8
치수문자_일반주서
 62
     0
370
    -2
100
AcDbLine
 10
58.80735014534176
 20
4.889499999999995
 30
0.0
 11
58.80735014534176
 21
8.191499999999994
 31
0.0
  0
LINE
  5
16D
330
166
100
AcDbEntity
  8
치수문자_일반주서
 62
     0
370
    -2
100
AcDbLine
 10
58.80735014534176
 20
-4.889500000000005
 30
0.0
 11
58.80735014534176
 21
-8.191500000000005
 31
0.0
  0
SOLID
  5
16E
330
166
100
AcDbEntity
  8
치수문자_일반주서
 62
     0
100
AcDbTrace
 10
58.25701681200843
 20
4.889499999999995
 30
0.0
 11
59.3576834786751
 21
4.889499999999995
 31
0.0
 12
58.80735014534176
 22
1.587499999999995
 32
0.0
 13
58.80735014534176
 23
1.587499999999995
 33
0.0
  0
SOLID
  5
16F
330
166
100
AcDbEntity
  8
치수문자_일반주서
 62
     0
100
AcDbTrace
 10
59.3576834786751
 20
-4.889500000000005
 30
0.0
 11
58.25701681200843
 21
-4.889500000000005
 31
0.0
 12
58.80735014534176
 22
-1.587500000000006
 32
0.0
 13
58.80735014534176
 23
-1.587500000000006
 33
0.0
  0
MTEXT
  5
170
330
166
100
AcDbEntity
  8
치수문자_일반주서
 62
     0
100
AcDbMText
 10
56.18235014534176
 20
20.44149999999999
 30
0.0
 40
3.5
 41
0.0
 71
     5
 72
     1
  1
\A1;{%%c3.18 [1/8]}
  7
SLDTEXTSTYLE0
 11
0.0
 21
1.0
 31
0.0
 73
     1
 44
1.0
  0
POINT
  5
171
330
166
100
AcDbEntity
  8
Defpoints
 62
     0
100
AcDbPoint
 10
37.94776800182052
 20
1.587499999999994
 30
0.0
  0
POINT
  5
172
330
166
100
AcDbEntity
  8
Defpoints
 62
     0
100
AcDbPoint
 10
37.94776800182053
 20
-1.587500000000006
 30
0.0
  0
POINT
  5
173
330
166
100
AcDbEntity
  8
Defpoints
 62
     0
100
AcDbPoint
 10
58.80735014534176
 20
-1.587500000000007
 30
0.0
  0
ENDBLK
  5
168
330
166
100
AcDbEntity
  8
0
100
AcDbBlockEnd
  0
BLOCK
  5
179
330
178
100
AcDbEntity
  8
0
100
AcDbBlockBegin
  2
*D9
 70
     1
 10
0.0
 20
0.0
 30
0.0
  3
*D9
  1
*D9
  0
LINE
  5
17B
330
178
100
AcDbEntity
  8
치수문자_일반주서
 62
     0
370
    -2
100
AcDbLine
 10
20.27375662398854
 20
9.023538553220668
 30
0.0
 11
21.27638757653689
 21
14.17690940859213
 31
0.0
  0
LINE
  5
17C
330
178
100
AcDbEntity
  8
치수문자_일반주서
 62
     0
370
    -2
100
AcDbLine
 10
20.57187841066255
 20
2.41502888353784
 30
0.0
 11
19.46886129486975
 21
2.472835561087726
 31
0.0
  0
ARC
  5
17D
330
178
100
AcDbEntity
  8
치수문자_일반주서
 62
     0
370
    -2
100
AcDbCircle
 10
66.65337464225979
 20
-0.0000000000000058
 30
0.0
 40
47.2492668254462
100
AcDbArc
 50
168.9901747857584
 51
172.9950873928792
  0
ARC
  5
17E
330
178
100
AcDbEntity
  8
치수문자_일반주서
 62
     0
370
    -2
100
AcDbCircle
 10
66.65337464225979
 20
-0.0000000000000058
 30
0.0
 40
47.2492668254462
100
AcDbArc
 50
184.0049126071208
 51
188.0098252142416
  0
SOLID
  5
17F
330
178
100
AcDbEntity
  8
치수문자_일반주서
 62
     0
100
AcDbTrace
 10
19.20855348508389
 20
5.810246327226989
 30
0.0
 11
20.30502766922559
 21
5.714269899798658
 31
0.0
 12
19.46886129486975
 22
2.472835561087726
 32
0.0
 13
19.46886129486975
 23
2.472835561087726
 33
0.0
  0
SOLID
  5
180
330
178
100
AcDbEntity
  8
치수문자_일반주서
 62
     0
100
AcDbTrace
 10
20.06948468849884
 20
-3.280753632384512
 30
0.0
 11
18.96949016601276
 21
-3.319213502531916
 31
0.0
 12
19.40410781681359
 22
-0.0000000000000058
 32
0.0
 13
19.40410781681359
 23
-0.0000000000000058
 33
0.0
  0
MTEXT
  5
181
330
178
100
AcDbEntity
  8
치수문자_일반주서
 62
     0
100
AcDbMText
 10
18.19838667257699
 20
12.10153945718057
 30
0.0
 40
3.5
 41
0.0
 71
     5
 72
     1
  1
\A1;3%%d
  7
SLDTEXTSTYLE0
 11
0.1909773242949248
 21
0.981594448642183
 31
0.0
 73
     1
 44
1.0
  0
POINT
  5
182
330
178
100
AcDbEntity
  8
Defpoints
 62
     0
100
AcDbPoint
 10
19.41130410900807
 20
0.8246134085013385
 30
0.0
  0
POINT
  5
183
330
178
100
AcDbEntity
  8
Defpoints
 62
     0
100
AcDbPoint
 10
22.99432647359419
 20
2.288073760131088
 30
0.0
  0
POINT
  5
184
330
178
100
AcDbEntity
  8
Defpoints
 62
     0
100
AcDbPoint
 10
-41.29200000000001
 20
-0.0000000000000061
 30
0.0
  0
POINT
  5
185
330
178
100
AcDbEntity
  8
Defpoints
 62
     0
100
AcDbPoint
 10
42.40358333053566
 20
-0.0000000000000061
 30
0.0
  0
POINT
  5
186
330
178
100
AcDbEntity
  8
Defpoints
 62
     0
100
AcDbPoint
 10
20.63429275658471
 20
2.411757886272656
 30
0.0
  0
ENDBLK
  5
17A
330
178
100
AcDbEntity
  8
0
100
AcDbBlockEnd
  0
ENDSEC
  0
SECTION
  2
ENTITIES
  0
LINE
  5
95
330
1F
100
AcDbEntity
  8
0
  6
Continuous
 62
     4
370
    15
100
AcDbLine
 10
-37.48199999999999
 20
3.175000000000001
 30
0.0
 11
-38.29200000000002
 21
2.364999999999987
 31
0.0
  0
LINE
  5
96
330
1F
100
AcDbEntity
  8
0
  6
Continuous
 62
     4
370
    15
100
AcDbLine
 10
-38.29200000000002
 20
-2.364999999999982
 30
0.0
 11
-37.48199999999999
 21
-3.174999999999996
 31
0.0
  0
LINE
  5
97
102
{ACAD_REACTORS
102
}
330
1F
100
AcDbEntity
  8
0
  6
Continuous
 62
     4
370
    15
100
AcDbLine
 10
10.66209854247557
 20
3.175000000000007
 30
0.0
 11
-37.48199999999999
 21
3.175000000000001
 31
0.0
  0
LINE
  5
98
102
{ACAD_REACTORS
102
}
330
1F
100
AcDbEntity
  8
0
  6
Continuous
 62
     4
370
    15
100
AcDbLine
 10
-37.48199999999999
 20
-3.174999999999996
 30
0.0
 11
11.78327416883075
 21
-3.17499999999999
 31
0.0
  0
LINE
  5
99
330
1F
100
AcDbEntity
  8
0
  6
Continuous
 62
     1
370
    15
100
AcDbLine
 10
31.355418308285
 20
-1.849887504693359
 30
0.0
 11
33.3009841003828
 21
-1.747924722080463
 31
0.0
  0
LINE
  5
9A
330
1F
100
AcDbEntity
  8
0
  6
Continuous
 62
     1
370
    15
100
AcDbLine
 10
18.47512676989926
 20
-2.524914980738301
 30
0.0
 11
20.92853232903876
 21
-2.396337443703132
 31
0.0
  0
LINE
  5
9B
330
1F
100
AcDbEntity
  8
0
  6
Continuous
 62
     1
370
    15
100
AcDbLine
 10
14.69980250420633
 20
2.722771341576661
 30
0.0
 11
12.508
 21
2.837638843449124
 31
0.0
  0
LINE
  5
9C
330
1F
100
AcDbEntity
  8
0
  6
Continuous
 62
     1
370
    15
100
AcDbLine
 10
27.11916876410855
 20
2.071899935792457
 30
0.0
 11
24.94197904902659
 21
2.186001613837779
 31
0.0
  0
LINE
  5
9D
330
1F
100
AcDbEntity
  8
0
  6
Continuous
 62
     1
370
    15
100
AcDbLine
 10
27.08717555933995
 20
-2.073576628606512
 30
0.0
 11
29.178653204716
 21
-1.96396692979223
 31
0.0
  0
LINE
  5
9E
330
1F
100
AcDbEntity
  8
0
  6
Continuous
 62
     1
370
    15
100
AcDbLine
 10
14.14405282548009
 20
-2.751896948075951
 30
0.0
 11
16.78143526235189
 21
-2.613677591439404
 31
0.0
  0
LINE
  5
9F
102
{ACAD_REACTORS
102
}
330
1F
100
AcDbEntity
  8
0
  6
Continuous
 62
     1
370
    15
100
AcDbLine
 10
22.99432647359419
 20
2.288073760131088
 30
0.0
 11
20.63429275658471
 21
2.411757886272656
 31
0.0
  0
LINE
  5
A0
330
1F
100
AcDbEntity
  8
0
  6
Continuous
 62
     1
370
    15
100
AcDbLine
 10
35.37019617590413
 20
1.639481912336751
 30
0.0
 11
33.475817131407
 21
1.738762111179175
 31
0.0
  0
LINE
  5
A1
330
1F
100
AcDbEntity
  8
0
  6
Continuous
 62
     1
370
    15
100
AcDbLine
 10
35.58373370134345
 20
-1.628290884834867
 30
0.0
 11
36.40358333053567
 21
-1.585324386422878
 31
0.0
  0
LINE
  5
A2
330
1F
100
AcDbEntity
  8
0
  6
Continuous
 62
     1
370
    15
100
AcDbLine
 10
22.79153317718143
 20
-2.298701706449552
 30
0.0
 11
25.05867822147328
 21
-2.179885669365665
 31
0.0
  0
LINE
  5
A3
330
1F
100
AcDbEntity
  8
0
  6
Continuous
 62
     1
370
    15
100
AcDbLine
 10
12.508
 20
-2.837638843449107
 30
0.0
 11
12.61222647541531
 21
-2.832176565330092
 31
0.0
  0
LINE
  5
A4
330
1F
100
AcDbEntity
  8
0
  6
Continuous
 62
     1
370
    15
100
AcDbLine
 10
18.85753416242231
 20
2.504873858514765
 30
0.0
 11
16.31154204067898
 21
2.638303651687452
 31
0.0
  0
LINE
  5
A5
330
1F
100
AcDbEntity
  8
0
  6
Continuous
 62
     1
370
    15
100
AcDbLine
 10
31.23700731676964
 20
1.856093161801396
 30
0.0
 11
29.22423346443216
 21
1.961578169601375
 31
0.0
  0
LINE
  5
A6
330
1F
100
AcDbEntity
  8
0
  6
Continuous
 62
     4
370
    15
100
AcDbLine
 10
11.78327416883075
 20
-3.174999999999987
 30
0.0
 11
12.0
 21
-2.942589999999991
 31
0.0
  0
LINE
  5
A7
330
1F
100
AcDbEntity
  8
0
  6
Continuous
 62
     4
370
    15
100
AcDbLine
 10
12.0
 20
-2.942589999999991
 30
0.0
 11
12.508
 21
-2.837638843449107
 31
0.0
  0
ARC
  5
A8
330
1F
100
AcDbEntity
  8
0
  6
Continuous
 62
     1
370
    15
100
AcDbCircle
 10
36.3205
 20
0.0000000000000061
 30
0.0
 40
1.587499999999999
100
AcDbArc
 50
273.000000000001
 51
293.3409628545133
  0
LINE
  5
A9
330
1F
100
AcDbEntity
  8
0
  6
Continuous
 62
     4
370
    15
100
AcDbLine
 10
12.508
 20
2.837638843449124
 30
0.0
 11
12.0
 21
2.942590000000008
 31
0.0
  0
ARC
  5
AA
330
1F
100
AcDbEntity
  8
0
  6
Continuous
 62
     1
370
    15
100
AcDbCircle
 10
36.3205
 20
0.0000000000000061
 30
0.0
 40
1.587500000000005
100
AcDbArc
 50
27.85617637447574
 51
44.3303600058703
  0
LINE
  5
AB
330
1F
100
AcDbEntity
  8
0
  6
Continuous
 62
     4
370
    15
100
AcDbLine
 10
12.0
 20
2.942590000000008
 30
0.0
 11
11.78327416883075
 21
3.175000000000004
 31
0.0
  0
SPLINE
  5
AC
330
1F
100
AcDbEntity
  8
0
  6
Continuous
 62
     1
370
    15
100
AcDbSpline
210
0.0
220
0.0
230
1.0
 70
     8
 71
     3
 72
    17
 73
    13
 74
     0
 42
0.000000001
 43
0.00000001
 40
0.0
 40
0.0
 40
0.0
 40
0.0
 40
0.124266263944162
 40
0.2215816278718728
 40
0.321704312730581
 40
0.4191509699521384
 40
0.5194623722556287
 40
0.6161858684057399
 40
0.7157433160487783
 40
0.8119149603884473
 40
0.9108956846439792
 40
1.0
 40
1.0
 40
1.0
 40
1.0
 10
36.40358333053567
 20
-1.371924123396378
 30
0.0
 10
36.18210185555092
 20
-1.27740865013318
 30
0.0
 10
35.78717386614392
 20
-1.108876244313444
 30
0.0
 10
35.22056888644436
 20
-0.7242575691570682
 30
0.0
 10
34.7044295201137
 20
-0.319443619728104
 30
0.0
 10
34.18697140896302
 20
0.1244587952796678
 30
0.0
 10
33.67892059527438
 20
0.5659162632860218
 30
0.0
 10
33.17094402789107
 20
0.9828895935967111
 30
0.0
 10
32.67335590994455
 20
1.340535530511401
 30
0.0
 10
32.17556686387439
 20
1.619477503242051
 30
0.0
 10
31.69826134730121
 20
1.804282028034952
 30
0.0
 10
31.38515611077003
 20
1.837066261409673
 30
0.0
 10
31.23682412331842
 20
1.852597622518241
 30
0.0
  0
SPLINE
  5
AD
330
1F
100
AcDbEntity
  8
0
  6
Continuous
 62
     1
370
    15
100
AcDbSpline
210
0.0
220
0.0
230
1.0
 70
     8
 71
     3
 72
    24
 73
    20
 74
     0
 42
0.000000001
 43
0.00000001
 40
0.0
 40
0.0
 40
0.0
 40
0.0
 40
0.0580521501204218
 40
0.1187155991117229
 40
0.1778043932159698
 40
0.2385968831885928
 40
0.2978413951092925
 40
0.3587925973180559
 40
0.4182189780704013
 40
0.4793559719849286
 40
0.5389883022374203
 40
0.6003360454242082
 40
0.6601952961639714
 40
0.7217754939717184
 40
0.7818805280993436
 40
0.8437126982524036
 40
0.9040805476435791
 40
0.9661823093376722
 40
1.0
 40
1.0
 40
1.0
 40
1.0
 10
26.06239713547439
 20
-1.855023706877251
 30
0.0
 10
25.91662492443929
 20
-1.93060911807878
 30
0.0
 10
25.6185233841695
 20
-2.085179919612949
 30
0.0
 10
25.17517067400054
 20
-2.187315365643495
 30
0.0
 10
24.72759341994756
 20
-2.185623171911991
 30
0.0
 10
24.28586195532651
 20
-2.070203521502573
 30
0.0
 10
23.84231914145333
 20
-1.846498891629714
 30
0.0
 10
23.40430105202623
 20
-1.528316129767178
 30
0.0
 10
22.96442976595338
 20
-1.12552447714268
 30
0.0
 10
22.52984550789261
 20
-0.6643877151154505
 30
0.0
 10
22.09335125522924
 20
-0.1591770370937939
 30
0.0
 10
21.66193902602845
 20
0.3571706959994124
 30
0.0
 10
21.22856485951616
 20
0.868619265632045
 30
0.0
 10
20.8000903030512
 20
1.342031764919633
 30
0.0
 10
20.36961392360265
 20
1.762195409418691
 30
0.0
 10
19.94384832374666
 20
2.103557545297089
 30
0.0
 10
19.51613495872529
 20
2.348550616047627
 30
0.0
 10
19.15467817854439
 20
2.483051349454059
 30
0.0
 10
18.93445732141331
 20
2.489047109825053
 30
0.0
 10
18.85681550173133
 20
2.491160995637894
 30
0.0
  0
SPLINE
  5
AE
330
1F
100
AcDbEntity
  8
0
  6
Continuous
 62
     1
370
    15
100
AcDbSpline
210
0.0
220
0.0
230
1.0
 70
     8
 71
     3
 72
    10
 73
     6
 74
     0
 42
0.000000001
 43
0.00000001
 40
0.0
 40
0.0
 40
0.0
 40
0.0
 40
0.1246275648412872
 40
0.5571954176909593
 40
1.0
 40
1.0
 40
1.0
 40
1.0
 10
13.36055786813027
 20
-2.587901637397076
 30
0.0
 10
13.3249012757705
 20
-2.611012588539233
 30
0.0
 10
13.16548477831555
 20
-2.714338976174981
 30
0.0
 10
12.88129653056093
 20
-2.808561097617371
 30
0.0
 10
12.63339849512017
 20
-2.825347727751581
 30
0.0
 10
12.508
 20
-2.83383919543597
 30
0.0
  0
SPLINE
  5
AF
330
1F
100
AcDbEntity
  8
0
  6
Continuous
 62
     4
370
    15
100
AcDbSpline
210
0.0
220
0.0
230
1.0
 70
     8
 71
     3
 72
     8
 73
     4
 74
     0
 42
0.000000001
 43
0.00000001
 40
0.0
 40
0.0
 40
0.0
 40
0.0
 40
1.0
 40
1.0
 40
1.0
 40
1.0
 10
12.508
 20
-2.833839195435969
 30
0.0
 10
12.33504688192078
 20
-2.85588408744845
 30
0.0
 10
12.16738003902577
 20
-2.84041423247416
 30
0.0
 10
12.0
 20
-2.787533606854207
 30
0.0
  0
SPLINE
  5
B0
330
1F
100
AcDbEntity
  8
0
  6
Continuous
 62
     4
370
    15
100
AcDbSpline
210
0.0
220
0.0
230
1.0
 70
     8
 71
     3
 72
     8
 73
     4
 74
     0
 42
0.000000001
 43
0.00000001
 40
0.0
 40
0.0
 40
0.0
 40
0.0
 40
1.0
 40
1.0
 40
1.0
 40
1.0
 10
12.0
 20
-2.787533606854207
 30
0.0
 10
11.921050860514
 20
-2.809958075488145
 30
0.0
 10
11.84948531276899
 20
-2.80603665629351
 30
0.0
 10
11.78327416883075
 20
-2.77529346312125
 30
0.0
  0
SPLINE
  5
B1
330
1F
100
AcDbEntity
  8
0
  6
Continuous
 62
     4
370
    15
100
AcDbSpline
210
0.0
220
0.0
230
1.0
 70
     8
 71
     3
 72
    10
 73
     6
 74
     0
 42
0.000000001
 43
0.00000001
 40
0.0
 40
0.0
 40
0.0
 40
0.0
 40
0.5
 40
0.5
 40
1.0
 40
1.0
 40
1.0
 40
1.0
 10
11.78327416883075
 20
-2.775293463121251
 30
0.0
 10
11.58793573833558
 20
-2.630320161567701
 30
0.0
 10
11.39329623055115
 20
-2.448837789105167
 30
0.0
 10
11.00524724255803
 20
-2.027606946889322
 30
0.0
 10
10.81312157775948
 20
-1.790367517935726
 30
0.0
 10
10.618
 20
-1.528648692174303
 30
0.0
  0
SPLINE
  5
B2
330
1F
100
AcDbEntity
  8
0
  6
Continuous
 62
     4
370
    15
100
AcDbSpline
210
0.0
220
0.0
230
1.0
 70
     8
 71
     3
 72
    12
 73
     8
 74
     0
 42
0.000000001
 43
0.00000001
 40
0.0
 40
0.0
 40
0.0
 40
0.0
 40
0.2500000000000001
 40
0.2500000000000001
 40
0.5000000000000001
 40
0.5000000000000001
 40
1.0
 40
1.0
 40
1.0
 40
1.0
 10
10.618
 20
0.1848165323370477
 30
0.0
 10
10.71579204261397
 20
0.0299273540271375
 30
0.0
 10
10.81292122007189
 20
-0.1247514963532591
 30
0.0
 10
11.00750526684323
 20
-0.4326602439933062
 30
0.0
 10
11.10540243734437
 20
-0.5865602334867055
 30
0.0
 10
11.39655991325187
 20
-1.036382304941657
 30
0.0
 10
11.5881918762855
 20
-1.32263002956899
 30
0.0
 10
11.78327416883075
 20
-1.591418092051796
 30
0.0
  0
SPLINE
  5
B3
330
1F
100
AcDbEntity
  8
0
  6
Continuous
 62
     4
370
    15
100
AcDbSpline
210
0.0
220
0.0
230
1.0
 70
     8
 71
     3
 72
     8
 73
     4
 74
     0
 42
0.000000001
 43
0.00000001
 40
0.0
 40
0.0
 40
0.0
 40
0.0
 40
1.0
 40
1.0
 40
1.0
 40
1.0
 10
11.78327416883075
 20
-1.591418092051791
 30
0.0
 10
11.85850342901434
 20
-1.566246222269849
 30
0.0
 10
11.92995337455627
 20
-1.558929840034069
 30
0.0
 10
12.0
 20
-1.555379022547906
 30
0.0
  0
SPLINE
  5
B4
330
1F
100
AcDbEntity
  8
0
  6
Continuous
 62
     4
370
    15
100
AcDbSpline
210
0.0
220
0.0
230
1.0
 70
     8
 71
     3
 72
     8
 73
     4
 74
     0
 42
0.000000001
 43
0.00000001
 40
0.0
 40
0.0
 40
0.0
 40
0.0
 40
1.0
 40
1.0
 40
1.0
 40
1.0
 10
12.0
 20
-1.555379022547906
 30
0.0
 10
12.16861281050238
 20
-1.722377588798995
 30
0.0
 10
12.33699273584419
 20
-1.871077829801418
 30
0.0
 10
12.50799999999984
 20
-1.999772074406658
 30
0.0
  0
SPLINE
  5
B5
330
1F
100
AcDbEntity
  8
0
  6
Continuous
 62
     1
370
    15
100
AcDbSpline
210
0.0
220
0.0
230
1.0
 70
     8
 71
     3
 72
    11
 73
     7
 74
     0
 42
0.000000001
 43
0.00000001
 40
0.0
 40
0.0
 40
0.0
 40
0.0
 40
0.3101867633645049
 40
0.5723003012663942
 40
0.842003285517274
 40
0.9999999999999999
 40
0.9999999999999999
 40
0.9999999999999999
 40
0.9999999999999999
 10
12.508
 20
-1.999772074406765
 30
0.0
 10
12.67579701983639
 20
-2.144783534349261
 30
0.0
 10
12.98538561724253
 20
-2.412332353363974
 30
0.0
 10
13.44379632922324
 20
-2.646970619722222
 30
0.0
 10
13.8209828972705
 20
-2.759934259291095
 30
0.0
 10
14.05635326294313
 20
-2.743596553550642
 30
0.0
 10
14.14330152260519
 20
-2.737561235226079
 30
0.0
  0
SPLINE
  5
B6
330
1F
100
AcDbEntity
  8
0
  6
Continuous
 62
     1
370
    15
100
AcDbSpline
210
0.0
220
0.0
230
1.0
 70
     8
 71
     3
 72
    23
 73
    19
 74
     0
 42
0.000000001
 43
0.00000001
 40
0.0
 40
0.0
 40
0.0
 40
0.0
 40
0.0607995391443901
 40
0.1242677846722501
 40
0.1895899546174715
 40
0.2528063093072631
 40
0.3178683502780593
 40
0.380848125999488
 40
0.4456657141227661
 40
0.5084254345754191
 40
0.57301549882521
 40
0.6355729657739054
 40
0.6999537634085615
 40
0.762328050465649
 40
0.8265191530126893
 40
0.8887304588357361
 40
0.9527526236353803
 40
1.0
 40
1.0
 40
1.0
 40
1.0
 10
19.719053159616
 20
2.217499227898355
 30
0.0
 10
19.86213739024261
 20
2.275996331359695
 30
0.0
 10
20.15458632343722
 20
2.39555818263657
 30
0.0
 10
20.60372833635731
 20
2.431530213331783
 30
0.0
 10
21.06107609292656
 20
2.357825143821563
 30
0.0
 10
21.52468303453294
 20
2.164649058519152
 30
0.0
 10
21.9853318442288
 20
1.869440170804729
 30
0.0
 10
22.45236775770473
 20
1.481529790020859
 30
0.0
 10
22.91645628446213
 20
1.028746182349147
 30
0.0
 10
23.38710548696347
 20
0.5264401425111447
 30
0.0
 10
23.85483979589318
 20
0.0100990448559344
 30
0.0
 10
24.329276808667
 20
-0.502563347319273
 30
0.0
 10
24.80088972429413
 20
-0.9754639694411925
 30
0.0
 10
25.27931170101618
 20
-1.39195099029962
 30
0.0
 10
25.75502696903727
 20
-1.723935018860738
 30
0.0
 10
26.23771035591312
 20
-1.955293072464667
 30
0.0
 10
26.67976545869526
 20
-2.077293388056256
 30
0.0
 10
26.96536504328596
 20
-2.067465780843127
 30
0.0
 10
27.08663660531042
 20
-2.063292773100811
 30
0.0
  0
SPLINE
  5
B7
330
1F
100
AcDbEntity
  8
0
  6
Continuous
 62
     1
370
    15
100
AcDbSpline
210
0.0
220
0.0
230
1.0
 70
     8
 71
     3
 72
    15
 73
    11
 74
     0
 42
0.000000001
 43
0.00000001
 40
0.0
 40
0.0
 40
0.0
 40
0.0
 40
0.0922269799897473
 40
0.2198999292289793
 40
0.3512649143617735
 40
0.47905876449024
 40
0.6105436090265606
 40
0.7385357136202942
 40
0.8702203403955759
 40
1.0
 40
1.0
 40
1.0
 40
1.0
 10
32.34216495503069
 20
1.51268715784031
 30
0.0
 10
32.46415138794979
 20
1.564201968296037
 30
0.0
 10
32.75500779427242
 20
1.687030485230213
 30
0.0
 10
33.2231922144587
 20
1.755707080742154
 30
0.0
 10
33.74158638094524
 20
1.729137583601351
 30
0.0
 10
34.26829122314866
 20
1.583847351360996
 30
0.0
 10
34.7937222670871
 20
1.337765803911543
 30
0.0
 10
35.32760624077856
 20
1.003094327084049
 30
0.0
 10
35.86230432723336
 20
0.6083490187143353
 30
0.0
 10
36.22403549210739
 20
0.3210776046511871
 30
0.0
 10
36.40358333053566
 20
0.1784883935301891
 30
0.0
  0
SPLINE
  5
B8
330
1F
100
AcDbEntity
  8
0
  6
Continuous
 62
     1
370
    15
100
AcDbSpline
210
0.0
220
0.0
230
1.0
 70
     8
 71
     3
 72
    14
 73
    10
 74
     0
 42
0.000000001
 43
0.00000001
 40
0.0
 40
0.0
 40
0.0
 40
0.0
 40
0.25
 40
0.25
 40
0.5
 40
0.5
 40
0.75
 40
0.75
 40
1.0
 40
1.0
 40
1.0
 40
1.0
 10
36.40358333053567
 20
0.1784883935301732
 30
0.0
 10
36.51008028261217
 20
0.0939951362193185
 30
0.0
 10
36.61415071703794
 20
0.0103197627592871
 30
0.0
 10
36.82186912323633
 20
-0.1497779374984947
 30
0.0
 10
36.92520378181107
 20
-0.2257464992896186
 30
0.0
 10
37.12063000980563
 20
-0.3586441305555689
 30
0.0
 10
37.21562985714603
 20
-0.4173417508385407
 30
0.0
 10
37.3857607710223
 20
-0.5158236787294959
 30
0.0
 10
37.46236718237846
 20
-0.5562399708492495
 30
0.0
 10
37.52389999813206
 20
-0.5946904760443656
 30
0.0
  0
SPLINE
  5
B9
330
1F
100
AcDbEntity
  8
0
  6
Continuous
 62
     1
370
    15
100
AcDbSpline
210
0.0
220
0.0
230
1.0
 70
     8
 71
     3
 72
    14
 73
    10
 74
     0
 42
0.000000001
 43
0.00000001
 40
0.0
 40
0.0
 40
0.0
 40
0.0
 40
0.25
 40
0.25
 40
0.5
 40
0.5
 40
0.75
 40
0.75
 40
1.0
 40
1.0
 40
1.0
 40
1.0
 10
36.70110793014266
 20
-1.08591395505955
 30
0.0
 10
36.76566273315652
 20
-1.025374077226715
 30
0.0
 10
36.83696592478511
 20
-0.9640303681185366
 30
0.0
 10
36.98702529648369
 20
-0.846956998385741
 30
0.0
 10
37.06640919906935
 20
-0.7907880786665431
 30
0.0
 10
37.22190031829538
 20
-0.6944871370666512
 30
0.0
 10
37.29883197888066
 20
-0.6541127882482032
 30
0.0
 10
37.43040859094927
 20
-0.6025577653294677
 30
0.0
 10
37.48529621461892
 20
-0.5914521593536124
 30
0.0
 10
37.52389999813929
 20
-0.5946904760489125
 30
0.0
  0
SPLINE
  5
BA
330
1F
100
AcDbEntity
  8
0
  6
Continuous
 62
     1
370
    15
100
AcDbSpline
210
0.0
220
0.0
230
1.0
 70
     8
 71
     3
 72
     8
 73
     4
 74
     0
 42
0.000000001
 43
0.00000001
 40
0.0
 40
0.0
 40
0.0
 40
0.0
 40
1.0
 40
1.0
 40
1.0
 40
1.0
 10
36.70110793014329
 20
-1.085913955058982
 30
0.0
 10
36.80832441525809
 20
-1.187745423403277
 30
0.0
 10
36.91288133933564
 20
-1.289352075204832
 30
0.0
 10
37.01595348961995
 20
-1.390833216929288
 30
0.0
  0
SPLINE
  5
BB
330
1F
100
AcDbEntity
  8
0
  6
Continuous
 62
     1
370
    15
100
AcDbSpline
210
0.0
220
0.0
230
1.0
 70
     8
 71
     3
 72
    10
 73
     6
 74
     0
 42
0.000000001
 43
0.00000001
 40
0.0
 40
0.0
 40
0.0
 40
0.0
 40
0.5
 40
0.5
 40
1.0
 40
1.0
 40
1.0
 40
1.0
 10
37.01595348961956
 20
-1.390833216929927
 30
0.0
 10
36.91363178911369
 20
-1.424873894505229
 30
0.0
 10
36.8121597643931
 20
-1.43820117395244
 30
0.0
 10
36.60738786307392
 20
-1.429850218974093
 30
0.0
 10
36.50644233798993
 20
-1.408420462410113
 30
0.0
 10
36.40358333053568
 20
-1.37192412339638
 30
0.0
  0
LINE
  5
BC
330
1F
100
AcDbEntity
  8
0
  6
Continuous
 62
     4
370
    15
100
AcDbLine
 10
-37.48199999999999
 20
3.175000000000001
 30
0.0
 11
-37.48199999999999
 21
-3.174999999999996
 31
0.0
  0
LINE
  5
BD
330
1F
100
AcDbEntity
  8
0
  6
Continuous
 62
     4
370
    15
100
AcDbLine
 10
-38.29200000000002
 20
-2.364999999999982
 30
0.0
 11
-38.29200000000002
 21
2.36499999999999
 31
0.0
  0
SPLINE
  5
BE
330
1F
100
AcDbEntity
  8
0
  6
Continuous
 62
     4
370
    15
100
AcDbSpline
210
0.0
220
0.0
230
1.0
 70
     8
 71
     3
 72
     9
 73
     5
 74
     0
 42
0.000000001
 43
0.00000001
 40
0.0
 40
0.0
 40
0.0
 40
0.0
 40
0.3414950602010948
 40
1.0
 40
1.0
 40
1.0
 40
1.0
 10
11.23715231975658
 20
3.046357336067945
 30
0.0
 10
11.29938212046407
 20
3.07532577005219
 30
0.0
 10
11.48160964864808
 20
3.160154036578759
 30
0.0
 10
11.66349907987235
 20
3.16910350486687
 30
0.0
 10
11.78327416883075
 20
3.174996773943163
 30
0.0
  0
SPLINE
  5
BF
330
1F
100
AcDbEntity
  8
0
  6
Continuous
 62
     4
370
    15
100
AcDbSpline
210
0.0
220
0.0
230
1.0
 70
     8
 71
     3
 72
    10
 73
     6
 74
     0
 42
0.000000001
 43
0.00000001
 40
0.0
 40
0.0
 40
0.0
 40
0.0
 40
0.4156136124360128
 40
0.7243765942119411
 40
1.0
 40
1.0
 40
1.0
 40
1.0
 10
11.78327416883075
 20
2.723228400784695
 30
0.0
 10
11.6277721521048
 20
2.831719292760098
 30
0.0
 10
11.35674632932483
 20
3.020809015715831
 30
0.0
 10
10.98348613358073
 20
3.154306534719662
 30
0.0
 10
10.76509962818781
 20
3.164963883223078
 30
0.0
 10
10.66209854247557
 20
3.169990377258002
 30
0.0
  0
LINE
  5
C0
330
1F
100
AcDbEntity
  8
0
  6
Continuous
 62
     4
370
    15
100
AcDbLine
 10
11.78327416883075
 20
2.723228400784691
 30
0.0
 11
11.78327416883075
 21
-1.591418092051791
 31
0.0
  0
LINE
  5
C1
330
1F
100
AcDbEntity
  8
0
  6
Continuous
 62
     4
370
    15
100
AcDbLine
 10
11.78327416883075
 20
-2.775293463121251
 30
0.0
 11
11.78327416883075
 21
-3.17499999999999
 31
0.0
  0
LINE
  5
C2
330
1F
100
AcDbEntity
  8
0
  6
Continuous
 62
     4
370
    15
100
AcDbLine
 10
10.618
 20
-1.528648692174304
 30
0.0
 11
10.618
 21
0.1848165323370479
 31
0.0
  0
SPLINE
  5
C3
330
1F
100
AcDbEntity
  8
0
  6
Continuous
 62
     4
370
    15
100
AcDbSpline
210
0.0
220
0.0
230
1.0
 70
     8
 71
     3
 72
     8
 73
     4
 74
     0
 42
0.000000001
 43
0.00000001
 40
0.0
 40
0.0
 40
0.0
 40
0.0
 40
1.0
 40
1.0
 40
1.0
 40
1.0
 10
12.0
 20
2.210081218385448
 30
0.0
 10
11.921050860514
 20
2.392751580361131
 30
0.0
 10
11.84948531276899
 20
2.564094489727043
 30
0.0
 10
11.78327416883075
 20
2.723228400784691
 30
0.0
  0
LINE
  5
C4
330
1F
100
AcDbEntity
  8
0
  6
Continuous
 62
     4
370
    15
100
AcDbLine
 10
12.0
 20
2.210081218385449
 30
0.0
 11
12.0
 21
-1.555379022547906
 31
0.0
  0
SPLINE
  5
C5
330
1F
100
AcDbEntity
  8
0
  6
Continuous
 62
     1
370
    15
100
AcDbSpline
210
0.0
220
0.0
230
1.0
 70
     8
 71
     3
 72
     9
 73
     5
 74
     0
 42
0.000000001
 43
0.00000001
 40
0.0
 40
0.0
 40
0.0
 40
0.0
 40
0.6391394988227291
 40
1.0
 40
1.0
 40
1.0
 40
1.0
 10
36.40358333053567
 20
1.373936049122588
 30
0.0
 10
36.18196209913169
 20
1.462657076776486
 30
0.0
 10
35.8352127090342
 20
1.601470321486475
 30
0.0
 10
35.49308145658748
 20
1.621320783300074
 30
0.0
 10
35.36961980136113
 20
1.62848403089873
 30
0.0
  0
SPLINE
  5
C6
330
1F
100
AcDbEntity
  8
0
  6
Continuous
 62
     1
370
    15
100
AcDbSpline
210
0.0
220
0.0
230
1.0
 70
     8
 71
     3
 72
    24
 73
    20
 74
     0
 42
0.000000001
 43
0.00000001
 40
0.0
 40
0.0
 40
0.0
 40
0.0
 40
0.0016212873357496
 40
0.0650952496870993
 40
0.1266787106168725
 40
0.1900490456798766
 40
0.2515968949143217
 40
0.3149277402131954
 40
0.376492074500847
 40
0.4398373935083636
 40
0.5014625981299264
 40
0.5648683426724569
 40
0.6265928194711672
 40
0.6900987379969625
 40
0.7519562190101154
 40
0.8155972249103117
 40
0.8776177201128837
 40
0.9414248749298488
 40
0.9999999999999999
 40
0.9999999999999999
 40
0.9999999999999999
 40
0.9999999999999999
 10
30.25471758362035
 20
-1.627050019682359
 30
0.0
 10
30.25058673042235
 20
-1.629668301514695
 30
0.0
 10
30.08473153966408
 20
-1.734793226547387
 30
0.0
 10
29.76477575266948
 20
-1.858783452493905
 30
0.0
 10
29.2905444970926
 20
-1.975068486334632
 30
0.0
 10
28.82445168119434
 20
-1.969108683191636
 30
0.0
 10
28.35682147204031
 20
-1.853080421223923
 30
0.0
 10
27.8965266170829
 20
-1.63159071723363
 30
0.0
 10
27.43465385552457
 20
-1.313429675818952
 30
0.0
 10
26.97965177384812
 20
-0.9207172400127664
 30
0.0
 10
26.52299968186672
 20
-0.4675797537087775
 30
0.0
 10
26.0728119149583
 20
0.0143028935274404
 30
0.0
 10
25.62092249621222
 20
0.5078874624621931
 30
0.0
 10
25.17513566089189
 20
0.9789304190847877
 30
0.0
 10
24.7276049390883
 20
1.410767833996444
 30
0.0
 10
24.2858514949572
 20
1.774352644146322
 30
0.0
 10
23.84234908077223
 20
2.053882041355077
 30
0.0
 10
23.41266117268988
 20
2.237901012727113
 30
0.0
 10
23.1296339348165
 20
2.269816914687341
 30
0.0
 10
22.99417023964768
 20
2.285092638842598
 30
0.0
  0
SPLINE
  5
C7
330
1F
100
AcDbEntity
  8
0
  6
Continuous
 62
     1
370
    15
100
AcDbSpline
210
0.0
220
0.0
230
1.0
 70
     8
 71
     3
 72
    20
 73
    16
 74
     0
 42
0.000000001
 43
0.00000001
 40
0.0
 40
0.0
 40
0.0
 40
0.0
 40
0.0395112530195736
 40
0.1185761486053228
 40
0.1999096193807951
 40
0.2793835931348053
 40
0.3611372905899525
 40
0.4410343278870583
 40
0.5232227317940852
 40
0.6035563906570244
 40
0.6861935742048126
 40
0.7669753115605298
 40
0.8500731316593807
 40
0.9241599327942812
 40
0.9999999999999999
 40
0.9999999999999999
 40
0.9999999999999999
 40
0.9999999999999999
 10
17.61018212895034
 20
-2.335383889463723
 30
0.0
 10
17.54084394359678
 20
-2.377825782709495
 30
0.0
 10
17.33275499824157
 20
-2.505196996123272
 30
0.0
 10
16.98449774521884
 20
-2.6048368996205
 30
0.0
 10
16.56784881649253
 20
-2.630351676569455
 30
0.0
 10
16.14918018255119
 20
-2.533145455625503
 30
0.0
 10
15.73456173668063
 20
-2.325341613005596
 30
0.0
 10
15.31779801484865
 20
-2.009720732369973
 30
0.0
 10
14.90501811792481
 20
-1.605109942518832
 30
0.0
 10
14.49005698871849
 20
-1.121377038621047
 30
0.0
 10
14.07901117720491
 20
-0.5870944326975158
 30
0.0
 10
13.6657384214386
 20
-0.015516422531128
 30
0.0
 10
13.26829369685729
 20
0.5415746802062142
 30
0.0
 10
12.88121237867182
 20
1.074322401958881
 30
0.0
 10
12.63337022665424
 20
1.386258392045877
 30
0.0
 10
12.508
 20
1.544050298953004
 30
0.0
  0
SPLINE
  5
C8
330
1F
100
AcDbEntity
  8
0
  6
Continuous
 62
     4
370
    15
100
AcDbSpline
210
0.0
220
0.0
230
1.0
 70
     8
 71
     3
 72
     8
 73
     4
 74
     0
 42
0.000000001
 43
0.00000001
 40
0.0
 40
0.0
 40
0.0
 40
0.0
 40
1.0
 40
1.0
 40
1.0
 40
1.0
 10
12.508
 20
1.544050298953008
 30
0.0
 10
12.33504688192077
 20
1.784688219671708
 30
0.0
 10
12.16738003902577
 20
2.007600732686752
 30
0.0
 10
12.0
 20
2.210081218385449
 30
0.0
  0
SPLINE
  5
C9
330
1F
100
AcDbEntity
  8
0
  6
Continuous
 62
     4
370
    15
100
AcDbSpline
210
0.0
220
0.0
230
1.0
 70
     8
 71
     3
 72
     8
 73
     4
 74
     0
 42
0.000000001
 43
0.00000001
 40
0.0
 40
0.0
 40
0.0
 40
0.0
 40
1.0
 40
1.0
 40
1.0
 40
1.0
 10
11.78327416883075
 20
3.17499677394316
 30
0.0
 10
11.85850342901434
 20
3.094298204154311
 30
0.0
 10
11.92995337455627
 20
3.017449497052021
 30
0.0
 10
12.0
 20
2.940956485837767
 30
0.0
  0
SPLINE
  5
CA
330
1F
100
AcDbEntity
  8
0
  6
Continuous
 62
     4
370
    15
100
AcDbSpline
210
0.0
220
0.0
230
1.0
 70
     8
 71
     3
 72
     8
 73
     4
 74
     0
 42
0.000000001
 43
0.00000001
 40
0.0
 40
0.0
 40
0.0
 40
0.0
 40
1.0
 40
1.0
 40
1.0
 40
1.0
 10
12.0
 20
2.940956485837767
 30
0.0
 10
12.16861281050238
 20
2.898864203596302
 30
0.0
 10
12.33699273584419
 20
2.832882145288062
 30
0.0
 10
12.50799999999984
 20
2.743396688792854
 30
0.0
  0
SPLINE
  5
CB
330
1F
100
AcDbEntity
  8
0
  6
Continuous
 62
     1
370
    15
100
AcDbSpline
210
0.0
220
0.0
230
1.0
 70
     8
 71
     3
 72
    21
 73
    17
 74
     0
 42
0.000000001
 43
0.00000001
 40
0.0
 40
0.0
 40
0.0
 40
0.0
 40
0.0871817839157704
 40
0.160851999804085
 40
0.2366553224196537
 40
0.3103353950878482
 40
0.3861722169647117
 40
0.4594820658425965
 40
0.5349374946599418
 40
0.6078849287597765
 40
0.6829668217350268
 40
0.7555626537368488
 40
0.8302821183183957
 40
0.9025375962770918
 40
0.9769061908172493
 40
1.0
 40
1.0
 40
1.0
 40
1.0
 10
12.508
 20
2.743396688792757
 30
0.0
 10
12.67580347217657
 20
2.661082146323708
 30
0.0
 10
12.98540397426941
 20
2.509210296788065
 30
0.0
 10
13.44373525518731
 20
2.127976498534154
 30
0.0
 10
13.87816763309293
 20
1.6880469936608
 30
0.0
 10
14.31893480168726
 20
1.171360425396835
 30
0.0
 10
14.7572781905967
 20
0.6142874756343991
 30
0.0
 10
15.2011875705348
 20
0.0314854652923985
 30
0.0
 10
15.64193101126665
 20
-0.5388280803050297
 30
0.0
 10
16.08825512274251
 20
-1.081976273820772
 30
0.0
 10
16.53148755990932
 20
-1.56278857302423
 30
0.0
 10
16.98034575088905
 20
-1.968307453976651
 30
0.0
 10
17.42614024394963
 20
-2.275185335204441
 30
0.0
 10
17.8777732093279
 20
-2.465231083943065
 30
0.0
 10
18.22569830929346
 20
-2.543874828696588
 30
0.0
 10
18.42680823364125
 20
-2.518283308791404
 30
0.0
 10
18.47446142133453
 20
-2.512219373829702
 30
0.0
  0
SPLINE
  5
CC
330
1F
100
AcDbEntity
  8
0
  6
Continuous
 62
     1
370
    15
100
AcDbSpline
210
0.0
220
0.0
230
1.0
 70
     8
 71
     3
 72
    23
 73
    19
 74
     0
 42
0.000000001
 43
0.00000001
 40
0.0
 40
0.0
 40
0.0
 40
0.0
 40
0.0531622148093031
 40
0.1205590560239215
 40
0.1858553877736022
 40
0.2530536472655807
 40
0.3181793626085818
 40
0.3852007701360809
 40
0.4501777750642231
 40
0.5170448971263375
 40
0.5818950101689904
 40
0.6486302625631353
 40
0.7133763583089133
 40
0.7800027821328214
 40
0.8446751211666809
 40
0.9112239022692679
 40
0.9758519761884091
 40
1.0
 40
1.0
 40
1.0
 40
1.0
 10
23.94780865292737
 20
1.973136516404426
 30
0.0
 10
24.07346976707101
 20
2.027544738107675
 30
0.0
 10
24.35843880672473
 20
2.150929436657443
 30
0.0
 10
24.80093904687185
 20
2.206139678227623
 30
0.0
 10
25.27929437768337
 20
2.158422329219131
 30
0.0
 10
25.75504624853059
 20
1.993619305706223
 30
0.0
 10
26.23765169306282
 20
1.722551325481324
 30
0.0
 10
26.71775381054966
 20
1.364763600448085
 30
0.0
 10
27.20479587945681
 20
0.934518011608534
 30
0.0
 10
27.68949536212601
 20
0.4642021857052295
 30
0.0
 10
28.18123842828743
 20
-0.0278050552996862
 30
0.0
 10
28.67076883917345
 20
-0.5042140783963796
 30
0.0
 10
29.16749111473539
 20
-0.9463611622977909
 30
0.0
 10
29.66212544289356
 20
-1.319984182560703
 30
0.0
 10
30.16410786518497
 20
-1.612728830225317
 30
0.0
 10
30.66430466939274
 20
-1.79274679481754
 30
0.0
 10
31.06271333997675
 20
-1.86872339875961
 30
0.0
 10
31.29226134880431
 20
-1.843152243488808
 30
0.0
 10
31.35470079956598
 20
-1.836196622751319
 30
0.0
  0
SPLINE
  5
CD
330
1F
100
AcDbEntity
  8
0
  6
Continuous
 62
     1
370
    15
100
AcDbSpline
210
0.0
220
0.0
230
1.0
 70
     8
 71
     3
 72
    11
 73
     7
 74
     0
 42
0.000000001
 43
0.00000001
 40
0.0
 40
0.0
 40
0.0
 40
0.0
 40
0.2533901792572764
 40
0.6126685949845283
 40
0.9591489516168328
 40
1.0
 40
1.0
 40
1.0
 40
1.0
 10
36.52491142208451
 20
1.303799236751897
 30
0.0
 10
36.62142798758658
 20
1.333845411468918
 30
0.0
 10
36.85479405075532
 20
1.406493639993381
 30
0.0
 10
37.20090884138691
 20
1.320639344218458
 30
0.0
 10
37.42728386955086
 20
1.152540641266815
 30
0.0
 10
37.51468226837893
 20
1.042901777324514
 30
0.0
 10
37.52389999813929
 20
1.03133839135171
 30
0.0
  0
SPLINE
  5
CE
330
1F
100
AcDbEntity
  8
0
  6
Continuous
 62
     1
370
    15
100
AcDbSpline
210
0.0
220
0.0
230
1.0
 70
     8
 71
     3
 72
    12
 73
     8
 74
     0
 42
0.000000001
 43
0.00000001
 40
0.0
 40
0.0
 40
0.0
 40
0.0
 40
0.0696961457917003
 40
0.3764157395812929
 40
0.6847312997261102
 40
0.9562611840277306
 40
0.9999999999999999
 40
0.9999999999999999
 40
0.9999999999999999
 40
0.9999999999999999
 10
37.03259926716996
 20
0.8049161431273831
 30
0.0
 10
37.04576105207179
 20
0.7996276190372413
 30
0.0
 10
37.11684537017507
 20
0.7710652977772712
 30
0.0
 10
37.25260221643054
 20
0.7865563824231814
 30
0.0
 10
37.4077073752606
 20
0.8609217906835743
 30
0.0
 10
37.48895884914226
 20
0.9635127743776002
 30
0.0
 10
37.51964302741674
 20
1.023075020684552
 30
0.0
 10
37.52389999813931
 20
1.031338391351705
 30
0.0
  0
SPLINE
  5
CF
330
1F
100
AcDbEntity
  8
0
  6
Continuous
 62
     1
370
    15
100
AcDbSpline
210
0.0
220
0.0
230
1.0
 70
     8
 71
     3
 72
    10
 73
     6
 74
     0
 42
0.000000001
 43
0.00000001
 40
0.0
 40
0.0
 40
0.0
 40
0.0
 40
0.5
 40
0.5
 40
1.0
 40
1.0
 40
1.0
 40
1.0
 10
37.01595348961956
 20
0.9721163416510195
 30
0.0
 10
36.91363178911369
 20
1.053687913397591
 30
0.0
 10
36.8121597643931
 20
1.131929163070417
 30
0.0
 10
36.60738786307392
 20
1.269865797976699
 30
0.0
 10
36.50644233798993
 20
1.328283463046821
 30
0.0
 10
36.40358333053568
 20
1.373936049122587
 30
0.0
  0
SPLINE
  5
D0
330
1F
100
AcDbEntity
  8
0
  6
Continuous
 62
     1
370
    15
100
AcDbSpline
210
0.0
220
0.0
230
1.0
 70
     8
 71
     3
 72
    23
 73
    19
 74
     0
 42
0.000000001
 43
0.00000001
 40
0.0
 40
0.0
 40
0.0
 40
0.0
 40
0.0309922936987364
 40
0.0989676869565415
 40
0.1645117580899666
 40
0.2319762386961099
 40
0.2971463509078828
 40
0.364220018524012
 40
0.4291204998970583
 40
0.4959117356284112
 40
0.5606327422946705
 40
0.6272351504753799
 40
0.6918538799525434
 40
0.7583475533591593
 40
0.8229289159447595
 40
0.8893811532523495
 40
0.9539798133911803
 40
1.0
 40
1.0
 40
1.0
 40
1.0
 10
34.43089331126155
 20
-1.408047109659868
 30
0.0
 10
34.35135974279174
 20
-1.450650026248378
 30
0.0
 10
34.09738521017504
 20
-1.586693913588644
 30
0.0
 10
33.67904574532891
 20
-1.711616927730237
 30
0.0
 10
33.1709069647714
 20
-1.7710587604385
 30
0.0
 10
32.67337679868314
 20
-1.710381016044293
 30
0.0
 10
32.17552068044601
 20
-1.538241511923367
 30
0.0
 10
31.68722964097714
 20
-1.267029148455505
 30
0.0
 10
31.19831913398109
 20
-0.9086501169901465
 30
0.0
 10
30.71827087117623
 20
-0.4913108140157287
 30
0.0
 10
30.23726663706939
 20
-0.0323246185815199
 30
0.0
 10
29.76455578041759
 20
0.4330206189833708
 30
0.0
 10
29.29060348009257
 20
0.8858983990047642
 30
0.0
 10
28.82444058742629
 20
1.291886863111664
 30
0.0
 10
28.35680861782571
 20
1.636123362433799
 30
0.0
 10
27.89659092177501
 20
1.887814485394885
 30
0.0
 10
27.48225963713671
 20
2.038990487758759
 30
0.0
 10
27.22539444585249
 20
2.053652736716218
 30
0.0
 10
27.11853214902186
 20
2.059752596305846
 30
0.0
  0
SPLINE
  5
D1
330
1F
100
AcDbEntity
  8
0
  6
Continuous
 62
     1
370
    15
100
AcDbSpline
210
0.0
220
0.0
230
1.0
 70
     8
 71
     3
 72
    25
 73
    21
 74
     0
 42
0.000000001
 43
0.00000001
 40
0.0
 40
0.0
 40
0.0
 40
0.0
 40
0.0242320522163431
 40
0.0815980681967561
 40
0.1406133510120086
 40
0.1982149131040346
 40
0.2574716732082475
 40
0.3153251038823626
 40
0.374840226603213
 40
0.4329603161620265
 40
0.4927490994544222
 40
0.5511493019881785
 40
0.611225661064062
 40
0.6699182652128656
 40
0.7302949111175688
 40
0.7892911881267209
 40
0.8499797828170412
 40
0.909290114513558
 40
0.9703014068247642
 40
1.0
 40
1.0
 40
1.0
 40
1.0
 10
21.83976145701851
 20
-2.090304168499229
 30
0.0
 10
21.77940999549757
 20
-2.128042899360366
 30
0.0
 10
21.57618483615104
 20
-2.255122830807076
 30
0.0
 10
21.22865700984707
 20
-2.367680398906292
 30
0.0
 10
20.80006712563776
 20
-2.418167307190795
 30
0.0
 10
20.36961617275595
 20
-2.348135711553488
 30
0.0
 10
19.94386346409789
 20
-2.168875611129448
 30
0.0
 10
19.51607333322766
 20
-1.882799364237925
 30
0.0
 10
19.09286709814197
 20
-1.507850012130239
 30
0.0
 10
18.66758236044105
 20
-1.054119587990723
 30
0.0
 10
18.24674335440462
 20
-0.5495737927354137
 30
0.0
 10
17.82380143003064
 20
-0.0082473355210627
 30
0.0
 10
17.40517355578026
 20
0.5364681018867615
 30
0.0
 10
16.9844251987066
 20
1.06925163924305
 30
0.0
 10
16.56786681370236
 20
1.557327964330124
 30
0.0
 10
16.14917948053433
 20
1.986313160885812
 30
0.0
 10
15.73454568539723
 20
2.331606446677039
 30
0.0
 10
15.31786180060776
 20
2.575478546266506
 30
0.0
 10
14.97349092766159
 20
2.705191450827953
 30
0.0
 10
14.76674426212555
 20
2.707690078400561
 30
0.0
 10
14.69905500116833
 20
2.708508133934171
 30
0.0
  0
SPLINE
  5
D2
330
1F
100
AcDbEntity
  8
0
  6
Continuous
 62
     1
370
    15
100
AcDbSpline
210
0.0
220
0.0
230
1.0
 70
     8
 71
     3
 72
    24
 73
    20
 74
     0
 42
0.000000001
 43
0.00000001
 40
0.0
 40
0.0
 40
0.0
 40
0.0
 40
0.0225567917763955
 40
0.084800348148985
 40
0.1488651654470114
 40
0.2108087117468899
 40
0.2745642812635121
 40
0.3362174150721035
 40
0.3996735991549513
 40
0.4610462242570748
 40
0.5242130429322185
 40
0.5853175591466422
 40
0.6482077212212295
 40
0.7090571258275182
 40
0.7716839578078156
 40
0.8322918651520524
 40
0.8946693016577627
 40
0.9550503918078651
 40
1.0
 40
1.0
 40
1.0
 40
1.0
 10
15.48964445411178
 20
2.459791525990467
 30
0.0
 10
15.54215638936402
 20
2.487220864243271
 30
0.0
 10
15.73957056224416
 20
2.590339138171222
 30
0.0
 10
16.08835233950174
 20
2.650439514355723
 30
0.0
 10
16.53146410406921
 20
2.633142870125169
 30
0.0
 10
16.98034523009314
 20
2.485948758646424
 30
0.0
 10
17.4261669073126
 20
2.229437269067533
 30
0.0
 10
17.8776701322099
 20
1.868822646665542
 30
0.0
 10
18.32620067787457
 20
1.429692649916302
 30
0.0
 10
18.78048931749593
 20
0.9246838404233125
 30
0.0
 10
19.23183764303633
 20
0.3883532597258799
 30
0.0
 10
19.68906343378162
 20
-0.163771104890573
 30
0.0
 10
20.14336401784583
 20
-0.6940868002553531
 30
0.0
 10
20.60368836714179
 20
-1.187274088132438
 30
0.0
 10
21.06109049717473
 20
-1.609549278439439
 30
0.0
 10
21.52466477993564
 20
-1.950059134311992
 30
0.0
 10
21.98539148381869
 20
-2.180730152230858
 30
0.0
 10
22.408750277881
 20
-2.302441692214861
 30
0.0
 10
22.6765926638806
 20
-2.291268368568054
 30
0.0
 10
22.79089372233186
 20
-2.286500181059261
 30
0.0
  0
SPLINE
  5
D3
330
1F
100
AcDbEntity
  8
0
  6
Continuous
 62
     1
370
    15
100
AcDbSpline
210
0.0
220
0.0
230
1.0
 70
     8
 71
     3
 72
    23
 73
    19
 74
     0
 42
0.000000001
 43
0.00000001
 40
0.0
 40
0.0
 40
0.0
 40
0.0
 40
0.0048135920214115
 40
0.0746691414152325
 40
0.1424425284508244
 40
0.212184160847392
 40
0.2798803425762273
 40
0.3495407019610101
 40
0.4171905488998099
 40
0.4868011633863229
 40
0.554439552240725
 40
0.6240361295195309
 40
0.6917007842315549
 40
0.7613221598888608
 40
0.8290508901703229
 40
0.8987357894260262
 40
0.9665695914553993
 40
1.0
 40
1.0
 40
1.0
 40
1.0
 10
28.14287413679844
 20
1.738373428683545
 30
0.0
 10
28.15426828793131
 20
1.744628575166814
 30
0.0
 10
28.33101602194415
 20
1.841659319620155
 30
0.0
 10
28.67096174395106
 20
1.930524736432772
 30
0.0
 10
29.16744065247563
 20
1.985157063057374
 30
0.0
 10
29.66212998334627
 20
1.911915795307699
 30
0.0
 10
30.16413813548855
 20
1.728453683711139
 30
0.0
 10
30.66417591243783
 20
1.446218841006404
 30
0.0
 10
31.17182323273931
 20
1.079231570854143
 30
0.0
 10
31.67761692874646
 20
0.6568453903978676
 30
0.0
 10
32.19123220522975
 20
0.1987447201409203
 30
0.0
 10
32.70316979242216
 20
-0.257934257209268
 30
0.0
 10
33.22311760957037
 20
-0.6916537043311597
 30
0.0
 10
33.74161429009401
 20
-1.066360001648205
 30
0.0
 10
34.26825337222357
 20
-1.366020602939208
 30
0.0
 10
34.79384812605943
 20
-1.558001235047483
 30
0.0
 10
35.23361315600218
 20
-1.644463061548205
 30
0.0
 10
35.49625321379823
 20
-1.621187345766997
 30
0.0
 10
35.58295871796927
 20
-1.613503321141481
 30
0.0
  0
LINE
  5
D4
330
1F
100
AcDbEntity
  8
0
  6
Continuous
 62
     4
370
    15
100
AcDbLine
 10
12.508
 20
1.544050298953005
 30
0.0
 11
12.508
 21
-1.999772074406627
 31
0.0
  0
LINE
  5
D5
330
1F
100
AcDbEntity
  8
0
  6
Continuous
 62
     4
370
    15
100
AcDbLine
 10
12.508
 20
2.837638843449124
 30
0.0
 11
12.508
 21
2.743396688792808
 31
0.0
  0
LINE
  5
D6
330
1F
100
AcDbEntity
  8
0
  6
Continuous
 62
     1
370
    15
100
AcDbLine
 10
36.40358333053567
 20
1.373936049122587
 30
0.0
 11
36.40358333053567
 21
0.1784883935301753
 31
0.0
  0
LINE
  5
D7
330
1F
100
AcDbEntity
  8
0
  6
Continuous
 62
     4
370
    15
100
AcDbLine
 10
12.508
 20
-2.83383919543597
 30
0.0
 11
12.508
 21
-2.837638843449107
 31
0.0
  0
ARC
  5
D8
330
1F
100
AcDbEntity
  8
0
  6
Continuous
 62
     1
370
    15
100
AcDbCircle
 10
35.83976239577346
 20
1.161310027297727
 30
0.0
 40
1.191310093944256
100
AcDbArc
 50
336.3770242164853
 51
350.8620846219804
  0
LINE
  5
D9
330
1F
100
AcDbEntity
  8
0
  6
Continuous
 62
     1
370
    15
100
AcDbLine
 10
36.9312432231063
 20
0.6839324581783975
 30
0.0
 11
37.90799999999999
 21
0.0000000000000134
 31
0.0
  0
ARC
  5
DA
330
1F
100
AcDbEntity
  8
0
  6
Continuous
 62
     1
370
    15
100
AcDbCircle
 10
36.81112704303577
 20
0.287063816926707
 30
0.0
 40
1.133814763842821
100
AcDbArc
 50
308.9506118079184
 51
345.3339916489318
  0
LINE
  5
DB
330
1F
100
AcDbEntity
  8
0
  6
Continuous
 62
     4
370
    15
100
AcDbLine
 10
12.0
 20
-2.787533606854205
 30
0.0
 11
12.0
 21
-2.942589999999991
 31
0.0
  0
ARC
  5
DC
330
1F
100
AcDbEntity
  8
0
  6
Continuous
 62
     1
370
    15
100
AcDbCircle
 10
36.90522140349703
 20
-1.347029591505576
 30
0.0
 40
0.1190812852530075
100
AcDbArc
 50
291.8136625867172
 51
338.417137910649
  0
ARC
  5
DD
330
1F
100
AcDbEntity
  8
0
  6
Continuous
 62
     1
370
    15
100
AcDbCircle
 10
36.21273378000445
 20
0.0718832404425727
 30
0.0
 40
1.696789544084507
100
AcDbArc
 50
296.5637109238766
 51
357.5719798189115
  0
ARC
  5
DE
330
1F
100
AcDbEntity
  8
0
  6
Continuous
 62
     1
370
    15
100
AcDbCircle
 10
36.34237478691606
 20
0.0041103843602851
 30
0.0
 40
1.565630608765587
100
AcDbArc
 50
359.8495763015574
 51
41.00397194957883
  0
LINE
  5
DF
330
1F
100
AcDbEntity
  8
0
  6
Continuous
 62
     4
370
    15
100
AcDbLine
 10
12.0
 20
2.942590000000008
 30
0.0
 11
12.0
 21
2.940956485837767
 31
0.0
  0
LINE
  5
E0
330
1F
100
AcDbEntity
  8
0
  6
Continuous
 62
     8
370
    15
100
AcDbLine
 10
36.40358333053567
 20
-1.371924123396379
 30
0.0
 11
36.40358333053567
 21
-1.585324386422878
 31
0.0
  0
LINE
  5
E1
102
{ACAD_REACTORS
102
}
330
1F
100
AcDbEntity
  8
중심선
100
AcDbLine
 10
-41.29200000000001
 20
-0.0000000000000061
 30
0.0
 11
42.40358333053566
 21
-0.0000000000000061
 31
0.0
  0
CIRCLE
  5
E2
330
1F
100
AcDbEntity
  8
외형선
100
AcDbCircle
 10
0.0
 20
0.0
 30
0.0
 40
3.0
  0
INSERT
  5
E3
330
1F
100
AcDbEntity
  8
0
  6
Continuous
 62
     7
100
AcDbBlockReference
 66
     1
  2
블럭10
 10
-1.432773799681436
 20
-52.05975325537357
 30
0.0
  0
ATTRIB
  5
E4
330
E3
100
AcDbEntity
  8
FORMAT
 62
     2
100
AcDbText
 10
-10.61406908842272
 20
-49.98438634254138
 30
0.0
 40
4.233333333333333
  1
E5078308 [ 3 FLUTE ]
 41
0.75
  7
SLDTEXTSTYLE0
 11
-10.61406908842272
 21
-52.10105300920804
 31
0.0
100
AcDbAttribute
  2
AUTOATTR0
 70
     0
 74
     1
  0
SEQEND
  5
E5
330
E3
100
AcDbEntity
  8
0
  6
Continuous
 62
     7
  0
HATCH
  5
E6
330
1F
100
AcDbEntity
  8
중심선
100
AcDbHatch
 10
0.0
 20
0.0
 30
0.0
210
0.0
220
0.0
230
1.0
  2
SOLID
 70
     1
 71
     0
 91
        1
 92
        0
 93
        4
 72
     1
 10
4.282135504699413
 20
-35.81257895372963
 11
0.8358602608621313
 21
-35.81257895372963
 72
     1
 10
0.8358602608621313
 20
-35.81257895372963
 11
-1.292369598341891
 21
-38.34890453430223
 72
     1
 10
-1.292369598341891
 20
-38.34890453430223
 11
2.15393873060854
 21
-38.34886510499974
 72
     1
 10
2.15393873060854
 20
-38.34886510499974
 11
4.282135504699413
 21
-35.81257895372963
 97
        0
 75
     0
 76
     1
 98
        1
 10
0.0
 20
0.0
  0
HATCH
  5
E7
330
1F
100
AcDbEntity
  8
중심선
100
AcDbHatch
 10
0.0
 20
0.0
 30
0.0
210
0.0
220
0.0
230
1.0
  2
SOLID
 70
     1
 71
     0
 91
        1
 92
        0
 93
        4
 72
     1
 10
9.294899495735365
 20
-35.81257895372963
 11
5.848624251898082
 21
-35.81257895372963
 72
     1
 10
5.848624251898082
 20
-35.81257895372963
 11
1.317486243540694
 21
-41.21257895372965
 72
     1
 10
1.317486243540694
 20
-41.21257895372965
 11
4.763761487377977
 21
-41.21257895372965
 72
     1
 10
4.763761487377977
 20
-41.21257895372965
 11
9.294899495735365
 21
-35.81257895372963
 97
        0
 75
     0
 76
     1
 98
        1
 10
0.0
 20
0.0
  0
HATCH
  5
E8
330
1F
100
AcDbEntity
  8
중심선
100
AcDbHatch
 10
0.0
 20
0.0
 30
0.0
210
0.0
220
0.0
230
1.0
  2
SOLID
 70
     1
 71
     0
 91
        1
 92
        0
 93
        4
 72
     1
 10
14.30766348677126
 20
-35.81257895372966
 11
10.86138824293414
 21
-35.81257895372963
 72
     1
 10
10.86138824293414
 20
-35.81257895372963
 11
3.812951341044895
 21
-44.21257895372965
 72
     1
 10
3.812951341044895
 20
-44.21257895372965
 11
7.259226584882178
 21
-44.21257895372965
 72
     1
 10
7.259226584882178
 20
-44.21257895372965
 11
14.30766348677126
 21
-35.81257895372966
 97
        0
 75
     0
 76
     1
 98
        1
 10
0.0
 20
0.0
  0
HATCH
  5
E9
330
1F
100
AcDbEntity
  8
중심선
100
AcDbHatch
 10
0.0
 20
0.0
 30
0.0
210
0.0
220
0.0
230
1.0
  2
SOLID
 70
     1
 71
     0
 91
        1
 92
        0
 93
        6
 72
     3
 10
19.10755391778346
 20
-40.01257895378091
 11
3.960054785062284
 21
1.540850780301639E-10
 40
0.3939339440162633
 50
17.09539180608434
 51
320.0019657685079
 73
     0
 72
     1
 10
20.79055357348405
 20
-38.60047295836794
 11
23.09585544718509
 21
-36.66614624832001
 72
     3
 10
19.10755391773061
 20
-40.01257895372979
 11
6.600054785286829
 21
-1.249000902703301E-13
 40
0.6363583540795982
 50
39.99873849337412
 51
368.4976242363725
 73
     1
 72
     1
 10
25.53288640963122
 20
-39.05257895365965
 11
17.78762122456654
 21
-39.05257895365963
 72
     1
 10
17.78762122456654
 20
-39.05257895365963
 11
17.7875961801206
 21
-40.97257895365955
 72
     1
 10
17.7875961801206
 20
-40.97257895365955
 11
22.22897594959264
 21
-40.97257895365952
 97
        0
 75
     0
 76
     1
 98
        1
 10
0.0
 20
0.0
  0
DIMENSION
  5
EA
330
1F
100
AcDbEntity
  8
치수문자_일반주서
100
AcDbDimension
  2
_D
 10
12.508
 20
42.07515698630877
 30
0.0
 11
25.208
 21
42.07515698630877
 31
0.0
 70
   160
  1
<>
 71
     2
 42
25.4
  3
SLDDIMSTYLE0
100
AcDbAlignedDimension
 13
37.90799999999999
 23
1.587499999999994
 33
0.0
 14
12.508
 24
3.851774598917539
 34
0.0
100
AcDbRotatedDimension
1001
ACAD
1000
DSTYLE
1002
{
1070
   171
1070
     6
1070
   273
1070
     7
1002
}
  0
DIMENSION
  5
FE
330
1F
100
AcDbEntity
  8
치수문자_일반주서
100
AcDbDimension
  2
_D_1
 10
-38.29200000000001
 20
57.60049052575066
 30
0.0
 11
1.511985850245942
 21
57.60049052575066
 31
0.0
 70
   160
  1
<>
 71
     2
 42
76.20000000000002
  3
SLDDIMSTYLE1
100
AcDbAlignedDimension
 13
37.90799999999999
 23
1.587499999999994
 33
0.0
 14
-38.29200000000002
 24
2.364999999999987
 34
0.0
100
AcDbRotatedDimension
1001
ACAD
1000
DSTYLE
1002
{
1070
   171
1070
     6
1070
   273
1070
     7
1002
}
  0
INSERT
  5
129
330
1F
100
AcDbEntity
  8
외형선
100
AcDbBlockReference
  2
SW_DOWELSYMBOL_0
 10
0.0
 20
0.0
 30
0.0
  0
DIMENSION
  5
14F
102
{ACAD_REACTORS
102
}
102
{ACAD_XDICTIONARY
360
150
102
}
330
1F
100
AcDbEntity
  8
치수문자_일반주서
100
AcDbDimension
  2
*D7
 10
-52.50161715793821
 20
3.175000000000002
 30
0.0
 11
-55.12661715793821
 21
22.4665
 31
0.0
 70
    32
  1
{%%c<>[]}
 71
     5
 42
6.349999999999997
  3
SLDDIMSTYLE1
100
AcDbAlignedDimension
 13
-37.48199999999999
 23
-3.174999999999996
 33
0.0
 14
-37.48199999999999
 24
3.175000000000001
 34
0.0
 50
90.0
100
AcDbRotatedDimension
1001
ACAD
1000
DSTYLE
1002
{
1070
   283
1070
     1
1070
   170
1070
     1
1070
   171
1070
     6
1070
   273
1070
     7
1002
}
  0
DIMENSION
  5
163
102
{ACAD_XDICTIONARY
360
164
102
}
330
1F
100
AcDbEntity
  8
치수문자_일반주서
100
AcDbDimension
  2
*D8
 10
58.80735014534176
 20
-1.587500000000006
 30
0.0
 11
58.80735014534176
 21
20.44149999999999
 31
0.0
 70
   160
  1
{%%c<>[]}
 71
     5
 42
3.175
  3
SLDDIMSTYLE0
100
AcDbAlignedDimension
 13
37.94776800182052
 23
1.587499999999994
 33
0.0
 14
37.94776800182053
 24
-1.587500000000006
 34
0.0
 50
90.0
100
AcDbRotatedDimension
1001
ACAD
1000
DSTYLE
1002
{
1070
   283
1070
     1
1070
   170
1070
     1
1070
   171
1070
     6
1070
   273
1070
     7
1002
}
  0
DIMENSION
  5
175
102
{ACAD_REACTORS
102
}
102
{ACAD_XDICTIONARY
360
176
102
}
330
1F
100
AcDbEntity
  8
치수문자_일반주서
100
AcDbDimension
  2
*D9
 10
20.63429275658471
 20
2.411757886272656
 30
0.0
 11
18.19838667257699
 21
12.10153945718057
 31
0.0
 70
    34
  1
<>
 71
     5
 42
0.0523598775598299
  3
SLDDIMSTYLE0
100
AcDb2LineAngularDimension
 13
-41.29200000000001
 23
-0.0000000000000061
 33
0.0
 14
42.40358333053566
 24
-0.0000000000000061
 34
0.0
 15
22.99432647359419
 25
2.288073760131088
 35
0.0
 16
19.41130410900807
 26
0.8246134085013385
 36
0.0
  0
ENDSEC
  0
SECTION
  2
OBJECTS
  0
DICTIONARY
  5
C
330
0
100
AcDbDictionary
281
     1
  3
ACAD_GROUP
350
D
  3
ACAD_IMAGE_VARS
350
14D
  3
ACAD_LAYOUT
350
1A
  3
ACAD_MLINESTYLE
350
17
  3
ACAD_PLOTSETTINGS
350
19
  3
ACAD_PLOTSTYLENAME
350
E
  3
ACAD_SCALELIST
350
47
  3
APPDATA
350
14B
  3
DWGPROPS
350
189
  0
DICTIONARY
  5
150
330
14F
100
AcDbDictionary
280
     1
281
     1
  0
DICTIONARY
  5
164
330
163
100
AcDbDictionary
280
     1
281
     1
  0
DICTIONARY
  5
176
330
175
100
AcDbDictionary
280
     1
281
     1
  0
DICTIONARY
  5
D
102
{ACAD_REACTORS
330
C
102
}
330
C
100
AcDbDictionary
281
     1
  0
RASTERVARIABLES
  5
14D
102
{ACAD_REACTORS
330
C
102
}
330
C
100
AcDbRasterVariables
 90
        0
 70
     1
 71
     1
 72
     1
  0
DICTIONARY
  5
1A
102
{ACAD_REACTORS
330
C
102
}
330
C
100
AcDbDictionary
281
     1
  3
Layout1
350
1E
  3
Layout2
350
26
  3
Model
350
22
  0
DICTIONARY
  5
17
102
{ACAD_REACTORS
330
C
102
}
330
C
100
AcDbDictionary
281
     1
  3
Standard
350
18
  0
DICTIONARY
  5
19
102
{ACAD_REACTORS
330
C
102
}
330
C
100
AcDbDictionary
281
     1
  0
ACDBDICTIONARYWDFLT
  5
E
102
{ACAD_REACTORS
330
C
102
}
330
C
100
AcDbDictionary
281
     1
  3
Normal
350
F
100
AcDbDictionaryWithDefault
340
F
  0
DICTIONARY
  5
47
102
{ACAD_REACTORS
330
C
102
}
330
C
100
AcDbDictionary
281
     1
  3
A0
350
48
  3
A1
350
49
  3
A2
350
4A
  3
A3
350
4B
  3
A4
350
4C
  3
A5
350
4D
  3
A6
350
4E
  3
A7
350
4F
  3
A8
350
50
  3
A9
350
51
  3
B0
350
52
  3
B1
350
53
  3
B2
350
54
  3
B3
350
55
  3
B4
350
56
  3
B5
350
57
  3
B6
350
58
  3
B7
350
59
  3
B8
350
5A
  3
B9
350
5B
  3
C0
350
5C
  3
C1
350
5D
  3
C2
350
5E
  3
C3
350
5F
  3
C4
350
60
  3
C5
350
61
  3
C6
350
62
  3
C7
350
63
  3
C8
350
64
  3
C9
350
65
  3
D0
350
66
  3
D1
350
67
  3
D2
350
68
  0
DICTIONARY
  5
14B
102
{ACAD_REACTORS
330
C
102
}
330
C
100
AcDbDictionary
281
     1
  0
XRECORD
  5
189
102
{ACAD_REACTORS
330
C
102
}
330
C
100
AcDbXrecord
280
     1
  1
DWGPROPS COOKIE
  2

  3

  4

  6

  7

  8
12015048
  9

300
=
301
=
302
=
303
=
304
=
305
=
306
=
307
=
308
=
309
=
 40
0.0
 41
2458340.218417141
 42
2458341.081316979
  1

 90
        0
  0
LAYOUT
  5
1E
102
{ACAD_REACTORS
330
1A
102
}
330
1A
100
AcDbPlotSettings
  1

  2
none_device
  4

  6

 40
0.0
 41
0.0
 42
0.0
 43
0.0
 44
0.0
 45
0.0
 46
0.0
 47
0.0
 48
0.0
 49
0.0
140
0.0
141
0.0
142
1.0
143
1.0
 70
   688
 72
     1
 73
     0
 74
     5
  7

 75
    16
147
1.0
148
0.0
149
0.0
100
AcDbLayout
  1
Layout1
 70
     1
 71
     1
 10
0.0
 20
0.0
 11
420.0
 21
297.0
 12
0.0
 22
0.0
 32
0.0
 14
1.000000000000000E+20
 24
1.000000000000000E+20
 34
1.000000000000000E+20
 15
-1.000000000000000E+20
 25
-1.000000000000000E+20
 35
-1.000000000000000E+20
146
0.0
 13
0.0
 23
0.0
 33
0.0
 16
1.0
 26
0.0
 36
0.0
 17
0.0
 27
1.0
 37
0.0
 76
     0
330
1B
  0
LAYOUT
  5
26
102
{ACAD_REACTORS
330
1A
102
}
330
1A
100
AcDbPlotSettings
  1

  2
none_device
  4

  6

 40
0.0
 41
0.0
 42
0.0
 43
0.0
 44
0.0
 45
0.0
 46
0.0
 47
0.0
 48
0.0
 49
0.0
140
0.0
141
0.0
142
1.0
143
1.0
 70
   688
 72
     1
 73
     0
 74
     5
  7

 75
    16
147
1.0
148
0.0
149
0.0
100
AcDbLayout
  1
Layout2
 70
     1
 71
     2
 10
0.0
 20
0.0
 11
0.0
 21
0.0
 12
0.0
 22
0.0
 32
0.0
 14
0.0
 24
0.0
 34
0.0
 15
0.0
 25
0.0
 35
0.0
146
0.0
 13
0.0
 23
0.0
 33
0.0
 16
1.0
 26
0.0
 36
0.0
 17
0.0
 27
1.0
 37
0.0
 76
     0
330
23
  0
LAYOUT
  5
22
102
{ACAD_REACTORS
330
1A
102
}
330
1A
100
AcDbPlotSettings
  1

  2
none_device
  4
ANSI_A_(11.00_x_8.50_Inches)
  6

 40
6.35
 41
19.05
 42
6.35000508
 43
19.05000254
 44
279.4
 45
215.9
 46
139.3063647097884
 47
100.0223580456492
 48
0.0
 49
0.0
140
0.0
141
0.0
142
0.0914796403028642
143
1.0
 70
  1696
 72
     0
 73
     0
 74
     0
  7

 75
     0
147
0.0235690232323232
148
0.0
149
0.0
100
AcDbLayout
  1
Model
 70
     1
 71
     0
 10
0.0
 20
0.0
 11
420.0
 21
297.0
 12
0.0
 22
0.0
 32
0.0
 14
-56.87661715793821
 24
-49.98438634254138
 34
0.0
 15
59.3576834786751
 25
61.97549052575066
 35
0.0
146
0.0
 13
0.0
 23
0.0
 33
0.0
 16
1.0
 26
0.0
 36
0.0
 17
0.0
 27
1.0
 37
0.0
 76
     0
330
1F
331
29
  0
MLINESTYLE
  5
18
102
{ACAD_REACTORS
330
17
102
}
330
17
100
AcDbMlineStyle
  2
Standard
 70
     0
  3

 62
   256
 51
90.0
 52
90.0
 71
     2
 49
0.5
 62
   256
  6
BYLAYER
 49
-0.5
 62
   256
  6
BYLAYER
  0
ACDBPLACEHOLDER
  5
F
102
{ACAD_REACTORS
330
E
102
}
330
E
  0
SCALE
  5
48
102
{ACAD_REACTORS
330
47
102
}
330
47
100
AcDbScale
 70
     0
300
1:1
140
1.0
141
1.0
290
     1
  0
SCALE
  5
49
102
{ACAD_REACTORS
330
47
102
}
330
47
100
AcDbScale
 70
     0
300
1:2
140
1.0
141
2.0
290
     0
  0
SCALE
  5
4A
102
{ACAD_REACTORS
330
47
102
}
330
47
100
AcDbScale
 70
     0
300
1:4
140
1.0
141
4.0
290
     0
  0
SCALE
  5
4B
102
{ACAD_REACTORS
330
47
102
}
330
47
100
AcDbScale
 70
     0
300
1:5
140
1.0
141
5.0
290
     0
  0
SCALE
  5
4C
102
{ACAD_REACTORS
330
47
102
}
330
47
100
AcDbScale
 70
     0
300
1:8
140
1.0
141
8.0
290
     0
  0
SCALE
  5
4D
102
{ACAD_REACTORS
330
47
102
}
330
47
100
AcDbScale
 70
     0
300
1:10
140
1.0
141
10.0
290
     0
  0
SCALE
  5
4E
102
{ACAD_REACTORS
330
47
102
}
330
47
100
AcDbScale
 70
     0
300
1:16
140
1.0
141
16.0
290
     0
  0
SCALE
  5
4F
102
{ACAD_REACTORS
330
47
102
}
330
47
100
AcDbScale
 70
     0
300
1:20
140
1.0
141
20.0
290
     0
  0
SCALE
  5
50
102
{ACAD_REACTORS
330
47
102
}
330
47
100
AcDbScale
 70
     0
300
1:30
140
1.0
141
30.0
290
     0
  0
SCALE
  5
51
102
{ACAD_REACTORS
330
47
102
}
330
47
100
AcDbScale
 70
     0
300
1:40
140
1.0
141
40.0
290
     0
  0
SCALE
  5
52
102
{ACAD_REACTORS
330
47
102
}
330
47
100
AcDbScale
 70
     0
300
1:50
140
1.0
141
50.0
290
     0
  0
SCALE
  5
53
102
{ACAD_REACTORS
330
47
102
}
330
47
100
AcDbScale
 70
     0
300
1:100
140
1.0
141
100.0
290
     0
  0
SCALE
  5
54
102
{ACAD_REACTORS
330
47
102
}
330
47
100
AcDbScale
 70
     0
300
2:1
140
2.0
141
1.0
290
     0
  0
SCALE
  5
55
102
{ACAD_REACTORS
330
47
102
}
330
47
100
AcDbScale
 70
     0
300
4:1
140
4.0
141
1.0
290
     0
  0
SCALE
  5
56
102
{ACAD_REACTORS
330
47
102
}
330
47
100
AcDbScale
 70
     0
300
8:1
140
8.0
141
1.0
290
     0
  0
SCALE
  5
57
102
{ACAD_REACTORS
330
47
102
}
330
47
100
AcDbScale
 70
     0
300
10:1
140
10.0
141
1.0
290
     0
  0
SCALE
  5
58
102
{ACAD_REACTORS
330
47
102
}
330
47
100
AcDbScale
 70
     0
300
100:1
140
100.0
141
1.0
290
     0
  0
SCALE
  5
59
102
{ACAD_REACTORS
330
47
102
}
330
47
100
AcDbScale
 70
     0
300
1/128" = 1'-0"
140
0.0078125
141
12.0
290
     0
  0
SCALE
  5
5A
102
{ACAD_REACTORS
330
47
102
}
330
47
100
AcDbScale
 70
     0
300
1/64" = 1'-0"
140
0.015625
141
12.0
290
     0
  0
SCALE
  5
5B
102
{ACAD_REACTORS
330
47
102
}
330
47
100
AcDbScale
 70
     0
300
1/32" = 1'-0"
140
0.03125
141
12.0
290
     0
  0
SCALE
  5
5C
102
{ACAD_REACTORS
330
47
102
}
330
47
100
AcDbScale
 70
     0
300
1/16" = 1'-0"
140
0.0625
141
12.0
290
     0
  0
SCALE
  5
5D
102
{ACAD_REACTORS
330
47
102
}
330
47
100
AcDbScale
 70
     0
300
3/32" = 1'-0"
140
0.09375
141
12.0
290
     0
  0
SCALE
  5
5E
102
{ACAD_REACTORS
330
47
102
}
330
47
100
AcDbScale
 70
     0
300
1/8" = 1'-0"
140
0.125
141
12.0
290
     0
  0
SCALE
  5
5F
102
{ACAD_REACTORS
330
47
102
}
330
47
100
AcDbScale
 70
     0
300
3/16" = 1'-0"
140
0.1875
141
12.0
290
     0
  0
SCALE
  5
60
102
{ACAD_REACTORS
330
47
102
}
330
47
100
AcDbScale
 70
     0
300
1/4" = 1'-0"
140
0.25
141
12.0
290
     0
  0
SCALE
  5
61
102
{ACAD_REACTORS
330
47
102
}
330
47
100
AcDbScale
 70
     0
300
3/8" = 1'-0"
140
0.375
141
12.0
290
     0
  0
SCALE
  5
62
102
{ACAD_REACTORS
330
47
102
}
330
47
100
AcDbScale
 70
     0
300
1/2" = 1'-0"
140
0.5
141
12.0
290
     0
  0
SCALE
  5
63
102
{ACAD_REACTORS
330
47
102
}
330
47
100
AcDbScale
 70
     0
300
3/4" = 1'-0"
140
0.75
141
12.0
290
     0
  0
SCALE
  5
64
102
{ACAD_REACTORS
330
47
102
}
330
47
100
AcDbScale
 70
     0
300
1" = 1'-0"
140
1.0
141
12.0
290
     0
  0
SCALE
  5
65
102
{ACAD_REACTORS
330
47
102
}
330
47
100
AcDbScale
 70
     0
300
1-1/2" = 1'-0"
140
1.5
141
12.0
290
     0
  0
SCALE
  5
66
102
{ACAD_REACTORS
330
47
102
}
330
47
100
AcDbScale
 70
     0
300
3" = 1'-0"
140
3.0
141
12.0
290
     0
  0
SCALE
  5
67
102
{ACAD_REACTORS
330
47
102
}
330
47
100
AcDbScale
 70
     0
300
6" = 1'-0"
140
6.0
141
12.0
290
     0
  0
SCALE
  5
68
102
{ACAD_REACTORS
330
47
102
}
330
47
100
AcDbScale
 70
     0
300
1'-0" = 1'-0"
140
12.0
141
12.0
290
     0
  0
ENDSEC
  0
EOF
