  0
SECTION
  2
HEADER
  9
$ACADVER
  1
AC1015
  9
$ACADMAINTVER
 70
     6
  9
$DWGCODEPAGE
  3
ANSI_949
  9
$INSBASE
 10
0.0
 20
0.0
 30
0.0
  9
$EXTMIN
 10
-46.79066758406917
 20
-49.98438634254138
 30
0.0
  9
$EXTMAX
 10
70.16266134850628
 20
64.21272527705881
 30
0.0
  9
$LIMMIN
 10
0.0
 20
0.0
  9
$LIMMAX
 10
420.0
 20
297.0
  9
$ORTHOMODE
 70
     1
  9
$REGENMODE
 70
     1
  9
$FILLMODE
 70
     1
  9
$QTEXTMODE
 70
     0
  9
$MIRRTEXT
 70
     1
  9
$LTSCALE
 40
1.0
  9
$ATTMODE
 70
     1
  9
$TEXTSIZE
 40
3.5
  9
$TRACEWID
 40
1.0
  9
$TEXTSTYLE
  7
Standard
  9
$CLAYER
  8
0
  9
$CELTYPE
  6
ByLayer
  9
$CECOLOR
 62
   256
  9
$CELTSCALE
 40
1.0
  9
$DISPSILH
 70
     0
  9
$DIMSCALE
 40
1.0
  9
$DIMASZ
 40
3.302
  9
$DIMEXO
 40
1.0
  9
$DIMDLI
 40
3.75
  9
$DIMRND
 40
0.0
  9
$DIMDLE
 40
0.0
  9
$DIMEXE
 40
1.0
  9
$DIMTP
 40
0.0
  9
$DIMTM
 40
0.0
  9
$DIMTXT
 40
3.5
  9
$DIMCEN
 40
2.5
  9
$DIMTSZ
 40
0.0
  9
$DIMTOL
 70
     0
  9
$DIMLIM
 70
     0
  9
$DIMTIH
 70
     1
  9
$DIMTOH
 70
     1
  9
$DIMSE1
 70
     0
  9
$DIMSE2
 70
     0
  9
$DIMTAD
 70
     1
  9
$DIMZIN
 70
     0
  9
$DIMBLK
  1

  9
$DIMASO
 70
     1
  9
$DIMSHO
 70
     1
  9
$DIMPOST
  1

  9
$DIMAPOST
  1

  9
$DIMALT
 70
     0
  9
$DIMALTD
 70
     3
  9
$DIMALTF
 40
0.0393700787401575
  9
$DIMLFAC
 40
1.0
  9
$DIMTOFL
 70
     1
  9
$DIMTVP
 40
0.0
  9
$DIMTIX
 70
     0
  9
$DIMSOXD
 70
     0
  9
$DIMSAH
 70
     0
  9
$DIMBLK1
  1

  9
$DIMBLK2
  1

  9
$DIMSTYLE
  2
ISO-25
  9
$DIMCLRD
 70
     0
  9
$DIMCLRE
 70
     0
  9
$DIMCLRT
 70
     0
  9
$DIMTFAC
 40
1.0
  9
$DIMGAP
 40
1.524
  9
$DIMJUST
 70
     0
  9
$DIMSD1
 70
     0
  9
$DIMSD2
 70
     0
  9
$DIMTOLJ
 70
     0
  9
$DIMTZIN
 70
     0
  9
$DIMALTZ
 70
     0
  9
$DIMALTTZ
 70
     0
  9
$DIMUPT
 70
     0
  9
$DIMDEC
 70
     2
  9
$DIMTDEC
 70
     2
  9
$DIMALTU
 70
     2
  9
$DIMALTTD
 70
     3
  9
$DIMTXSTY
  7
Standard
  9
$DIMAUNIT
 70
     0
  9
$DIMADEC
 70
     2
  9
$DIMALTRND
 40
0.0
  9
$DIMAZIN
 70
     0
  9
$DIMDSEP
 70
    44
  9
$DIMATFIT
 70
     3
  9
$DIMFRAC
 70
     0
  9
$DIMLDRBLK
  1

  9
$DIMLUNIT
 70
     2
  9
$DIMLWD
 70
    -2
  9
$DIMLWE
 70
    -2
  9
$DIMTMOVE
 70
     0
  9
$LUNITS
 70
     2
  9
$LUPREC
 70
     2
  9
$SKETCHINC
 40
1.0
  9
$FILLETRAD
 40
10.0
  9
$AUNITS
 70
     0
  9
$AUPREC
 70
     2
  9
$MENU
  1
.
  9
$ELEVATION
 40
0.0
  9
$PELEVATION
 40
0.0
  9
$THICKNESS
 40
0.0
  9
$LIMCHECK
 70
     0
  9
$CHAMFERA
 40
0.0
  9
$CHAMFERB
 40
0.0
  9
$CHAMFERC
 40
0.0
  9
$CHAMFERD
 40
0.0
  9
$SKPOLY
 70
     0
  9
$TDCREATE
 40
2458340.593115382
  9
$TDUCREATE
 40
2458340.218115382
  9
$TDUPDATE
 40
2458341.45064765
  9
$TDUUPDATE
 40
2458341.07564765
  9
$TDINDWG
 40
0.0000688889
  9
$TDUSRTIMER
 40
2458341.074366505
  9
$USRTIMER
 70
     1
  9
$ANGBASE
 50
0.0
  9
$ANGDIR
 70
     0
  9
$PDMODE
 70
     0
  9
$PDSIZE
 40
-1.0
  9
$PLINEWID
 40
0.0
  9
$SPLFRAME
 70
     0
  9
$SPLINETYPE
 70
     6
  9
$SPLINESEGS
 70
     8
  9
$HANDSEED
  5
195
  9
$SURFTAB1
 70
     6
  9
$SURFTAB2
 70
     6
  9
$SURFTYPE
 70
     6
  9
$SURFU
 70
     6
  9
$SURFV
 70
     6
  9
$UCSBASE
  2

  9
$UCSNAME
  2

  9
$UCSORG
 10
0.0
 20
0.0
 30
0.0
  9
$UCSXDIR
 10
1.0
 20
0.0
 30
0.0
  9
$UCSYDIR
 10
0.0
 20
1.0
 30
0.0
  9
$UCSORTHOREF
  2

  9
$UCSORTHOVIEW
 70
     0
  9
$UCSORGTOP
 10
0.0
 20
0.0
 30
0.0
  9
$UCSORGBOTTOM
 10
0.0
 20
0.0
 30
0.0
  9
$UCSORGLEFT
 10
0.0
 20
0.0
 30
0.0
  9
$UCSORGRIGHT
 10
0.0
 20
0.0
 30
0.0
  9
$UCSORGFRONT
 10
0.0
 20
0.0
 30
0.0
  9
$UCSORGBACK
 10
0.0
 20
0.0
 30
0.0
  9
$PUCSBASE
  2

  9
$PUCSNAME
  2

  9
$PUCSORG
 10
0.0
 20
0.0
 30
0.0
  9
$PUCSXDIR
 10
1.0
 20
0.0
 30
0.0
  9
$PUCSYDIR
 10
0.0
 20
1.0
 30
0.0
  9
$PUCSORTHOREF
  2

  9
$PUCSORTHOVIEW
 70
     0
  9
$PUCSORGTOP
 10
0.0
 20
0.0
 30
0.0
  9
$PUCSORGBOTTOM
 10
0.0
 20
0.0
 30
0.0
  9
$PUCSORGLEFT
 10
0.0
 20
0.0
 30
0.0
  9
$PUCSORGRIGHT
 10
0.0
 20
0.0
 30
0.0
  9
$PUCSORGFRONT
 10
0.0
 20
0.0
 30
0.0
  9
$PUCSORGBACK
 10
0.0
 20
0.0
 30
0.0
  9
$USERI1
 70
     0
  9
$USERI2
 70
     0
  9
$USERI3
 70
     0
  9
$USERI4
 70
     0
  9
$USERI5
 70
     0
  9
$USERR1
 40
0.0
  9
$USERR2
 40
0.0
  9
$USERR3
 40
0.0
  9
$USERR4
 40
0.0
  9
$USERR5
 40
0.0
  9
$WORLDVIEW
 70
     1
  9
$SHADEDGE
 70
     3
  9
$SHADEDIF
 70
    70
  9
$TILEMODE
 70
     1
  9
$MAXACTVP
 70
    64
  9
$PINSBASE
 10
0.0
 20
0.0
 30
0.0
  9
$PLIMCHECK
 70
     0
  9
$PEXTMIN
 10
1.000000000000000E+20
 20
1.000000000000000E+20
 30
1.000000000000000E+20
  9
$PEXTMAX
 10
-1.000000000000000E+20
 20
-1.000000000000000E+20
 30
-1.000000000000000E+20
  9
$PLIMMIN
 10
0.0
 20
0.0
  9
$PLIMMAX
 10
0.0
 20
0.0
  9
$UNITMODE
 70
     0
  9
$VISRETAIN
 70
     1
  9
$PLINEGEN
 70
     0
  9
$PSLTSCALE
 70
     1
  9
$TREEDEPTH
 70
  3020
  9
$CMLSTYLE
  2
Standard
  9
$CMLJUST
 70
     0
  9
$CMLSCALE
 40
20.0
  9
$PROXYGRAPHICS
 70
     1
  9
$MEASUREMENT
 70
     1
  9
$CELWEIGHT
370
    -1
  9
$ENDCAPS
280
     0
  9
$JOINSTYLE
280
     0
  9
$LWDISPLAY
290
     1
  9
$INSUNITS
 70
     4
  9
$HYPERLINKBASE
  1

  9
$STYLESHEET
  1

  9
$XEDIT
290
     1
  9
$CEPSNTYPE
380
     0
  9
$PSTYLEMODE
290
     1
  9
$FINGERPRINTGUID
  2
{3BB41D01-30EC-4F10-B617-219B0763A6F7}
  9
$VERSIONGUID
  2
{FAEB1C32-E019-11D5-929B-00C0DF256EC4}
  9
$EXTNAMES
290
     1
  9
$PSVPSCALE
 40
0.0
  9
$OLESTARTUP
290
     0
  0
ENDSEC
  0
SECTION
  2
CLASSES
  0
CLASS
  1
ACDBDICTIONARYWDFLT
  2
AcDbDictionaryWithDefault
  3
ObjectDBX Classes
 90
        0
280
     0
281
     0
  0
CLASS
  1
VISUALSTYLE
  2
AcDbVisualStyle
  3
ObjectDBX Classes
 90
     4095
280
     0
281
     0
  0
CLASS
  1
MATERIAL
  2
AcDbMaterial
  3
ObjectDBX Classes
 90
     1153
280
     0
281
     0
  0
CLASS
  1
SCALE
  2
AcDbScale
  3
ObjectDBX Classes
 90
     1153
280
     0
281
     0
  0
CLASS
  1
SUN
  2
AcDbSun
  3
SCENEOE
 90
     1153
280
     0
281
     0
  0
CLASS
  1
ACDBPLACEHOLDER
  2
AcDbPlaceHolder
  3
ObjectDBX Classes
 90
        0
280
     0
281
     0
  0
CLASS
  1
LAYOUT
  2
AcDbLayout
  3
ObjectDBX Classes
 90
        0
280
     0
281
     0
  0
CLASS
  1
TABLESTYLE
  2
AcDbTableStyle
  3
ObjectDBX Classes
 90
     4095
280
     0
281
     0
  0
CLASS
  1
MLEADERSTYLE
  2
AcDbMLeaderStyle
  3
ACDB_MLEADERSTYLE_CLASS
 90
     4095
280
     0
281
     0
  0
CLASS
  1
RASTERVARIABLES
  2
AcDbRasterVariables
  3
ISM
 90
        0
280
     0
281
     0
  0
CLASS
  1
DIMASSOC
  2
AcDbDimAssoc
  3
"AcDbDimAssoc|Product Desc:     AcDim ARX App For Dimension|Company:          Autodesk, Inc.|WEB Address:      www.autodesk.com"
 90
        0
280
     0
281
     0
  0
CLASS
  1
DICTIONARYVAR
  2
AcDbDictionaryVar
  3
ObjectDBX Classes
 90
        0
280
     0
281
     0
  0
ENDSEC
  0
SECTION
  2
TABLES
  0
TABLE
  2
VPORT
  5
8
330
0
100
AcDbSymbolTable
 70
     1
  0
VPORT
  5
29
330
8
100
AcDbSymbolTableRecord
100
AcDbViewportTableRecord
  2
*Active
 70
     0
 10
0.0
 20
0.0
 11
1.0
 21
1.0
 12
34.6512517757041
 22
9.125775097639188
 13
0.0
 23
0.0
 14
10.0
 24
10.0
 15
10.0
 25
10.0
 16
0.0
 26
0.0
 36
1.0
 17
0.0
 27
0.0
 37
0.0
 40
185.7833357997239
 41
1.444267515923567
 42
50.0
 43
0.0
 44
0.0
 50
0.0
 51
0.0
 71
    16
 72
  2000
 73
     1
 74
     3
 75
     0
 76
     0
 77
     0
 78
     0
281
     0
 65
     1
110
0.0
120
0.0
130
0.0
111
1.0
121
0.0
131
0.0
112
0.0
122
1.0
132
0.0
 79
     0
146
0.0
  0
ENDTAB
  0
TABLE
  2
LTYPE
  5
5
330
0
100
AcDbSymbolTable
 70
     6
  0
LTYPE
  5
14
330
5
100
AcDbSymbolTableRecord
100
AcDbLinetypeTableRecord
  2
ByBlock
 70
     0
  3

 72
    65
 73
     0
 40
0.0
  0
LTYPE
  5
15
330
5
100
AcDbSymbolTableRecord
100
AcDbLinetypeTableRecord
  2
ByLayer
 70
     0
  3

 72
    65
 73
     0
 40
0.0
  0
LTYPE
  5
16
330
5
100
AcDbSymbolTableRecord
100
AcDbLinetypeTableRecord
  2
Continuous
 70
     0
  3
Solid line
 72
    65
 73
     0
 40
0.0
  0
LTYPE
  5
6A
330
5
100
AcDbSymbolTableRecord
100
AcDbLinetypeTableRecord
  2
HIDDEN
 70
     0
  3
Hidden __ __ __ __ __ __ __ __ __ __ __ __ __ __
 72
    65
 73
     2
 40
1.905
 49
1.27
 74
     0
 49
-0.635
 74
     0
  0
LTYPE
  5
6B
330
5
100
AcDbSymbolTableRecord
100
AcDbLinetypeTableRecord
  2
PHANTOM
 70
     0
  3
Phantom ______  __  __  ______  __  __  ______
 72
    65
 73
     6
 40
12.7
 49
6.35
 74
     0
 49
-1.27
 74
     0
 49
1.27
 74
     0
 49
-1.27
 74
     0
 49
1.27
 74
     0
 49
-1.27
 74
     0
  0
LTYPE
  5
6C
330
5
100
AcDbSymbolTableRecord
100
AcDbLinetypeTableRecord
  2
CENTER
 70
     0
  3
Center ____ _ ____ _ ____ _ ____ _ ____ _ ____
 72
    65
 73
     4
 40
10.16
 49
6.35
 74
     0
 49
-1.27
 74
     0
 49
1.27
 74
     0
 49
-1.27
 74
     0
  0
LTYPE
  5
6D
330
5
100
AcDbSymbolTableRecord
100
AcDbLinetypeTableRecord
  2
CENTERX2
 70
     0
  3
Center (2x) ________  __  ________  __  _____
 72
    65
 73
     4
 40
20.32
 49
12.7
 74
     0
 49
-2.54
 74
     0
 49
2.54
 74
     0
 49
-2.54
 74
     0
  0
LTYPE
  5
6E
330
5
100
AcDbSymbolTableRecord
100
AcDbLinetypeTableRecord
  2
DOT2
 70
     0
  3
Dot (.5x) ........................................
 72
    65
 73
     2
 40
0.635
 49
0.0
 74
     0
 49
-0.635
 74
     0
  0
ENDTAB
  0
TABLE
  2
LAYER
  5
2
330
0
100
AcDbSymbolTable
 70
    17
  0
LAYER
  5
10
330
2
100
AcDbSymbolTableRecord
100
AcDbLayerTableRecord
  2
0
 70
     0
 62
     7
  6
Continuous
370
    -3
390
F
  0
LAYER
  5
6F
330
2
100
AcDbSymbolTableRecord
100
AcDbLayerTableRecord
  2
FORMAT
 70
     0
 62
     2
  6
Continuous
370
    -3
390
F
  0
LAYER
  5
70
330
2
100
AcDbSymbolTableRecord
100
AcDbLayerTableRecord
  2
외형선
 70
     0
 62
   100
  6
Continuous
370
    30
390
F
  0
LAYER
  5
71
330
2
100
AcDbSymbolTableRecord
100
AcDbLayerTableRecord
  2
숨은선
 70
     0
 62
     2
  6
HIDDEN
370
    15
390
F
  0
LAYER
  5
72
330
2
100
AcDbSymbolTableRecord
100
AcDbLayerTableRecord
  2
중심선
 70
     0
 62
     1
  6
CENTERX2
370
    -3
390
F
  0
LAYER
  5
73
330
2
100
AcDbSymbolTableRecord
100
AcDbLayerTableRecord
  2
파단선
 70
     0
 62
     4
  6
Continuous
370
    -3
390
F
  0
LAYER
  5
74
330
2
100
AcDbSymbolTableRecord
100
AcDbLayerTableRecord
  2
해칭선
 70
     0
 62
     4
  6
Continuous
370
    -3
390
F
  0
LAYER
  5
75
330
2
100
AcDbSymbolTableRecord
100
AcDbLayerTableRecord
  2
가는실선
 70
     0
 62
     4
  6
Continuous
370
    -3
390
F
  0
LAYER
  5
76
330
2
100
AcDbSymbolTableRecord
100
AcDbLayerTableRecord
  2
치수_보조선
 70
     0
 62
     4
  6
Continuous
370
    -3
390
F
  0
LAYER
  5
77
330
2
100
AcDbSymbolTableRecord
100
AcDbLayerTableRecord
  2
치수문자_일반주서
 70
     0
 62
     7
  6
Continuous
370
    15
390
F
  0
LAYER
  5
78
330
2
100
AcDbSymbolTableRecord
100
AcDbLayerTableRecord
  2
개별주서
 70
     0
 62
   100
  6
Continuous
370
    30
390
F
  0
LAYER
  5
79
330
2
100
AcDbSymbolTableRecord
100
AcDbLayerTableRecord
  2
중간선
 70
     0
 62
     2
  6
Continuous
370
    15
390
F
  0
LAYER
  5
7A
330
2
100
AcDbSymbolTableRecord
100
AcDbLayerTableRecord
  2
윤곽선
 70
     0
 62
     3
  6
Continuous
370
    40
390
F
  0
LAYER
  5
7B
330
2
100
AcDbSymbolTableRecord
100
AcDbLayerTableRecord
  2
중심마크
 70
     0
 62
   100
  6
Continuous
370
    30
390
F
  0
LAYER
  5
7C
330
2
100
AcDbSymbolTableRecord
100
AcDbLayerTableRecord
  2
가상선
 70
     0
 62
     4
  6
PHANTOM
370
    -3
390
F
  0
LAYER
  5
7D
330
2
100
AcDbSymbolTableRecord
100
AcDbLayerTableRecord
  2
특수지정선
 70
     0
 62
     5
  6
CENTERX2
370
    60
390
F
  0
LAYER
  5
152
330
2
100
AcDbSymbolTableRecord
100
AcDbLayerTableRecord
  2
Defpoints
 70
     0
 62
     7
  6
Continuous
290
     0
370
    -3
390
F
  0
ENDTAB
  0
TABLE
  2
STYLE
  5
3
330
0
100
AcDbSymbolTable
 70
     2
  0
STYLE
  5
11
330
3
100
AcDbSymbolTableRecord
100
AcDbTextStyleTableRecord
  2
Standard
 70
     0
 40
0.0
 41
1.0
 50
0.0
 71
     0
 42
3.5
  3
txt
  4

  0
STYLE
  5
93
330
3
100
AcDbSymbolTableRecord
100
AcDbTextStyleTableRecord
  2
SLDTEXTSTYLE0
 70
     0
 40
0.0
 41
0.75
 50
0.0
 71
     0
 42
3.5
  3
TXT
  4

  0
ENDTAB
  0
TABLE
  2
VIEW
  5
6
330
0
100
AcDbSymbolTable
 70
     0
  0
ENDTAB
  0
TABLE
  2
UCS
  5
7
330
0
100
AcDbSymbolTable
 70
     0
  0
ENDTAB
  0
TABLE
  2
APPID
  5
9
330
0
100
AcDbSymbolTable
 70
     2
  0
APPID
  5
12
330
9
100
AcDbSymbolTableRecord
100
AcDbRegAppTableRecord
  2
ACAD
 70
     0
  0
APPID
  5
179
330
9
100
AcDbSymbolTableRecord
100
AcDbRegAppTableRecord
  2
PE_DIMMEASUREMENT
 70
     0
  0
ENDTAB
  0
TABLE
  2
DIMSTYLE
  5
A
330
0
100
AcDbSymbolTable
 70
     4
100
AcDbDimStyleTable
  0
DIMSTYLE
105
27
330
A
100
AcDbSymbolTableRecord
100
AcDbDimStyleTableRecord
  2
ISO-25
 70
     0
 41
2.5
 42
0.625
 43
3.75
 44
1.25
 73
     0
 74
     0
 77
     1
 78
     8
140
2.5
141
2.5
143
0.03937007874016
147
0.625
171
     3
172
     1
178
     0
271
     2
272
     2
274
     3
278
    44
283
     0
284
     8
340
11
  0
DIMSTYLE
105
EF
102
{ACAD_REACTORS
330
EE
330
167
330
153
330
102
330
17A
102
}
330
A
100
AcDbSymbolTableRecord
100
AcDbDimStyleTableRecord
  2
SLDDIMSTYLE0
 70
     0
 41
3.302
 44
0.0
 45
0.000000001
 73
     0
 74
     0
 77
     1
 78
    12
 79
     3
140
3.5
143
0.0393700787401575
147
0.875
148
0.000000001
170
     1
173
     1
178
     0
271
     2
272
     2
276
     2
284
    12
340
93
  0
DIMSTYLE
105
103
330
A
100
AcDbSymbolTableRecord
100
AcDbDimStyleTableRecord
  2
SLDDIMSTYLE1
 70
     0
 41
3.302
 44
0.0
 45
0.000000001
 73
     0
 74
     0
 77
     1
 78
     4
 79
     1
140
3.5
143
0.0393700787401575
147
0.875
148
0.000000001
170
     1
173
     1
178
     0
271
     2
272
     2
276
     2
284
    12
340
93
  0
DIMSTYLE
105
117
330
A
100
AcDbSymbolTableRecord
100
AcDbDimStyleTableRecord
  2
SLDDIMSTYLE2
 70
     0
 41
3.302
 44
0.0
 45
0.000000001
 73
     0
 74
     0
 77
     1
 78
     8
 79
     2
140
3.5
143
0.0393700787401575
147
0.875
148
0.000000001
170
     1
172
     1
173
     1
178
     0
271
     2
272
     2
276
     2
284
    12
289
     0
340
93
341
118
343
118
344
118
  0
ENDTAB
  0
TABLE
  2
BLOCK_RECORD
  5
1
330
0
100
AcDbSymbolTable
 70
    10
  0
BLOCK_RECORD
  5
1F
330
1
100
AcDbSymbolTableRecord
100
AcDbBlockTableRecord
  2
*Model_Space
340
22
  0
BLOCK_RECORD
  5
1B
330
1
100
AcDbSymbolTableRecord
100
AcDbBlockTableRecord
  2
*Paper_Space
340
1E
  0
BLOCK_RECORD
  5
23
330
1
100
AcDbSymbolTableRecord
100
AcDbBlockTableRecord
  2
*Paper_Space0
340
26
  0
BLOCK_RECORD
  5
7E
330
1
100
AcDbSymbolTableRecord
100
AcDbBlockTableRecord
  2
블럭10
340
0
102
{BLKREFS
331
E7
102
}
  0
BLOCK_RECORD
  5
F0
330
1
100
AcDbSymbolTableRecord
100
AcDbBlockTableRecord
  2
_D
340
0
  0
BLOCK_RECORD
  5
104
330
1
100
AcDbSymbolTableRecord
100
AcDbBlockTableRecord
  2
_D_1
340
0
  0
BLOCK_RECORD
  5
118
330
1
100
AcDbSymbolTableRecord
100
AcDbBlockTableRecord
  2
_NONE
340
0
  0
BLOCK_RECORD
  5
11B
330
1
100
AcDbSymbolTableRecord
100
AcDbBlockTableRecord
  2
_D_2
340
0
  0
BLOCK_RECORD
  5
127
330
1
100
AcDbSymbolTableRecord
100
AcDbBlockTableRecord
  2
SW_DOWELSYMBOL_0
340
0
102
{BLKREFS
331
12D
102
}
  0
BLOCK_RECORD
  5
156
330
1
100
AcDbSymbolTableRecord
100
AcDbBlockTableRecord
  2
*D7
340
0
  0
BLOCK_RECORD
  5
16A
330
1
100
AcDbSymbolTableRecord
100
AcDbBlockTableRecord
  2
*D8
340
0
  0
BLOCK_RECORD
  5
17D
330
1
100
AcDbSymbolTableRecord
100
AcDbBlockTableRecord
  2
*D9
340
0
  0
ENDTAB
  0
ENDSEC
  0
SECTION
  2
BLOCKS
  0
BLOCK
  5
20
330
1F
100
AcDbEntity
  8
0
100
AcDbBlockBegin
  2
*Model_Space
 70
     0
 10
0.0
 20
0.0
 30
0.0
  3
*Model_Space
  1
*Model_Space
  0
ENDBLK
  5
21
330
1F
100
AcDbEntity
  8
0
100
AcDbBlockEnd
  0
BLOCK
  5
1C
330
1B
100
AcDbEntity
 67
     1
  8
0
100
AcDbBlockBegin
  2
*Paper_Space
 70
     0
 10
0.0
 20
0.0
 30
0.0
  3
*Paper_Space
  1
*Paper_Space
  0
ENDBLK
  5
1D
330
1B
100
AcDbEntity
 67
     1
  8
0
100
AcDbBlockEnd
  0
BLOCK
  5
24
330
23
100
AcDbEntity
  8
0
100
AcDbBlockBegin
  2
*Paper_Space0
 70
     0
 10
0.0
 20
0.0
 30
0.0
  3
*Paper_Space0
  1
*Paper_Space0
  0
ENDBLK
  5
25
330
23
100
AcDbEntity
  8
0
100
AcDbBlockEnd
  0
BLOCK
  5
7F
330
7E
100
AcDbEntity
  8
0
100
AcDbBlockBegin
  2
블럭10
 70
     2
 10
0.0
 20
0.0
 30
0.0
  3
블럭10
  1
블럭10
  0
ELLIPSE
  5
81
330
7E
100
AcDbEntity
  8
중심선
100
AcDbEllipse
 10
20.54032771741204
 20
12.0471743016438
 30
0.0
 11
6.600054785286829
 21
-1.261213355974178E-13
 31
0.0
210
0.0
220
0.0
230
1.0
 40
0.636358354079598
 41
0.9219305317359503
 42
6.513795318482858
  0
ELLIPSE
  5
82
330
7E
100
AcDbEntity
  8
중심선
100
AcDbEllipse
 10
20.54032771746488
 20
12.04717430159265
 30
0.0
 11
3.960054785062283
 21
1.540847449632565E-10
 31
0.0
210
0.0
220
0.0
230
1.0
 40
0.3939339440162632
 41
1.131841032648279
 42
5.62031148352944
  0
LINE
  5
83
330
7E
100
AcDbEntity
  8
중심선
100
AcDbLine
 10
2.268634060543552
 20
16.24717430164393
 30
0.0
 11
5.714909304380834
 21
16.24717430164393
 31
0.0
  0
LINE
  5
84
330
7E
100
AcDbEntity
  8
중심선
100
AcDbLine
 10
5.245725140726316
 20
7.84717430164391
 30
0.0
 11
8.692000384563599
 21
7.84717430164391
 31
0.0
  0
LINE
  5
85
330
7E
100
AcDbEntity
  8
중심선
100
AcDbLine
 10
15.74043728645272
 20
16.24717430164393
 30
0.0
 11
8.692000384563599
 21
7.84717430164391
 31
0.0
  0
LINE
  5
86
330
7E
100
AcDbEntity
  8
중심선
100
AcDbLine
 10
0.1404042013395286
 20
13.71084872107135
 30
0.0
 11
3.58671253028996
 21
13.71088815037384
 31
0.0
  0
LINE
  5
87
330
7E
100
AcDbEntity
  8
중심선
100
AcDbLine
 10
2.750260043222114
 20
10.84717430164391
 30
0.0
 11
6.196535287059397
 21
10.84717430164391
 31
0.0
  0
LINE
  5
88
330
7E
100
AcDbEntity
  8
중심선
100
AcDbLine
 10
12.29416204261559
 20
16.24717430164393
 30
0.0
 11
5.245725140726316
 21
7.84717430164391
 31
0.0
  0
LINE
  5
89
330
7E
100
AcDbEntity
  8
중심선
100
AcDbLine
 10
10.72767329541681
 20
16.24717430164393
 30
0.0
 11
6.196535287059397
 21
10.84717430164391
 31
0.0
  0
LINE
  5
8A
330
7E
100
AcDbEntity
  8
중심선
100
AcDbLine
 10
7.28139805157953
 20
16.24717430164393
 30
0.0
 11
2.750260043222114
 21
10.84717430164391
 31
0.0
  0
LINE
  5
8B
330
7E
100
AcDbEntity
  8
중심선
100
AcDbLine
 10
5.714909304380834
 20
16.24717430164393
 30
0.0
 11
3.58671253028996
 21
13.71088815037384
 31
0.0
  0
LINE
  5
8C
330
7E
100
AcDbEntity
  8
중심선
100
AcDbLine
 10
2.268634060543552
 20
16.24717430164393
 30
0.0
 11
0.1404042013395286
 21
13.71084872107135
 31
0.0
  0
LINE
  5
8D
330
7E
100
AcDbEntity
  8
중심선
100
AcDbLine
 10
7.28139805157953
 20
16.24717430164393
 30
0.0
 11
10.72767329541681
 21
16.24717430164393
 31
0.0
  0
LINE
  5
8E
330
7E
100
AcDbEntity
  8
중심선
100
AcDbLine
 10
12.29416204261559
 20
16.24717430164393
 30
0.0
 11
15.74043728645272
 21
16.24717430164393
 31
0.0
  0
LINE
  5
8F
330
7E
100
AcDbEntity
  8
중심선
100
AcDbLine
 10
19.22036997980202
 20
11.08717430171403
 30
0.0
 11
23.66174974927406
 21
11.08717430171406
 31
0.0
  0
LINE
  5
90
330
7E
100
AcDbEntity
  8
중심선
100
AcDbLine
 10
19.22039502424796
 20
13.00717430171391
 30
0.0
 11
19.22036997980202
 21
11.08717430171403
 31
0.0
  0
LINE
  5
91
330
7E
100
AcDbEntity
  8
중심선
100
AcDbLine
 10
19.22039502424796
 20
13.00717430171391
 30
0.0
 11
26.96566020931264
 21
13.00717430171391
 31
0.0
  0
LINE
  5
92
330
7E
100
AcDbEntity
  8
중심선
100
AcDbLine
 10
22.22332737316547
 20
13.45928029700563
 30
0.0
 11
24.52862924686651
 21
15.39360700705356
 31
0.0
  0
ATTDEF
  5
94
330
7E
100
AcDbEntity
  8
FORMAT
 62
     2
100
AcDbText
 10
-9.18129528874128
 20
2.075366912832191
 30
0.0
 40
4.233333333333333
  1
E5078212 [ 3 FLUTE ]
 41
0.75
  7
SLDTEXTSTYLE0
 11
-9.18129528874128
 21
-0.0412997538344756
 31
0.0
100
AcDbAttributeDefinition
  3

  2
AUTOATTR0
 70
     0
 74
     1
  0
ENDBLK
  5
80
330
7E
100
AcDbEntity
  8
0
100
AcDbBlockEnd
  0
BLOCK
  5
F1
330
F0
100
AcDbEntity
  8
0
100
AcDbBlockBegin
  2
_D
 70
     0
 10
0.0
 20
0.0
 30
0.0
  3
_D
  1
_D
  0
LINE
  5
F3
330
F0
100
AcDbEntity
  8
치수문자_일반주서
 62
     0
370
    -2
100
AcDbLine
 10
58.2014466729842
 20
0.0625000000000227
 30
0.0
 11
58.2014466729842
 21
46.77372510362598
 31
0.0
  0
LINE
  5
F4
330
F0
100
AcDbEntity
  8
치수문자_일반주서
 62
     0
370
    -2
100
AcDbLine
 10
13.7514466729842
 20
3.914274598917544
 30
0.0
 11
13.7514466729842
 21
46.77372510362598
 31
0.0
  0
LINE
  5
F5
330
F0
100
AcDbEntity
  8
치수문자_일반주서
 62
     0
370
    -2
100
AcDbLine
 10
54.8994466729842
 20
46.77372510362598
 30
0.0
 11
17.0534466729842
 21
46.77372510362598
 31
0.0
  0
SOLID
  5
F6
330
F0
100
AcDbEntity
  8
치수문자_일반주서
 62
     0
100
AcDbTrace
 10
54.8994466729842
 20
46.22339177029265
 30
0.0
 11
54.8994466729842
 21
47.32405843695932
 31
0.0
 12
58.2014466729842
 22
46.77372510362598
 32
0.0
 13
58.2014466729842
 23
46.77372510362598
 33
0.0
  0
SOLID
  5
F7
330
F0
100
AcDbEntity
  8
치수문자_일반주서
 62
     0
100
AcDbTrace
 10
17.0534466729842
 20
47.32405843695932
 30
0.0
 11
17.0534466729842
 21
46.22339177029265
 31
0.0
 12
13.7514466729842
 22
46.77372510362598
 32
0.0
 13
13.7514466729842
 23
46.77372510362598
 33
0.0
  0
MTEXT
  5
F8
330
F0
100
AcDbEntity
  8
치수문자_일반주서
 62
     0
100
AcDbMText
 10
35.58551360248141
 20
51.14872510362598
 30
0.0
 40
3.5
 41
0.0
 71
     2
 72
     1
  1
\A1;44.45 [1 3/4]
  7
SLDTEXTSTYLE0
 73
     1
 44
1.0
  0
POINT
  5
F9
330
F0
100
AcDbEntity
  8
Defpoints
 62
     0
100
AcDbPoint
 10
58.2014466729842
 20
0.0000000000000227
 30
0.0
  0
POINT
  5
FA
330
F0
100
AcDbEntity
  8
Defpoints
 62
     0
100
AcDbPoint
 10
13.7514466729842
 20
3.851774598917544
 30
0.0
  0
POINT
  5
FB
330
F0
100
AcDbEntity
  8
Defpoints
 62
     0
100
AcDbPoint
 10
13.7514466729842
 20
46.77372510362598
 30
0.0
  0
ENDBLK
  5
F2
330
F0
100
AcDbEntity
  8
0
100
AcDbBlockEnd
  0
BLOCK
  5
105
330
104
100
AcDbEntity
  8
0
100
AcDbBlockBegin
  2
_D_1
 70
     0
 10
0.0
 20
0.0
 30
0.0
  3
_D_1
  1
_D_1
  0
LINE
  5
107
330
104
100
AcDbEntity
  8
치수문자_일반주서
 62
     0
370
    -2
100
AcDbLine
 10
58.2014466729842
 20
0.0625000000000227
 30
0.0
 11
58.2014466729842
 21
59.8377252770588
 31
0.0
  0
LINE
  5
108
330
104
100
AcDbEntity
  8
치수문자_일반주서
 62
     0
370
    -2
100
AcDbLine
 10
-30.69855332701581
 20
4.015000000000018
 30
0.0
 11
-30.6985533270158
 21
59.8377252770588
 31
0.0
  0
LINE
  5
109
330
104
100
AcDbEntity
  8
치수문자_일반주서
 62
     0
370
    -2
100
AcDbLine
 10
54.8994466729842
 20
59.8377252770588
 30
0.0
 11
-27.3965533270158
 21
59.8377252770588
 31
0.0
  0
SOLID
  5
10A
330
104
100
AcDbEntity
  8
치수문자_일반주서
 62
     0
100
AcDbTrace
 10
54.8994466729842
 20
59.28739194372547
 30
0.0
 11
54.8994466729842
 21
60.38805861039214
 31
0.0
 12
58.2014466729842
 22
59.8377252770588
 32
0.0
 13
58.2014466729842
 23
59.8377252770588
 33
0.0
  0
SOLID
  5
10B
330
104
100
AcDbEntity
  8
치수문자_일반주서
 62
     0
100
AcDbTrace
 10
-27.3965533270158
 20
60.38805861039214
 30
0.0
 11
-27.3965533270158
 21
59.28739194372547
 31
0.0
 12
-30.6985533270158
 22
59.8377252770588
 32
0.0
 13
-30.6985533270158
 23
59.8377252770588
 33
0.0
  0
MTEXT
  5
10C
330
104
100
AcDbEntity
  8
치수문자_일반주서
 62
     0
100
AcDbMText
 10
15.73943016493781
 20
64.21272527705881
 30
0.0
 40
3.5
 41
0.0
 71
     2
 72
     1
  1
\A1;88.9 [3 1/2]
  7
SLDTEXTSTYLE0
 73
     1
 44
1.0
  0
POINT
  5
10D
330
104
100
AcDbEntity
  8
Defpoints
 62
     0
100
AcDbPoint
 10
58.2014466729842
 20
0.0000000000000227
 30
0.0
  0
POINT
  5
10E
330
104
100
AcDbEntity
  8
Defpoints
 62
     0
100
AcDbPoint
 10
-30.69855332701581
 20
3.952500000000019
 30
0.0
  0
POINT
  5
10F
330
104
100
AcDbEntity
  8
Defpoints
 62
     0
100
AcDbPoint
 10
-30.69855332701581
 20
59.8377252770588
 30
0.0
  0
ENDBLK
  5
106
330
104
100
AcDbEntity
  8
0
100
AcDbBlockEnd
  0
BLOCK
  5
119
330
118
100
AcDbEntity
  8
0
100
AcDbBlockBegin
  2
_NONE
 70
     0
 10
0.0
 20
0.0
 30
0.0
  3
_NONE
  1
_NONE
  0
ENDBLK
  5
11A
330
118
100
AcDbEntity
  8
0
100
AcDbBlockEnd
  0
BLOCK
  5
11C
330
11B
100
AcDbEntity
  8
0
100
AcDbBlockBegin
  2
_D_2
 70
     0
 10
0.0
 20
0.0
 30
0.0
  3
_D_2
  1
_D_2
  0
LINE
  5
11E
330
11B
100
AcDbEntity
  8
치수문자_일반주서
100
AcDbLine
 10
-55.73488171604274
 20
-10.1768664310687
 30
0.0
 11
-55.73488171604273
 21
-10.8878039166332
 31
0.0
  0
LINE
  5
11F
330
11B
100
AcDbEntity
  8
치수문자_일반주서
100
AcDbLine
 10
-55.73488171604273
 20
-10.8878039166332
 30
0.0
 11
-50.17863172498343
 21
-10.88780391663316
 31
0.0
  0
LINE
  5
120
330
11B
100
AcDbEntity
  8
치수문자_일반주서
100
AcDbLine
 10
-50.17863172498343
 20
-10.88780391663316
 30
0.0
 11
-50.17863172498343
 21
-10.17686643106866
 31
0.0
  0
LINE
  5
121
330
11B
100
AcDbEntity
  8
치수문자_일반주서
100
AcDbLine
 10
-55.73488171604281
 20
0.651866431068562
 30
0.0
 11
-55.73488171604281
 21
1.362803916633062
 31
0.0
  0
LINE
  5
122
330
11B
100
AcDbEntity
  8
치수문자_일반주서
100
AcDbLine
 10
-55.73488171604281
 20
1.362803916633062
 30
0.0
 11
-50.17863172498351
 21
1.362803916633101
 31
0.0
  0
LINE
  5
123
330
11B
100
AcDbEntity
  8
치수문자_일반주서
100
AcDbLine
 10
-50.17863172498351
 20
1.362803916633101
 30
0.0
 11
-50.1786317249835
 21
0.651866431068601
 31
0.0
  0
MTEXT
  5
124
330
11B
100
AcDbEntity
  8
치수문자_일반주서
100
AcDbMText
 10
-54.69036863956233
 20
-9.288194530457316
 30
0.0
 40
3.5
 41
0.0
 71
     1
 72
     1
  1
0.00
  7
SLDTEXTSTYLE0
 11
-7.044195017643634E-15
 21
1.0
 31
0.0
 73
     1
 44
1.0
  0
MTEXT
  5
125
330
11B
100
AcDbEntity
  8
치수문자_일반주서
100
AcDbMText
 10
-49.45373708920187
 20
-8.694774412363792
 30
0.0
 40
3.5
 41
0.0
 71
     1
 72
     1
  1
%%c
  7
SLDTEXTSTYLE0
 11
-7.044195017643634E-15
 21
1.0
 31
0.0
 73
     1
 44
1.0
  0
MTEXT
  5
126
330
11B
100
AcDbEntity
  8
치수문자_일반주서
100
AcDbMText
 10
-49.4537370892019
 20
-3.416337013989711
 30
0.0
 40
3.5
 41
0.0
 71
     1
 72
     1
  1
0
  7
SLDTEXTSTYLE0
 11
-7.044195017643634E-15
 21
1.0
 31
0.0
 73
     1
 44
1.0
  0
ENDBLK
  5
11D
330
11B
100
AcDbEntity
  8
0
100
AcDbBlockEnd
  0
BLOCK
  5
128
330
127
100
AcDbEntity
  8
0
100
AcDbBlockBegin
  2
SW_DOWELSYMBOL_0
 70
     0
 10
0.0
 20
0.0
 30
0.0
  3
SW_DOWELSYMBOL_0
  1
SW_DOWELSYMBOL_0
  0
CIRCLE
  5
12A
330
127
100
AcDbEntity
  8
외형선
 62
     0
100
AcDbCircle
 10
0.0
 20
0.0
 30
0.0
 40
2.999999999999999
  0
HATCH
  5
12B
330
127
100
AcDbEntity
  8
0
  6
Continuous
 62
     0
370
    30
100
AcDbHatch
 10
0.0
 20
0.0
 30
0.0
210
0.0
220
0.0
230
1.0
  2
SOLID
 70
     1
 71
     0
 91
        1
 92
        0
 93
        3
 72
     2
 10
0.0
 20
0.0
 40
2.999999999999999
 50
0.0
 51
90.0
 73
     1
 72
     1
 10
0.0
 20
2.999999999999999
 11
0.0
 21
0.0
 72
     1
 10
0.0
 20
0.0
 11
2.999999999999999
 21
0.0
 97
        0
 75
     0
 76
     1
 98
        1
 10
0.0
 20
0.0
  0
HATCH
  5
12C
330
127
100
AcDbEntity
  8
0
  6
Continuous
 62
     0
370
    30
100
AcDbHatch
 10
0.0
 20
0.0
 30
0.0
210
0.0
220
0.0
230
1.0
  2
SOLID
 70
     1
 71
     0
 91
        1
 92
        0
 93
        3
 72
     2
 10
0.0
 20
0.0
 40
2.999999999999999
 50
180.0
 51
270.0000000000008
 73
     1
 72
     1
 10
0.0
 20
-2.999999999999999
 11
0.0
 21
0.0
 72
     1
 10
0.0
 20
0.0
 11
-2.999999999999999
 21
0.0
 97
        0
 75
     0
 76
     1
 98
        1
 10
0.0
 20
0.0
  0
ENDBLK
  5
129
330
127
100
AcDbEntity
  8
0
100
AcDbBlockEnd
  0
BLOCK
  5
157
330
156
100
AcDbEntity
  8
0
100
AcDbBlockBegin
  2
*D7
 70
     1
 10
0.0
 20
0.0
 30
0.0
  3
*D7
  1
*D7
  0
LINE
  5
159
330
156
100
AcDbEntity
  8
치수문자_일반주서
 62
     0
370
    -2
100
AcDbLine
 10
-29.9510533270158
 20
-4.76249999999999
 30
0.0
 11
-42.41566758406917
 21
-4.762499999999991
 31
0.0
  0
LINE
  5
15A
330
156
100
AcDbEntity
  8
치수문자_일반주서
 62
     0
370
    -2
100
AcDbLine
 10
-29.9510533270158
 20
4.762500000000006
 30
0.0
 11
-42.41566758406917
 21
4.762500000000007
 31
0.0
  0
LINE
  5
15B
330
156
100
AcDbEntity
  8
치수문자_일반주서
 62
     0
370
    -2
100
AcDbLine
 10
-42.41566758406917
 20
4.762500000000007
 30
0.0
 11
-42.41566758406917
 21
34.31450000000001
 31
0.0
  0
LINE
  5
15C
330
156
100
AcDbEntity
  8
치수문자_일반주서
 62
     0
370
    -2
100
AcDbLine
 10
-42.41566758406917
 20
-1.460499999999992
 30
0.0
 11
-42.41566758406917
 21
1.460500000000008
 31
0.0
  0
SOLID
  5
15D
330
156
100
AcDbEntity
  8
치수문자_일반주서
 62
     0
100
AcDbTrace
 10
-42.9660009174025
 20
-1.460499999999992
 30
0.0
 11
-41.86533425073583
 21
-1.460499999999992
 31
0.0
 12
-42.41566758406917
 22
-4.762499999999991
 32
0.0
 13
-42.41566758406917
 23
-4.762499999999991
 33
0.0
  0
SOLID
  5
15E
330
156
100
AcDbEntity
  8
치수문자_일반주서
 62
     0
100
AcDbTrace
 10
-41.86533425073583
 20
1.460500000000008
 30
0.0
 11
-42.9660009174025
 21
1.460500000000008
 31
0.0
 12
-42.41566758406917
 22
4.762500000000007
 32
0.0
 13
-42.41566758406917
 23
4.762500000000007
 33
0.0
  0
MTEXT
  5
15F
330
156
100
AcDbEntity
  8
치수문자_일반주서
 62
     0
100
AcDbMText
 10
-45.04066758406917
 20
21.18950000000001
 30
0.0
 40
3.5
 41
0.0
 71
     5
 72
     1
  1
\A1;{%%c9.53 [3/8]}
  7
SLDTEXTSTYLE0
 11
0.0
 21
1.0
 31
0.0
 73
     1
 44
1.0
  0
POINT
  5
160
330
156
100
AcDbEntity
  8
Defpoints
 62
     0
100
AcDbPoint
 10
-29.8885533270158
 20
-4.76249999999999
 30
0.0
  0
POINT
  5
161
330
156
100
AcDbEntity
  8
Defpoints
 62
     0
100
AcDbPoint
 10
-29.8885533270158
 20
4.762500000000006
 30
0.0
  0
POINT
  5
162
330
156
100
AcDbEntity
  8
Defpoints
 62
     0
100
AcDbPoint
 10
-42.41566758406917
 20
4.762500000000007
 30
0.0
  0
ENDBLK
  5
158
330
156
100
AcDbEntity
  8
0
100
AcDbBlockEnd
  0
BLOCK
  5
16B
330
16A
100
AcDbEntity
  8
0
100
AcDbBlockBegin
  2
*D8
 70
     1
 10
0.0
 20
0.0
 30
0.0
  3
*D8
  1
*D8
  0
LINE
  5
16D
330
16A
100
AcDbEntity
  8
치수문자_일반주서
 62
     0
370
    -2
100
AcDbLine
 10
58.719595272402
 20
-2.381250000000001
 30
0.0
 11
69.61232801517295
 21
-2.381250000000002
 31
0.0
  0
LINE
  5
16E
330
16A
100
AcDbEntity
  8
치수문자_일반주서
 62
     0
370
    -2
100
AcDbLine
 10
58.719595272402
 20
2.381249999999999
 30
0.0
 11
69.61232801517295
 21
2.381249999999998
 31
0.0
  0
LINE
  5
16F
330
16A
100
AcDbEntity
  8
치수문자_일반주서
 62
     0
370
    -2
100
AcDbLine
 10
69.61232801517295
 20
5.683249999999997
 30
0.0
 11
69.61232801517295
 21
36.98524999999999
 31
0.0
  0
LINE
  5
170
330
16A
100
AcDbEntity
  8
치수문자_일반주서
 62
     0
370
    -2
100
AcDbLine
 10
69.61232801517295
 20
-5.683250000000001
 30
0.0
 11
69.61232801517295
 21
-8.98525
 31
0.0
  0
SOLID
  5
171
330
16A
100
AcDbEntity
  8
치수문자_일반주서
 62
     0
100
AcDbTrace
 10
70.16266134850628
 20
-5.683250000000001
 30
0.0
 11
69.06199468183962
 21
-5.683250000000001
 31
0.0
 12
69.61232801517295
 22
-2.381250000000002
 32
0.0
 13
69.61232801517295
 23
-2.381250000000002
 33
0.0
  0
SOLID
  5
172
330
16A
100
AcDbEntity
  8
치수문자_일반주서
 62
     0
100
AcDbTrace
 10
69.06199468183962
 20
5.683249999999997
 30
0.0
 11
70.16266134850628
 21
5.683249999999997
 31
0.0
 12
69.61232801517295
 22
2.381249999999998
 32
0.0
 13
69.61232801517295
 23
2.381249999999998
 33
0.0
  0
MTEXT
  5
173
330
16A
100
AcDbEntity
  8
치수문자_일반주서
 62
     0
100
AcDbMText
 10
66.98732801517295
 20
22.98525
 30
0.0
 40
3.5
 41
0.0
 71
     5
 72
     1
  1
\A1;{%%c4.76 [3/16]}
  7
SLDTEXTSTYLE0
 11
0.0
 21
1.0
 31
0.0
 73
     1
 44
1.0
  0
POINT
  5
174
330
16A
100
AcDbEntity
  8
Defpoints
 62
     0
100
AcDbPoint
 10
58.657095272402
 20
-2.381250000000001
 30
0.0
  0
POINT
  5
175
330
16A
100
AcDbEntity
  8
Defpoints
 62
     0
100
AcDbPoint
 10
58.657095272402
 20
2.381249999999999
 30
0.0
  0
POINT
  5
176
330
16A
100
AcDbEntity
  8
Defpoints
 62
     0
100
AcDbPoint
 10
69.61232801517295
 20
2.381249999999998
 30
0.0
  0
ENDBLK
  5
16C
330
16A
100
AcDbEntity
  8
0
100
AcDbBlockEnd
  0
BLOCK
  5
17E
330
17D
100
AcDbEntity
  8
0
100
AcDbBlockBegin
  2
*D9
 70
     1
 10
0.0
 20
0.0
 30
0.0
  3
*D9
  1
*D9
  0
LINE
  5
180
330
17D
100
AcDbEntity
  8
치수문자_일반주서
 62
     0
370
    -2
100
AcDbLine
 10
24.26396994453344
 20
10.08821859766868
 30
0.0
 11
24.79203562225635
 21
15.31159362154079
 31
0.0
  0
LINE
  5
181
330
17D
100
AcDbEntity
  8
치수문자_일반주서
 62
     0
370
    -2
100
AcDbLine
 10
25.49617804884613
 20
3.441639541798573
 30
0.0
 11
23.8164217118395
 21
3.500297925645483
 31
0.0
  0
ARC
  5
182
330
17D
100
AcDbEntity
  8
치수문자_일반주서
 62
     0
370
    -2
100
AcDbCircle
 10
124.0518396762884
 20
-0.0000000000000004
 30
0.0
 40
100.2965158920092
100
AcDbArc
 50
174.2272027597039
 51
176.113601379852
  0
ARC
  5
183
330
17D
100
AcDbEntity
  8
치수문자_일반주서
 62
     0
370
    -2
100
AcDbCircle
 10
124.0518396762884
 20
-0.0000000000000004
 30
0.0
 40
100.2965158920092
100
AcDbArc
 50
181.8863986201481
 51
183.7727972402961
  0
SOLID
  5
184
330
17D
100
AcDbEntity
  8
치수문자_일반주서
 62
     0
100
AcDbTrace
 10
23.43635856963432
 20
6.826199726017061
 30
0.0
 11
24.5355733774416
 21
6.769684972117572
 31
0.0
 12
23.8164217118395
 22
3.500297925645483
 32
0.0
 13
23.8164217118395
 23
3.500297925645483
 33
0.0
  0
SOLID
  5
185
330
17D
100
AcDbEntity
  8
치수문자_일반주서
 62
     0
100
AcDbTrace
 10
24.35993739966994
 20
-3.292493455401539
 30
0.0
 11
23.25941986735643
 21
-3.31061173847952
 31
0.0
 12
23.75532378427924
 22
-0.0000000000000004
 32
0.0
 13
23.75532378427924
 23
-0.0000000000000004
 33
0.0
  0
MTEXT
  5
186
330
17D
100
AcDbEntity
  8
치수문자_일반주서
 62
     0
100
AcDbMText
 10
21.91631527145884
 20
12.96393894846619
 30
0.0
 40
3.5
 41
0.0
 71
     5
 72
     1
  1
\A1;2%%d
  7
SLDTEXTSTYLE0
 11
0.1005839386138879
 21
0.9949285759756414
 31
0.0
 73
     1
 44
1.0
  0
POINT
  5
187
330
17D
100
AcDbEntity
  8
Defpoints
 62
     0
100
AcDbPoint
 10
23.76211305565566
 20
1.166976621357557
 30
0.0
  0
POINT
  5
188
330
17D
100
AcDbEntity
  8
Defpoints
 62
     0
100
AcDbPoint
 10
29.02467013764906
 20
3.318421882912031
 30
0.0
  0
POINT
  5
189
330
17D
100
AcDbEntity
  8
Defpoints
 62
     0
100
AcDbPoint
 10
-33.69855332701582
 20
-0.0000000000000004
 30
0.0
  0
POINT
  5
18A
330
17D
100
AcDbEntity
  8
Defpoints
 62
     0
100
AcDbPoint
 10
61.90330109950676
 20
-0.0000000000000004
 30
0.0
  0
POINT
  5
18B
330
17D
100
AcDbEntity
  8
Defpoints
 62
     0
100
AcDbPoint
 10
25.55863997553482
 20
3.439458323254666
 30
0.0
  0
ENDBLK
  5
17F
330
17D
100
AcDbEntity
  8
0
100
AcDbBlockEnd
  0
ENDSEC
  0
SECTION
  2
ENTITIES
  0
LINE
  5
95
330
1F
100
AcDbEntity
  8
0
  6
Continuous
 62
     4
370
    15
100
AcDbLine
 10
12.00000000000001
 20
4.762500000000013
 30
0.0
 11
-29.8885533270158
 21
4.762500000000007
 31
0.0
  0
LINE
  5
96
330
1F
100
AcDbEntity
  8
0
  6
Continuous
 62
     4
370
    15
100
AcDbLine
 10
-29.8885533270158
 20
-4.76249999999999
 30
0.0
 11
12.00000000000001
 21
-4.762499999999984
 31
0.0
  0
LINE
  5
97
102
{ACAD_REACTORS
102
}
330
1F
100
AcDbEntity
  8
0
  6
Continuous
 62
     4
370
    15
100
AcDbLine
 10
-29.8885533270158
 20
4.762500000000006
 30
0.0
 11
-30.69855332701581
 21
3.952500000000019
 31
0.0
  0
LINE
  5
98
102
{ACAD_REACTORS
102
}
330
1F
100
AcDbEntity
  8
0
  6
Continuous
 62
     4
370
    15
100
AcDbLine
 10
-30.69855332701581
 20
-3.952500000000003
 30
0.0
 11
-29.8885533270158
 21
-4.76249999999999
 31
0.0
  0
LINE
  5
99
330
1F
100
AcDbEntity
  8
0
  6
Continuous
 62
     1
370
    15
100
AcDbLine
 10
41.78346443458486
 20
-2.872874968276081
 30
0.0
 11
44.81760747239657
 21
-2.766920358647668
 31
0.0
  0
LINE
  5
9A
330
1F
100
AcDbEntity
  8
0
  6
Continuous
 62
     1
370
    15
100
AcDbLine
 10
22.30287993130666
 20
-3.553151969279572
 30
0.0
 11
25.86205589337709
 21
-3.428862805927542
 31
0.0
  0
LINE
  5
9B
330
1F
100
AcDbEntity
  8
0
  6
Continuous
 62
     1
370
    15
100
AcDbLine
 10
16.35990134587951
 20
3.760685354555695
 30
0.0
 11
13.7514466729842
 21
3.851774598917544
 31
0.0
  0
LINE
  5
9C
330
1F
100
AcDbEntity
  8
0
  6
Continuous
 62
     1
370
    15
100
AcDbLine
 10
35.34219259181829
 20
3.097809137531047
 30
0.0
 11
32.06287126140039
 21
3.212325561799942
 31
0.0
  0
LINE
  5
9D
330
1F
100
AcDbEntity
  8
0
  6
Continuous
 62
     1
370
    15
100
AcDbLine
 10
54.31734859461095
 20
2.435182088687573
 30
0.0
 11
51.44857466547437
 21
2.535361881790887
 31
0.0
  0
LINE
  5
9E
330
1F
100
AcDbEntity
  8
0
  6
Continuous
 62
     1
370
    15
100
AcDbLine
 10
54.65303926517984
 20
-2.423459512160077
 30
0.0
 11
55.90330109950703
 21
-2.379799406839208
 31
0.0
  0
LINE
  5
9F
330
1F
100
AcDbEntity
  8
0
  6
Continuous
 62
     1
370
    15
100
AcDbLine
 10
35.30774863839168
 20
-3.099011946889014
 30
0.0
 11
38.49981765639148
 21
-2.987542440509693
 31
0.0
  0
LINE
  5
A0
330
1F
100
AcDbEntity
  8
0
  6
Continuous
 62
     1
370
    15
100
AcDbLine
 10
15.77789834711233
 20
-3.781009347119121
 30
0.0
 11
19.5308165861617
 21
-3.649954554371902
 31
0.0
  0
LINE
  5
A1
102
{ACAD_REACTORS
102
}
330
1F
100
AcDbEntity
  8
0
  6
Continuous
 62
     1
370
    15
100
AcDbLine
 10
29.02467013764906
 20
3.318421882912031
 30
0.0
 11
25.55863997553482
 21
3.439458323254666
 31
0.0
  0
LINE
  5
A2
330
1F
100
AcDbEntity
  8
0
  6
Continuous
 62
     1
370
    15
100
AcDbLine
 10
47.98003502104339
 20
2.656485955187049
 30
0.0
 11
45.01249149713114
 21
2.760114858542317
 31
0.0
  0
LINE
  5
A3
330
1F
100
AcDbEntity
  8
0
  6
Continuous
 62
     1
370
    15
100
AcDbLine
 10
48.23517315919656
 20
-2.647576335076019
 30
0.0
 11
51.14601007779459
 21
-2.545927670013589
 31
0.0
  0
LINE
  5
A4
330
1F
100
AcDbEntity
  8
0
  6
Continuous
 62
     1
370
    15
100
AcDbLine
 10
28.81222575357954
 20
-3.32584060427791
 30
0.0
 11
32.18479350065719
 21
-3.208067943386909
 31
0.0
  0
LINE
  5
A5
330
1F
100
AcDbEntity
  8
0
  6
Continuous
 62
     1
370
    15
100
AcDbLine
 10
22.69806860702514
 20
3.539351676629087
 30
0.0
 11
19.04078662199172
 21
3.66706677779476
 31
0.0
  0
LINE
  5
A6
330
1F
100
AcDbEntity
  8
0
  6
Continuous
 62
     1
370
    15
100
AcDbLine
 10
41.65712608647156
 20
2.877286800608544
 30
0.0
 11
38.54821671558997
 21
2.985852308119834
 31
0.0
  0
LINE
  5
A7
330
1F
100
AcDbEntity
  8
0
  6
Continuous
 62
     4
370
    15
100
AcDbLine
 10
12.00000000000001
 20
-4.762499999999982
 30
0.0
 11
12.7354466729842
 21
-3.973829999999986
 31
0.0
  0
LINE
  5
A8
330
1F
100
AcDbEntity
  8
0
  6
Continuous
 62
     4
370
    15
100
AcDbLine
 10
13.7514466729842
 20
3.851774598917544
 30
0.0
 11
12.7354466729842
 21
3.973830000000014
 31
0.0
  0
ARC
  5
A9
330
1F
100
AcDbEntity
  8
0
  6
Continuous
 62
     1
370
    15
100
AcDbCircle
 10
55.8201966729842
 20
0.0000000000000144
 30
0.0
 40
2.381250000000001
100
AcDbArc
 50
272.0000000000009
 51
293.3409628545136
  0
LINE
  5
AA
330
1F
100
AcDbEntity
  8
0
  6
Continuous
 62
     4
370
    15
100
AcDbLine
 10
12.7354466729842
 20
-3.973829999999986
 30
0.0
 11
13.20709058671363
 21
-3.917169874942554
 31
0.0
  0
LINE
  5
AB
330
1F
100
AcDbEntity
  8
0
  6
Continuous
 62
     4
370
    15
100
AcDbLine
 10
12.7354466729842
 20
3.973830000000014
 30
0.0
 11
12.00000000000001
 21
4.76250000000001
 31
0.0
  0
ARC
  5
AC
330
1F
100
AcDbEntity
  8
0
  6
Continuous
 62
     1
370
    15
100
AcDbCircle
 10
55.8201966729842
 20
0.0000000000000144
 30
0.0
 40
2.381250000000006
100
AcDbArc
 50
27.85617637447587
 51
44.44200050773063
  0
SPLINE
  5
AD
330
1F
100
AcDbEntity
  8
0
  6
Continuous
 62
     1
370
    15
100
AcDbSpline
210
0.0
220
0.0
230
1.0
 70
     8
 71
     3
 72
    23
 73
    19
 74
     0
 42
0.000000001
 43
0.00000001
 40
0.0
 40
0.0
 40
0.0
 40
0.0
 40
0.0631152822851315
 40
0.1269303749646944
 40
0.226941394961629
 40
0.2782456548910215
 40
0.3299293514320397
 40
0.3798972392033187
 40
0.4302176171967466
 40
0.4816410558018945
 40
0.5334511004455258
 40
0.6330498586618333
 40
0.6841627577698273
 40
0.735658995474096
 40
0.8347455554883346
 40
0.8855936842919169
 40
0.9368222527805291
 40
1.0
 40
1.0
 40
1.0
 40
1.0
 10
55.90330109950703
 20
-2.060784334162949
 30
0.0
 10
55.73278338789091
 20
-1.993119671526419
 30
0.0
 10
55.38985729630228
 20
-1.857040093184143
 30
0.0
 10
54.77922541796931
 20
-1.527577075980393
 30
0.0
 10
54.20159070738191
 20
-1.148533555598101
 30
0.0
 10
53.65949088302984
 20
-0.7465306168660503
 30
0.0
 10
53.25188427935698
 20
-0.4270730447807518
 30
0.0
 10
52.84795809527532
 20
-0.0989958423494647
 30
0.0
 10
52.44563290297556
 20
0.2332175296077665
 30
0.0
 10
52.03935013745222
 20
0.5684201379761046
 30
0.0
 10
51.50422929168732
 20
1.001546341631523
 30
0.0
 10
50.97070078125033
 20
1.408818732865416
 30
0.0
 10
50.44091234432869
 20
1.767942368589205
 30
0.0
 10
49.91376840395866
 20
2.087901460635472
 30
0.0
 10
49.38803933868654
 20
2.344159858302937
 30
0.0
 10
48.86596988525885
 20
2.518415787390819
 30
0.0
 10
48.43786452335255
 20
2.62584258844826
 30
0.0
 10
48.14247520447689
 20
2.633030713533816
 30
0.0
 10
47.97935456202148
 20
2.637000158287162
 30
0.0
  0
SPLINE
  5
AE
330
1F
100
AcDbEntity
  8
0
  6
Continuous
 62
     1
370
    15
100
AcDbSpline
210
0.0
220
0.0
230
1.0
 70
     8
 71
     3
 72
    31
 73
    27
 74
     0
 42
0.000000001
 43
0.00000001
 40
0.0
 40
0.0
 40
0.0
 40
0.0
 40
0.0267982562853064
 40
0.059300868745566
 40
0.1221272405449344
 40
0.1543620996571257
 40
0.1868353539207788
 40
0.2496321621333178
 40
0.2818513215130781
 40
0.3143084967729034
 40
0.3770990356128038
 40
0.4093145049393679
 40
0.4417677268980176
 40
0.5045732025444811
 40
0.5367959147670646
 40
0.5692562228307925
 40
0.6320958862554481
 40
0.6643357648932162
 40
0.6968131799353768
 40
0.7597044770547026
 40
0.7919705124955972
 40
0.8244741133981773
 40
0.8874328570539547
 40
0.9197331942019508
 40
0.9522712055698959
 40
1.0
 40
1.0
 40
1.0
 40
1.0
 10
40.12407679715302
 20
-2.512951331356019
 30
0.0
 10
40.02175463901928
 20
-2.565674228212278
 30
0.0
 10
39.79532972522445
 20
-2.682342773847214
 30
0.0
 10
39.3303396317865
 20
-2.860970776879331
 30
0.0
 10
38.84525960998901
 20
-2.972545720025839
 30
0.0
 10
38.36272863253604
 20
-2.996604080670784
 30
0.0
 10
37.88121371626003
 20
-2.962786106558126
 30
0.0
 10
37.40052190614157
 20
-2.842902801841915
 30
0.0
 10
36.92222284373879
 20
-2.642477962054743
 30
0.0
 10
36.44483350047182
 20
-2.390290940188525
 30
0.0
 10
35.96820686373302
 20
-2.065862833955507
 30
0.0
 10
35.49389080661473
 20
-1.68381567603978
 30
0.0
 10
35.02037386959307
 20
-1.267817397078432
 30
0.0
 10
34.54756231282241
 20
-0.8091025775050058
 30
0.0
 10
34.07699544840015
 20
-0.3281222977182228
 30
0.0
 10
33.60712427295471
 20
0.1617712959749009
 30
0.0
 10
33.13789694925536
 20
0.6558094042246315
 30
0.0
 10
32.67086679134332
 20
1.132238269181126
 30
0.0
 10
32.2044379314907
 20
1.59081280597244
 30
0.0
 10
31.73858234388709
 20
2.014308774271493
 30
0.0
 10
31.27489443877325
 20
2.384370871458354
 30
0.0
 10
30.81172868476817
 20
2.713572160014032
 30
0.0
 10
30.3490323641213
 20
2.977041555074577
 30
0.0
 10
29.88854806183081
 20
3.159894408853563
 30
0.0
 10
29.48342925353734
 20
3.280791318123716
 30
0.0
 10
29.1954027585802
 20
3.294770412984005
 30
0.0
 10
29.02413448358717
 20
3.303082757523843
 30
0.0
  0
SPLINE
  5
AF
330
1F
100
AcDbEntity
  8
0
  6
Continuous
 62
     1
370
    15
100
AcDbSpline
210
0.0
220
0.0
230
1.0
 70
     8
 71
     3
 72
    24
 73
    20
 74
     0
 42
0.000000001
 43
0.00000001
 40
0.0
 40
0.0
 40
0.0
 40
0.0
 40
0.0204116589450482
 40
0.0665481779764068
 40
0.1130230127836494
 40
0.2031792529446999
 40
0.2494299825730587
 40
0.296019655479358
 40
0.3864124019180136
 40
0.4327841379079388
 40
0.4794954745262865
 40
0.5701375298378517
 40
0.6166369299053105
 40
0.66347664576534
 40
0.7543803480247188
 40
0.8010138566147619
 40
0.8479885157337913
 40
0.9232653641497607
 40
0.9999999999999999
 40
0.9999999999999999
 40
0.9999999999999999
 40
0.9999999999999999
 10
20.90045058503069
 20
-3.226186824441192
 30
0.0
 10
20.85074771513055
 20
-3.257808546815996
 30
0.0
 10
20.68870133561002
 20
-3.36090492003016
 30
0.0
 10
20.41488445406738
 20
-3.469212417953827
 30
0.0
 10
19.97266272201131
 20
-3.61397397345629
 30
0.0
 10
19.5305111914272
 20
-3.666454113443026
 30
0.0
 10
19.089929066367
 20
-3.634183505274453
 30
0.0
 10
18.64985025788185
 20
-3.542685574987517
 30
0.0
 10
18.20980490249834
 20
-3.365307626641588
 30
0.0
 10
17.77121120075536
 20
-3.108827260068994
 30
0.0
 10
17.3330293160167
 20
-2.801198957717189
 30
0.0
 10
16.89501408154238
 20
-2.422725327129884
 30
0.0
 10
16.45838052413894
 20
-1.988124030574814
 30
0.0
 10
16.02196138447151
 20
-1.519600491034618
 30
0.0
 10
15.58584724337284
 20
-1.008505180618316
 30
0.0
 10
15.15113922438724
 20
-0.47449048717444
 30
0.0
 10
14.75377133024442
 20
0.0227566124167676
 30
0.0
 10
14.28663436696525
 20
0.6160766800465926
 30
0.0
 10
13.93097947899751
 20
1.053004322908965
 30
0.0
 10
13.7514466729842
 20
1.273563208507587
 30
0.0
  0
SPLINE
  5
B0
330
1F
100
AcDbEntity
  8
0
  6
Continuous
 62
     4
370
    15
100
AcDbSpline
210
0.0
220
0.0
230
1.0
 70
     8
 71
     3
 72
    10
 73
     6
 74
     0
 42
0.000000001
 43
0.00000001
 40
0.0
 40
0.0
 40
0.0
 40
0.0
 40
0.5
 40
0.5
 40
1.0
 40
1.0
 40
1.0
 40
1.0
 10
13.7514466729842
 20
1.273563208507584
 30
0.0
 10
13.579613891424
 20
1.494131044531598
 30
0.0
 10
13.41003071632971
 20
1.70876518116441
 30
0.0
 10
13.07216339597853
 20
2.12407041555163
 30
0.0
 10
12.90337145269336
 20
2.325232155071459
 30
0.0
 10
12.7354466729842
 20
2.515607834803804
 30
0.0
  0
SPLINE
  5
B1
330
1F
100
AcDbEntity
  8
0
  6
Continuous
 62
     4
370
    15
100
AcDbSpline
210
0.0
220
0.0
230
1.0
 70
     8
 71
     3
 72
    10
 73
     6
 74
     0
 42
0.000000001
 43
0.00000001
 40
0.0
 40
0.0
 40
0.0
 40
0.0
 40
0.5
 40
0.5
 40
1.0
 40
1.0
 40
1.0
 40
1.0
 10
12.7354466729842
 20
2.515607834803807
 30
0.0
 10
12.58304229159647
 20
2.852976183336609
 30
0.0
 10
12.44853112496875
 20
3.176090548115104
 30
0.0
 10
12.20040884269356
 20
3.78879479577802
 30
0.0
 10
12.09187747832277
 20
4.065922012082354
 30
0.0
 10
12.00000000000001
 20
4.305109972196099
 30
0.0
  0
SPLINE
  5
B2
330
1F
100
AcDbEntity
  8
0
  6
Continuous
 62
     4
370
    15
100
AcDbSpline
210
0.0
220
0.0
230
1.0
 70
     8
 71
     3
 72
     8
 73
     4
 74
     0
 42
0.000000001
 43
0.00000001
 40
0.0
 40
0.0
 40
0.0
 40
0.0
 40
0.0002509479394793
 40
0.0002509479394793
 40
0.0002509479394793
 40
0.0002509479394793
 10
12.00000000000001
 20
4.305109972196107
 30
0.0
 10
11.95379633293115
 20
4.334928170440563
 30
0.0
 10
11.90760142661375
 20
4.363371272658264
 30
0.0
 10
11.86144667298419
 20
4.390404624310789
 30
0.0
  0
SPLINE
  5
B3
330
1F
100
AcDbEntity
  8
0
  6
Continuous
 62
     4
370
    15
100
AcDbSpline
210
0.0
220
0.0
230
1.0
 70
     8
 71
     3
 72
     8
 73
     4
 74
     0
 42
0.000000001
 43
0.00000001
 40
0.0
 40
0.0
 40
0.0
 40
0.0
 40
0.000259705619227
 40
0.000259705619227
 40
0.000259705619227
 40
0.000259705619227
 10
11.86144667298419
 20
4.762453404143324
 30
0.0
 10
11.9076514454927
 20
4.762129570971977
 30
0.0
 10
11.95383826308841
 20
4.760116841662105
 30
0.0
 10
12.00000000000001
 20
4.756416427231698
 30
0.0
  0
SPLINE
  5
B4
330
1F
100
AcDbEntity
  8
0
  6
Continuous
 62
     4
370
    15
100
AcDbSpline
210
0.0
220
0.0
230
1.0
 70
     8
 71
     3
 72
    12
 73
     8
 74
     0
 42
0.000000001
 43
0.00000001
 40
0.0
 40
0.0
 40
0.0
 40
0.0
 40
0.2500000000000001
 40
0.2500000000000001
 40
0.5000000000000001
 40
0.5000000000000001
 40
1.0
 40
1.0
 40
1.0
 40
1.0
 10
12.00000000000001
 20
4.756416427231694
 30
0.0
 10
12.057812615879
 20
4.69661822708553
 30
0.0
 10
12.12120532702269
 20
4.629112978260488
 30
0.0
 10
12.24820650381911
 20
4.493149968403866
 30
0.0
 10
12.31094849186166
 20
4.425498358396724
 30
0.0
 10
12.49788923109094
 20
4.222785758004757
 30
0.0
 10
12.61794630039545
 20
4.090964635974922
 30
0.0
 10
12.7354466729842
 20
3.959400541172647
 30
0.0
  0
SPLINE
  5
B5
330
1F
100
AcDbEntity
  8
0
  6
Continuous
 62
     4
370
    15
100
AcDbSpline
210
0.0
220
0.0
230
1.0
 70
     8
 71
     3
 72
     8
 73
     4
 74
     0
 42
0.000000001
 43
0.00000001
 40
0.0
 40
0.0
 40
0.0
 40
0.0
 40
1.0
 40
1.0
 40
1.0
 40
1.0
 10
12.7354466729842
 20
3.959400541172644
 30
0.0
 10
13.07247875633585
 20
3.88411056068932
 30
0.0
 10
13.40931094414715
 20
3.746635435842187
 30
0.0
 10
13.7514466729842
 20
3.551510856030152
 30
0.0
  0
SPLINE
  5
B6
330
1F
100
AcDbEntity
  8
0
  6
Continuous
 62
     1
370
    15
100
AcDbSpline
210
0.0
220
0.0
230
1.0
 70
     8
 71
     3
 72
    30
 73
    26
 74
     0
 42
0.000000001
 43
0.00000001
 40
0.0
 40
0.0
 40
0.0
 40
0.0
 40
0.0489836668239949
 40
0.0984872264531831
 40
0.1381631634081015
 40
0.1781144822255915
 40
0.2189310752730046
 40
0.2600486928771092
 40
0.2997599456269504
 40
0.3397488009301808
 40
0.3806101500760571
 40
0.4217751764895299
 40
0.4613826595443242
 40
0.5012670071061704
 40
0.5420214395078303
 40
0.583078731546595
 40
0.6225850892550734
 40
0.6623675857028236
 40
0.7030177542155164
 40
0.7439699467090221
 40
0.7833791922306063
 40
0.8635419612185948
 40
0.9043931833955634
 40
0.9437097349483937
 40
1.0
 40
1.0
 40
1.0
 40
1.0
 10
13.7514466729842
 20
3.551510856030151
 30
0.0
 10
13.88796772756473
 20
3.476074433128644
 30
0.0
 10
14.16245881591898
 20
3.324400935678684
 30
0.0
 10
14.54884522783603
 20
3.043305857664826
 30
0.0
 10
14.9104388349308
 20
2.743744608404461
 30
0.0
 10
15.24823863264873
 20
2.432745097426709
 30
0.0
 10
15.59073938719484
 20
2.09051000022498
 30
0.0
 10
15.93333310330393
 20
1.725063297383028
 30
0.0
 10
16.27419368371624
 20
1.343160354045823
 30
0.0
 10
16.61480558043305
 20
0.9477382373221869
 30
0.0
 10
16.96017805370601
 20
0.5377617146464861
 30
0.0
 10
17.3052275227807
 20
0.1243467425306529
 30
0.0
 10
17.64817850040335
 20
-0.2852820358396465
 30
0.0
 10
17.99042830900028
 20
-0.6884491862343478
 30
0.0
 10
18.33744224606547
 20
-1.086207189765341
 30
0.0
 10
18.68411851373867
 20
-1.467281849534492
 30
0.0
 10
19.02873815250912
 20
-1.825463625340012
 30
0.0
 10
19.3726816986595
 20
-2.15894193753664
 30
0.0
 10
19.72137914386817
 20
-2.468094218237418
 30
0.0
 10
20.06976588318081
 20
-2.743720036896624
 30
0.0
 10
20.53273711835254
 20
-3.061854971965335
 30
0.0
 10
20.99744029912356
 20
-3.305438046191467
 30
0.0
 10
21.46234740219693
 20
-3.459207113406904
 30
0.0
 10
21.85880405548512
 20
-3.549512534320888
 30
0.0
 10
22.13790201162081
 20
-3.540017532537276
 30
0.0
 10
22.30222604712595
 20
-3.534427176263033
 30
0.0
  0
SPLINE
  5
B7
330
1F
100
AcDbEntity
  8
0
  6
Continuous
 62
     1
370
    15
100
AcDbSpline
210
0.0
220
0.0
230
1.0
 70
     8
 71
     3
 72
    30
 73
    26
 74
     0
 42
0.000000001
 43
0.00000001
 40
0.0
 40
0.0
 40
0.0
 40
0.0
 40
0.0496484721300475
 40
0.0833863620886715
 40
0.148567105703845
 40
0.1820111369695366
 40
0.2157029521763937
 40
0.2808072265867342
 40
0.3142116831406029
 40
0.3478635426283128
 40
0.4129039160644355
 40
0.4462752255854523
 40
0.4798936006571015
 40
0.5448833878571734
 40
0.5782283594352623
 40
0.6118201050539652
 40
0.6767734317155929
 40
0.7100992887492871
 40
0.7436716769480058
 40
0.8086035446539255
 40
0.84191795821419
 40
0.8754787118097938
 40
0.9404050574862761
 40
0.9737161772952143
 40
1.0
 40
1.0
 40
1.0
 40
1.0
 10
30.51999145356498
 20
2.855730313358984
 30
0.0
 10
30.701027654784
 20
2.939162177122202
 30
0.0
 10
31.00508434733367
 20
3.07928893839029
 30
0.0
 10
31.54791878551266
 20
3.200652606106948
 30
0.0
 10
32.03410689258757
 20
3.230631699226496
 30
0.0
 10
32.52047450058864
 20
3.168795044227049
 30
0.0
 10
33.00751385518129
 20
3.04875360695147
 30
0.0
 10
33.496940841027
 20
2.843858969846374
 30
0.0
 10
33.98660439124498
 20
2.563953237666278
 30
0.0
 10
34.4769983906417
 20
2.237236980026042
 30
0.0
 10
34.96981650964137
 20
1.847687645816969
 30
0.0
 10
35.46291407049608
 20
1.413143535539358
 30
0.0
 10
35.95680953941599
 20
0.954235971240746
 30
0.0
 10
36.45316659441264
 20
0.4684700006455249
 30
0.0
 10
36.94984705303746
 20
-0.0219404241435282
 30
0.0
 10
37.44739936088154
 20
-0.5086712332495609
 30
0.0
 10
37.94745204767114
 20
-0.9799888691101825
 30
0.0
 10
38.44787358284809
 20
-1.4143003569433
 30
0.0
 10
38.94924820858818
 20
-1.817555943186451
 30
0.0
 10
39.4531613967266
 20
-2.166448455074659
 30
0.0
 10
39.957494770975
 20
-2.44486625198899
 30
0.0
 10
40.46285809445617
 20
-2.67235817734641
 30
0.0
 10
40.97086465023888
 20
-2.816426413948417
 30
0.0
 10
41.45110177114716
 20
-2.876824457862823
 30
0.0
 10
41.68164834802591
 20
-2.871389973340783
 30
0.0
 10
41.78332887822327
 20
-2.868993141971472
 30
0.0
  0
SPLINE
  5
B8
330
1F
100
AcDbEntity
  8
0
  6
Continuous
 62
     1
370
    15
100
AcDbSpline
210
0.0
220
0.0
230
1.0
 70
     8
 71
     3
 72
    19
 73
    15
 74
     0
 42
0.000000001
 43
0.00000001
 40
0.0
 40
0.0
 40
0.0
 40
0.0
 40
0.002455204400766
 40
0.0668658543133792
 40
0.1978675655721339
 40
0.2646145673797852
 40
0.3291612115340408
 40
0.4604382339342641
 40
0.5273245171457424
 40
0.5920305404376632
 40
0.7236303063952364
 40
0.7906799362739697
 40
0.8944043339378789
 40
1.0
 40
1.0
 40
1.0
 40
1.0
 10
49.68222634120657
 20
2.17775592141601
 30
0.0
 10
49.68722881082456
 20
2.18014547238097
 30
0.0
 10
49.82346773438599
 20
2.245223299158891
 30
0.0
 10
50.2275807693068
 20
2.386742365721118
 30
0.0
 10
50.76535714286467
 20
2.514449680794308
 30
0.0
 10
51.30424661966195
 20
2.544837866742501
 30
0.0
 10
51.84475952254768
 20
2.517473567448536
 30
0.0
 10
52.38838035760224
 20
2.401478903053594
 30
0.0
 10
52.93303258694733
 20
2.203502328895742
 30
0.0
 10
53.47942258346434
 20
1.954755344562076
 30
0.0
 10
54.02909836043937
 20
1.636212026671767
 30
0.0
 10
54.66083162356924
 20
1.211479473029238
 30
0.0
 10
55.24029568939247
 20
0.7859608649200316
 30
0.0
 10
55.68098607595792
 20
0.4433413803159117
 30
0.0
 10
55.90330109950703
 20
0.2705001722701031
 30
0.0
  0
SPLINE
  5
B9
330
1F
100
AcDbEntity
  8
0
  6
Continuous
 62
     1
370
    15
100
AcDbSpline
210
0.0
220
0.0
230
1.0
 70
     8
 71
     3
 72
    14
 73
    10
 74
     0
 42
0.000000001
 43
0.00000001
 40
0.0
 40
0.0
 40
0.0
 40
0.0
 40
0.25
 40
0.25
 40
0.5
 40
0.5
 40
0.75
 40
0.75
 40
1.0
 40
1.0
 40
1.0
 40
1.0
 10
55.90330109950703
 20
0.2705001722700858
 30
0.0
 10
56.06633915564545
 20
0.1434977058167864
 30
0.0
 10
56.22633215625723
 20
0.0167826422548069
 30
0.0
 10
56.54733161304731
 20
-0.2267620167350077
 30
0.0
 10
56.70332329364715
 20
-0.3396220529685459
 30
0.0
 10
57.00418355933856
 20
-0.5405525166211649
 30
0.0
 10
57.14999538928824
 20
-0.6287593819418491
 30
0.0
 10
57.41071481739237
 20
-0.776124797953616
 30
0.0
 10
57.52943749831541
 20
-0.8370674393279012
 30
0.0
 10
57.62317061221589
 20
-0.894171568509961
 30
0.0
  0
SPLINE
  5
BA
330
1F
100
AcDbEntity
  8
0
  6
Continuous
 62
     1
370
    15
100
AcDbSpline
210
0.0
220
0.0
230
1.0
 70
     8
 71
     3
 72
    14
 73
    10
 74
     0
 42
0.000000001
 43
0.00000001
 40
0.0
 40
0.0
 40
0.0
 40
0.0
 40
0.25
 40
0.25
 40
0.5
 40
0.5
 40
0.75
 40
0.75
 40
1.0
 40
1.0
 40
1.0
 40
1.0
 10
56.38309236735481
 20
-1.628870932599654
 30
0.0
 10
56.48142695311461
 20
-1.537538124607583
 30
0.0
 10
56.58938113395401
 20
-1.445482535121205
 30
0.0
 10
56.81667445150848
 20
-1.269566756717467
 30
0.0
 10
56.9362740158206
 20
-1.185584715543017
 30
0.0
 10
57.17049887067412
 20
-1.041634703796882
 30
0.0
 10
57.28610392424348
 20
-0.9815042611889403
 30
0.0
 10
57.48321041602412
 20
-0.9051520887764193
 30
0.0
 10
57.5653970469656
 20
-0.8888862002189892
 30
0.0
 10
57.62317061221469
 20
-0.894171568509435
 30
0.0
  0
SPLINE
  5
BB
330
1F
100
AcDbEntity
  8
0
  6
Continuous
 62
     1
370
    15
100
AcDbSpline
210
0.0
220
0.0
230
1.0
 70
     8
 71
     3
 72
     8
 73
     4
 74
     0
 42
0.000000001
 43
0.00000001
 40
0.0
 40
0.0
 40
0.0
 40
0.0
 40
1.0
 40
1.0
 40
1.0
 40
1.0
 10
56.38309236736473
 20
-1.628870932586436
 30
0.0
 10
56.54587301449737
 20
-1.78322950981798
 30
0.0
 10
56.70472076841454
 20
-1.937255895159949
 30
0.0
 10
56.86145147330723
 20
-2.091103463922059
 30
0.0
  0
SPLINE
  5
BC
330
1F
100
AcDbEntity
  8
0
  6
Continuous
 62
     1
370
    15
100
AcDbSpline
210
0.0
220
0.0
230
1.0
 70
     8
 71
     3
 72
    10
 73
     6
 74
     0
 42
0.000000001
 43
0.00000001
 40
0.0
 40
0.0
 40
0.0
 40
0.0
 40
0.5
 40
0.5
 40
1.0
 40
1.0
 40
1.0
 40
1.0
 10
56.86145147331381
 20
-2.091103463912244
 30
0.0
 10
56.70130717464342
 20
-2.145610770999853
 30
0.0
 10
56.54311741762025
 20
-2.166780401733471
 30
0.0
 10
56.22236947570807
 20
-2.153362702869682
 30
0.0
 10
56.0643849569248
 20
-2.119064653278041
 30
0.0
 10
55.90330109950656
 20
-2.060784334162785
 30
0.0
  0
LINE
  5
BD
330
1F
100
AcDbEntity
  8
0
  6
Continuous
 62
     4
370
    15
100
AcDbLine
 10
12.00000000000001
 20
4.762500000000013
 30
0.0
 11
12.00000000000001
 21
4.756416427231694
 31
0.0
  0
LINE
  5
BE
330
1F
100
AcDbEntity
  8
0
  6
Continuous
 62
     4
370
    15
100
AcDbLine
 10
11.86144667298419
 20
4.390404624310793
 30
0.0
 11
11.86144667298419
 21
4.762453404143324
 31
0.0
  0
LINE
  5
BF
330
1F
100
AcDbEntity
  8
0
  6
Continuous
 62
     4
370
    15
100
AcDbLine
 10
12.00000000000001
 20
4.3051099721961
 30
0.0
 11
12.00000000000001
 21
-2.586611106039231
 31
0.0
  0
SPLINE
  5
C0
330
1F
100
AcDbEntity
  8
0
  6
Continuous
 62
     4
370
    15
100
AcDbSpline
210
0.0
220
0.0
230
1.0
 70
     8
 71
     3
 72
     8
 73
     4
 74
     0
 42
0.000000001
 43
0.00000001
 40
0.0
 40
0.0
 40
0.0
 40
0.0
 40
0.000259705619227
 40
0.000259705619227
 40
0.000259705619227
 40
0.000259705619227
 10
11.86144667298419
 20
-2.399471359449823
 30
0.0
 10
11.9076514454927
 20
-2.462707744513132
 30
0.0
 10
11.95383826308841
 20
-2.525119898772293
 30
0.0
 10
12.00000000000001
 20
-2.586611106039241
 30
0.0
  0
LINE
  5
C1
330
1F
100
AcDbEntity
  8
0
  6
Continuous
 62
     4
370
    15
100
AcDbLine
 10
11.86144667298419
 20
-3.793424797800893
 30
0.0
 11
11.86144667298419
 21
-2.399471359449823
 31
0.0
  0
SPLINE
  5
C2
330
1F
100
AcDbEntity
  8
0
  6
Continuous
 62
     4
370
    15
100
AcDbSpline
210
0.0
220
0.0
230
1.0
 70
     8
 71
     3
 72
     8
 73
     4
 74
     0
 42
0.000000001
 43
0.00000001
 40
0.0
 40
0.0
 40
0.0
 40
0.0
 40
0.0002509479394793
 40
0.0002509479394793
 40
0.0002509479394793
 40
0.0002509479394793
 10
12.00000000000001
 20
-3.916237435682809
 30
0.0
 10
11.95379633293115
 20
-3.876557361462629
 30
0.0
 10
11.90760142661375
 20
-3.835604694184628
 30
0.0
 10
11.86144667298419
 20
-3.793424797800892
 30
0.0
  0
LINE
  5
C3
330
1F
100
AcDbEntity
  8
0
  6
Continuous
 62
     4
370
    15
100
AcDbLine
 10
12.00000000000001
 20
-3.916237435682811
 30
0.0
 11
12.00000000000001
 21
-4.762499999999984
 31
0.0
  0
LINE
  5
C4
330
1F
100
AcDbEntity
  8
0
  6
Continuous
 62
     4
370
    15
100
AcDbLine
 10
-29.8885533270158
 20
4.762500000000007
 30
0.0
 11
-29.8885533270158
 21
-4.76249999999999
 31
0.0
  0
LINE
  5
C5
330
1F
100
AcDbEntity
  8
0
  6
Continuous
 62
     4
370
    15
100
AcDbLine
 10
-30.69855332701581
 20
-3.952500000000003
 30
0.0
 11
-30.69855332701581
 21
3.952500000000019
 31
0.0
  0
LINE
  5
C6
330
1F
100
AcDbEntity
  8
0
  6
Continuous
 62
     4
370
    15
100
AcDbLine
 10
12.7354466729842
 20
2.515607834803803
 30
0.0
 11
12.7354466729842
 21
-2.272709088877533
 31
0.0
  0
SPLINE
  5
C7
330
1F
100
AcDbEntity
  8
0
  6
Continuous
 62
     4
370
    15
100
AcDbSpline
210
0.0
220
0.0
230
1.0
 70
     8
 71
     3
 72
    12
 73
     8
 74
     0
 42
0.000000001
 43
0.00000001
 40
0.0
 40
0.0
 40
0.0
 40
0.0
 40
0.2499999999999999
 40
0.2499999999999999
 40
0.4999999999999998
 40
0.4999999999999998
 40
1.0
 40
1.0
 40
1.0
 40
1.0
 10
12.00000000000001
 20
-2.586611106039231
 30
0.0
 10
12.05781261587901
 20
-2.517726562774537
 30
0.0
 10
12.12120532702269
 20
-2.468473329452491
 30
0.0
 10
12.24820650381911
 20
-2.3930326256112
 30
0.0
 10
12.31094849186166
 20
-2.367114540490386
 30
0.0
 10
12.49788923109094
 20
-2.305634633616765
 30
0.0
 10
12.61794630039545
 20
-2.286792418338579
 30
0.0
 10
12.7354466729842
 20
-2.272709088877535
 30
0.0
  0
SPLINE
  5
C8
330
1F
100
AcDbEntity
  8
0
  6
Continuous
 62
     1
370
    15
100
AcDbSpline
210
0.0
220
0.0
230
1.0
 70
     8
 71
     3
 72
    10
 73
     6
 74
     0
 42
0.000000001
 43
0.00000001
 40
0.0
 40
0.0
 40
0.0
 40
0.0
 40
0.3211817090442692
 40
0.6459246205478018
 40
1.0
 40
1.0
 40
1.0
 40
1.0
 10
55.90330109950703
 20
2.061149101885049
 30
0.0
 10
55.73279902209288
 20
2.127138388807404
 30
0.0
 10
55.38990437225726
 20
2.259848639470111
 30
0.0
 10
54.8609104669589
 20
2.396446720764226
 30
0.0
 10
54.50326771843802
 20
2.41006008258146
 30
0.0
 10
54.31671928039788
 20
2.417160887487986
 30
0.0
  0
SPLINE
  5
C9
330
1F
100
AcDbEntity
  8
0
  6
Continuous
 62
     1
370
    15
100
AcDbSpline
210
0.0
220
0.0
230
1.0
 70
     8
 71
     3
 72
    31
 73
    27
 74
     0
 42
0.000000001
 43
0.00000001
 40
0.0
 40
0.0
 40
0.0
 40
0.0
 40
0.0283714011697747
 40
0.0619710875883437
 40
0.0958211279948261
 40
0.1611099045200009
 40
0.1946110509499118
 40
0.228361371008506
 40
0.2934983198605379
 40
0.3269207352544831
 40
0.3605913337060437
 40
0.4256110906468476
 40
0.4589726232785664
 40
0.4925815193012054
 40
0.5575155971151016
 40
0.5908324879598733
 40
0.6243960779436839
 40
0.689273280839996
 40
0.7225603772464878
 40
0.7560936506988274
 40
0.8209403249689252
 40
0.8542112091591585
 40
0.8877278787433478
 40
0.9525680789906892
 40
0.9858351526739167
 40
1.0
 40
1.0
 40
1.0
 40
1.0
 10
46.49301617767904
 20
-2.284485210691565
 30
0.0
 10
46.38386313728741
 20
-2.343756105025629
 30
0.0
 10
46.14544232098135
 20
-2.473220341290731
 30
0.0
 10
45.77903071233969
 20
-2.60043594671273
 30
0.0
 10
45.27212598775399
 20
-2.737044571119178
 30
0.0
 10
44.76646229113013
 20
-2.784892381139394
 30
0.0
 10
44.26382306737725
 20
-2.747147040097398
 30
0.0
 10
43.7627865690596
 20
-2.650940090184315
 30
0.0
 10
43.26281619874207
 20
-2.470325765547852
 30
0.0
 10
42.76574237560958
 20
-2.213934057649484
 30
0.0
 10
42.27009608723598
 20
-1.910280323372074
 30
0.0
 10
41.77545583298848
 20
-1.542469848540553
 30
0.0
 10
41.283559916144
 20
-1.12817782034353
 30
0.0
 10
40.79294513106034
 20
-0.6885588327317839
 30
0.0
 10
40.30327319793424
 20
-0.2199779118339491
 30
0.0
 10
39.81621149113171
 20
0.2553197815722241
 30
0.0
 10
39.33029869719268
 20
0.7284245680493103
 30
0.0
 10
38.84526627623767
 20
1.189019396327229
 30
0.0
 10
38.362727351578
 20
1.615522524293929
 30
0.0
 10
37.88121454310802
 20
2.013122657610887
 30
0.0
 10
37.4005210906789
 20
2.360132040579759
 30
0.0
 10
36.92222410064117
 20
2.640165384127061
 30
0.0
 10
36.44482687840659
 20
2.872191641130592
 30
0.0
 10
35.96824707038484
 20
3.022485954665317
 30
0.0
 10
35.56355928259912
 20
3.090220631457868
 30
0.0
 10
35.39295225874559
 20
3.091882810595642
 30
0.0
 10
35.34200297408204
 20
3.092379196008971
 30
0.0
  0
SPLINE
  5
CA
330
1F
100
AcDbEntity
  8
0
  6
Continuous
 62
     1
370
    15
100
AcDbSpline
210
0.0
220
0.0
230
1.0
 70
     8
 71
     3
 72
    33
 73
    29
 74
     0
 42
0.000000001
 43
0.00000001
 40
0.0
 40
0.0
 40
0.0
 40
0.0
 40
0.0152822669110983
 40
0.0460529710691585
 40
0.1056944824799062
 40
0.1362922020582352
 40
0.1671147374516415
 40
0.2268678242263377
 40
0.2575225483616728
 40
0.2884024074853629
 40
0.348277084320308
 40
0.3789939459719205
 40
0.4099362953089029
 40
0.4699421274198652
 40
0.5007260217912937
 40
0.5317357806520003
 40
0.5918820083949482
 40
0.6227376629343677
 40
0.653819579769363
 40
0.714115195030053
 40
0.7450472325042878
 40
0.7762059519413615
 40
0.8366597402968455
 40
0.8676727056470437
 40
0.8989127925896806
 40
0.9595333162909946
 40
0.9906316621327467
 40
1.0
 40
1.0
 40
1.0
 40
1.0
 10
27.31607005158569
 20
-2.989146916572527
 30
0.0
 10
27.2585424270816
 20
-3.021641865052962
 30
0.0
 10
27.08518345865264
 20
-3.119565094045679
 30
0.0
 10
26.68835049918535
 20
-3.28648789331336
 30
0.0
 10
26.2341177383312
 20
-3.406792946108574
 30
0.0
 10
25.78215225473615
 20
-3.437789919119426
 30
0.0
 10
25.33052748744312
 20
-3.410973575956895
 30
0.0
 10
24.87892868841232
 20
-3.2975005631198
 30
0.0
 10
24.42950741644289
 20
-3.10198864552591
 30
0.0
 10
23.980446922923
 20
-2.853053636391897
 30
0.0
 10
23.53130472600192
 20
-2.529240836589185
 30
0.0
 10
23.08430057661919
 20
-2.143152443847686
 30
0.0
 10
22.63767565815205
 20
-1.719083672376557
 30
0.0
 10
22.1909146413877
 20
-1.246351124084106
 30
0.0
 10
21.74618280906168
 20
-0.7432965876141839
 30
0.0
 10
21.30186691829982
 20
-0.2249805356867853
 30
0.0
 10
20.85742944540732
 20
0.3064510897111041
 30
0.0
 10
20.41482739909306
 20
0.8303798399176556
 30
0.0
 10
19.97269507358378
 20
1.343982975318483
 30
0.0
 10
19.53050594146908
 20
1.832692952153725
 30
0.0
 10
19.08993003731914
 20
2.27753699870158
 30
0.0
 10
18.6498498279145
 20
2.688396889993173
 30
0.0
 10
18.20980417073698
 20
3.041159995746351
 30
0.0
 10
17.77121263678352
 20
3.321759286641718
 30
0.0
 10
17.33302153391743
 20
3.552099854173993
 30
0.0
 10
16.89506163127574
 20
3.696010179845117
 30
0.0
 10
16.5362382608024
 20
3.756997443849492
 30
0.0
 10
16.39291553570403
 20
3.756130084182876
 30
0.0
 10
16.35973526023515
 20
3.755929283977262
 30
0.0
  0
SPLINE
  5
CB
330
1F
100
AcDbEntity
  8
0
  6
Continuous
 62
     1
370
    15
100
AcDbSpline
210
0.0
220
0.0
230
1.0
 70
     8
 71
     3
 72
    33
 73
    29
 74
     0
 42
0.000000001
 43
0.00000001
 40
0.0
 40
0.0
 40
0.0
 40
0.0
 40
0.0286000247655125
 40
0.0607962349588443
 40
0.0932317058156347
 40
0.1244419306132526
 40
0.1558703064282739
 40
0.1879841476156612
 40
0.2203365892937593
 40
0.2514700949666752
 40
0.3147990927694189
 40
0.3470717673806499
 40
0.3781320443438088
 40
0.4413119033310036
 40
0.4735084081364593
 40
0.5044992280217068
 40
0.5675376047193872
 40
0.5996618307520384
 40
0.6305872232352706
 40
0.6934922964183198
 40
0.7255484035752661
 40
0.7564126434712466
 40
0.8191930889273572
 40
0.8511854917230491
 40
0.8819930953511882
 40
0.9446580791388389
 40
0.9765914421457448
 40
1.0
 40
1.0
 40
1.0
 40
1.0
 10
17.6789101338504
 20
3.363588521225032
 30
0.0
 10
17.78192270311319
 20
3.409756910622141
 30
0.0
 10
18.00090070806115
 20
3.50789893226272
 30
0.0
 10
18.33744985583774
 20
3.605044360572494
 30
0.0
 10
18.68411655606809
 20
3.663175822496263
 30
0.0
 10
19.0287386673204
 20
3.674740565560711
 30
0.0
 10
19.37268157535664
 20
3.64219957195606
 30
0.0
 10
19.72137910693315
 20
3.56409320881483
 30
0.0
 10
20.06976615435313
 20
3.441624694829908
 30
0.0
 10
20.53273568218577
 20
3.223242633929578
 30
0.0
 10
20.99744954113585
 20
2.92463359161879
 30
0.0
 10
21.46233151126565
 20
2.557491402231182
 30
0.0
 10
21.92769636497982
 20
2.150083734081447
 30
0.0
 10
22.39483856856277
 20
1.688359834423184
 30
0.0
 10
22.86213132238794
 20
1.191254030324942
 30
0.0
 10
23.32993989863757
 20
0.6772941849442365
 30
0.0
 10
23.79961142904619
 20
0.1457753838195979
 30
0.0
 10
24.2694107636594
 20
-0.3808994294021
 30
0.0
 10
24.7397570912439
 20
-0.8976273023972744
 30
0.0
 10
25.2120468577224
 20
-1.391584116839988
 30
0.0
 10
25.68445556772127
 20
-1.841408782367399
 30
0.0
 10
26.15744123439334
 20
-2.25646118359678
 30
0.0
 10
26.6324425481462
 20
-2.613049439987298
 30
0.0
 10
27.10756996896036
 20
-2.895045553888234
 30
0.0
 10
27.58329468159101
 20
-3.1249904155708
 30
0.0
 10
28.06116229831027
 20
-3.270114345873763
 30
0.0
 10
28.51098596630291
 20
-3.32957000641767
 30
0.0
 10
28.72258662888898
 20
-3.324209197950958
 30
0.0
 10
28.812089600146
 20
-3.32194168006965
 30
0.0
  0
SPLINE
  5
CC
330
1F
100
AcDbEntity
  8
0
  6
Continuous
 62
     1
370
    15
100
AcDbSpline
210
0.0
220
0.0
230
1.0
 70
     8
 71
     3
 72
    31
 73
    27
 74
     0
 42
0.000000001
 43
0.00000001
 40
0.0
 40
0.0
 40
0.0
 40
0.0
 40
0.002163179918558
 40
0.0367953778652533
 40
0.1037605332869292
 40
0.1381186071612318
 40
0.1727308481218193
 40
0.2396738799298478
 40
0.2740201558868426
 40
0.3086204018804921
 40
0.3755577406227681
 40
0.4099006208095879
 40
0.4444973305599006
 40
0.5114464152437084
 40
0.545794819149327
 40
0.5803969714626326
 40
0.6473762552761319
 40
0.6817396250400678
 40
0.7163567229995979
 40
0.7833856026032026
 40
0.8177738708818865
 40
0.8524159079601439
 40
0.9195145103825751
 40
0.953937996527453
 40
0.988615350212236
 40
0.9999999999999999
 40
0.9999999999999999
 40
0.9999999999999999
 40
0.9999999999999999
 10
36.92534138708544
 20
2.632363774962943
 30
0.0
 10
36.93324226612547
 20
2.636402479970762
 30
0.0
 10
37.06763507702914
 20
2.705100268617038
 30
0.0
 10
37.44747998374483
 20
2.84557338138176
 30
0.0
 10
37.9474389263026
 20
2.968221869068075
 30
0.0
 10
38.44787608910082
 20
2.99520422191416
 30
0.0
 10
38.94924667018641
 20
2.963777116945447
 30
0.0
 10
39.4531624528526
 20
2.84413818349261
 30
0.0
 10
39.9574932662146
 20
2.643029407228177
 30
0.0
 10
40.46286594146663
 20
2.389800980467682
 30
0.0
 10
40.97081706314577
 20
2.064810859721072
 30
0.0
 10
41.47923722004941
 20
1.684052446605547
 30
0.0
 10
41.98879507436949
 20
1.271260691797693
 30
0.0
 10
42.50096878311157
 20
0.8199910400783014
 30
0.0
 10
43.01366984891384
 20
0.3524266239819751
 30
0.0
 10
43.52761092888802
 20
-0.1192130887502349
 30
0.0
 10
44.04420325622185
 20
-0.5864134384026509
 30
0.0
 10
44.56139043494985
 20
-1.026065274369619
 30
0.0
 10
45.07992183688123
 20
-1.440592673108597
 30
0.0
 10
45.60114129189747
 20
-1.808384323271566
 30
0.0
 10
46.12303086554871
 20
-2.111386183618957
 30
0.0
 10
46.64637570669546
 20
-2.365479408099793
 30
0.0
 10
47.17238009415992
 20
-2.545244376314427
 30
0.0
 10
47.69935199270606
 20
-2.629341809767613
 30
0.0
 10
48.01102274139661
 20
-2.663832443766497
 30
0.0
 10
48.19041510614095
 20
-2.64116405389372
 30
0.0
 10
48.23475358673766
 20
-2.635561351872566
 30
0.0
  0
SPLINE
  5
CD
330
1F
100
AcDbEntity
  8
0
  6
Continuous
 62
     1
370
    15
100
AcDbSpline
210
0.0
220
0.0
230
1.0
 70
     8
 71
     3
 72
    15
 73
    11
 74
     0
 42
0.000000001
 43
0.00000001
 40
0.0
 40
0.0
 40
0.0
 40
0.0
 40
0.0533340142371113
 40
0.2006192634656048
 40
0.3736134670137899
 40
0.552026713338475
 40
0.7186935273426791
 40
0.8899302562410161
 40
0.9448884496048777
 40
1.0
 40
1.0
 40
1.0
 40
1.0
 10
56.06502150186047
 20
1.970928550966416
 30
0.0
 10
56.09660232172607
 20
1.982938894231915
 30
0.0
 10
56.21539557049424
 20
2.028116559074118
 30
0.0
 10
56.43501450905224
 20
2.066370751535618
 30
0.0
 10
56.72343291574186
 20
2.071528382052511
 30
0.0
 10
57.0106839621874
 20
2.005910160820503
 30
0.0
 10
57.27579899671846
 20
1.877774815980505
 30
0.0
 10
57.45338315925956
 20
1.737448335549485
 30
0.0
 10
57.56463724497482
 20
1.621913634530539
 30
0.0
 10
57.60364137535512
 20
1.573585696201773
 30
0.0
 10
57.62317061221589
 20
1.549388060069084
 30
0.0
  0
SPLINE
  5
CE
330
1F
100
AcDbEntity
  8
0
  6
Continuous
 62
     1
370
    15
100
AcDbSpline
210
0.0
220
0.0
230
1.0
 70
     8
 71
     3
 72
    12
 73
     8
 74
     0
 42
0.000000001
 43
0.00000001
 40
0.0
 40
0.0
 40
0.0
 40
0.0
 40
0.099646573608983
 40
0.4010621311373552
 40
0.7039864084248206
 40
0.9722740985999644
 40
1.0
 40
1.0
 40
1.0
 40
1.0
 10
56.8706171706401
 20
1.20643518945838
 30
0.0
 10
56.89959962703238
 20
1.195431974738437
 30
0.0
 10
57.01624955592904
 20
1.151145728005472
 30
0.0
 10
57.22871904743888
 20
1.179415474887651
 30
0.0
 10
57.45960956592367
 20
1.300302854158284
 30
0.0
 10
57.57567643842541
 20
1.454994170511784
 30
0.0
 10
57.61910308629298
 20
1.541303919173828
 30
0.0
 10
57.6231706122147
 20
1.549388060069291
 30
0.0
  0
SPLINE
  5
CF
330
1F
100
AcDbEntity
  8
0
  6
Continuous
 62
     1
370
    15
100
AcDbSpline
210
0.0
220
0.0
230
1.0
 70
     8
 71
     3
 72
    10
 73
     6
 74
     0
 42
0.000000001
 43
0.00000001
 40
0.0
 40
0.0
 40
0.0
 40
0.0
 40
0.5
 40
0.5
 40
1.0
 40
1.0
 40
1.0
 40
1.0
 10
56.86145147331372
 20
1.445638884809867
 30
0.0
 10
56.70130717464334
 20
1.571815861747342
 30
0.0
 10
56.54311741762021
 20
1.692386012344019
 30
0.0
 10
56.22236947570805
 20
1.904331194452511
 30
0.0
 10
56.06438495692479
 20
1.993159221099601
 30
0.0
 10
55.90330109950656
 20
2.061149101885246
 30
0.0
  0
SPLINE
  5
D0
330
1F
100
AcDbEntity
  8
0
  6
Continuous
 62
     1
370
    15
100
AcDbSpline
210
0.0
220
0.0
230
1.0
 70
     8
 71
     3
 72
    31
 73
    27
 74
     0
 42
0.000000001
 43
0.00000001
 40
0.0
 40
0.0
 40
0.0
 40
0.0
 40
0.0034997646344485
 40
0.0380338064733706
 40
0.0733248605374583
 40
0.1088812359214673
 40
0.1772342137905085
 40
0.2123121497419153
 40
0.2476531646217821
 40
0.3156546293495197
 40
0.3505508578270382
 40
0.3857081757582521
 40
0.4534177498880794
 40
0.4881630362752187
 40
0.5231677214124664
 40
0.590636616463542
 40
0.6252573672507706
 40
0.6601360800593159
 40
0.727408924011572
 40
0.761928140268168
 40
0.7967041023167917
 40
0.8638205046889392
 40
0.8982585973439211
 40
0.9329524151172944
 40
0.9999480642210227
 40
1.0
 40
1.0
 40
1.0
 40
1.0
 10
52.8897090175645
 20
-2.08141309169853
 30
0.0
 10
52.87615277544201
 20
-2.088368111775386
 30
0.0
 10
52.72882987140516
 20
-2.163952019623873
 30
0.0
 10
52.44569543172805
 20
-2.276955083693025
 30
0.0
 10
52.03933341213343
 20
-2.413067270800775
 30
0.0
 10
51.50423873524309
 20
-2.53178718517419
 30
0.0
 10
50.97069890795315
 20
-2.565013451998361
 30
0.0
 10
50.44091325019976
 20
-2.509050206796182
 30
0.0
 10
49.91376494760281
 20
-2.394272150316993
 30
0.0
 10
49.38805928683906
 20
-2.194805276905564
 30
0.0
 10
48.86593470788168
 20
-1.921177937903194
 30
0.0
 10
48.34612936309772
 20
-1.602210101850446
 30
0.0
 10
47.82761914360318
 20
-1.223043864328038
 30
0.0
 10
47.31252390663244
 20
-0.8032439013981414
 30
0.0
 10
46.79946312623386
 20
-0.3630708385160055
 30
0.0
 10
46.28760254910131
 20
0.0979151340795867
 30
0.0
 10
45.77898075881495
 20
0.5563261370771249
 30
0.0
 10
45.27215416167068
 20
1.005529460656525
 30
0.0
 10
44.76645756317834
 20
1.431714724196104
 30
0.0
 10
44.26382420604924
 20
1.813530832725738
 30
0.0
 10
43.76278462214853
 20
2.15948559477667
 30
0.0
 10
43.2628251281922
 20
2.444501760238192
 30
0.0
 10
42.76572673865989
 20
2.656338470762508
 30
0.0
 10
42.27017961884069
 20
2.809653884212434
 30
0.0
 10
41.89987465565557
 20
2.88311974864485
 30
0.0
 10
41.65731281520194
 20
2.877258057935218
 30
0.0
 10
41.65712492419654
 20
2.87725351740667
 30
0.0
  0
SPLINE
  5
D1
330
1F
100
AcDbEntity
  8
0
  6
Continuous
 62
     1
370
    15
100
AcDbSpline
210
0.0
220
0.0
230
1.0
 70
     8
 71
     3
 72
    33
 73
    29
 74
     0
 42
0.000000001
 43
0.00000001
 40
0.0
 40
0.0
 40
0.0
 40
0.0
 40
0.0007977277979914
 40
0.0617898759495918
 40
0.0930818871905817
 40
0.1246044511554181
 40
0.1856467149470984
 40
0.2169641139690622
 40
0.2485120939178666
 40
0.3096198212865202
 40
0.3409705135294745
 40
0.3725518922599899
 40
0.4337390314021397
 40
0.4651301963549169
 40
0.4967522221275985
 40
0.5580315183752969
 40
0.5894697104009036
 40
0.6211389976663395
 40
0.6825221934524837
 40
0.7140134445468962
 40
0.7457360766520557
 40
0.807234106087586
 40
0.8387840264175795
 40
0.8705656562522729
 40
0.9321888264881842
 40
0.9638026989085445
 40
0.9956486438302722
 40
1.0
 40
1.0
 40
1.0
 40
1.0
 10
33.72820775994931
 20
-2.748922835862192
 30
0.0
 10
33.72517901379651
 20
-2.750715442537787
 30
0.0
 10
33.49058038311578
 20
-2.889565993302464
 30
0.0
 10
33.13792988971086
 20
-3.030052901339186
 30
0.0
 10
32.6708605506815
 20
-3.157200850569026
 30
0.0
 10
32.20444149842569
 20
-3.223579231236301
 30
0.0
 10
31.73858153273144
 20
-3.205191509499572
 30
0.0
 10
31.27489496628816
 20
-3.101201205794392
 30
0.0
 10
30.81172637963868
 20
-2.940951627395002
 30
0.0
 10
30.34904603983755
 20
-2.699731732764937
 30
0.0
 10
29.88852394344311
 20
-2.387706332854284
 30
0.0
 10
29.42845279191821
 20
-2.03157040919043
 30
0.0
 10
28.96876824144896
 20
-1.616258212417276
 30
0.0
 10
28.51124665566892
 20
-1.159058539301052
 30
0.0
 10
28.05412518009804
 20
-0.6789641272289921
 30
0.0
 10
27.59727377935972
 20
-0.1735541153121546
 30
0.0
 10
27.1425981134438
 20
0.3364237420710426
 30
0.0
 10
26.68829049854992
 20
0.84352811697417
 30
0.0
 10
26.23412748994847
 20
1.337065951383337
 30
0.0
 10
25.78215042383554
 20
1.797061836078944
 30
0.0
 10
25.33052844713266
 20
2.22908731695208
 30
0.0
 10
24.87892904855506
 20
2.611440401183569
 30
0.0
 10
24.42950651265992
 20
2.929121132967732
 30
0.0
 10
23.98045192052085
 20
3.198559443019507
 30
0.0
 10
23.53127414474222
 20
3.396442736870899
 30
0.0
 10
23.0843545457111
 20
3.498952248710798
 30
0.0
 10
22.84230116900108
 20
3.546278628644484
 30
0.0
 10
22.71337420562224
 20
3.535161529577748
 30
0.0
 10
22.69787561537859
 20
3.533825118957207
 30
0.0
  0
SPLINE
  5
D2
330
1F
100
AcDbEntity
  8
0
  6
Continuous
 62
     1
370
    15
100
AcDbSpline
210
0.0
220
0.0
230
1.0
 70
     8
 71
     3
 72
     9
 73
     5
 74
     0
 42
0.000000001
 43
0.00000001
 40
0.0
 40
0.0
 40
0.0
 40
0.0
 40
0.2375171356447196
 40
1.0
 40
1.0
 40
1.0
 40
1.0
 10
14.45868090844595
 20
-3.483426099280133
 30
0.0
 10
14.40255323242007
 20
-3.517418652564926
 30
0.0
 10
14.16624322525563
 20
-3.660534866864673
 30
0.0
 10
13.93089537554864
 20
-3.731097673219963
 30
0.0
 10
13.7514466729842
 20
-3.784900603926689
 30
0.0
  0
SPLINE
  5
D3
330
1F
100
AcDbEntity
  8
0
  6
Continuous
 62
     4
370
    15
100
AcDbSpline
210
0.0
220
0.0
230
1.0
 70
     8
 71
     3
 72
    10
 73
     6
 74
     0
 42
0.000000001
 43
0.00000001
 40
0.0
 40
0.0
 40
0.0
 40
0.0
 40
0.5
 40
0.5
 40
1.0
 40
1.0
 40
1.0
 40
1.0
 10
13.7514466729842
 20
-3.78490060392669
 30
0.0
 10
13.579613891424
 20
-3.84720455239025
 30
0.0
 10
13.41003071632972
 20
-3.889843089259332
 30
0.0
 10
13.07216339597854
 20
-3.935781165359022
 30
0.0
 10
12.90337145269336
 20
-3.938944705846217
 30
0.0
 10
12.7354466729842
 20
-3.921876282744154
 30
0.0
  0
SPLINE
  5
D4
330
1F
100
AcDbEntity
  8
0
  6
Continuous
 62
     4
370
    15
100
AcDbSpline
210
0.0
220
0.0
230
1.0
 70
     8
 71
     3
 72
    10
 73
     6
 74
     0
 42
0.000000001
 43
0.00000001
 40
0.0
 40
0.0
 40
0.0
 40
0.0
 40
0.4999999999999999
 40
0.4999999999999999
 40
1.0
 40
1.0
 40
1.0
 40
1.0
 10
12.7354466729842
 20
-3.92187628274415
 30
0.0
 10
12.58304229159647
 20
-4.034472802385569
 30
0.0
 10
12.44853112496875
 20
-4.090718452632834
 30
0.0
 10
12.20040884269356
 20
-4.090925810942625
 30
0.0
 10
12.09187747832277
 20
-4.034993275685524
 30
0.0
 10
12.00000000000001
 20
-3.916237435682811
 30
0.0
  0
SPLINE
  5
D5
330
1F
100
AcDbEntity
  8
0
  6
Continuous
 62
     4
370
    15
100
AcDbSpline
210
0.0
220
0.0
230
1.0
 70
     8
 71
     3
 72
     8
 73
     4
 74
     0
 42
0.000000001
 43
0.00000001
 40
0.0
 40
0.0
 40
0.0
 40
0.0
 40
1.0
 40
1.0
 40
1.0
 40
1.0
 10
12.7354466729842
 20
-2.272709088877533
 30
0.0
 10
13.07247875633585
 20
-2.586267821386022
 30
0.0
 10
13.40931094414715
 20
-2.853953860603871
 30
0.0
 10
13.7514466729842
 20
-3.066957832859011
 30
0.0
  0
SPLINE
  5
D6
330
1F
100
AcDbEntity
  8
0
  6
Continuous
 62
     1
370
    15
100
AcDbSpline
210
0.0
220
0.0
230
1.0
 70
     8
 71
     3
 72
    13
 73
     9
 74
     0
 42
0.000000001
 43
0.00000001
 40
0.0
 40
0.0
 40
0.0
 40
0.0
 40
0.2031292643512815
 40
0.4084144604632434
 40
0.5729457095234404
 40
0.7386189334251864
 40
0.9078803435363881
 40
0.9999999999999999
 40
0.9999999999999999
 40
0.9999999999999999
 40
0.9999999999999999
 10
13.7514466729842
 20
-3.066957832859008
 30
0.0
 10
13.88796756382308
 20
-3.159896271193684
 30
0.0
 10
14.16245832295613
 20
-3.346759558814868
 30
0.0
 10
14.54884705882458
 20
-3.538932938556883
 30
0.0
 10
14.91043345700639
 20
-3.672494548715915
 30
0.0
 10
15.2482592018478
 20
-3.750998261747596
 30
0.0
 10
15.53755700611301
 20
-3.78721558415522
 30
0.0
 10
15.7151169058871
 20
-3.778323270256378
 30
0.0
 10
15.77769510706763
 20
-3.775189313722104
 30
0.0
  0
SPLINE
  5
D7
330
1F
100
AcDbEntity
  8
0
  6
Continuous
 62
     1
370
    15
100
AcDbSpline
210
0.0
220
0.0
230
1.0
 70
     8
 71
     3
 72
    31
 73
    27
 74
     0
 42
0.000000001
 43
0.00000001
 40
0.0
 40
0.0
 40
0.0
 40
0.0
 40
0.0149710689582847
 40
0.0468193329249618
 40
0.1116016110048004
 40
0.1446143322833442
 40
0.1763996187553269
 40
0.241053549984038
 40
0.2740006658441814
 40
0.3057276259162882
 40
0.3702626498846581
 40
0.4031489640984259
 40
0.4348225022520982
 40
0.4992485733102837
 40
0.5320791513264117
 40
0.5637044373005132
 40
0.6280320487912754
 40
0.6608122295039398
 40
0.7241427032624216
 40
0.7566373669771325
 40
0.7893727808507586
 40
0.8526289561170584
 40
0.8850851685176278
 40
0.9177817608853521
 40
0.9809758491187889
 40
1.0
 40
1.0
 40
1.0
 40
1.0
 10
24.11147046384648
 20
3.113755085055874
 30
0.0
 10
24.16563747080837
 20
3.140516484071747
 30
0.0
 10
24.33503506957462
 20
3.224207959513691
 30
0.0
 10
24.73979465537063
 20
3.362280654648542
 30
0.0
 10
25.21204067876772
 20
3.44839301712604
 30
0.0
 10
25.68445669247725
 20
3.439554388548447
 30
0.0
 10
26.15744046616764
 20
3.372117150264073
 30
0.0
 10
26.63244343977216
 20
3.216743535986873
 30
0.0
 10
27.10756859902674
 20
2.979576035963303
 30
0.0
 10
27.58330176243931
 20
2.691867018736196
 30
0.0
 10
28.06111687506894
 20
2.333167439762811
 30
0.0
 10
28.53907033945836
 20
1.918444341288271
 30
0.0
 10
29.01766614617822
 20
1.472507613420201
 30
0.0
 10
29.49840018730294
 20
0.9871832676453486
 30
0.0
 10
29.97930145058201
 20
0.4834968029769674
 30
0.0
 10
30.46086973131797
 20
-0.0254672180914724
 30
0.0
 10
30.94470801452172
 20
-0.5338513545142799
 30
0.0
 10
31.54786778904506
 20
-1.138359322290259
 30
0.0
 10
32.03411515119215
 20
-1.591701348808663
 30
0.0
 10
32.52047298678971
 20
-1.993878953180928
 30
0.0
 10
33.00751444505691
 20
-2.356301290890369
 30
0.0
 10
33.496942496492
 20
-2.652616203998035
 30
0.0
 10
33.98660124231081
 20
-2.871107556175356
 30
0.0
 10
34.47701536515025
 20
-3.031503508709546
 30
0.0
 10
34.91826101137948
 20
-3.109624852494035
 30
0.0
 10
35.23440592181522
 20
-3.096559657601749
 30
0.0
 10
35.30755743346546
 20
-3.093536554193068
 30
0.0
  0
SPLINE
  5
D8
330
1F
100
AcDbEntity
  8
0
  6
Continuous
 62
     1
370
    15
100
AcDbSpline
210
0.0
220
0.0
230
1.0
 70
     8
 71
     3
 72
    30
 73
    26
 74
     0
 42
0.000000001
 43
0.00000001
 40
0.0
 40
0.0
 40
0.0
 40
0.0
 40
0.0088129885181246
 40
0.0778952994766339
 40
0.1133376162715476
 40
0.1490416278638522
 40
0.2181750918296681
 40
0.2536430889072046
 40
0.2893728226610024
 40
0.358578198614777
 40
0.3940825193351649
 40
0.4298486785724126
 40
0.4991474246005239
 40
0.5346990048748282
 40
0.5705125755879247
 40
0.6051306256893242
 40
0.6755386065104679
 40
0.7114123487538775
 40
0.7461034901138998
 40
0.8166594392431066
 40
0.8526080394583313
 40
0.8873848404876818
 40
0.95811425087917
 40
0.9941506431461551
 40
1.0
 40
1.0
 40
1.0
 40
1.0
 10
43.30847950651533
 20
2.39601745191888
 30
0.0
 10
43.34078586181118
 20
2.411631153947643
 30
0.0
 10
43.6263318165793
 20
2.549635871980362
 30
0.0
 10
44.04426559109738
 20
2.671769362592613
 30
0.0
 10
44.56137861296954
 20
2.754194629325748
 30
0.0
 10
45.07992865913673
 20
2.773930173040712
 30
0.0
 10
45.60113930855614
 20
2.705892039093936
 30
0.0
 10
46.1230326554311
 20
2.552951365180116
 30
0.0
 10
46.64636710456568
 20
2.345454547567016
 30
0.0
 10
47.17243179656445
 20
2.061760607280501
 30
0.0
 10
47.69926078253981
 20
1.717115088172564
 30
0.0
 10
48.22760770604386
 20
1.336746857895822
 30
0.0
 10
48.75878053763803
 20
0.9124706591705498
 30
0.0
 10
49.29072873100667
 20
0.4671165640970321
 30
0.0
 10
49.69259270321469
 20
0.1261905995307137
 30
0.0
 10
50.22746206368924
 20
-0.3257032356653117
 30
0.0
 10
50.76537668274081
 20
-0.7658519181557216
 30
0.0
 10
51.30424300998753
 20
-1.16960319953614
 30
0.0
 10
51.8447621732329
 20
-1.543166376243774
 30
0.0
 10
52.38837618733614
 20
-1.86218486969796
 30
0.0
 10
52.93303925011332
 20
-2.107443432831261
 30
0.0
 10
53.47938781437542
 20
-2.302852574046215
 30
0.0
 10
54.02932142344233
 20
-2.403244727329611
 30
0.0
 10
54.46660406098633
 20
-2.438829272380162
 30
0.0
 10
54.63003658017488
 20
-2.42083790596768
 30
0.0
 10
54.65285997825949
 20
-2.418325406498437
 30
0.0
  0
LINE
  5
D9
330
1F
100
AcDbEntity
  8
0
  6
Continuous
 62
     4
370
    15
100
AcDbLine
 10
13.7514466729842
 20
1.273563208507588
 30
0.0
 11
13.7514466729842
 21
-3.066957832859011
 31
0.0
  0
LINE
  5
DA
330
1F
100
AcDbEntity
  8
0
  6
Continuous
 62
     1
370
    15
100
AcDbLine
 10
55.90330109950678
 20
2.061149101885398
 30
0.0
 11
55.90330109950702
 21
0.270500172270107
 31
0.0
  0
LINE
  5
DB
330
1F
100
AcDbEntity
  8
0
  6
Continuous
 62
     4
370
    15
100
AcDbLine
 10
13.7514466729842
 20
3.851774598917544
 30
0.0
 11
13.7514466729842
 21
3.551510856030151
 31
0.0
  0
LINE
  5
DC
330
1F
100
AcDbEntity
  8
0
  6
Continuous
 62
     4
370
    15
100
AcDbLine
 10
12.7354466729842
 20
-3.921876282744152
 30
0.0
 11
12.7354466729842
 21
-3.973829999999986
 31
0.0
  0
ARC
  5
DD
330
1F
100
AcDbEntity
  8
0
  6
Continuous
 62
     1
370
    15
100
AcDbCircle
 10
55.08547265426343
 20
1.746598876111215
 30
0.0
 40
1.801298887477861
100
AcDbArc
 50
336.4155523997691
 51
350.3819458575275
  0
LINE
  5
DE
330
1F
100
AcDbEntity
  8
0
  6
Continuous
 62
     1
370
    15
100
AcDbLine
 10
56.73631150764366
 20
1.025898687267597
 30
0.0
 11
58.2014466729842
 21
0.0000000000000227
 31
0.0
  0
ARC
  5
DF
330
1F
100
AcDbEntity
  8
0
  6
Continuous
 62
     1
370
    15
100
AcDbCircle
 10
56.55221530327967
 20
0.4325098618598577
 30
0.0
 40
1.70500114117953
100
AcDbArc
 50
308.9119868745587
 51
345.305132098384
  0
LINE
  5
E0
330
1F
100
AcDbEntity
  8
0
  6
Continuous
 62
     4
370
    15
100
AcDbLine
 10
12.7354466729842
 20
3.973830000000014
 30
0.0
 11
12.7354466729842
 21
3.959400541172644
 31
0.0
  0
ARC
  5
E1
330
1F
100
AcDbEntity
  8
0
  6
Continuous
 62
     1
370
    15
100
AcDbCircle
 10
56.69687880621291
 20
-2.020000175100471
 30
0.0
 40
0.179275878000945
100
AcDbArc
 50
291.8677092582491
 51
336.6333387357982
  0
ARC
  5
E2
330
1F
100
AcDbEntity
  8
0
  6
Continuous
 62
     1
370
    15
100
AcDbCircle
 10
55.65854734299089
 20
0.1078248606638668
 30
0.0
 40
2.545184316126753
100
AcDbArc
 50
296.5637109238631
 51
357.5719798189114
  0
ARC
  5
E3
330
1F
100
AcDbEntity
  8
0
  6
Continuous
 62
     1
370
    15
100
AcDbCircle
 10
55.85346704651869
 20
0.0062752984001799
 30
0.0
 40
2.34798801224945
100
AcDbArc
 50
359.8468695156548
 51
41.08716379847232
  0
LINE
  5
E4
330
1F
100
AcDbEntity
  8
0
  6
Continuous
 62
     8
370
    15
100
AcDbLine
 10
55.90330109950678
 20
-2.060784334162595
 30
0.0
 11
55.90330109950703
 21
-2.379799406839208
 31
0.0
  0
LINE
  5
E5
102
{ACAD_REACTORS
102
}
330
1F
100
AcDbEntity
  8
중심선
100
AcDbLine
 10
-33.69855332701582
 20
-0.0000000000000004
 30
0.0
 11
61.90330109950677
 21
-0.0000000000000004
 31
0.0
  0
CIRCLE
  5
E6
330
1F
100
AcDbEntity
  8
외형선
100
AcDbCircle
 10
0.0
 20
0.0
 30
0.0
 40
3.0
  0
INSERT
  5
E7
330
1F
100
AcDbEntity
  8
0
  6
Continuous
 62
     7
100
AcDbBlockReference
 66
     1
  2
블럭10
 10
-1.432773799681436
 20
-52.05975325537357
 30
0.0
  0
ATTRIB
  5
E8
330
E7
100
AcDbEntity
  8
FORMAT
 62
     2
100
AcDbText
 10
-10.61406908842272
 20
-49.98438634254138
 30
0.0
 40
4.233333333333333
  1
E5078212 [ 3 FLUTE ]
 41
0.75
  7
SLDTEXTSTYLE0
 11
-10.61406908842272
 21
-52.10105300920804
 31
0.0
100
AcDbAttribute
  2
AUTOATTR0
 70
     0
 74
     1
  0
SEQEND
  5
E9
330
E7
100
AcDbEntity
  8
0
  6
Continuous
 62
     7
  0
HATCH
  5
EA
330
1F
100
AcDbEntity
  8
중심선
100
AcDbHatch
 10
0.0
 20
0.0
 30
0.0
210
0.0
220
0.0
230
1.0
  2
SOLID
 70
     1
 71
     0
 91
        1
 92
        0
 93
        4
 72
     1
 10
4.282135504699413
 20
-35.81257895372963
 11
0.8358602608621313
 21
-35.81257895372963
 72
     1
 10
0.8358602608621313
 20
-35.81257895372963
 11
-1.292369598341891
 21
-38.34890453430223
 72
     1
 10
-1.292369598341891
 20
-38.34890453430223
 11
2.15393873060854
 21
-38.34886510499974
 72
     1
 10
2.15393873060854
 20
-38.34886510499974
 11
4.282135504699413
 21
-35.81257895372963
 97
        0
 75
     0
 76
     1
 98
        1
 10
0.0
 20
0.0
  0
HATCH
  5
EB
330
1F
100
AcDbEntity
  8
중심선
100
AcDbHatch
 10
0.0
 20
0.0
 30
0.0
210
0.0
220
0.0
230
1.0
  2
SOLID
 70
     1
 71
     0
 91
        1
 92
        0
 93
        4
 72
     1
 10
9.294899495735365
 20
-35.81257895372963
 11
5.848624251898082
 21
-35.81257895372963
 72
     1
 10
5.848624251898082
 20
-35.81257895372963
 11
1.317486243540694
 21
-41.21257895372965
 72
     1
 10
1.317486243540694
 20
-41.21257895372965
 11
4.763761487377977
 21
-41.21257895372965
 72
     1
 10
4.763761487377977
 20
-41.21257895372965
 11
9.294899495735365
 21
-35.81257895372963
 97
        0
 75
     0
 76
     1
 98
        1
 10
0.0
 20
0.0
  0
HATCH
  5
EC
330
1F
100
AcDbEntity
  8
중심선
100
AcDbHatch
 10
0.0
 20
0.0
 30
0.0
210
0.0
220
0.0
230
1.0
  2
SOLID
 70
     1
 71
     0
 91
        1
 92
        0
 93
        4
 72
     1
 10
14.30766348677126
 20
-35.81257895372966
 11
10.86138824293414
 21
-35.81257895372963
 72
     1
 10
10.86138824293414
 20
-35.81257895372963
 11
3.812951341044895
 21
-44.21257895372965
 72
     1
 10
3.812951341044895
 20
-44.21257895372965
 11
7.259226584882178
 21
-44.21257895372965
 72
     1
 10
7.259226584882178
 20
-44.21257895372965
 11
14.30766348677126
 21
-35.81257895372966
 97
        0
 75
     0
 76
     1
 98
        1
 10
0.0
 20
0.0
  0
HATCH
  5
ED
330
1F
100
AcDbEntity
  8
중심선
100
AcDbHatch
 10
0.0
 20
0.0
 30
0.0
210
0.0
220
0.0
230
1.0
  2
SOLID
 70
     1
 71
     0
 91
        1
 92
        0
 93
        6
 72
     3
 10
19.10755391778346
 20
-40.01257895378091
 11
3.960054785062284
 21
1.540850780301639E-10
 40
0.3939339440162633
 50
17.09539180608434
 51
320.0019657685079
 73
     0
 72
     1
 10
20.79055357348405
 20
-38.60047295836794
 11
23.09585544718509
 21
-36.66614624832001
 72
     3
 10
19.10755391773061
 20
-40.01257895372979
 11
6.600054785286829
 21
-1.249000902703301E-13
 40
0.6363583540795982
 50
39.99873849337412
 51
368.4976242363725
 73
     1
 72
     1
 10
25.53288640963122
 20
-39.05257895365965
 11
17.78762122456654
 21
-39.05257895365963
 72
     1
 10
17.78762122456654
 20
-39.05257895365963
 11
17.7875961801206
 21
-40.97257895365955
 72
     1
 10
17.7875961801206
 20
-40.97257895365955
 11
22.22897594959264
 21
-40.97257895365952
 97
        0
 75
     0
 76
     1
 98
        1
 10
0.0
 20
0.0
  0
DIMENSION
  5
EE
330
1F
100
AcDbEntity
  8
치수문자_일반주서
100
AcDbDimension
  2
_D
 10
13.7514466729842
 20
46.77372510362598
 30
0.0
 11
35.58551360248141
 21
46.77372510362598
 31
0.0
 70
   160
  1
<>
 71
     2
 42
44.45
  3
SLDDIMSTYLE0
100
AcDbAlignedDimension
 13
58.2014466729842
 23
0.0000000000000227
 33
0.0
 14
13.7514466729842
 24
3.851774598917544
 34
0.0
100
AcDbRotatedDimension
1001
ACAD
1000
DSTYLE
1002
{
1070
   171
1070
     6
1070
   273
1070
     7
1002
}
  0
DIMENSION
  5
102
330
1F
100
AcDbEntity
  8
치수문자_일반주서
100
AcDbDimension
  2
_D_1
 10
-30.6985533270158
 20
59.8377252770588
 30
0.0
 11
15.73943016493781
 21
59.8377252770588
 31
0.0
 70
   160
  1
<>
 71
     2
 42
88.9
  3
SLDDIMSTYLE0
100
AcDbAlignedDimension
 13
58.2014466729842
 23
0.0000000000000227
 33
0.0
 14
-30.69855332701581
 24
3.952500000000019
 34
0.0
100
AcDbRotatedDimension
1001
ACAD
1000
DSTYLE
1002
{
1070
   171
1070
     6
1070
   273
1070
     7
1002
}
  0
INSERT
  5
12D
330
1F
100
AcDbEntity
  8
외형선
100
AcDbBlockReference
  2
SW_DOWELSYMBOL_0
 10
0.0
 20
0.0
 30
0.0
  0
DIMENSION
  5
153
102
{ACAD_REACTORS
102
}
102
{ACAD_XDICTIONARY
360
154
102
}
330
1F
100
AcDbEntity
  8
치수문자_일반주서
100
AcDbDimension
  2
*D7
 10
-42.41566758406917
 20
4.762500000000007
 30
0.0
 11
-45.04066758406917
 21
21.18950000000001
 31
0.0
 70
    32
  1
{%%c<>[]}
 71
     5
 42
9.524999999999997
  3
SLDDIMSTYLE0
100
AcDbAlignedDimension
 13
-29.8885533270158
 23
-4.76249999999999
 33
0.0
 14
-29.8885533270158
 24
4.762500000000006
 34
0.0
 50
90.0
100
AcDbRotatedDimension
1001
ACAD
1000
DSTYLE
1002
{
1070
   171
1070
     6
1070
   273
1070
     7
1002
}
  0
DIMENSION
  5
167
102
{ACAD_XDICTIONARY
360
168
102
}
330
1F
100
AcDbEntity
  8
치수문자_일반주서
100
AcDbDimension
  2
*D8
 10
69.61232801517295
 20
2.381249999999998
 30
0.0
 11
66.98732801517295
 21
22.98525
 31
0.0
 70
    32
  1
{%%c<>[]}
 71
     5
 42
4.762499999999999
  3
SLDDIMSTYLE0
100
AcDbAlignedDimension
 13
58.657095272402
 23
-2.381250000000001
 33
0.0
 14
58.657095272402
 24
2.381249999999999
 34
0.0
 50
90.0
100
AcDbRotatedDimension
1001
ACAD
1000
DSTYLE
1002
{
1070
   171
1070
     6
1070
   273
1070
     7
1002
}
  0
DIMENSION
  5
17A
102
{ACAD_REACTORS
102
}
102
{ACAD_XDICTIONARY
360
17B
102
}
330
1F
100
AcDbEntity
  8
치수문자_일반주서
100
AcDbDimension
  2
*D9
 10
25.55863997553482
 20
3.439458323254666
 30
0.0
 11
21.91631527145884
 21
12.96393894846619
 31
0.0
 70
    34
  1
<>
 71
     5
 42
0.0349065850398863
  3
SLDDIMSTYLE0
100
AcDb2LineAngularDimension
 13
-33.69855332701582
 23
-0.0000000000000004
 33
0.0
 14
61.90330109950676
 24
-0.0000000000000004
 34
0.0
 15
29.02467013764906
 25
3.318421882912031
 35
0.0
 16
23.76211305565566
 26
1.166976621357557
 36
0.0
1001
ACAD
1000
DSTYLE
1002
{
1070
   171
1070
     6
1070
   273
1070
     7
1002
}
  0
ENDSEC
  0
SECTION
  2
OBJECTS
  0
DICTIONARY
  5
C
330
0
100
AcDbDictionary
281
     1
  3
ACAD_DETAILVIEWSTYLE
350
192
  3
ACAD_GROUP
350
D
  3
ACAD_IMAGE_VARS
350
151
  3
ACAD_LAYOUT
350
1A
  3
ACAD_MLINESTYLE
350
17
  3
ACAD_PLOTSETTINGS
350
19
  3
ACAD_PLOTSTYLENAME
350
E
  3
ACAD_SCALELIST
350
47
  3
ACAD_SECTIONVIEWSTYLE
350
193
  3
AcDbVariableDictionary
350
18D
  3
APPDATA
350
14F
  3
DWGPROPS
350
194
  0
DICTIONARY
  5
154
330
153
100
AcDbDictionary
280
     1
281
     1
  0
DICTIONARY
  5
168
330
167
100
AcDbDictionary
280
     1
281
     1
  0
DICTIONARY
  5
17B
330
17A
100
AcDbDictionary
280
     1
281
     1
  0
DICTIONARY
  5
192
102
{ACAD_REACTORS
330
C
102
}
330
C
100
AcDbDictionary
281
     1
  0
DICTIONARY
  5
D
102
{ACAD_REACTORS
330
C
102
}
330
C
100
AcDbDictionary
281
     1
  0
RASTERVARIABLES
  5
151
102
{ACAD_REACTORS
330
C
102
}
330
C
100
AcDbRasterVariables
 90
        0
 70
     1
 71
     1
 72
     1
  0
DICTIONARY
  5
1A
102
{ACAD_REACTORS
330
C
102
}
330
C
100
AcDbDictionary
281
     1
  3
Layout1
350
1E
  3
Layout2
350
26
  3
Model
350
22
  0
DICTIONARY
  5
17
102
{ACAD_REACTORS
330
C
102
}
330
C
100
AcDbDictionary
281
     1
  3
Standard
350
18
  0
DICTIONARY
  5
19
102
{ACAD_REACTORS
330
C
102
}
330
C
100
AcDbDictionary
281
     1
  0
ACDBDICTIONARYWDFLT
  5
E
102
{ACAD_REACTORS
330
C
102
}
330
C
100
AcDbDictionary
281
     1
  3
Normal
350
F
100
AcDbDictionaryWithDefault
340
F
  0
DICTIONARY
  5
47
102
{ACAD_REACTORS
330
C
102
}
330
C
100
AcDbDictionary
281
     1
  3
A0
350
48
  3
A1
350
49
  3
A2
350
4A
  3
A3
350
4B
  3
A4
350
4C
  3
A5
350
4D
  3
A6
350
4E
  3
A7
350
4F
  3
A8
350
50
  3
A9
350
51
  3
B0
350
52
  3
B1
350
53
  3
B2
350
54
  3
B3
350
55
  3
B4
350
56
  3
B5
350
57
  3
B6
350
58
  3
B7
350
59
  3
B8
350
5A
  3
B9
350
5B
  3
C0
350
5C
  3
C1
350
5D
  3
C2
350
5E
  3
C3
350
5F
  3
C4
350
60
  3
C5
350
61
  3
C6
350
62
  3
C7
350
63
  3
C8
350
64
  3
C9
350
65
  3
D0
350
66
  3
D1
350
67
  3
D2
350
68
  0
DICTIONARY
  5
193
102
{ACAD_REACTORS
330
C
102
}
330
C
100
AcDbDictionary
281
     1
  0
DICTIONARY
  5
18D
102
{ACAD_REACTORS
330
C
102
}
330
C
100
AcDbDictionary
281
     1
  0
DICTIONARY
  5
14F
102
{ACAD_REACTORS
330
C
102
}
330
C
100
AcDbDictionary
281
     1
  0
XRECORD
  5
194
102
{ACAD_REACTORS
330
C
102
}
330
C
100
AcDbXrecord
280
     1
  1
DWGPROPS COOKIE
  2

  3

  4

  6

  7

  8
12015048
  9

300
=
301
=
302
=
303
=
304
=
305
=
306
=
307
=
308
=
309
=
 40
0.0
 41
2458340.218115382
 42
2458341.07564765
  1

 90
        0
  0
LAYOUT
  5
1E
102
{ACAD_REACTORS
330
1A
102
}
330
1A
100
AcDbPlotSettings
  1

  2
none_device
  4

  6

 40
0.0
 41
0.0
 42
0.0
 43
0.0
 44
0.0
 45
0.0
 46
0.0
 47
0.0
 48
0.0
 49
0.0
140
0.0
141
0.0
142
1.0
143
1.0
 70
   688
 72
     1
 73
     0
 74
     5
  7

 75
    16
147
1.0
148
0.0
149
0.0
100
AcDbLayout
  1
Layout1
 70
     1
 71
     1
 10
0.0
 20
0.0
 11
420.0
 21
297.0
 12
0.0
 22
0.0
 32
0.0
 14
1.000000000000000E+20
 24
1.000000000000000E+20
 34
1.000000000000000E+20
 15
-1.000000000000000E+20
 25
-1.000000000000000E+20
 35
-1.000000000000000E+20
146
0.0
 13
0.0
 23
0.0
 33
0.0
 16
1.0
 26
0.0
 36
0.0
 17
0.0
 27
1.0
 37
0.0
 76
     0
330
1B
  0
LAYOUT
  5
26
102
{ACAD_REACTORS
330
1A
102
}
330
1A
100
AcDbPlotSettings
  1

  2
none_device
  4

  6

 40
0.0
 41
0.0
 42
0.0
 43
0.0
 44
0.0
 45
0.0
 46
0.0
 47
0.0
 48
0.0
 49
0.0
140
0.0
141
0.0
142
1.0
143
1.0
 70
   688
 72
     1
 73
     0
 74
     5
  7

 75
    16
147
1.0
148
0.0
149
0.0
100
AcDbLayout
  1
Layout2
 70
     1
 71
     2
 10
0.0
 20
0.0
 11
0.0
 21
0.0
 12
0.0
 22
0.0
 32
0.0
 14
0.0
 24
0.0
 34
0.0
 15
0.0
 25
0.0
 35
0.0
146
0.0
 13
0.0
 23
0.0
 33
0.0
 16
1.0
 26
0.0
 36
0.0
 17
0.0
 27
1.0
 37
0.0
 76
     0
330
23
  0
LAYOUT
  5
22
102
{ACAD_REACTORS
330
1A
102
}
330
1A
100
AcDbPlotSettings
  1

  2
none_device
  4
ANSI_A_(11.00_x_8.50_Inches)
  6

 40
6.35
 41
19.05
 42
6.35000508
 43
19.05000254
 44
279.4
 45
215.9
 46
127.6217030495622
 47
100.0349995745547
 48
0.0
 49
0.0
140
0.0
141
0.0
142
0.0915836148719576
143
1.0
 70
  1696
 72
     0
 73
     0
 74
     0
  7

 75
     0
147
0.0235690232323232
148
0.0
149
0.0
100
AcDbLayout
  1
Model
 70
     1
 71
     0
 10
0.0
 20
0.0
 11
420.0
 21
297.0
 12
0.0
 22
0.0
 32
0.0
 14
-46.79066758406917
 24
-49.98438634254138
 34
0.0
 15
70.16266134850628
 25
64.21272527705881
 35
0.0
146
0.0
 13
0.0
 23
0.0
 33
0.0
 16
1.0
 26
0.0
 36
0.0
 17
0.0
 27
1.0
 37
0.0
 76
     0
330
1F
331
29
  0
MLINESTYLE
  5
18
102
{ACAD_REACTORS
330
17
102
}
330
17
100
AcDbMlineStyle
  2
Standard
 70
     0
  3

 62
   256
 51
90.0
 52
90.0
 71
     2
 49
0.5
 62
   256
  6
BYLAYER
 49
-0.5
 62
   256
  6
BYLAYER
  0
ACDBPLACEHOLDER
  5
F
102
{ACAD_REACTORS
330
E
102
}
330
E
  0
SCALE
  5
48
102
{ACAD_REACTORS
330
47
102
}
330
47
100
AcDbScale
 70
     0
300
1:1
140
1.0
141
1.0
290
     1
  0
SCALE
  5
49
102
{ACAD_REACTORS
330
47
102
}
330
47
100
AcDbScale
 70
     0
300
1:2
140
1.0
141
2.0
290
     0
  0
SCALE
  5
4A
102
{ACAD_REACTORS
330
47
102
}
330
47
100
AcDbScale
 70
     0
300
1:4
140
1.0
141
4.0
290
     0
  0
SCALE
  5
4B
102
{ACAD_REACTORS
330
47
102
}
330
47
100
AcDbScale
 70
     0
300
1:5
140
1.0
141
5.0
290
     0
  0
SCALE
  5
4C
102
{ACAD_REACTORS
330
47
102
}
330
47
100
AcDbScale
 70
     0
300
1:8
140
1.0
141
8.0
290
     0
  0
SCALE
  5
4D
102
{ACAD_REACTORS
330
47
102
}
330
47
100
AcDbScale
 70
     0
300
1:10
140
1.0
141
10.0
290
     0
  0
SCALE
  5
4E
102
{ACAD_REACTORS
330
47
102
}
330
47
100
AcDbScale
 70
     0
300
1:16
140
1.0
141
16.0
290
     0
  0
SCALE
  5
4F
102
{ACAD_REACTORS
330
47
102
}
330
47
100
AcDbScale
 70
     0
300
1:20
140
1.0
141
20.0
290
     0
  0
SCALE
  5
50
102
{ACAD_REACTORS
330
47
102
}
330
47
100
AcDbScale
 70
     0
300
1:30
140
1.0
141
30.0
290
     0
  0
SCALE
  5
51
102
{ACAD_REACTORS
330
47
102
}
330
47
100
AcDbScale
 70
     0
300
1:40
140
1.0
141
40.0
290
     0
  0
SCALE
  5
52
102
{ACAD_REACTORS
330
47
102
}
330
47
100
AcDbScale
 70
     0
300
1:50
140
1.0
141
50.0
290
     0
  0
SCALE
  5
53
102
{ACAD_REACTORS
330
47
102
}
330
47
100
AcDbScale
 70
     0
300
1:100
140
1.0
141
100.0
290
     0
  0
SCALE
  5
54
102
{ACAD_REACTORS
330
47
102
}
330
47
100
AcDbScale
 70
     0
300
2:1
140
2.0
141
1.0
290
     0
  0
SCALE
  5
55
102
{ACAD_REACTORS
330
47
102
}
330
47
100
AcDbScale
 70
     0
300
4:1
140
4.0
141
1.0
290
     0
  0
SCALE
  5
56
102
{ACAD_REACTORS
330
47
102
}
330
47
100
AcDbScale
 70
     0
300
8:1
140
8.0
141
1.0
290
     0
  0
SCALE
  5
57
102
{ACAD_REACTORS
330
47
102
}
330
47
100
AcDbScale
 70
     0
300
10:1
140
10.0
141
1.0
290
     0
  0
SCALE
  5
58
102
{ACAD_REACTORS
330
47
102
}
330
47
100
AcDbScale
 70
     0
300
100:1
140
100.0
141
1.0
290
     0
  0
SCALE
  5
59
102
{ACAD_REACTORS
330
47
102
}
330
47
100
AcDbScale
 70
     0
300
1/128" = 1'-0"
140
0.0078125
141
12.0
290
     0
  0
SCALE
  5
5A
102
{ACAD_REACTORS
330
47
102
}
330
47
100
AcDbScale
 70
     0
300
1/64" = 1'-0"
140
0.015625
141
12.0
290
     0
  0
SCALE
  5
5B
102
{ACAD_REACTORS
330
47
102
}
330
47
100
AcDbScale
 70
     0
300
1/32" = 1'-0"
140
0.03125
141
12.0
290
     0
  0
SCALE
  5
5C
102
{ACAD_REACTORS
330
47
102
}
330
47
100
AcDbScale
 70
     0
300
1/16" = 1'-0"
140
0.0625
141
12.0
290
     0
  0
SCALE
  5
5D
102
{ACAD_REACTORS
330
47
102
}
330
47
100
AcDbScale
 70
     0
300
3/32" = 1'-0"
140
0.09375
141
12.0
290
     0
  0
SCALE
  5
5E
102
{ACAD_REACTORS
330
47
102
}
330
47
100
AcDbScale
 70
     0
300
1/8" = 1'-0"
140
0.125
141
12.0
290
     0
  0
SCALE
  5
5F
102
{ACAD_REACTORS
330
47
102
}
330
47
100
AcDbScale
 70
     0
300
3/16" = 1'-0"
140
0.1875
141
12.0
290
     0
  0
SCALE
  5
60
102
{ACAD_REACTORS
330
47
102
}
330
47
100
AcDbScale
 70
     0
300
1/4" = 1'-0"
140
0.25
141
12.0
290
     0
  0
SCALE
  5
61
102
{ACAD_REACTORS
330
47
102
}
330
47
100
AcDbScale
 70
     0
300
3/8" = 1'-0"
140
0.375
141
12.0
290
     0
  0
SCALE
  5
62
102
{ACAD_REACTORS
330
47
102
}
330
47
100
AcDbScale
 70
     0
300
1/2" = 1'-0"
140
0.5
141
12.0
290
     0
  0
SCALE
  5
63
102
{ACAD_REACTORS
330
47
102
}
330
47
100
AcDbScale
 70
     0
300
3/4" = 1'-0"
140
0.75
141
12.0
290
     0
  0
SCALE
  5
64
102
{ACAD_REACTORS
330
47
102
}
330
47
100
AcDbScale
 70
     0
300
1" = 1'-0"
140
1.0
141
12.0
290
     0
  0
SCALE
  5
65
102
{ACAD_REACTORS
330
47
102
}
330
47
100
AcDbScale
 70
     0
300
1-1/2" = 1'-0"
140
1.5
141
12.0
290
     0
  0
SCALE
  5
66
102
{ACAD_REACTORS
330
47
102
}
330
47
100
AcDbScale
 70
     0
300
3" = 1'-0"
140
3.0
141
12.0
290
     0
  0
SCALE
  5
67
102
{ACAD_REACTORS
330
47
102
}
330
47
100
AcDbScale
 70
     0
300
6" = 1'-0"
140
6.0
141
12.0
290
     0
  0
SCALE
  5
68
102
{ACAD_REACTORS
330
47
102
}
330
47
100
AcDbScale
 70
     0
300
1'-0" = 1'-0"
140
12.0
141
12.0
290
     0
  0
ENDSEC
  0
EOF
