  0
SECTION
  2
HEADER
  9
$ACADVER
  1
AC1015
  9
$ACADMAINTVER
 70
     6
  9
$DWGCODEPAGE
  3
ANSI_949
  9
$INSBASE
 10
0.0
 20
0.0
 30
0.0
  9
$EXTMIN
 10
-54.38760701807635
 20
-49.98438634254138
 30
0.0
  9
$EXTMAX
 10
56.70325986428332
 20
59.08170173446226
 30
0.0
  9
$LIMMIN
 10
0.0
 20
0.0
  9
$LIMMAX
 10
420.0
 20
297.0
  9
$ORTHOMODE
 70
     1
  9
$REGENMODE
 70
     1
  9
$FILLMODE
 70
     1
  9
$QTEXTMODE
 70
     0
  9
$MIRRTEXT
 70
     1
  9
$LTSCALE
 40
1.0
  9
$ATTMODE
 70
     1
  9
$TEXTSIZE
 40
3.5
  9
$TRACEWID
 40
1.0
  9
$TEXTSTYLE
  7
Standard
  9
$CLAYER
  8
0
  9
$CELTYPE
  6
ByLayer
  9
$CECOLOR
 62
   256
  9
$CELTSCALE
 40
1.0
  9
$DISPSILH
 70
     0
  9
$DIMSCALE
 40
1.0
  9
$DIMASZ
 40
3.302
  9
$DIMEXO
 40
1.0
  9
$DIMDLI
 40
3.75
  9
$DIMRND
 40
0.0
  9
$DIMDLE
 40
0.0
  9
$DIMEXE
 40
1.0
  9
$DIMTP
 40
0.0
  9
$DIMTM
 40
0.0
  9
$DIMTXT
 40
3.5
  9
$DIMCEN
 40
2.5
  9
$DIMTSZ
 40
0.0
  9
$DIMTOL
 70
     0
  9
$DIMLIM
 70
     0
  9
$DIMTIH
 70
     1
  9
$DIMTOH
 70
     1
  9
$DIMSE1
 70
     0
  9
$DIMSE2
 70
     0
  9
$DIMTAD
 70
     1
  9
$DIMZIN
 70
     0
  9
$DIMBLK
  1

  9
$DIMASO
 70
     1
  9
$DIMSHO
 70
     1
  9
$DIMPOST
  1

  9
$DIMAPOST
  1

  9
$DIMALT
 70
     0
  9
$DIMALTD
 70
     3
  9
$DIMALTF
 40
0.0393700787401575
  9
$DIMLFAC
 40
1.0
  9
$DIMTOFL
 70
     1
  9
$DIMTVP
 40
0.0
  9
$DIMTIX
 70
     0
  9
$DIMSOXD
 70
     0
  9
$DIMSAH
 70
     0
  9
$DIMBLK1
  1

  9
$DIMBLK2
  1

  9
$DIMSTYLE
  2
ISO-25
  9
$DIMCLRD
 70
     0
  9
$DIMCLRE
 70
     0
  9
$DIMCLRT
 70
     0
  9
$DIMTFAC
 40
1.0
  9
$DIMGAP
 40
1.524
  9
$DIMJUST
 70
     0
  9
$DIMSD1
 70
     0
  9
$DIMSD2
 70
     0
  9
$DIMTOLJ
 70
     0
  9
$DIMTZIN
 70
     0
  9
$DIMALTZ
 70
     0
  9
$DIMALTTZ
 70
     0
  9
$DIMUPT
 70
     0
  9
$DIMDEC
 70
     2
  9
$DIMTDEC
 70
     2
  9
$DIMALTU
 70
     2
  9
$DIMALTTD
 70
     3
  9
$DIMTXSTY
  7
Standard
  9
$DIMAUNIT
 70
     0
  9
$DIMADEC
 70
     2
  9
$DIMALTRND
 40
0.0
  9
$DIMAZIN
 70
     0
  9
$DIMDSEP
 70
    44
  9
$DIMATFIT
 70
     3
  9
$DIMFRAC
 70
     0
  9
$DIMLDRBLK
  1

  9
$DIMLUNIT
 70
     2
  9
$DIMLWD
 70
    -2
  9
$DIMLWE
 70
    -2
  9
$DIMTMOVE
 70
     0
  9
$LUNITS
 70
     2
  9
$LUPREC
 70
     2
  9
$SKETCHINC
 40
1.0
  9
$FILLETRAD
 40
10.0
  9
$AUNITS
 70
     0
  9
$AUPREC
 70
     2
  9
$MENU
  1
.
  9
$ELEVATION
 40
0.0
  9
$PELEVATION
 40
0.0
  9
$THICKNESS
 40
0.0
  9
$LIMCHECK
 70
     0
  9
$CHAMFERA
 40
0.0
  9
$CHAMFERB
 40
0.0
  9
$CHAMFERC
 40
0.0
  9
$CHAMFERD
 40
0.0
  9
$SKPOLY
 70
     0
  9
$TDCREATE
 40
2458340.592982662
  9
$TDUCREATE
 40
2458340.217982662
  9
$TDUPDATE
 40
2458341.449341782
  9
$TDUUPDATE
 40
2458341.074341782
  9
$TDINDWG
 40
0.0057581713
  9
$TDUSRTIMER
 40
2458341.06075294
  9
$USRTIMER
 70
     1
  9
$ANGBASE
 50
0.0
  9
$ANGDIR
 70
     0
  9
$PDMODE
 70
     0
  9
$PDSIZE
 40
-1.0
  9
$PLINEWID
 40
0.0
  9
$SPLFRAME
 70
     0
  9
$SPLINETYPE
 70
     6
  9
$SPLINESEGS
 70
     8
  9
$HANDSEED
  5
195
  9
$SURFTAB1
 70
     6
  9
$SURFTAB2
 70
     6
  9
$SURFTYPE
 70
     6
  9
$SURFU
 70
     6
  9
$SURFV
 70
     6
  9
$UCSBASE
  2

  9
$UCSNAME
  2

  9
$UCSORG
 10
0.0
 20
0.0
 30
0.0
  9
$UCSXDIR
 10
1.0
 20
0.0
 30
0.0
  9
$UCSYDIR
 10
0.0
 20
1.0
 30
0.0
  9
$UCSORTHOREF
  2

  9
$UCSORTHOVIEW
 70
     0
  9
$UCSORGTOP
 10
0.0
 20
0.0
 30
0.0
  9
$UCSORGBOTTOM
 10
0.0
 20
0.0
 30
0.0
  9
$UCSORGLEFT
 10
0.0
 20
0.0
 30
0.0
  9
$UCSORGRIGHT
 10
0.0
 20
0.0
 30
0.0
  9
$UCSORGFRONT
 10
0.0
 20
0.0
 30
0.0
  9
$UCSORGBACK
 10
0.0
 20
0.0
 30
0.0
  9
$PUCSBASE
  2

  9
$PUCSNAME
  2

  9
$PUCSORG
 10
0.0
 20
0.0
 30
0.0
  9
$PUCSXDIR
 10
1.0
 20
0.0
 30
0.0
  9
$PUCSYDIR
 10
0.0
 20
1.0
 30
0.0
  9
$PUCSORTHOREF
  2

  9
$PUCSORTHOVIEW
 70
     0
  9
$PUCSORGTOP
 10
0.0
 20
0.0
 30
0.0
  9
$PUCSORGBOTTOM
 10
0.0
 20
0.0
 30
0.0
  9
$PUCSORGLEFT
 10
0.0
 20
0.0
 30
0.0
  9
$PUCSORGRIGHT
 10
0.0
 20
0.0
 30
0.0
  9
$PUCSORGFRONT
 10
0.0
 20
0.0
 30
0.0
  9
$PUCSORGBACK
 10
0.0
 20
0.0
 30
0.0
  9
$USERI1
 70
     0
  9
$USERI2
 70
     0
  9
$USERI3
 70
     0
  9
$USERI4
 70
     0
  9
$USERI5
 70
     0
  9
$USERR1
 40
0.0
  9
$USERR2
 40
0.0
  9
$USERR3
 40
0.0
  9
$USERR4
 40
0.0
  9
$USERR5
 40
0.0
  9
$WORLDVIEW
 70
     1
  9
$SHADEDGE
 70
     3
  9
$SHADEDIF
 70
    70
  9
$TILEMODE
 70
     1
  9
$MAXACTVP
 70
    64
  9
$PINSBASE
 10
0.0
 20
0.0
 30
0.0
  9
$PLIMCHECK
 70
     0
  9
$PEXTMIN
 10
1.000000000000000E+20
 20
1.000000000000000E+20
 30
1.000000000000000E+20
  9
$PEXTMAX
 10
-1.000000000000000E+20
 20
-1.000000000000000E+20
 30
-1.000000000000000E+20
  9
$PLIMMIN
 10
0.0
 20
0.0
  9
$PLIMMAX
 10
0.0
 20
0.0
  9
$UNITMODE
 70
     0
  9
$VISRETAIN
 70
     1
  9
$PLINEGEN
 70
     0
  9
$PSLTSCALE
 70
     1
  9
$TREEDEPTH
 70
  3020
  9
$CMLSTYLE
  2
Standard
  9
$CMLJUST
 70
     0
  9
$CMLSCALE
 40
20.0
  9
$PROXYGRAPHICS
 70
     1
  9
$MEASUREMENT
 70
     1
  9
$CELWEIGHT
370
    -1
  9
$ENDCAPS
280
     0
  9
$JOINSTYLE
280
     0
  9
$LWDISPLAY
290
     1
  9
$INSUNITS
 70
     4
  9
$HYPERLINKBASE
  1

  9
$STYLESHEET
  1

  9
$XEDIT
290
     1
  9
$CEPSNTYPE
380
     0
  9
$PSTYLEMODE
290
     1
  9
$FINGERPRINTGUID
  2
{8DC88F0D-9EEC-455C-894D-B68E283AA299}
  9
$VERSIONGUID
  2
{FAEB1C32-E019-11D5-929B-00C0DF256EC4}
  9
$EXTNAMES
290
     1
  9
$PSVPSCALE
 40
0.0
  9
$OLESTARTUP
290
     0
  0
ENDSEC
  0
SECTION
  2
CLASSES
  0
CLASS
  1
ACDBDICTIONARYWDFLT
  2
AcDbDictionaryWithDefault
  3
ObjectDBX Classes
 90
        0
280
     0
281
     0
  0
CLASS
  1
VISUALSTYLE
  2
AcDbVisualStyle
  3
ObjectDBX Classes
 90
     4095
280
     0
281
     0
  0
CLASS
  1
MATERIAL
  2
AcDbMaterial
  3
ObjectDBX Classes
 90
     1153
280
     0
281
     0
  0
CLASS
  1
SCALE
  2
AcDbScale
  3
ObjectDBX Classes
 90
     1153
280
     0
281
     0
  0
CLASS
  1
SUN
  2
AcDbSun
  3
SCENEOE
 90
     1153
280
     0
281
     0
  0
CLASS
  1
ACDBPLACEHOLDER
  2
AcDbPlaceHolder
  3
ObjectDBX Classes
 90
        0
280
     0
281
     0
  0
CLASS
  1
LAYOUT
  2
AcDbLayout
  3
ObjectDBX Classes
 90
        0
280
     0
281
     0
  0
CLASS
  1
TABLESTYLE
  2
AcDbTableStyle
  3
ObjectDBX Classes
 90
     4095
280
     0
281
     0
  0
CLASS
  1
MLEADERSTYLE
  2
AcDbMLeaderStyle
  3
ACDB_MLEADERSTYLE_CLASS
 90
     4095
280
     0
281
     0
  0
CLASS
  1
RASTERVARIABLES
  2
AcDbRasterVariables
  3
ISM
 90
        0
280
     0
281
     0
  0
CLASS
  1
DIMASSOC
  2
AcDbDimAssoc
  3
"AcDbDimAssoc|Product Desc:     AcDim ARX App For Dimension|Company:          Autodesk, Inc.|WEB Address:      www.autodesk.com"
 90
        0
280
     0
281
     0
  0
CLASS
  1
DICTIONARYVAR
  2
AcDbDictionaryVar
  3
ObjectDBX Classes
 90
        0
280
     0
281
     0
  0
ENDSEC
  0
SECTION
  2
TABLES
  0
TABLE
  2
VPORT
  5
8
330
0
100
AcDbSymbolTable
 70
     1
  0
VPORT
  5
29
330
8
100
AcDbSymbolTableRecord
100
AcDbViewportTableRecord
  2
*Active
 70
     0
 10
0.0
 20
0.0
 11
1.0
 21
1.0
 12
13.47786071561897
 22
6.006793943178359
 13
0.0
 23
0.0
 14
10.0
 24
10.0
 15
10.0
 25
10.0
 16
0.0
 26
0.0
 36
1.0
 17
0.0
 27
0.0
 37
0.0
 40
118.9013349118232
 41
1.444267515923567
 42
50.0
 43
0.0
 44
0.0
 50
0.0
 51
0.0
 71
    16
 72
  2000
 73
     1
 74
     3
 75
     0
 76
     0
 77
     0
 78
     0
281
     0
 65
     1
110
0.0
120
0.0
130
0.0
111
1.0
121
0.0
131
0.0
112
0.0
122
1.0
132
0.0
 79
     0
146
0.0
  0
ENDTAB
  0
TABLE
  2
LTYPE
  5
5
330
0
100
AcDbSymbolTable
 70
     6
  0
LTYPE
  5
14
330
5
100
AcDbSymbolTableRecord
100
AcDbLinetypeTableRecord
  2
ByBlock
 70
     0
  3

 72
    65
 73
     0
 40
0.0
  0
LTYPE
  5
15
330
5
100
AcDbSymbolTableRecord
100
AcDbLinetypeTableRecord
  2
ByLayer
 70
     0
  3

 72
    65
 73
     0
 40
0.0
  0
LTYPE
  5
16
330
5
100
AcDbSymbolTableRecord
100
AcDbLinetypeTableRecord
  2
Continuous
 70
     0
  3
Solid line
 72
    65
 73
     0
 40
0.0
  0
LTYPE
  5
6A
330
5
100
AcDbSymbolTableRecord
100
AcDbLinetypeTableRecord
  2
HIDDEN
 70
     0
  3
Hidden __ __ __ __ __ __ __ __ __ __ __ __ __ __
 72
    65
 73
     2
 40
1.905
 49
1.27
 74
     0
 49
-0.635
 74
     0
  0
LTYPE
  5
6B
330
5
100
AcDbSymbolTableRecord
100
AcDbLinetypeTableRecord
  2
PHANTOM
 70
     0
  3
Phantom ______  __  __  ______  __  __  ______
 72
    65
 73
     6
 40
12.7
 49
6.35
 74
     0
 49
-1.27
 74
     0
 49
1.27
 74
     0
 49
-1.27
 74
     0
 49
1.27
 74
     0
 49
-1.27
 74
     0
  0
LTYPE
  5
6C
330
5
100
AcDbSymbolTableRecord
100
AcDbLinetypeTableRecord
  2
CENTER
 70
     0
  3
Center ____ _ ____ _ ____ _ ____ _ ____ _ ____
 72
    65
 73
     4
 40
10.16
 49
6.35
 74
     0
 49
-1.27
 74
     0
 49
1.27
 74
     0
 49
-1.27
 74
     0
  0
LTYPE
  5
6D
330
5
100
AcDbSymbolTableRecord
100
AcDbLinetypeTableRecord
  2
CENTERX2
 70
     0
  3
Center (2x) ________  __  ________  __  _____
 72
    65
 73
     4
 40
20.32
 49
12.7
 74
     0
 49
-2.54
 74
     0
 49
2.54
 74
     0
 49
-2.54
 74
     0
  0
LTYPE
  5
6E
330
5
100
AcDbSymbolTableRecord
100
AcDbLinetypeTableRecord
  2
DOT2
 70
     0
  3
Dot (.5x) ........................................
 72
    65
 73
     2
 40
0.635
 49
0.0
 74
     0
 49
-0.635
 74
     0
  0
ENDTAB
  0
TABLE
  2
LAYER
  5
2
330
0
100
AcDbSymbolTable
 70
    17
  0
LAYER
  5
10
330
2
100
AcDbSymbolTableRecord
100
AcDbLayerTableRecord
  2
0
 70
     0
 62
     7
  6
Continuous
370
    -3
390
F
  0
LAYER
  5
6F
330
2
100
AcDbSymbolTableRecord
100
AcDbLayerTableRecord
  2
FORMAT
 70
     0
 62
     2
  6
Continuous
370
    -3
390
F
  0
LAYER
  5
70
330
2
100
AcDbSymbolTableRecord
100
AcDbLayerTableRecord
  2
외형선
 70
     0
 62
   100
  6
Continuous
370
    30
390
F
  0
LAYER
  5
71
330
2
100
AcDbSymbolTableRecord
100
AcDbLayerTableRecord
  2
숨은선
 70
     0
 62
     2
  6
HIDDEN
370
    15
390
F
  0
LAYER
  5
72
330
2
100
AcDbSymbolTableRecord
100
AcDbLayerTableRecord
  2
중심선
 70
     0
 62
     1
  6
CENTERX2
370
    -3
390
F
  0
LAYER
  5
73
330
2
100
AcDbSymbolTableRecord
100
AcDbLayerTableRecord
  2
파단선
 70
     0
 62
     4
  6
Continuous
370
    -3
390
F
  0
LAYER
  5
74
330
2
100
AcDbSymbolTableRecord
100
AcDbLayerTableRecord
  2
해칭선
 70
     0
 62
     4
  6
Continuous
370
    -3
390
F
  0
LAYER
  5
75
330
2
100
AcDbSymbolTableRecord
100
AcDbLayerTableRecord
  2
가는실선
 70
     0
 62
     4
  6
Continuous
370
    -3
390
F
  0
LAYER
  5
76
330
2
100
AcDbSymbolTableRecord
100
AcDbLayerTableRecord
  2
치수_보조선
 70
     0
 62
     4
  6
Continuous
370
    -3
390
F
  0
LAYER
  5
77
330
2
100
AcDbSymbolTableRecord
100
AcDbLayerTableRecord
  2
치수문자_일반주서
 70
     0
 62
     7
  6
Continuous
370
    15
390
F
  0
LAYER
  5
78
330
2
100
AcDbSymbolTableRecord
100
AcDbLayerTableRecord
  2
개별주서
 70
     0
 62
   100
  6
Continuous
370
    30
390
F
  0
LAYER
  5
79
330
2
100
AcDbSymbolTableRecord
100
AcDbLayerTableRecord
  2
중간선
 70
     0
 62
     2
  6
Continuous
370
    15
390
F
  0
LAYER
  5
7A
330
2
100
AcDbSymbolTableRecord
100
AcDbLayerTableRecord
  2
윤곽선
 70
     0
 62
     3
  6
Continuous
370
    40
390
F
  0
LAYER
  5
7B
330
2
100
AcDbSymbolTableRecord
100
AcDbLayerTableRecord
  2
중심마크
 70
     0
 62
   100
  6
Continuous
370
    30
390
F
  0
LAYER
  5
7C
330
2
100
AcDbSymbolTableRecord
100
AcDbLayerTableRecord
  2
가상선
 70
     0
 62
     4
  6
PHANTOM
370
    -3
390
F
  0
LAYER
  5
7D
330
2
100
AcDbSymbolTableRecord
100
AcDbLayerTableRecord
  2
특수지정선
 70
     0
 62
     5
  6
CENTERX2
370
    60
390
F
  0
LAYER
  5
14F
330
2
100
AcDbSymbolTableRecord
100
AcDbLayerTableRecord
  2
Defpoints
 70
     0
 62
     7
  6
Continuous
290
     0
370
    -3
390
F
  0
ENDTAB
  0
TABLE
  2
STYLE
  5
3
330
0
100
AcDbSymbolTable
 70
     2
  0
STYLE
  5
11
330
3
100
AcDbSymbolTableRecord
100
AcDbTextStyleTableRecord
  2
Standard
 70
     0
 40
0.0
 41
1.0
 50
0.0
 71
     0
 42
3.5
  3
txt
  4

  0
STYLE
  5
93
330
3
100
AcDbSymbolTableRecord
100
AcDbTextStyleTableRecord
  2
SLDTEXTSTYLE0
 70
     0
 40
0.0
 41
0.75
 50
0.0
 71
     0
 42
3.5
  3
TXT
  4

  0
ENDTAB
  0
TABLE
  2
VIEW
  5
6
330
0
100
AcDbSymbolTable
 70
     0
  0
ENDTAB
  0
TABLE
  2
UCS
  5
7
330
0
100
AcDbSymbolTable
 70
     0
  0
ENDTAB
  0
TABLE
  2
APPID
  5
9
330
0
100
AcDbSymbolTable
 70
     2
  0
APPID
  5
12
330
9
100
AcDbSymbolTableRecord
100
AcDbRegAppTableRecord
  2
ACAD
 70
     0
  0
APPID
  5
169
330
9
100
AcDbSymbolTableRecord
100
AcDbRegAppTableRecord
  2
PE_DIMMEASUREMENT
 70
     0
  0
ENDTAB
  0
TABLE
  2
DIMSTYLE
  5
A
330
0
100
AcDbSymbolTable
 70
     4
100
AcDbDimStyleTable
  0
DIMSTYLE
105
27
330
A
100
AcDbSymbolTableRecord
100
AcDbDimStyleTableRecord
  2
ISO-25
 70
     0
 41
2.5
 42
0.625
 43
3.75
 44
1.25
 73
     0
 74
     0
 77
     1
 78
     8
140
2.5
141
2.5
143
0.03937007874016
147
0.625
171
     3
172
     1
178
     0
271
     2
272
     2
274
     3
278
    44
283
     0
284
     8
340
11
  0
DIMSTYLE
105
EC
102
{ACAD_REACTORS
330
EB
330
150
330
16E
330
181
102
}
330
A
100
AcDbSymbolTableRecord
100
AcDbDimStyleTableRecord
  2
SLDDIMSTYLE0
 70
     0
 41
3.302
 44
0.0
 45
0.000000001
 73
     0
 74
     0
 77
     1
 78
    12
 79
     3
140
3.5
143
0.0393700787401575
147
0.875
148
0.000000001
170
     1
173
     1
178
     0
271
     2
272
     2
276
     2
284
    12
340
93
  0
DIMSTYLE
105
100
102
{ACAD_REACTORS
330
FF
102
}
330
A
100
AcDbSymbolTableRecord
100
AcDbDimStyleTableRecord
  2
SLDDIMSTYLE1
 70
     0
 41
3.302
 44
0.0
 45
0.000000001
 73
     0
 74
     0
 77
     1
 78
     4
 79
     1
140
3.5
143
0.0393700787401575
147
0.875
148
0.000000001
170
     1
173
     1
178
     0
271
     2
272
     2
276
     2
284
    12
340
93
  0
DIMSTYLE
105
114
330
A
100
AcDbSymbolTableRecord
100
AcDbDimStyleTableRecord
  2
SLDDIMSTYLE2
 70
     0
 41
3.302
 44
0.0
 45
0.000000001
 73
     0
 74
     0
 77
     1
 78
     8
 79
     2
140
3.5
143
0.0393700787401575
147
0.875
148
0.000000001
170
     1
172
     1
173
     1
178
     0
271
     2
272
     2
276
     2
284
    12
289
     0
340
93
341
115
343
115
344
115
  0
ENDTAB
  0
TABLE
  2
BLOCK_RECORD
  5
1
330
0
100
AcDbSymbolTable
 70
    10
  0
BLOCK_RECORD
  5
1F
330
1
100
AcDbSymbolTableRecord
100
AcDbBlockTableRecord
  2
*Model_Space
340
22
  0
BLOCK_RECORD
  5
1B
330
1
100
AcDbSymbolTableRecord
100
AcDbBlockTableRecord
  2
*Paper_Space
340
1E
  0
BLOCK_RECORD
  5
23
330
1
100
AcDbSymbolTableRecord
100
AcDbBlockTableRecord
  2
*Paper_Space0
340
26
  0
BLOCK_RECORD
  5
7E
330
1
100
AcDbSymbolTableRecord
100
AcDbBlockTableRecord
  2
블럭10
340
0
102
{BLKREFS
331
E4
102
}
  0
BLOCK_RECORD
  5
ED
330
1
100
AcDbSymbolTableRecord
100
AcDbBlockTableRecord
  2
_D
340
0
  0
BLOCK_RECORD
  5
101
330
1
100
AcDbSymbolTableRecord
100
AcDbBlockTableRecord
  2
_D_1
340
0
  0
BLOCK_RECORD
  5
115
330
1
100
AcDbSymbolTableRecord
100
AcDbBlockTableRecord
  2
_NONE
340
0
  0
BLOCK_RECORD
  5
118
330
1
100
AcDbSymbolTableRecord
100
AcDbBlockTableRecord
  2
_D_2
340
0
  0
BLOCK_RECORD
  5
124
330
1
100
AcDbSymbolTableRecord
100
AcDbBlockTableRecord
  2
SW_DOWELSYMBOL_0
340
0
102
{BLKREFS
331
12A
102
}
  0
BLOCK_RECORD
  5
153
330
1
100
AcDbSymbolTableRecord
100
AcDbBlockTableRecord
  2
*D7
340
0
  0
BLOCK_RECORD
  5
171
330
1
100
AcDbSymbolTableRecord
100
AcDbBlockTableRecord
  2
*D8
340
0
  0
BLOCK_RECORD
  5
184
330
1
100
AcDbSymbolTableRecord
100
AcDbBlockTableRecord
  2
*D9
340
0
  0
ENDTAB
  0
ENDSEC
  0
SECTION
  2
BLOCKS
  0
BLOCK
  5
20
330
1F
100
AcDbEntity
  8
0
100
AcDbBlockBegin
  2
*Model_Space
 70
     0
 10
0.0
 20
0.0
 30
0.0
  3
*Model_Space
  1
*Model_Space
  0
ENDBLK
  5
21
330
1F
100
AcDbEntity
  8
0
100
AcDbBlockEnd
  0
BLOCK
  5
1C
330
1B
100
AcDbEntity
 67
     1
  8
0
100
AcDbBlockBegin
  2
*Paper_Space
 70
     0
 10
0.0
 20
0.0
 30
0.0
  3
*Paper_Space
  1
*Paper_Space
  0
ENDBLK
  5
1D
330
1B
100
AcDbEntity
 67
     1
  8
0
100
AcDbBlockEnd
  0
BLOCK
  5
24
330
23
100
AcDbEntity
  8
0
100
AcDbBlockBegin
  2
*Paper_Space0
 70
     0
 10
0.0
 20
0.0
 30
0.0
  3
*Paper_Space0
  1
*Paper_Space0
  0
ENDBLK
  5
25
330
23
100
AcDbEntity
  8
0
100
AcDbBlockEnd
  0
BLOCK
  5
7F
330
7E
100
AcDbEntity
  8
0
100
AcDbBlockBegin
  2
블럭10
 70
     2
 10
0.0
 20
0.0
 30
0.0
  3
블럭10
  1
블럭10
  0
ELLIPSE
  5
81
330
7E
100
AcDbEntity
  8
중심선
100
AcDbEllipse
 10
20.54032771741204
 20
12.0471743016438
 30
0.0
 11
6.600054785286829
 21
-1.261213355974178E-13
 31
0.0
210
0.0
220
0.0
230
1.0
 40
0.636358354079598
 41
0.9219305317359503
 42
6.513795318482858
  0
ELLIPSE
  5
82
330
7E
100
AcDbEntity
  8
중심선
100
AcDbEllipse
 10
20.54032771746488
 20
12.04717430159265
 30
0.0
 11
3.960054785062283
 21
1.540847449632565E-10
 31
0.0
210
0.0
220
0.0
230
1.0
 40
0.3939339440162632
 41
1.131841032648279
 42
5.62031148352944
  0
LINE
  5
83
330
7E
100
AcDbEntity
  8
중심선
100
AcDbLine
 10
2.268634060543552
 20
16.24717430164393
 30
0.0
 11
5.714909304380834
 21
16.24717430164393
 31
0.0
  0
LINE
  5
84
330
7E
100
AcDbEntity
  8
중심선
100
AcDbLine
 10
5.245725140726316
 20
7.84717430164391
 30
0.0
 11
8.692000384563599
 21
7.84717430164391
 31
0.0
  0
LINE
  5
85
330
7E
100
AcDbEntity
  8
중심선
100
AcDbLine
 10
15.74043728645272
 20
16.24717430164393
 30
0.0
 11
8.692000384563599
 21
7.84717430164391
 31
0.0
  0
LINE
  5
86
330
7E
100
AcDbEntity
  8
중심선
100
AcDbLine
 10
0.1404042013395286
 20
13.71084872107135
 30
0.0
 11
3.58671253028996
 21
13.71088815037384
 31
0.0
  0
LINE
  5
87
330
7E
100
AcDbEntity
  8
중심선
100
AcDbLine
 10
2.750260043222114
 20
10.84717430164391
 30
0.0
 11
6.196535287059397
 21
10.84717430164391
 31
0.0
  0
LINE
  5
88
330
7E
100
AcDbEntity
  8
중심선
100
AcDbLine
 10
12.29416204261559
 20
16.24717430164393
 30
0.0
 11
5.245725140726316
 21
7.84717430164391
 31
0.0
  0
LINE
  5
89
330
7E
100
AcDbEntity
  8
중심선
100
AcDbLine
 10
10.72767329541681
 20
16.24717430164393
 30
0.0
 11
6.196535287059397
 21
10.84717430164391
 31
0.0
  0
LINE
  5
8A
330
7E
100
AcDbEntity
  8
중심선
100
AcDbLine
 10
7.28139805157953
 20
16.24717430164393
 30
0.0
 11
2.750260043222114
 21
10.84717430164391
 31
0.0
  0
LINE
  5
8B
330
7E
100
AcDbEntity
  8
중심선
100
AcDbLine
 10
5.714909304380834
 20
16.24717430164393
 30
0.0
 11
3.58671253028996
 21
13.71088815037384
 31
0.0
  0
LINE
  5
8C
330
7E
100
AcDbEntity
  8
중심선
100
AcDbLine
 10
2.268634060543552
 20
16.24717430164393
 30
0.0
 11
0.1404042013395286
 21
13.71084872107135
 31
0.0
  0
LINE
  5
8D
330
7E
100
AcDbEntity
  8
중심선
100
AcDbLine
 10
7.28139805157953
 20
16.24717430164393
 30
0.0
 11
10.72767329541681
 21
16.24717430164393
 31
0.0
  0
LINE
  5
8E
330
7E
100
AcDbEntity
  8
중심선
100
AcDbLine
 10
12.29416204261559
 20
16.24717430164393
 30
0.0
 11
15.74043728645272
 21
16.24717430164393
 31
0.0
  0
LINE
  5
8F
330
7E
100
AcDbEntity
  8
중심선
100
AcDbLine
 10
19.22036997980202
 20
11.08717430171403
 30
0.0
 11
23.66174974927406
 21
11.08717430171406
 31
0.0
  0
LINE
  5
90
330
7E
100
AcDbEntity
  8
중심선
100
AcDbLine
 10
19.22039502424796
 20
13.00717430171391
 30
0.0
 11
19.22036997980202
 21
11.08717430171403
 31
0.0
  0
LINE
  5
91
330
7E
100
AcDbEntity
  8
중심선
100
AcDbLine
 10
19.22039502424796
 20
13.00717430171391
 30
0.0
 11
26.96566020931264
 21
13.00717430171391
 31
0.0
  0
LINE
  5
92
330
7E
100
AcDbEntity
  8
중심선
100
AcDbLine
 10
22.22332737316547
 20
13.45928029700563
 30
0.0
 11
24.52862924686651
 21
15.39360700705356
 31
0.0
  0
ATTDEF
  5
94
330
7E
100
AcDbEntity
  8
FORMAT
 62
     2
100
AcDbText
 10
-9.18129528874128
 20
2.075366912832191
 30
0.0
 40
4.233333333333333
  1
E5078208 [ 3 FLUTE ]
 41
0.75
  7
SLDTEXTSTYLE0
 11
-9.18129528874128
 21
-0.0412997538344756
 31
0.0
100
AcDbAttributeDefinition
  3

  2
AUTOATTR0
 70
     0
 74
     1
  0
ENDBLK
  5
80
330
7E
100
AcDbEntity
  8
0
100
AcDbBlockEnd
  0
BLOCK
  5
EE
330
ED
100
AcDbEntity
  8
0
100
AcDbBlockBegin
  2
_D
 70
     0
 10
0.0
 20
0.0
 30
0.0
  3
_D
  1
_D
  0
LINE
  5
F0
330
ED
100
AcDbEntity
  8
치수문자_일반주서
 62
     0
370
    -2
100
AcDbLine
 10
45.17339719083184
 20
1.649999999999999
 30
0.0
 11
45.17339719083184
 21
42.28643490290873
 31
0.0
  0
LINE
  5
F1
330
ED
100
AcDbEntity
  8
치수문자_일반주서
 62
     0
370
    -2
100
AcDbLine
 10
13.42339719083184
 20
3.546175262632624
 30
0.0
 11
13.42339719083184
 21
42.28643490290873
 31
0.0
  0
LINE
  5
F2
330
ED
100
AcDbEntity
  8
치수문자_일반주서
 62
     0
370
    -2
100
AcDbLine
 10
41.87139719083184
 20
42.28643490290873
 30
0.0
 11
16.72539719083184
 21
42.28643490290873
 31
0.0
  0
SOLID
  5
F3
330
ED
100
AcDbEntity
  8
치수문자_일반주서
 62
     0
100
AcDbTrace
 10
41.87139719083184
 20
41.7361015695754
 30
0.0
 11
41.87139719083184
 21
42.83676823624207
 31
0.0
 12
45.17339719083184
 22
42.28643490290873
 32
0.0
 13
45.17339719083184
 23
42.28643490290873
 33
0.0
  0
SOLID
  5
F4
330
ED
100
AcDbEntity
  8
치수문자_일반주서
 62
     0
100
AcDbTrace
 10
16.72539719083184
 20
42.83676823624207
 30
0.0
 11
16.72539719083184
 21
41.7361015695754
 31
0.0
 12
13.42339719083184
 22
42.28643490290873
 32
0.0
 13
13.42339719083184
 23
42.28643490290873
 33
0.0
  0
MTEXT
  5
F5
330
ED
100
AcDbEntity
  8
치수문자_일반주서
 62
     0
100
AcDbMText
 10
29.29839719083184
 20
46.66143490290873
 30
0.0
 40
3.5
 41
0.0
 71
     2
 72
     1
  1
\A1;31.75 [1 1/4]
  7
SLDTEXTSTYLE0
 73
     1
 44
1.0
  0
POINT
  5
F6
330
ED
100
AcDbEntity
  8
Defpoints
 62
     0
100
AcDbPoint
 10
45.17339719083184
 20
1.587499999999999
 30
0.0
  0
POINT
  5
F7
330
ED
100
AcDbEntity
  8
Defpoints
 62
     0
100
AcDbPoint
 10
13.42339719083184
 20
3.483675262632624
 30
0.0
  0
POINT
  5
F8
330
ED
100
AcDbEntity
  8
Defpoints
 62
     0
100
AcDbPoint
 10
13.42339719083184
 20
42.28643490290873
 30
0.0
  0
ENDBLK
  5
EF
330
ED
100
AcDbEntity
  8
0
100
AcDbBlockEnd
  0
BLOCK
  5
102
330
101
100
AcDbEntity
  8
0
100
AcDbBlockBegin
  2
_D_1
 70
     0
 10
0.0
 20
0.0
 30
0.0
  3
_D_1
  1
_D_1
  0
LINE
  5
104
330
101
100
AcDbEntity
  8
치수문자_일반주서
 62
     0
370
    -2
100
AcDbLine
 10
45.17339719083184
 20
1.712499999999999
 30
0.0
 11
45.17339719083184
 21
54.70670173446225
 31
0.0
  0
LINE
  5
105
330
101
100
AcDbEntity
  8
치수문자_일반주서
 62
     0
370
    -2
100
AcDbLine
 10
-31.02660280916817
 20
2.427499999999999
 30
0.0
 11
-31.02660280916817
 21
54.70670173446225
 31
0.0
  0
LINE
  5
106
330
101
100
AcDbEntity
  8
치수문자_일반주서
 62
     0
370
    -2
100
AcDbLine
 10
41.87139719083184
 20
54.70670173446225
 30
0.0
 11
-27.72460280916817
 21
54.70670173446225
 31
0.0
  0
SOLID
  5
107
330
101
100
AcDbEntity
  8
치수문자_일반주서
 62
     0
100
AcDbTrace
 10
41.87139719083184
 20
54.15636840112892
 30
0.0
 11
41.87139719083184
 21
55.25703506779558
 31
0.0
 12
45.17339719083184
 22
54.70670173446225
 32
0.0
 13
45.17339719083184
 23
54.70670173446225
 33
0.0
  0
SOLID
  5
108
330
101
100
AcDbEntity
  8
치수문자_일반주서
 62
     0
100
AcDbTrace
 10
-27.72460280916817
 20
55.25703506779558
 30
0.0
 11
-27.72460280916817
 21
54.15636840112892
 31
0.0
 12
-31.02660280916817
 22
54.70670173446225
 32
0.0
 13
-31.02660280916817
 23
54.70670173446225
 33
0.0
  0
MTEXT
  5
109
330
101
100
AcDbEntity
  8
치수문자_일반주서
 62
     0
100
AcDbMText
 10
8.777383041077778
 20
59.08170173446225
 30
0.0
 40
3.5
 41
0.0
 71
     2
 72
     1
  1
\A1;76.20 [3]
  7
SLDTEXTSTYLE0
 73
     1
 44
1.0
  0
POINT
  5
10A
330
101
100
AcDbEntity
  8
Defpoints
 62
     0
100
AcDbPoint
 10
45.17339719083184
 20
1.649999999999999
 30
0.0
  0
POINT
  5
10B
330
101
100
AcDbEntity
  8
Defpoints
 62
     0
100
AcDbPoint
 10
-31.02660280916817
 20
2.364999999999999
 30
0.0
  0
POINT
  5
10C
330
101
100
AcDbEntity
  8
Defpoints
 62
     0
100
AcDbPoint
 10
-31.02660280916817
 20
54.70670173446225
 30
0.0
  0
ENDBLK
  5
103
330
101
100
AcDbEntity
  8
0
100
AcDbBlockEnd
  0
BLOCK
  5
116
330
115
100
AcDbEntity
  8
0
100
AcDbBlockBegin
  2
_NONE
 70
     0
 10
0.0
 20
0.0
 30
0.0
  3
_NONE
  1
_NONE
  0
ENDBLK
  5
117
330
115
100
AcDbEntity
  8
0
100
AcDbBlockEnd
  0
BLOCK
  5
119
330
118
100
AcDbEntity
  8
0
100
AcDbBlockBegin
  2
_D_2
 70
     0
 10
0.0
 20
0.0
 30
0.0
  3
_D_2
  1
_D_2
  0
LINE
  5
11B
330
118
100
AcDbEntity
  8
치수문자_일반주서
100
AcDbLine
 10
-55.73488171604274
 20
-8.58936643106869
 30
0.0
 11
-55.73488171604273
 21
-9.30030391663319
 31
0.0
  0
LINE
  5
11C
330
118
100
AcDbEntity
  8
치수문자_일반주서
100
AcDbLine
 10
-55.73488171604273
 20
-9.30030391663319
 30
0.0
 11
-50.17863172498343
 21
-9.300303916633151
 31
0.0
  0
LINE
  5
11D
330
118
100
AcDbEntity
  8
치수문자_일반주서
100
AcDbLine
 10
-50.17863172498343
 20
-9.300303916633151
 30
0.0
 11
-50.17863172498343
 21
-8.589366431068651
 31
0.0
  0
LINE
  5
11E
330
118
100
AcDbEntity
  8
치수문자_일반주서
100
AcDbLine
 10
-55.73488171604281
 20
2.239366431068567
 30
0.0
 11
-55.73488171604281
 21
2.950303916633068
 31
0.0
  0
LINE
  5
11F
330
118
100
AcDbEntity
  8
치수문자_일반주서
100
AcDbLine
 10
-55.73488171604281
 20
2.950303916633068
 30
0.0
 11
-50.17863172498351
 21
2.950303916633107
 31
0.0
  0
LINE
  5
120
330
118
100
AcDbEntity
  8
치수문자_일반주서
100
AcDbLine
 10
-50.17863172498351
 20
2.950303916633107
 30
0.0
 11
-50.1786317249835
 21
2.239366431068607
 31
0.0
  0
MTEXT
  5
121
330
118
100
AcDbEntity
  8
치수문자_일반주서
100
AcDbMText
 10
-54.69036863956233
 20
-7.700694530457312
 30
0.0
 40
3.5
 41
0.0
 71
     1
 72
     1
  1
0.00
  7
SLDTEXTSTYLE0
 11
-7.044195017643634E-15
 21
1.0
 31
0.0
 73
     1
 44
1.0
  0
MTEXT
  5
122
330
118
100
AcDbEntity
  8
치수문자_일반주서
100
AcDbMText
 10
-49.45373708920187
 20
-7.107274412363787
 30
0.0
 40
3.5
 41
0.0
 71
     1
 72
     1
  1
%%c
  7
SLDTEXTSTYLE0
 11
-7.044195017643634E-15
 21
1.0
 31
0.0
 73
     1
 44
1.0
  0
MTEXT
  5
123
330
118
100
AcDbEntity
  8
치수문자_일반주서
100
AcDbMText
 10
-49.4537370892019
 20
-1.828837013989705
 30
0.0
 40
3.5
 41
0.0
 71
     1
 72
     1
  1
0
  7
SLDTEXTSTYLE0
 11
-7.044195017643634E-15
 21
1.0
 31
0.0
 73
     1
 44
1.0
  0
ENDBLK
  5
11A
330
118
100
AcDbEntity
  8
0
100
AcDbBlockEnd
  0
BLOCK
  5
125
330
124
100
AcDbEntity
  8
0
100
AcDbBlockBegin
  2
SW_DOWELSYMBOL_0
 70
     0
 10
0.0
 20
0.0
 30
0.0
  3
SW_DOWELSYMBOL_0
  1
SW_DOWELSYMBOL_0
  0
CIRCLE
  5
127
330
124
100
AcDbEntity
  8
외형선
 62
     0
100
AcDbCircle
 10
0.0
 20
0.0
 30
0.0
 40
2.999999999999999
  0
HATCH
  5
128
330
124
100
AcDbEntity
  8
0
  6
Continuous
 62
     0
370
    30
100
AcDbHatch
 10
0.0
 20
0.0
 30
0.0
210
0.0
220
0.0
230
1.0
  2
SOLID
 70
     1
 71
     0
 91
        1
 92
        0
 93
        3
 72
     2
 10
0.0
 20
0.0
 40
2.999999999999999
 50
0.0
 51
90.0
 73
     1
 72
     1
 10
0.0
 20
2.999999999999999
 11
0.0
 21
0.0
 72
     1
 10
0.0
 20
0.0
 11
2.999999999999999
 21
0.0
 97
        0
 75
     0
 76
     1
 98
        1
 10
0.0
 20
0.0
  0
HATCH
  5
129
330
124
100
AcDbEntity
  8
0
  6
Continuous
 62
     0
370
    30
100
AcDbHatch
 10
0.0
 20
0.0
 30
0.0
210
0.0
220
0.0
230
1.0
  2
SOLID
 70
     1
 71
     0
 91
        1
 92
        0
 93
        3
 72
     2
 10
0.0
 20
0.0
 40
2.999999999999999
 50
180.0
 51
270.0000000000008
 73
     1
 72
     1
 10
0.0
 20
-2.999999999999999
 11
0.0
 21
0.0
 72
     1
 10
0.0
 20
0.0
 11
-2.999999999999999
 21
0.0
 97
        0
 75
     0
 76
     1
 98
        1
 10
0.0
 20
0.0
  0
ENDBLK
  5
126
330
124
100
AcDbEntity
  8
0
100
AcDbBlockEnd
  0
BLOCK
  5
154
330
153
100
AcDbEntity
  8
0
100
AcDbBlockBegin
  2
*D7
 70
     1
 10
0.0
 20
0.0
 30
0.0
  3
*D7
  1
*D7
  0
LINE
  5
156
330
153
100
AcDbEntity
  8
치수문자_일반주서
 62
     0
370
    -2
100
AcDbLine
 10
-30.27910280916817
 20
-3.17499999999999
 30
0.0
 11
-50.01260701807635
 21
-3.17499999999999
 31
0.0
  0
LINE
  5
157
330
153
100
AcDbEntity
  8
치수문자_일반주서
 62
     0
370
    -2
100
AcDbLine
 10
-30.27910280916817
 20
3.175000000000006
 30
0.0
 11
-50.01260701807635
 21
3.175000000000007
 31
0.0
  0
LINE
  5
158
330
153
100
AcDbEntity
  8
치수문자_일반주서
 62
     0
370
    -2
100
AcDbLine
 10
-50.01260701807635
 20
6.477000000000007
 30
0.0
 11
-50.01260701807635
 21
35.15400000000001
 31
0.0
  0
LINE
  5
159
330
153
100
AcDbEntity
  8
치수문자_일반주서
 62
     0
370
    -2
100
AcDbLine
 10
-50.01260701807635
 20
-6.47699999999999
 30
0.0
 11
-50.01260701807635
 21
-9.77899999999999
 31
0.0
  0
SOLID
  5
15A
330
153
100
AcDbEntity
  8
치수문자_일반주서
 62
     0
100
AcDbTrace
 10
-49.46227368474302
 20
-6.47699999999999
 30
0.0
 11
-50.56294035140969
 21
-6.47699999999999
 31
0.0
 12
-50.01260701807635
 22
-3.17499999999999
 32
0.0
 13
-50.01260701807635
 23
-3.17499999999999
 33
0.0
  0
SOLID
  5
15B
330
153
100
AcDbEntity
  8
치수문자_일반주서
 62
     0
100
AcDbTrace
 10
-50.56294035140969
 20
6.477000000000007
 30
0.0
 11
-49.46227368474302
 21
6.477000000000007
 31
0.0
 12
-50.01260701807635
 22
3.175000000000007
 32
0.0
 13
-50.01260701807635
 23
3.175000000000007
 33
0.0
  0
MTEXT
  5
15C
330
153
100
AcDbEntity
  8
치수문자_일반주서
 62
     0
100
AcDbMText
 10
-52.63760701807635
 20
22.46650000000001
 30
0.0
 40
3.5
 41
0.0
 71
     5
 72
     1
  1
\A1;{%%c6.35 [1/4]}
  7
SLDTEXTSTYLE0
 11
0.0
 21
1.0
 31
0.0
 73
     1
 44
1.0
  0
POINT
  5
15D
330
153
100
AcDbEntity
  8
Defpoints
 62
     0
100
AcDbPoint
 10
-30.21660280916817
 20
-3.17499999999999
 30
0.0
  0
POINT
  5
15E
330
153
100
AcDbEntity
  8
Defpoints
 62
     0
100
AcDbPoint
 10
-30.21660280916817
 20
3.175000000000006
 30
0.0
  0
POINT
  5
15F
330
153
100
AcDbEntity
  8
Defpoints
 62
     0
100
AcDbPoint
 10
-50.01260701807635
 20
3.175000000000007
 30
0.0
  0
ENDBLK
  5
155
330
153
100
AcDbEntity
  8
0
100
AcDbBlockEnd
  0
BLOCK
  5
172
330
171
100
AcDbEntity
  8
0
100
AcDbBlockBegin
  2
*D8
 70
     1
 10
0.0
 20
0.0
 30
0.0
  3
*D8
  1
*D8
  0
LINE
  5
174
330
171
100
AcDbEntity
  8
치수문자_일반주서
 62
     0
370
    -2
100
AcDbLine
 10
45.25903052416358
 20
-1.5875
 30
0.0
 11
56.15292653094998
 21
-1.587500000000001
 31
0.0
  0
LINE
  5
175
330
171
100
AcDbEntity
  8
치수문자_일반주서
 62
     0
370
    -2
100
AcDbLine
 10
45.23589719083184
 20
1.649999999999999
 30
0.0
 11
56.15292653094998
 21
1.649999999999999
 31
0.0
  0
LINE
  5
176
330
171
100
AcDbEntity
  8
치수문자_일반주서
 62
     0
370
    -2
100
AcDbLine
 10
56.15292653094998
 20
4.951999999999998
 30
0.0
 11
56.15292653094998
 21
33.62899999999999
 31
0.0
  0
LINE
  5
177
330
171
100
AcDbEntity
  8
치수문자_일반주서
 62
     0
370
    -2
100
AcDbLine
 10
56.15292653094998
 20
-4.889500000000001
 30
0.0
 11
56.15292653094998
 21
-8.191500000000001
 31
0.0
  0
SOLID
  5
178
330
171
100
AcDbEntity
  8
치수문자_일반주서
 62
     0
100
AcDbTrace
 10
56.70325986428331
 20
-4.889500000000001
 30
0.0
 11
55.60259319761664
 21
-4.889500000000001
 31
0.0
 12
56.15292653094998
 22
-1.587500000000001
 32
0.0
 13
56.15292653094998
 23
-1.587500000000001
 33
0.0
  0
SOLID
  5
179
330
171
100
AcDbEntity
  8
치수문자_일반주서
 62
     0
100
AcDbTrace
 10
55.60259319761664
 20
4.951999999999998
 30
0.0
 11
56.70325986428331
 21
4.951999999999998
 31
0.0
 12
56.15292653094998
 22
1.649999999999999
 32
0.0
 13
56.15292653094998
 23
1.649999999999999
 33
0.0
  0
MTEXT
  5
17A
330
171
100
AcDbEntity
  8
치수문자_일반주서
 62
     0
100
AcDbMText
 10
53.52792653094998
 20
20.94149999999999
 30
0.0
 40
3.5
 41
0.0
 71
     5
 72
     1
  1
\A1;{%%c3.24 [1/8]}
  7
SLDTEXTSTYLE0
 11
0.0
 21
1.0
 31
0.0
 73
     1
 44
1.0
  0
POINT
  5
17B
330
171
100
AcDbEntity
  8
Defpoints
 62
     0
100
AcDbPoint
 10
45.19653052416358
 20
-1.5875
 30
0.0
  0
POINT
  5
17C
330
171
100
AcDbEntity
  8
Defpoints
 62
     0
100
AcDbPoint
 10
45.17339719083184
 20
1.649999999999999
 30
0.0
  0
POINT
  5
17D
330
171
100
AcDbEntity
  8
Defpoints
 62
     0
100
AcDbPoint
 10
56.15292653094998
 20
1.649999999999999
 30
0.0
  0
ENDBLK
  5
173
330
171
100
AcDbEntity
  8
0
100
AcDbBlockEnd
  0
BLOCK
  5
185
330
184
100
AcDbEntity
  8
0
100
AcDbBlockBegin
  2
*D9
 70
     1
 10
0.0
 20
0.0
 30
0.0
  3
*D9
  1
*D9
  0
LINE
  5
187
330
184
100
AcDbEntity
  8
치수문자_일반주서
 62
     0
370
    -2
100
AcDbLine
 10
18.61436146389953
 20
9.05959707301137
 30
0.0
 11
19.28389019843059
 21
14.2667298035683
 31
0.0
  0
LINE
  5
188
330
184
100
AcDbEntity
  8
치수문자_일반주서
 62
     0
370
    -2
100
AcDbLine
 10
23.35007139605668
 20
2.295118259628896
 30
0.0
 11
18.07758664599169
 21
2.47923748423467
 31
0.0
  0
ARC
  5
189
330
184
100
AcDbEntity
  8
치수문자_일반주서
 62
     0
370
    -2
100
AcDbCircle
 10
89.07365919303439
 20
-0.0000000000000003
 30
0.0
 40
71.03934779830249
100
AcDbArc
 50
172.6731577601914
 51
175.3365788800957
  0
ARC
  5
18A
330
184
100
AcDbEntity
  8
치수문자_일반주서
 62
     0
370
    -2
100
AcDbCircle
 10
89.07365919303439
 20
-0.0000000000000003
 30
0.0
 40
71.03934779830249
100
AcDbArc
 50
182.6634211199043
 51
185.3268422398087
  0
SOLID
  5
18B
330
184
100
AcDbEntity
  8
치수문자_일반주서
 62
     0
100
AcDbTrace
 10
17.72008434500309
 20
5.807639936247591
 30
0.0
 11
18.81889067003369
 21
5.743672982405357
 31
0.0
 12
18.07758664599169
 22
2.47923748423467
 32
0.0
 13
18.07758664599169
 23
2.47923748423467
 33
0.0
  0
SOLID
  5
18C
330
184
100
AcDbEntity
  8
치수문자_일반주서
 62
     0
100
AcDbTrace
 10
18.66123668048789
 20
-3.288318029609902
 30
0.0
 11
17.56086730408706
 21
-3.313898228795093
 31
0.0
 12
18.0343113947319
 22
-0.0000000000000003
 32
0.0
 13
18.0343113947319
 23
-0.0000000000000003
 33
0.0
  0
MTEXT
  5
18D
330
184
100
AcDbEntity
  8
치수문자_일반주서
 62
     0
100
AcDbMText
 10
16.34555946588659
 20
11.99792780555537
 30
0.0
 40
3.5
 41
0.0
 71
     5
 72
     1
  1
\A1;2%%d
  7
SLDTEXTSTYLE0
 11
0.127529282767822
 21
0.9918348058203669
 31
0.0
 73
     1
 44
1.0
  0
POINT
  5
18E
330
184
100
AcDbEntity
  8
Defpoints
 62
     0
100
AcDbPoint
 10
18.0391201899958
 20
0.8265616939911347
 30
0.0
  0
POINT
  5
18F
330
184
100
AcDbEntity
  8
Defpoints
 62
     0
100
AcDbPoint
 10
-34.0266028091682
 20
-0.0000000000000003
 30
0.0
  0
POINT
  5
190
330
184
100
AcDbEntity
  8
Defpoints
 62
     0
100
AcDbPoint
 10
25.72227768748824
 20
2.212278990538941
 30
0.0
  0
POINT
  5
191
330
184
100
AcDbEntity
  8
Defpoints
 62
     0
100
AcDbPoint
 10
23.41253332274538
 20
2.292937041084989
 30
0.0
  0
POINT
  5
192
330
184
100
AcDbEntity
  8
Defpoints
 62
     0
100
AcDbPoint
 10
49.64130014184704
 20
-0.0000000000000003
 30
0.0
  0
ENDBLK
  5
186
330
184
100
AcDbEntity
  8
0
100
AcDbBlockEnd
  0
ENDSEC
  0
SECTION
  2
ENTITIES
  0
LINE
  5
95
102
{ACAD_REACTORS
102
}
330
1F
100
AcDbEntity
  8
0
  6
Continuous
 62
     4
370
    15
100
AcDbLine
 10
-30.21660280916817
 20
3.175000000000006
 30
0.0
 11
-31.02660280916817
 21
2.365
 31
0.0
  0
LINE
  5
96
102
{ACAD_REACTORS
102
}
330
1F
100
AcDbEntity
  8
0
  6
Continuous
 62
     4
370
    15
100
AcDbLine
 10
-31.02660280916817
 20
-2.364999999999984
 30
0.0
 11
-30.21660280916817
 21
-3.17499999999999
 31
0.0
  0
LINE
  5
97
330
1F
100
AcDbEntity
  8
0
  6
Continuous
 62
     4
370
    15
100
AcDbLine
 10
12.00000000000001
 20
3.175000000000012
 30
0.0
 11
-30.21660280916817
 21
3.175000000000006
 31
0.0
  0
LINE
  5
98
330
1F
100
AcDbEntity
  8
0
  6
Continuous
 62
     4
370
    15
100
AcDbLine
 10
-30.21660280916817
 20
-3.17499999999999
 30
0.0
 11
11.53339719083182
 21
-3.174999999999985
 31
0.0
  0
LINE
  5
99
330
1F
100
AcDbEntity
  8
0
  6
Continuous
 62
     4
370
    15
100
AcDbLine
 10
13.05831340189166
 20
2.676388901283882
 30
0.0
 11
12.40739719083183
 21
2.738120000000014
 31
0.0
  0
LINE
  5
9A
330
1F
100
AcDbEntity
  8
0
  6
Continuous
 62
     4
370
    15
100
AcDbLine
 10
12.50956847499254
 20
-2.728430357122281
 30
0.0
 11
13.42339719083181
 21
-2.641765361369202
 31
0.0
  0
LINE
  5
9B
330
1F
100
AcDbEntity
  8
0
  6
Continuous
 62
     1
370
    15
100
AcDbLine
 10
34.22943015978812
 20
-1.91520268002258
 30
0.0
 11
36.25086739422583
 21
-1.844612536316744
 31
0.0
  0
LINE
  5
9C
330
1F
100
AcDbEntity
  8
0
  6
Continuous
 62
     1
370
    15
100
AcDbLine
 10
21.24038542281058
 20
-2.368790117200569
 30
0.0
 11
23.61497154713776
 21
-2.285867742514637
 31
0.0
  0
LINE
  5
9D
330
1F
100
AcDbEntity
  8
0
  6
Continuous
 62
     1
370
    15
100
AcDbLine
 10
17.27983500415679
 20
2.50709558543085
 30
0.0
 11
14.71473347743378
 21
2.596670904568474
 31
0.0
  0
LINE
  5
9E
330
1F
100
AcDbEntity
  8
0
  6
Continuous
 62
     1
370
    15
100
AcDbLine
 10
29.93458758878072
 20
2.0651818874481
 30
0.0
 11
27.74840021398547
 21
2.141525232829093
 31
0.0
  0
LINE
  5
9F
330
1F
100
AcDbEntity
  8
0
  6
Continuous
 62
     1
370
    15
100
AcDbLine
 10
42.58400029791652
 20
1.623454662026384
 30
0.0
 11
40.67202943713763
 21
1.690222155730582
 31
0.0
  0
LINE
  5
A0
330
1F
100
AcDbEntity
  8
0
  6
Continuous
 62
     1
370
    15
100
AcDbLine
 10
42.80902812779162
 20
-1.615596517050063
 30
0.0
 11
43.64130014184705
 21
-1.586532937892801
 31
0.0
  0
LINE
  5
A1
330
1F
100
AcDbEntity
  8
0
  6
Continuous
 62
     1
370
    15
100
AcDbLine
 10
29.91060185321723
 20
-2.066019487790776
 30
0.0
 11
32.04016611146138
 21
-1.991653465210768
 31
0.0
  0
LINE
  5
A2
330
1F
100
AcDbEntity
  8
0
  6
Continuous
 62
     1
370
    15
100
AcDbLine
 10
16.89190980590306
 20
-2.520642231859081
 30
0.0
 11
19.39305954428655
 21
-2.433300158380647
 31
0.0
  0
LINE
  5
A3
102
{ACAD_REACTORS
102
}
330
1F
100
AcDbEntity
  8
0
  6
Continuous
 62
     1
370
    15
100
AcDbLine
 10
25.72227768748824
 20
2.212278990538941
 30
0.0
 11
23.41253332274538
 21
2.292937041084989
 31
0.0
  0
LINE
  5
A4
330
1F
100
AcDbEntity
  8
0
  6
Continuous
 62
     1
370
    15
100
AcDbLine
 10
38.35914234253432
 20
1.770989952821663
 30
0.0
 11
36.38183184320802
 21
1.840039156982249
 31
0.0
  0
LINE
  5
A5
330
1F
100
AcDbEntity
  8
0
  6
Continuous
 62
     4
370
    15
100
AcDbLine
 10
12.40739719083183
 20
2.738120000000014
 30
0.0
 11
12.00000000000001
 21
3.17500000000001
 31
0.0
  0
LINE
  5
A6
330
1F
100
AcDbEntity
  8
0
  6
Continuous
 62
     1
370
    15
100
AcDbLine
 10
38.52939352921008
 20
-1.765044650376037
 30
0.0
 11
40.46978515112082
 21
-1.697284681823574
 31
0.0
  0
LINE
  5
A7
330
1F
100
AcDbEntity
  8
0
  6
Continuous
 62
     1
370
    15
100
AcDbLine
 10
25.58064271167687
 20
-2.217224992881192
 30
0.0
 11
27.82902260816967
 21
-2.138709836785888
 31
0.0
  0
LINE
  5
A8
330
1F
100
AcDbEntity
  8
0
  6
Continuous
 62
     1
370
    15
100
AcDbLine
 10
13.42339719083181
 20
-2.641765361369203
 30
0.0
 11
15.1639125875775
 21
-2.580985224402609
 31
0.0
  0
LINE
  5
A9
330
1F
100
AcDbEntity
  8
0
  6
Continuous
 62
     1
370
    15
100
AcDbLine
 10
21.50452967734181
 20
2.359565996575542
 30
0.0
 11
19.0669503877384
 21
2.444688141065641
 31
0.0
  0
LINE
  5
AA
330
1F
100
AcDbEntity
  8
0
  6
Continuous
 62
     1
370
    15
100
AcDbLine
 10
34.14388039457555
 20
1.918190143653666
 30
0.0
 11
32.07215458109762
 21
1.990536403236232
 31
0.0
  0
ARC
  5
AB
330
1F
100
AcDbEntity
  8
0
  6
Continuous
 62
     1
370
    15
100
AcDbCircle
 10
43.58589719083182
 20
0.0000000000000121
 30
0.0
 40
1.587499999999999
100
AcDbArc
 50
272.000000000001
 51
293.3409628545135
  0
ARC
  5
AC
330
1F
100
AcDbEntity
  8
0
  6
Continuous
 62
     1
370
    15
100
AcDbCircle
 10
43.58589719083182
 20
0.0000000000000121
 30
0.0
 40
1.587499999999998
100
AcDbArc
 50
27.85617637447583
 51
44.38691872998477
  0
SPLINE
  5
AD
330
1F
100
AcDbEntity
  8
0
  6
Continuous
 62
     1
370
    15
100
AcDbSpline
210
0.0
220
0.0
230
1.0
 70
     8
 71
     3
 72
    23
 73
    19
 74
     0
 42
0.000000001
 43
0.00000001
 40
0.0
 40
0.0
 40
0.0
 40
0.0
 40
0.0379470718620564
 40
0.1087759564846778
 40
0.1771750846873601
 40
0.2475757883810841
 40
0.3156203645772285
 40
0.385652921488873
 40
0.4534018565472044
 40
0.523127293751327
 40
0.5906325625986378
 40
0.6601047086035768
 40
0.7274122982698112
 40
0.7966787670173323
 40
0.863829542914268
 40
0.9329326374639938
 40
0.9999629968746188
 40
1.0
 40
1.0
 40
1.0
 40
1.0
 10
41.6318203556518
 20
-1.377471291091385
 30
0.0
 10
41.53385677379294
 20
-1.425871342596068
 30
0.0
 10
41.25304242384522
 20
-1.564610951161065
 30
0.0
 10
40.79834959611287
 20
-1.679848588391994
 30
0.0
 10
40.26267311049467
 20
-1.716298753250777
 30
0.0
 10
39.73649851344216
 20
-1.629565862370645
 30
0.0
 10
39.20884223540723
 20
-1.429451117663253
 30
0.0
 10
38.69008375627721
 20
-1.131813614567003
 30
0.0
 10
38.16973281741132
 20
-0.7510556626173713
 30
0.0
 10
37.65781641636496
 20
-0.319376902266543
 30
0.0
 10
37.14418860239397
 20
0.1434613158579058
 30
0.0
 10
36.63858844551362
 20
0.5988670518805217
 30
0.0
 10
36.13117047616794
 20
1.026868814228835
 30
0.0
 10
35.631431291019
 20
1.39113180373122
 30
0.0
 10
35.12972221936516
 20
1.680653972124389
 30
0.0
 10
34.63560498315321
 20
1.853684737185813
 30
0.0
 10
34.30561679243984
 20
1.931708725289129
 30
0.0
 10
34.14396847315373
 20
1.918165893319719
 30
0.0
 10
34.14387928680735
 20
1.918158421323052
 30
0.0
  0
SPLINE
  5
AE
330
1F
100
AcDbEntity
  8
0
  6
Continuous
 62
     1
370
    15
100
AcDbSpline
210
0.0
220
0.0
230
1.0
 70
     8
 71
     3
 72
    25
 73
    21
 74
     0
 42
0.000000001
 43
0.00000001
 40
0.0
 40
0.0
 40
0.0
 40
0.0
 40
0.0012182054322109
 40
0.0622073572398651
 40
0.1249614204058378
 40
0.1859975277230095
 40
0.2487987533374764
 40
0.3098989814587901
 40
0.3727651102480742
 40
0.4339458521937914
 40
0.4968939882003859
 40
0.5581702929831386
 40
0.6212162952315956
 40
0.6826038292121774
 40
0.7457642164509786
 40
0.8072689398595275
 40
0.8705496447043365
 40
0.9321780815521319
 40
0.9955855208383079
 40
1.0
 40
1.0
 40
1.0
 40
1.0
 10
28.86107707214343
 20
-1.830349797978464
 30
0.0
 10
28.85798855338012
 20
-1.832327901695524
 30
0.0
 10
28.70027411132404
 20
-1.933339275747033
 30
0.0
 10
28.38507228701592
 20
-2.04950265915421
 30
0.0
 10
27.92024767651496
 20
-2.154279691062023
 30
0.0
 10
27.45281620440709
 20
-2.133122610488118
 30
0.0
 10
26.99132691718158
 20
-2.001279042301657
 30
0.0
 10
26.52723115831662
 20
-1.759136357288814
 30
0.0
 10
26.06870401328406
 20
-1.424311327348947
 30
0.0
 10
25.60778404890733
 20
-1.007578415113797
 30
0.0
 10
25.15207816254735
 20
-0.5379366678461073
 30
0.0
 10
24.69407862576148
 20
-0.030704915355101
 30
0.0
 10
24.24114732413695
 20
0.4789702170350338
 30
0.0
 10
23.78576363082449
 20
0.9742977797604366
 30
0.0
 10
23.33560362317193
 20
1.421625224954862
 30
0.0
 10
22.8826177894078
 20
1.804756035644933
 30
0.0
 10
22.4351336752171
 20
2.102008592542509
 30
0.0
 10
21.98460417144931
 20
2.287352130412644
 30
0.0
 10
21.67592283470361
 20
2.369942652516772
 30
0.0
 10
21.51488137860976
 20
2.356694982338408
 30
0.0
 10
21.50439930779307
 20
2.355832701157313
 30
0.0
  0
SPLINE
  5
AF
330
1F
100
AcDbEntity
  8
0
  6
Continuous
 62
     1
370
    15
100
AcDbSpline
210
0.0
220
0.0
230
1.0
 70
     8
 71
     3
 72
    14
 73
    10
 74
     0
 42
0.000000001
 43
0.00000001
 40
0.0
 40
0.0
 40
0.0
 40
0.0
 40
0.0728572755426101
 40
0.2409775054324867
 40
0.404876568684513
 40
0.5734964286888972
 40
0.7379106296995094
 40
0.9070594076970966
 40
1.0
 40
1.0
 40
1.0
 40
1.0
 10
16.01572663789351
 20
-2.314939109274949
 30
0.0
 10
15.95204991418635
 20
-2.35267698394468
 30
0.0
 10
15.74143734435331
 20
-2.477496074838589
 30
0.0
 10
15.38940499196322
 20
-2.57278922998111
 30
0.0
 10
14.95519154536264
 20
-2.595345650069024
 30
0.0
 10
14.52551324659186
 20
-2.494190607713035
 30
0.0
 10
14.09337930548215
 20
-2.277613311107537
 30
0.0
 10
13.72679475903198
 20
-2.00746297398244
 30
0.0
 10
13.50282133150156
 20
-1.798083391635458
 30
0.0
 10
13.42339719083182
 20
-1.723834434582557
 30
0.0
  0
SPLINE
  5
B0
330
1F
100
AcDbEntity
  8
0
  6
Continuous
 62
     4
370
    15
100
AcDbSpline
210
0.0
220
0.0
230
1.0
 70
     8
 71
     3
 72
     8
 73
     4
 74
     0
 42
0.000000001
 43
0.00000001
 40
0.0
 40
0.0
 40
0.0
 40
0.0
 40
1.0
 40
1.0
 40
1.0
 40
1.0
 10
13.42339719083181
 20
-1.723834434582548
 30
0.0
 10
13.07928509370527
 20
-1.395163951555903
 30
0.0
 10
12.74291861172706
 20
-0.9818597672291889
 30
0.0
 10
12.40739719083182
 20
-0.528659852271294
 30
0.0
  0
SPLINE
  5
B1
330
1F
100
AcDbEntity
  8
0
  6
Continuous
 62
     4
370
    15
100
AcDbSpline
210
0.0
220
0.0
230
1.0
 70
     8
 71
     3
 72
    10
 73
     6
 74
     0
 42
0.000000001
 43
0.00000001
 40
0.0
 40
0.0
 40
0.0
 40
0.0
 40
0.5
 40
0.5
 40
1.0
 40
1.0
 40
1.0
 40
1.0
 10
12.40739719083183
 20
-0.5286598522713024
 30
0.0
 10
12.3263389541657
 20
-0.3803637894651666
 30
0.0
 10
12.25321443235648
 20
-0.2171145457345406
 30
0.0
 10
12.11732342437021
 20
0.1366990715382328
 30
0.0
 10
12.0548408628527
 20
0.3272268373988135
 30
0.0
 10
12.00000000000001
 20
0.523973461952751
 30
0.0
  0
SPLINE
  5
B2
330
1F
100
AcDbEntity
  8
0
  6
Continuous
 62
     4
370
    15
100
AcDbSpline
210
0.0
220
0.0
230
1.0
 70
     8
 71
     3
 72
     8
 73
     4
 74
     0
 42
0.000000001
 43
0.00000001
 40
0.0
 40
0.0
 40
0.0
 40
0.0
 40
1.0
 40
1.0
 40
1.0
 40
1.0
 10
12.00000000000001
 20
0.523973461952758
 30
0.0
 10
11.84409520711482
 20
0.7568912965876123
 30
0.0
 10
11.68920196556034
 20
0.9832865678596429
 30
0.0
 10
11.53339719083182
 20
1.201928640082122
 30
0.0
  0
SPLINE
  5
B3
330
1F
100
AcDbEntity
  8
0
  6
Continuous
 62
     4
370
    15
100
AcDbSpline
210
0.0
220
0.0
230
1.0
 70
     8
 71
     3
 72
     8
 73
     4
 74
     0
 42
0.000000001
 43
0.00000001
 40
0.0
 40
0.0
 40
0.0
 40
0.0
 40
1.0
 40
1.0
 40
1.0
 40
1.0
 10
11.53339719083182
 20
2.361781425230019
 30
0.0
 10
11.68961271634496
 20
2.197240870131378
 30
0.0
 10
11.84395172826276
 20
2.012965623271313
 30
0.0
 10
12.00000000000015
 20
1.810638410661831
 30
0.0
  0
SPLINE
  5
B4
330
1F
100
AcDbEntity
  8
0
  6
Continuous
 62
     4
370
    15
100
AcDbSpline
210
0.0
220
0.0
230
1.0
 70
     8
 71
     3
 72
    10
 73
     6
 74
     0
 42
0.000000001
 43
0.00000001
 40
0.0
 40
0.0
 40
0.0
 40
0.0
 40
0.5
 40
0.5
 40
1.0
 40
1.0
 40
1.0
 40
1.0
 10
12.00000000000001
 20
1.810638410661975
 30
0.0
 10
12.06915757284262
 20
1.789074866674223
 30
0.0
 10
12.13977627548796
 20
1.734665601223881
 30
0.0
 10
12.27632167005065
 20
1.61494516658624
 30
0.0
 10
12.34242392934381
 20
1.547578099056717
 30
0.0
 10
12.40739719083183
 20
1.47759438740165
 30
0.0
  0
SPLINE
  5
B5
330
1F
100
AcDbEntity
  8
0
  6
Continuous
 62
     4
370
    15
100
AcDbSpline
210
0.0
220
0.0
230
1.0
 70
     8
 71
     3
 72
     8
 73
     4
 74
     0
 42
0.000000001
 43
0.00000001
 40
0.0
 40
0.0
 40
0.0
 40
0.0
 40
1.0
 40
1.0
 40
1.0
 40
1.0
 10
12.40739719083183
 20
1.477594387401651
 30
0.0
 10
12.74397122405261
 20
1.099841335329782
 30
0.0
 10
13.08029158137512
 20
0.6788060639483099
 30
0.0
 10
13.42339719083172
 20
0.2546414698760672
 30
0.0
  0
SPLINE
  5
B6
330
1F
100
AcDbEntity
  8
0
  6
Continuous
 62
     1
370
    15
100
AcDbSpline
210
0.0
220
0.0
230
1.0
 70
     8
 71
     3
 72
    15
 73
    11
 74
     0
 42
0.000000001
 43
0.00000001
 40
0.0
 40
0.0
 40
0.0
 40
0.0
 40
0.1576876870734454
 40
0.2860667899870429
 40
0.4181594642820636
 40
0.5466380252347662
 40
0.6788613746902165
 40
0.8069780404767642
 40
0.9388280999868974
 40
1.0
 40
1.0
 40
1.0
 40
1.0
 10
13.42339719083183
 20
0.2546414698759448
 30
0.0
 10
13.60350861299593
 20
0.0257153116830073
 30
0.0
 10
13.93025509101668
 20
-0.3895876991844013
 30
0.0
 10
14.40977211832766
 20
-0.9698974723523923
 30
0.0
 10
14.857654417709
 20
-1.460429230552615
 30
0.0
 10
15.31113246156419
 20
-1.882836779443778
 30
0.0
 10
15.76222409853818
 20
-2.211048975413613
 30
0.0
 10
16.21833033337708
 20
-2.42789266163607
 30
0.0
 10
16.59336690468953
 20
-2.528976695633923
 30
0.0
 10
16.81967646756373
 20
-2.511513701267216
 30
0.0
 10
16.89139776801236
 20
-2.505979385130501
 30
0.0
  0
SPLINE
  5
B7
330
1F
100
AcDbEntity
  8
0
  6
Continuous
 62
     1
370
    15
100
AcDbSpline
210
0.0
220
0.0
230
1.0
 70
     8
 71
     3
 72
    23
 73
    19
 74
     0
 42
0.000000001
 43
0.00000001
 40
0.0
 40
0.0
 40
0.0
 40
0.0
 40
0.0320946160805706
 40
0.0979600658969627
 40
0.1618358959953238
 40
0.2275696702779048
 40
0.2913284234937678
 40
0.3569410280988083
 40
0.420593364496948
 40
0.4860957967023896
 40
0.5496513505813692
 40
0.6150537511562466
 40
0.6785193863617547
 40
0.743828701595589
 40
0.807213783279138
 40
0.8724395506966823
 40
0.9357554031761107
 40
1.0
 40
1.0
 40
1.0
 40
1.0
 10
22.45483188892502
 20
2.069802933011931
 30
0.0
 10
22.53217276086629
 20
2.108572350485887
 30
0.0
 10
22.76823468766661
 20
2.226905427940416
 30
0.0
 10
23.16045399001985
 20
2.301401145616877
 30
0.0
 10
23.63517503179544
 20
2.292474842993364
 30
0.0
 10
24.10714314401342
 20
2.160130652821096
 30
0.0
 10
24.58474080616358
 20
1.916482831048607
 30
0.0
 10
25.05941198510586
 20
1.577488138495425
 30
0.0
 10
25.53999082622835
 20
1.155757385628858
 30
0.0
 10
26.01747998782972
 20
0.6815719885551563
 30
0.0
 10
26.50114997309336
 20
0.1721187664775765
 30
0.0
 10
26.98158946262605
 20
-0.3361101292913968
 30
0.0
 10
27.46841747584926
 20
-0.8243992667241283
 30
0.0
 10
27.95194975671112
 20
-1.257697105647158
 30
0.0
 10
28.44199680200798
 20
-1.620574440738628
 30
0.0
 10
28.92880709736533
 20
-1.884252048438362
 30
0.0
 10
29.41974963437485
 20
-2.049288128613762
 30
0.0
 10
29.74617280504827
 20
-2.059860230028362
 30
0.0
 10
29.91057270414257
 20
-2.065184767505861
 30
0.0
  0
SPLINE
  5
B8
330
1F
100
AcDbEntity
  8
0
  6
Continuous
 62
     1
370
    15
100
AcDbSpline
210
0.0
220
0.0
230
1.0
 70
     8
 71
     3
 72
    22
 73
    18
 74
     0
 42
0.000000001
 43
0.00000001
 40
0.0
 40
0.0
 40
0.0
 40
0.0
 40
0.0272861308332186
 40
0.0984625352650208
 40
0.1676811562061756
 40
0.2389015846504037
 40
0.3081853158803175
 40
0.3794714060307331
 40
0.4488426463244135
 40
0.5202173628672833
 40
0.5896999293418359
 40
0.6611876916337635
 40
0.7308069061427918
 40
0.8024336792846052
 40
0.872216411424169
 40
0.9440097526664526
 40
0.9999999999999999
 40
0.9999999999999999
 40
0.9999999999999999
 40
0.9999999999999999
 10
35.25419843575169
 20
1.592012527475055
 30
0.0
 10
35.32082016244757
 20
1.624785914300817
 30
0.0
 10
35.56122596253356
 20
1.743049319831267
 30
0.0
 10
35.97297916435136
 20
1.833617634356779
 30
0.0
 10
36.49404845744331
 20
1.854013469721335
 30
0.0
 10
37.01296058613993
 20
1.750460840379289
 30
0.0
 10
37.5389180181872
 20
1.536398781989532
 30
0.0
 10
38.06269420249708
 20
1.227716656964753
 30
0.0
 10
38.59368561226566
 20
0.8403143637066554
 30
0.0
 10
39.12259133530819
 20
0.4066555336596581
 30
0.0
 10
39.65885937706231
 20
-0.0513758820937746
 30
0.0
 10
40.19315343869377
 20
-0.4949636615308254
 30
0.0
 10
40.73496445542363
 20
-0.9009890634816492
 30
0.0
 10
41.27490858109005
 20
-1.235779811231996
 30
0.0
 10
41.82259091131923
 20
-1.477348180659727
 30
0.0
 10
42.33221666266839
 20
-1.611872404257901
 30
0.0
 10
42.66353411013021
 20
-1.608041682073249
 30
0.0
 10
42.80870569308587
 20
-1.606363195148792
 30
0.0
  0
LINE
  5
B9
330
1F
100
AcDbEntity
  8
0
  6
Continuous
 62
     4
370
    15
100
AcDbLine
 10
-30.21660280916817
 20
3.175000000000006
 30
0.0
 11
-30.21660280916817
 21
-3.17499999999999
 31
0.0
  0
LINE
  5
BA
330
1F
100
AcDbEntity
  8
0
  6
Continuous
 62
     4
370
    15
100
AcDbLine
 10
-31.02660280916817
 20
-2.364999999999984
 30
0.0
 11
-31.02660280916817
 21
2.365000000000002
 31
0.0
  0
SPLINE
  5
BB
330
1F
100
AcDbEntity
  8
0
  6
Continuous
 62
     4
370
    15
100
AcDbSpline
210
0.0
220
0.0
230
1.0
 70
     8
 71
     3
 72
     8
 73
     4
 74
     0
 42
0.000000001
 43
0.00000001
 40
0.0
 40
0.0
 40
0.0
 40
0.0
 40
1.0
 40
1.0
 40
1.0
 40
1.0
 10
11.53339719083182
 20
-3.018541420605725
 30
0.0
 10
11.68961271634496
 20
-3.094873982420492
 30
0.0
 10
11.84395172826276
 20
-3.143524071195691
 30
0.0
 10
12.00000000000015
 20
-3.164004699014307
 30
0.0
  0
LINE
  5
BC
330
1F
100
AcDbEntity
  8
0
  6
Continuous
 62
     4
370
    15
100
AcDbLine
 10
11.53339719083182
 20
-3.174999999999985
 30
0.0
 11
11.53339719083182
 21
-3.018541420605725
 31
0.0
  0
LINE
  5
BD
330
1F
100
AcDbEntity
  8
0
  6
Continuous
 62
     4
370
    15
100
AcDbLine
 10
11.72064738626367
 20
-3.076916609899408
 30
0.0
 11
11.53339719083182
 21
-3.145958309839965
 31
0.0
  0
LINE
  5
BE
330
1F
100
AcDbEntity
  8
0
  6
Continuous
 62
     4
370
    15
100
AcDbLine
 10
12.00000000000001
 20
3.175000000000012
 30
0.0
 11
12.00000000000001
 21
1.810638410661975
 31
0.0
  0
LINE
  5
BF
330
1F
100
AcDbEntity
  8
0
  6
Continuous
 62
     4
370
    15
100
AcDbLine
 10
11.53339719083182
 20
1.20192864008216
 30
0.0
 11
11.53339719083182
 21
2.361781425230018
 31
0.0
  0
LINE
  5
C0
330
1F
100
AcDbEntity
  8
0
  6
Continuous
 62
     4
370
    15
100
AcDbLine
 10
12.00000000000001
 20
0.5239734619527491
 30
0.0
 11
12.00000000000001
 21
-3.164004699014541
 31
0.0
  0
SPLINE
  5
C1
330
1F
100
AcDbEntity
  8
0
  6
Continuous
 62
     4
370
    15
100
AcDbSpline
210
0.0
220
0.0
230
1.0
 70
     8
 71
     3
 72
    10
 73
     6
 74
     0
 42
0.000000001
 43
0.00000001
 40
0.0
 40
0.0
 40
0.0
 40
0.0
 40
0.5000000000000001
 40
0.5000000000000001
 40
1.0
 40
1.0
 40
1.0
 40
1.0
 10
12.00000000000001
 20
-3.164004699014541
 30
0.0
 10
12.06915757284262
 20
-3.088000734486279
 30
0.0
 10
12.13977627548796
 20
-3.0137327763382
 30
0.0
 10
12.27632167005065
 20
-2.871313616996827
 30
0.0
 10
12.34242392934381
 20
-2.802987669369215
 30
0.0
 10
12.40739719083183
 20
-2.735171900648217
 30
0.0
  0
LINE
  5
C2
330
1F
100
AcDbEntity
  8
0
  6
Continuous
 62
     4
370
    15
100
AcDbLine
 10
12.40739719083183
 20
-0.5286598522712949
 30
0.0
 11
12.40739719083183
 21
-2.735171900648221
 31
0.0
  0
SPLINE
  5
C3
330
1F
100
AcDbEntity
  8
0
  6
Continuous
 62
     1
370
    15
100
AcDbSpline
210
0.0
220
0.0
230
1.0
 70
     8
 71
     3
 72
    17
 73
    13
 74
     0
 42
0.000000001
 43
0.00000001
 40
0.0
 40
0.0
 40
0.0
 40
0.0
 40
0.1268530856318038
 40
0.2269278863484689
 40
0.3298863590333769
 40
0.4301606555050285
 40
0.5333738982068611
 40
0.6330464521005368
 40
0.735635741137561
 40
0.8347916348791508
 40
0.936844453189986
 40
1.0
 40
1.0
 40
1.0
 40
1.0
 10
43.64130014184705
 20
-1.373865916251469
 30
0.0
 10
43.4128081229119
 20
-1.275288827422384
 30
0.0
 10
43.00405802711251
 20
-1.098943961241524
 30
0.0
 10
42.41471148864428
 20
-0.7034581873089514
 30
0.0
 10
41.87498588158854
 20
-0.2899636123710562
 30
0.0
 10
41.33254621631071
 20
0.1587072656945665
 30
0.0
 10
40.79827201246378
 20
0.5992078718314126
 30
0.0
 10
40.26269819632279
 20
1.007955782835125
 30
0.0
 10
39.7364769778608
 20
1.349994919432093
 30
0.0
 10
39.20890221530503
 20
1.602513447158636
 30
0.0
 10
38.75141460657483
 20
1.746396333521525
 30
0.0
 10
38.4672993250831
 20
1.754781396931432
 30
0.0
 10
38.35868826324875
 20
1.757986823389723
 30
0.0
  0
SPLINE
  5
C4
330
1F
100
AcDbEntity
  8
0
  6
Continuous
 62
     1
370
    15
100
AcDbSpline
210
0.0
220
0.0
230
1.0
 70
     8
 71
     3
 72
    23
 73
    19
 74
     0
 42
0.000000001
 43
0.00000001
 40
0.0
 40
0.0
 40
0.0
 40
0.0
 40
0.0602538420948442
 40
0.1230467596719985
 40
0.1876611286148177
 40
0.2504252758852634
 40
0.3150089734233265
 40
0.3777651071490071
 40
0.4423394971069551
 40
0.5051070965232906
 40
0.5696921954742256
 40
0.6324899497300283
 40
0.6971049528977762
 40
0.7599510551049803
 40
0.8246146192997781
 40
0.8875267437811385
 40
0.952257135821574
 40
1.0
 40
1.0
 40
1.0
 40
1.0
 10
33.12977786628931
 20
-1.6695922696153
 30
0.0
 10
32.97625467152842
 20
-1.744427268494398
 30
0.0
 10
32.66273886916537
 20
-1.897250786497385
 30
0.0
 10
32.18730100896221
 20
-1.99879109027246
 30
0.0
 10
31.70722366810571
 20
-1.99566120269301
 30
0.0
 10
31.22476592388048
 20
-1.874936355494904
 30
0.0
 10
30.74894671843784
 20
-1.647879353288429
 30
0.0
 10
30.27050321495014
 20
-1.32240049859249
 30
0.0
 10
29.79866953478001
 20
-0.9219312461828485
 30
0.0
 10
29.32403428639796
 20
-0.4618708374566313
 30
0.0
 10
28.85592939865998
 20
0.0252360944000554
 30
0.0
 10
28.38493267701731
 20
0.5206547207567936
 30
0.0
 10
27.92028377239551
 20
0.9896820349209162
 30
0.0
 10
27.45280843259705
 20
1.414218367225456
 30
0.0
 10
26.99132089308281
 20
1.765666463256133
 30
0.0
 10
26.52726215037497
 20
2.026274680954287
 30
0.0
 10
26.10528040637652
 20
2.181475910179745
 30
0.0
 10
25.83615869035813
 20
2.195937278580906
 30
0.0
 10
25.72192138660009
 20
2.202075868060945
 30
0.0
  0
SPLINE
  5
C5
330
1F
100
AcDbEntity
  8
0
  6
Continuous
 62
     1
370
    15
100
AcDbSpline
210
0.0
220
0.0
230
1.0
 70
     8
 71
     3
 72
    24
 73
    20
 74
     0
 42
0.000000001
 43
0.00000001
 40
0.0
 40
0.0
 40
0.0
 40
0.0
 40
0.0132065301159192
 40
0.0768022832797332
 40
0.1387710758156324
 40
0.202526254972909
 40
0.2646621321890629
 40
0.3285893028781813
 40
0.3909015392933455
 40
0.4550104394981895
 40
0.5174975330077398
 40
0.5817861192749519
 40
0.6444522247671716
 40
0.7089242549434969
 40
0.7717775198883383
 40
0.8364411520380884
 40
0.8994919659461825
 40
0.9643584316088354
 40
1.0
 40
1.0
 40
1.0
 40
1.0
 10
20.300760642019
 20
-2.154105200665832
 30
0.0
 10
20.26958115220945
 20
-2.173731836558481
 30
0.0
 10
20.08825752004781
 20
-2.28787010273624
 30
0.0
 10
19.76204606429698
 20
-2.393637070274957
 30
0.0
 10
19.31859492616712
 20
-2.455193890125944
 30
0.0
 10
18.87967845105968
 20
-2.391320774832749
 30
0.0
 10
18.43839490524645
 20
-2.213896859408523
 30
0.0
 10
18.00151476727068
 20
-1.93110142479799
 30
0.0
 10
17.56193873032832
 20
-1.551577348075461
 30
0.0
 10
17.12722813718853
 20
-1.098760099126327
 30
0.0
 10
16.6892409819243
 20
-0.5863419243531267
 30
0.0
 10
16.25656656900479
 20
-0.0456630846209867
 30
0.0
 10
15.82037070066367
 20
0.5064672958155318
 30
0.0
 10
15.3893526813701
 20
1.036366337536629
 30
0.0
 10
14.9552058686334
 20
1.5277395725072
 30
0.0
 10
14.52550946982772
 20
1.950472252778425
 30
0.0
 10
14.09338035385814
 20
2.290198677272643
 30
0.0
 10
13.72679462735466
 20
2.497701938703099
 30
0.0
 10
13.50282129703076
 20
2.569936521728847
 30
0.0
 10
13.42339719083182
 20
2.595551925068055
 30
0.0
  0
LINE
  5
C6
330
1F
100
AcDbEntity
  8
0
  6
Continuous
 62
     4
370
    15
100
AcDbLine
 10
13.42339719083181
 20
2.595551925068065
 30
0.0
 11
13.05653655848085
 21
2.657653187767309
 31
0.0
  0
SPLINE
  5
C7
330
1F
100
AcDbEntity
  8
0
  6
Continuous
 62
     1
370
    15
100
AcDbSpline
210
0.0
220
0.0
230
1.0
 70
     8
 71
     3
 72
    24
 73
    20
 74
     0
 42
0.000000001
 43
0.00000001
 40
0.0
 40
0.0
 40
0.0
 40
0.0
 40
0.0137178077520811
 40
0.0752489494927091
 40
0.138559978160792
 40
0.2001387893940595
 40
0.2635124496870399
 40
0.324917807279812
 40
0.3881125525000558
 40
0.4493514044866272
 40
0.5123740752826674
 40
0.5734556307584906
 40
0.6363163512631146
 40
0.6972409082740011
 40
0.7599399212189372
 40
0.8207102458307357
 40
0.8832502416340176
 40
0.9438724746173555
 40
1.0
 40
1.0
 40
1.0
 40
1.0
 10
13.86598082105001
 20
2.39922997511956
 30
0.0
 10
13.89868728285346
 20
2.418414437367664
 30
0.0
 10
14.07809837658009
 20
2.523650686252498
 30
0.0
 10
14.40983842221655
 20
2.592468905001287
 30
0.0
 10
14.85763795266795
 20
2.607647713507942
 30
0.0
 10
15.31113350316438
 20
2.488870921293322
 30
0.0
 10
15.76223709817064
 20
2.258912492754063
 30
0.0
 10
16.21827873780776
 20
1.920851364583704
 30
0.0
 10
16.67133918481838
 20
1.498956623495907
 30
0.0
 10
17.12960388861082
 20
1.005313300353093
 30
0.0
 10
17.58457203172149
 20
0.4732988350247116
 30
0.0
 10
18.04521552340856
 20
-0.0810714585687564
 30
0.0
 10
18.5021964287337
 20
-0.6209762775262123
 30
0.0
 10
18.96519116489458
 20
-1.129670161873914
 30
0.0
 10
19.42434096694085
 20
-1.57351017882869
 30
0.0
 10
19.88958845791434
 20
-1.93951982806861
 30
0.0
 10
20.35112242369299
 20
-2.20013145702037
 30
0.0
 10
20.80270111677025
 20
-2.355840792919324
 30
0.0
 10
21.09815247676735
 20
-2.360824372565417
 30
0.0
 10
21.24019091812832
 20
-2.363220231854527
 30
0.0
  0
SPLINE
  5
C8
330
1F
100
AcDbEntity
  8
0
  6
Continuous
 62
     1
370
    15
100
AcDbSpline
210
0.0
220
0.0
230
1.0
 70
     8
 71
     3
 72
    23
 73
    19
 74
     0
 42
0.000000001
 43
0.00000001
 40
0.0
 40
0.0
 40
0.0
 40
0.0
 40
0.036274760367962
 40
0.1015466296935769
 40
0.1687146502433547
 40
0.2339036734910571
 40
0.3009857684508729
 40
0.366103592228969
 40
0.4331116608698359
 40
0.4981714774938288
 40
0.5651190247309554
 40
0.6301352172351419
 40
0.697036984675648
 40
0.7620248850134612
 40
0.8288965938554926
 40
0.8938723561687275
 40
0.9607305744379492
 40
1.0
 40
1.0
 40
1.0
 40
1.0
 10
26.72256259111257
 20
1.90189727084837
 30
0.0
 10
26.81057575706906
 20
1.94550271168669
 30
0.0
 10
27.05695754652499
 20
2.067570659442038
 30
0.0
 10
27.46847771580293
 20
2.148303668416796
 30
0.0
 10
27.95193221542927
 20
2.144364142869427
 30
0.0
 10
28.44200795884837
 20
2.016783207757735
 30
0.0
 10
28.92877978522229
 20
1.782022056132012
 30
0.0
 10
29.42216089526817
 20
1.447967797171785
 30
0.0
 10
29.91234625294795
 20
1.039966091233759
 30
0.0
 10
30.40917215273962
 20
0.5744749549134489
 30
0.0
 10
30.90293223644084
 20
0.0862067144868906
 30
0.0
 10
31.40334740573317
 20
-0.4049157534822185
 30
0.0
 10
31.90085028196139
 20
-0.8621633140890987
 30
0.0
 10
32.40502742144666
 20
-1.266362829923946
 30
0.0
 10
32.90642307601116
 20
-1.588687847745148
 30
0.0
 10
33.41461101215549
 20
-1.80955903878398
 30
0.0
 10
33.85383527037309
 20
-1.919638280714666
 30
0.0
 10
34.12763998055818
 20
-1.906435244522179
 30
0.0
 10
34.22895339237996
 20
-1.901549847765626
 30
0.0
  0
SPLINE
  5
C9
330
1F
100
AcDbEntity
  8
0
  6
Continuous
 62
     1
370
    15
100
AcDbSpline
210
0.0
220
0.0
230
1.0
 70
     8
 71
     3
 72
    16
 73
    12
 74
     0
 42
0.000000001
 43
0.00000001
 40
0.0
 40
0.0
 40
0.0
 40
0.0
 40
0.0368057642035259
 40
0.1699964713482739
 40
0.299705838574704
 40
0.4331555404453103
 40
0.5631695616173056
 40
0.6969296008432566
 40
0.8273012271207449
 40
0.9614259214891788
 40
1.0
 40
1.0
 40
1.0
 40
1.0
 10
39.50450513205348
 20
1.446753823538994
 30
0.0
 10
39.55438072623954
 20
1.470999553272296
 30
0.0
 10
39.78474342082031
 20
1.582984417304286
 30
0.0
 10
40.19326007634807
 20
1.67545786549567
 30
0.0
 10
40.73493202646116
 20
1.708257429684224
 30
0.0
 10
41.27492956027778
 20
1.614921392619928
 30
0.0
 10
41.82253982153805
 20
1.410479724742755
 30
0.0
 10
42.36847717033204
 20
1.110746089843071
 30
0.0
 10
42.92214443792243
 20
0.7334082251088989
 30
0.0
 10
43.34571684142877
 20
0.4104486331707954
 30
0.0
 10
43.58733270891942
 20
0.2223470074655616
 30
0.0
 10
43.64130014184705
 20
0.1803325405588406
 30
0.0
  0
SPLINE
  5
CA
330
1F
100
AcDbEntity
  8
0
  6
Continuous
 62
     1
370
    15
100
AcDbSpline
210
0.0
220
0.0
230
1.0
 70
     8
 71
     3
 72
    14
 73
    10
 74
     0
 42
0.000000001
 43
0.00000001
 40
0.0
 40
0.0
 40
0.0
 40
0.0
 40
0.25
 40
0.25
 40
0.5
 40
0.5
 40
0.75
 40
0.75
 40
1.0
 40
1.0
 40
1.0
 40
1.0
 10
43.64130014184705
 20
0.1803325405588393
 30
0.0
 10
43.74998817061406
 20
0.0956571112390492
 30
0.0
 10
43.85665111889631
 20
0.0111803909924946
 30
0.0
 10
44.07065525983835
 20
-0.1511783175335173
 30
0.0
 10
44.17465592013212
 20
-0.2264133107254658
 30
0.0
 10
44.37524349313845
 20
-0.3603461910275083
 30
0.0
 10
44.47245300003639
 20
-0.4191481899683376
 30
0.0
 10
44.64626647123102
 20
-0.517391294150824
 30
0.0
 10
44.72541329522042
 20
-0.558022040242305
 30
0.0
 10
44.78789991509458
 20
-0.5960942003527032
 30
0.0
  0
SPLINE
  5
CB
330
1F
100
AcDbEntity
  8
0
  6
Continuous
 62
     1
370
    15
100
AcDbSpline
210
0.0
220
0.0
230
1.0
 70
     8
 71
     3
 72
    14
 73
    10
 74
     0
 42
0.000000001
 43
0.00000001
 40
0.0
 40
0.0
 40
0.0
 40
0.0
 40
0.2500000000000016
 40
0.2500000000000016
 40
0.5000000000000031
 40
0.5000000000000031
 40
0.7500000000000047
 40
0.7500000000000047
 40
1.0
 40
1.0
 40
1.0
 40
1.0
 10
43.96116778257357
 20
-1.085913955058697
 30
0.0
 10
44.02673220328666
 20
-1.025021571413959
 30
0.0
 10
44.09870152556019
 20
-0.9636501379269096
 30
0.0
 10
44.25023093899426
 20
-0.8463579187853009
 30
0.0
 10
44.32996618678827
 20
-0.7903615620498192
 30
0.0
 10
44.48612489795999
 20
-0.6943831849853236
 30
0.0
 10
44.5631981475194
 20
-0.6542953646407578
 30
0.0
 10
44.69460352117014
 20
-0.6034006333117488
 30
0.0
 10
44.74939079076523
 20
-0.5925648945381186
 30
0.0
 10
44.78789991510131
 20
-0.5960942003569402
 30
0.0
  0
SPLINE
  5
CC
330
1F
100
AcDbEntity
  8
0
  6
Continuous
 62
     1
370
    15
100
AcDbSpline
210
0.0
220
0.0
230
1.0
 70
     8
 71
     3
 72
     8
 73
     4
 74
     0
 42
0.000000001
 43
0.00000001
 40
0.0
 40
0.0
 40
0.0
 40
0.0
 40
1.0
 40
1.0
 40
1.0
 40
1.0
 10
43.96116778257391
 20
-1.08591395505897
 30
0.0
 10
44.06969321679562
 20
-1.188820817595244
 30
0.0
 10
44.17557918535226
 20
-1.291504734864293
 30
0.0
 10
44.280066424484
 20
-1.394070506969099
 30
0.0
  0
SPLINE
  5
CD
330
1F
100
AcDbEntity
  8
0
  6
Continuous
 62
     1
370
    15
100
AcDbSpline
210
0.0
220
0.0
230
1.0
 70
     8
 71
     3
 72
    10
 73
     6
 74
     0
 42
0.000000001
 43
0.00000001
 40
0.0
 40
0.0
 40
0.0
 40
0.0
 40
0.5
 40
0.5
 40
1.0
 40
1.0
 40
1.0
 40
1.0
 10
44.28006642448383
 20
-1.394070506969433
 30
0.0
 10
44.17330867217931
 20
-1.4304049494223
 30
0.0
 10
44.06785619575196
 20
-1.444514424028893
 30
0.0
 10
43.85401614656188
 20
-1.435577916189685
 30
0.0
 10
43.74868754998582
 20
-1.412718223047094
 30
0.0
 10
43.64130014184705
 20
-1.373865916251466
 30
0.0
  0
SPLINE
  5
CE
330
1F
100
AcDbEntity
  8
0
  6
Continuous
 62
     1
370
    15
100
AcDbSpline
210
0.0
220
0.0
230
1.0
 70
     8
 71
     3
 72
     9
 73
     5
 74
     0
 42
0.000000001
 43
0.00000001
 40
0.0
 40
0.0
 40
0.0
 40
0.0
 40
0.6456844053867846
 40
1.0
 40
1.0
 40
1.0
 40
1.0
 10
43.64130014184705
 20
1.37408971272106
 30
0.0
 10
43.41270675073481
 20
1.460570157728718
 30
0.0
 10
43.0586740542578
 20
1.594506248311319
 30
0.0
 10
42.70787444401844
 20
1.607008420028636
 30
0.0
 10
42.58358067152641
 20
1.611438134434614
 30
0.0
  0
SPLINE
  5
CF
330
1F
100
AcDbEntity
  8
0
  6
Continuous
 62
     1
370
    15
100
AcDbSpline
210
0.0
220
0.0
230
1.0
 70
     8
 71
     3
 72
    23
 73
    19
 74
     0
 42
0.000000001
 43
0.00000001
 40
0.0
 40
0.0
 40
0.0
 40
0.0
 40
0.0296982760158187
 40
0.0970282187644566
 40
0.1622603501924131
 40
0.2293909578295997
 40
0.2944711109077245
 40
0.3614433820601946
 40
0.4264068317457297
 40
0.4932572885516949
 40
0.558137902650955
 40
0.6249017163096531
 40
0.6897286861293794
 40
0.7564361096255091
 40
0.8212333771814032
 40
0.887909135733345
 40
0.9526981301615567
 40
1.0
 40
1.0
 40
1.0
 40
1.0
 10
37.37787669391537
 20
-1.517807484028447
 30
0.0
 10
37.30167703413215
 20
-1.558848072163929
 30
0.0
 10
37.0527226081148
 20
-1.692933133590067
 30
0.0
 10
36.638666613124
 20
-1.812556042240698
 30
0.0
 10
36.1311519400653
 20
-1.865914194788008
 30
0.0
 10
35.63142533631563
 20
-1.7974236556042
 30
0.0
 10
35.12976299013907
 20
-1.616355490490717
 30
0.0
 10
34.6354442599508
 20
-1.335239241546736
 30
0.0
 10
34.13913810619052
 20
-0.9660902198417737
 30
0.0
 10
33.6498817273532
 20
-0.5376714373514023
 30
0.0
 10
33.15853705756322
 20
-0.0674192094450048
 30
0.0
 10
32.67402354763232
 20
0.4083624127867551
 30
0.0
 10
32.18727321549316
 20
0.8706053268617171
 30
0.0
 10
31.70723380270392
 20
1.283804777274984
 30
0.0
 10
31.22475282710906
 20
1.632747834473793
 30
0.0
 10
30.74898974855512
 20
1.886048695501902
 30
0.0
 10
30.31712761118473
 20
2.036599556257564
 30
0.0
 10
30.04781408547187
 20
2.048187945597925
 30
0.0
 10
29.93416491858975
 20
2.0530781968044
 30
0.0
  0
SPLINE
  5
D0
330
1F
100
AcDbEntity
  8
0
  6
Continuous
 62
     1
370
    15
100
AcDbSpline
210
0.0
220
0.0
230
1.0
 70
     8
 71
     3
 72
    24
 73
    20
 74
     0
 42
0.000000001
 43
0.00000001
 40
0.0
 40
0.0
 40
0.0
 40
0.0
 40
0.0447561699180013
 40
0.1045039799555552
 40
0.1659772885239678
 40
0.2258391577397711
 40
0.2874295701076331
 40
0.3474118482499382
 40
0.4091256098523597
 40
0.4692369884295273
 40
0.5310827350057161
 40
0.5913339796318416
 40
0.6533226847341075
 40
0.7137255420783158
 40
0.7758696445208557
 40
0.8364353643591168
 40
0.8987471121524393
 40
0.9594847346388435
 40
0.9999999999999999
 40
0.9999999999999999
 40
0.9999999999999999
 40
0.9999999999999999
 10
24.57381551317787
 20
-1.990809310370921
 30
0.0
 10
24.46161151453425
 20
-2.050764787296544
 30
0.0
 10
24.19961938145699
 20
-2.190758579668421
 30
0.0
 10
23.78579754148279
 20
-2.288493793092937
 30
0.0
 10
23.3355964967564
 20
-2.293642830191794
 30
0.0
 10
22.88261320935488
 20
-2.179231735743424
 30
0.0
 10
22.43515993281835
 20
-1.956639425207199
 30
0.0
 10
21.98450573655191
 20
-1.631842952213065
 30
0.0
 10
21.53955274252072
 20
-1.225692248874922
 30
0.0
 10
21.09131591566675
 20
-0.7515127336714199
 30
0.0
 10
20.64854813778254
 20
-0.2395716252804028
 30
0.0
 10
20.20281009136599
 20
0.293648862337572
 30
0.0
 10
19.76196938377209
 20
0.8135022336240978
 30
0.0
 10
19.31861530700896
 20
1.304073978818116
 30
0.0
 10
18.87967542662206
 20
1.732530494540509
 30
0.0
 10
18.43838719820763
 20
2.087556140668195
 30
0.0
 10
18.00154954536651
 20
2.339536651428292
 30
0.0
 10
17.61388894953243
 20
2.483565165012735
 30
0.0
 10
17.37496167058233
 20
2.490604057739711
 30
0.0
 10
17.27935746299415
 20
2.493420595744153
 30
0.0
  0
LINE
  5
D1
330
1F
100
AcDbEntity
  8
0
  6
Continuous
 62
     1
370
    15
100
AcDbLine
 10
12.40739719083183
 20
-2.735171900648221
 30
0.0
 11
12.50835353905955
 21
-2.715619610016988
 31
0.0
  0
SPLINE
  5
D2
330
1F
100
AcDbEntity
  8
0
  6
Continuous
 62
     1
370
    15
100
AcDbSpline
210
0.0
220
0.0
230
1.0
 70
     8
 71
     3
 72
    24
 73
    20
 74
     0
 42
0.000000001
 43
0.00000001
 40
0.0
 40
0.0
 40
0.0
 40
0.0
 40
0.0483253221268991
 40
0.1110044953498113
 40
0.1755092285164227
 40
0.2380297274750755
 40
0.3023708638351418
 40
0.3647390061532453
 40
0.428922929135852
 40
0.4911473914816857
 40
0.555182935248475
 40
0.6172736470820123
 40
0.6811709695112131
 40
0.7431381241060044
 40
0.8069077056017809
 40
0.8687612816917434
 40
0.9324133141845752
 40
0.9941636533007847
 40
0.9999999999999999
 40
0.9999999999999999
 40
0.9999999999999999
 40
0.9999999999999999
 10
18.1589232235866
 20
2.232752153746092
 30
0.0
 10
18.27496830625215
 20
2.285849996128385
 30
0.0
 10
18.54152681579071
 20
2.407817092019287
 30
0.0
 10
18.96522720797941
 20
2.463191038672646
 30
0.0
 10
19.42432983746203
 20
2.416359947894541
 30
0.0
 10
19.88959764520245
 20
2.246480826448455
 30
0.0
 10
20.35109646422368
 20
1.970300047075466
 30
0.0
 10
20.81855977496844
 20
1.595943182911526
 30
0.0
 10
21.28258537077142
 20
1.149676262967569
 30
0.0
 10
21.75232209569823
 20
0.6460084851814211
 30
0.0
 10
22.21895327918939
 20
0.120094548528317
 30
0.0
 10
22.69112337679957
 20
-0.4112658527776848
 30
0.0
 10
23.16039672709146
 20
-0.9106248895264443
 30
0.0
 10
23.63518838733557
 20
-1.362459679192999
 30
0.0
 10
24.10714844268402
 20
-1.733760851288919
 30
0.0
 10
24.58470747520664
 20
-2.017081578005373
 30
0.0
 10
25.05954292859621
 20
-2.176646971283787
 30
0.0
 10
25.39291868745533
 20
-2.239606628111129
 30
0.0
 10
25.56555799801968
 20
-2.214346143544581
 30
0.0
 10
25.58046600627916
 20
-2.212164812355726
 30
0.0
  0
SPLINE
  5
D3
330
1F
100
AcDbEntity
  8
0
  6
Continuous
 62
     1
370
    15
100
AcDbSpline
210
0.0
220
0.0
230
1.0
 70
     8
 71
     3
 72
    22
 73
    18
 74
     0
 42
0.000000001
 43
0.00000001
 40
0.0
 40
0.0
 40
0.0
 40
0.0
 40
0.0567109458940778
 40
0.1255991399980773
 40
0.1925166410471157
 40
0.2613738840619964
 40
0.3282788866879717
 40
0.3971222385721111
 40
0.4640321950899762
 40
0.5328795562665914
 40
0.5998127905647218
 40
0.6686829540841446
 40
0.7356587697475208
 40
0.804571530823798
 40
0.8716103470878566
 40
0.9405866423153487
 40
1.0
 40
1.0
 40
1.0
 40
1.0
 10
30.98316224251974
 20
1.746016836543125
 30
0.0
 10
31.12164369381093
 20
1.805985565900085
 30
0.0
 10
31.42834200246451
 20
1.938799799823807
 30
0.0
 10
31.90088528733752
 20
2.007741833208654
 30
0.0
 10
32.40501408782156
 20
1.972712793908374
 30
0.0
 10
32.90644099672674
 20
1.819824537941513
 30
0.0
 10
33.41455372933461
 20
1.559650365420414
 30
0.0
 10
33.92005196173044
 20
1.211878704715899
 30
0.0
 10
34.43231009670724
 20
0.792133881542131
 30
0.0
 10
34.94207070796498
 20
0.3336559287995079
 30
0.0
 10
35.45867925510657
 20
-0.1431106345331699
 30
0.0
 10
35.97289616441061
 20
-0.6001418874844793
 30
0.0
 10
36.49407356698376
 20
-1.016530197371406
 30
0.0
 10
37.01294476797643
 20
-1.35974798469688
 30
0.0
 10
37.53895588485646
 20
-1.610387941198716
 30
0.0
 10
38.04268236077509
 20
-1.756302183811795
 30
0.0
 10
38.37527855989806
 20
-1.758297551496047
 30
0.0
 10
38.52919016020879
 20
-1.759220924145228
 30
0.0
  0
SPLINE
  5
D4
330
1F
100
AcDbEntity
  8
0
  6
Continuous
 62
     1
370
    15
100
AcDbSpline
210
0.0
220
0.0
230
1.0
 70
     8
 71
     3
 72
    11
 73
     7
 74
     0
 42
0.000000001
 43
0.00000001
 40
0.0
 40
0.0
 40
0.0
 40
0.0
 40
0.1933851355214681
 40
0.5477185619424639
 40
0.8886209505123127
 40
1.0
 40
1.0
 40
1.0
 40
1.0
 10
43.75949897671281
 20
1.308155856550223
 30
0.0
 10
43.83506930619842
 20
1.333608747861954
 30
0.0
 10
44.04910474423643
 20
1.405698161502492
 30
0.0
 10
44.38469157093871
 20
1.355575584700063
 30
0.0
 10
44.65201167188943
 20
1.193811064630896
 30
0.0
 10
44.76104846161189
 20
1.064698282296437
 30
0.0
 10
44.78789991510207
 20
1.032902904986936
 30
0.0
  0
SPLINE
  5
D5
330
1F
100
AcDbEntity
  8
0
  6
Continuous
 62
     1
370
    15
100
AcDbSpline
210
0.0
220
0.0
230
1.0
 70
     8
 71
     3
 72
    12
 73
     8
 74
     0
 42
0.000000001
 43
0.00000001
 40
0.0
 40
0.0
 40
0.0
 40
0.0
 40
0.1650510918668059
 40
0.4444579478253805
 40
0.7252612628426688
 40
0.9740126412815356
 40
1.0
 40
1.0
 40
1.0
 40
1.0
 10
44.24051548655281
 20
0.8195928493760365
 30
0.0
 10
44.27497514618793
 20
0.8057956292898811
 30
0.0
 10
44.36776986466548
 20
0.7686417755599322
 30
0.0
 10
44.5248067253231
 20
0.7850991280944604
 30
0.0
 10
44.67878782262334
 20
0.8670190510733092
 30
0.0
 10
44.75618321421328
 20
0.9698634843172461
 30
0.0
 10
44.78515910446118
 20
1.027455329732311
 30
0.0
 10
44.78789991510131
 20
1.032902904987061
 30
0.0
  0
SPLINE
  5
D6
330
1F
100
AcDbEntity
  8
0
  6
Continuous
 62
     1
370
    15
100
AcDbSpline
210
0.0
220
0.0
230
1.0
 70
     8
 71
     3
 72
    10
 73
     6
 74
     0
 42
0.000000001
 43
0.00000001
 40
0.0
 40
0.0
 40
0.0
 40
0.0
 40
0.5
 40
0.5
 40
1.0
 40
1.0
 40
1.0
 40
1.0
 10
44.28006642448385
 20
0.9637552564591854
 30
0.0
 10
44.17330867217932
 20
1.047876958690066
 30
0.0
 10
44.06785619575198
 20
1.128259177472698
 30
0.0
 10
43.85401614656188
 20
1.269548509701655
 30
0.0
 10
43.74868754998582
 20
1.32876269409123
 30
0.0
 10
43.64130014184705
 20
1.374089712721061
 30
0.0
  0
LINE
  5
D7
330
1F
100
AcDbEntity
  8
0
  6
Continuous
 62
     4
370
    15
100
AcDbLine
 10
13.42339719083182
 20
2.595551925068063
 30
0.0
 11
13.42339719083181
 21
0.2546414698760521
 31
0.0
  0
LINE
  5
D8
330
1F
100
AcDbEntity
  8
0
  6
Continuous
 62
     4
370
    15
100
AcDbLine
 10
12.40739719083183
 20
2.738120000000014
 30
0.0
 11
12.40739719083183
 21
1.477594387401651
 31
0.0
  0
LINE
  5
D9
330
1F
100
AcDbEntity
  8
0
  6
Continuous
 62
     4
370
    15
100
AcDbLine
 10
13.42339719083183
 20
-1.723834434582559
 30
0.0
 11
13.42339719083181
 21
-2.641765361369202
 31
0.0
  0
LINE
  5
DA
330
1F
100
AcDbEntity
  8
0
  6
Continuous
 62
     1
370
    15
100
AcDbLine
 10
43.64130014184705
 20
1.374089712721061
 30
0.0
 11
43.64130014184705
 21
0.1803325405588394
 31
0.0
  0
ARC
  5
DB
330
1F
100
AcDbEntity
  8
0
  6
Continuous
 62
     1
370
    15
100
AcDbCircle
 10
43.09607683617956
 20
1.16440073419864
 30
0.0
 40
1.200870497993264
100
AcDbArc
 50
336.4155704232871
 51
350.3817174715788
  0
LINE
  5
DC
330
1F
100
AcDbEntity
  8
0
  6
Continuous
 62
     1
370
    15
100
AcDbLine
 10
44.19664041393813
 20
0.6839324581784028
 30
0.0
 11
45.17339719083182
 21
0.0000000000000201
 31
0.0
  0
ARC
  5
DD
330
1F
100
AcDbEntity
  8
0
  6
Continuous
 62
     1
370
    15
100
AcDbCircle
 10
44.07394667173672
 20
0.2883218074612545
 30
0.0
 40
1.136626987448482
100
AcDbArc
 50
308.9125335708371
 51
345.3055407685134
  0
ARC
  5
DE
330
1F
100
AcDbEntity
  8
0
  6
Continuous
 62
     1
370
    15
100
AcDbCircle
 10
44.17035180724165
 20
-1.346666591813372
 30
0.0
 40
0.1195174816031045
100
AcDbArc
 50
291.8677369237755
 51
336.6324867027731
  0
ARC
  5
DF
330
1F
100
AcDbEntity
  8
0
  6
Continuous
 62
     1
370
    15
100
AcDbCircle
 10
43.47813097083731
 20
0.0718832404421586
 30
0.0
 40
1.696789544083454
100
AcDbArc
 50
296.5637109234298
 51
357.5719798189242
  0
ARC
  5
E0
330
1F
100
AcDbEntity
  8
0
  6
Continuous
 62
     1
370
    15
100
AcDbCircle
 10
43.60807310281741
 20
0.0041824926411894
 30
0.0
 40
1.565329675743371
100
AcDbArc
 50
359.8469079932223
 51
41.08598481442442
  0
LINE
  5
E1
330
1F
100
AcDbEntity
  8
0
  6
Continuous
 62
     8
370
    15
100
AcDbLine
 10
43.64130014184705
 20
-1.373865916251468
 30
0.0
 11
43.64130014184705
 21
-1.586532937892801
 31
0.0
  0
LINE
  5
E2
330
1F
100
AcDbEntity
  8
중심선
100
AcDbLine
 10
-34.02660280916819
 20
-0.0000000000000004
 30
0.0
 11
49.64130014184704
 21
-0.0000000000000004
 31
0.0
  0
CIRCLE
  5
E3
330
1F
100
AcDbEntity
  8
외형선
100
AcDbCircle
 10
0.0
 20
0.0
 30
0.0
 40
3.0
  0
INSERT
  5
E4
330
1F
100
AcDbEntity
  8
0
  6
Continuous
 62
     7
100
AcDbBlockReference
 66
     1
  2
블럭10
 10
-6.876107205278438
 20
-52.05975325537357
 30
0.0
  0
ATTRIB
  5
E5
330
E4
100
AcDbEntity
  8
FORMAT
 62
     2
100
AcDbText
 10
-16.05740249401972
 20
-49.98438634254138
 30
0.0
 40
4.233333333333333
  1
E5078208 [ 3 FLUTE ]
 41
0.75
  7
SLDTEXTSTYLE0
 11
-16.05740249401972
 21
-52.10105300920804
 31
0.0
100
AcDbAttribute
  2
AUTOATTR0
 70
     0
 74
     1
  0
SEQEND
  5
E6
330
E4
100
AcDbEntity
  8
0
  6
Continuous
 62
     7
  0
HATCH
  5
E7
330
1F
100
AcDbEntity
  8
중심선
100
AcDbHatch
 10
0.0
 20
0.0
 30
0.0
210
0.0
220
0.0
230
1.0
  2
SOLID
 70
     1
 71
     0
 91
        1
 92
        0
 93
        4
 72
     1
 10
-1.161197900897589
 20
-35.81257895372963
 11
-4.607473144734871
 21
-35.81257895372963
 72
     1
 10
-4.607473144734871
 20
-35.81257895372963
 11
-6.735703003938894
 21
-38.34890453430223
 72
     1
 10
-6.735703003938894
 20
-38.34890453430223
 11
-3.289394674988462
 21
-38.34886510499974
 72
     1
 10
-3.289394674988462
 20
-38.34886510499974
 11
-1.161197900897589
 21
-35.81257895372963
 97
        0
 75
     0
 76
     1
 98
        1
 10
-5.443333405597002
 20
0.0
  0
HATCH
  5
E8
330
1F
100
AcDbEntity
  8
중심선
100
AcDbHatch
 10
0.0
 20
0.0
 30
0.0
210
0.0
220
0.0
230
1.0
  2
SOLID
 70
     1
 71
     0
 91
        1
 92
        0
 93
        4
 72
     1
 10
3.851566090138363
 20
-35.81257895372963
 11
0.4052908463010798
 21
-35.81257895372963
 72
     1
 10
0.4052908463010798
 20
-35.81257895372963
 11
-4.125847162056308
 21
-41.21257895372965
 72
     1
 10
-4.125847162056308
 20
-41.21257895372965
 11
-0.6795719182190254
 21
-41.21257895372965
 72
     1
 10
-0.6795719182190254
 20
-41.21257895372965
 11
3.851566090138363
 21
-35.81257895372963
 97
        0
 75
     0
 76
     1
 98
        1
 10
-5.443333405597002
 20
0.0
  0
HATCH
  5
E9
330
1F
100
AcDbEntity
  8
중심선
100
AcDbHatch
 10
0.0
 20
0.0
 30
0.0
210
0.0
220
0.0
230
1.0
  2
SOLID
 70
     1
 71
     0
 91
        1
 92
        0
 93
        4
 72
     1
 10
8.86433008117426
 20
-35.81257895372966
 11
5.418054837337142
 21
-35.81257895372963
 72
     1
 10
5.418054837337142
 20
-35.81257895372963
 11
-1.630382064552107
 21
-44.21257895372965
 72
     1
 10
-1.630382064552107
 20
-44.21257895372965
 11
1.815893179285176
 21
-44.21257895372965
 72
     1
 10
1.815893179285176
 20
-44.21257895372965
 11
8.86433008117426
 21
-35.81257895372966
 97
        0
 75
     0
 76
     1
 98
        1
 10
-5.443333405597002
 20
0.0
  0
HATCH
  5
EA
330
1F
100
AcDbEntity
  8
중심선
100
AcDbHatch
 10
0.0
 20
0.0
 30
0.0
210
0.0
220
0.0
230
1.0
  2
SOLID
 70
     1
 71
     0
 91
        1
 92
        0
 93
        6
 72
     3
 10
13.66422051218646
 20
-40.01257895378091
 11
3.960054785062283
 21
1.540882976769353E-10
 40
0.3939339440162628
 50
17.09539180608437
 51
320.0019657685079
 73
     0
 72
     1
 10
15.34722016788705
 20
-38.60047295836794
 11
17.65252204158809
 21
-36.66614624832001
 72
     3
 10
13.66422051213361
 20
-40.01257895372979
 11
6.600054785286829
 21
-1.278976924368180E-13
 40
0.636358354079598
 50
39.99873849337413
 51
368.4976242363725
 73
     1
 72
     1
 10
20.08955300403422
 20
-39.05257895365965
 11
12.34428781896953
 21
-39.05257895365963
 72
     1
 10
12.34428781896953
 20
-39.05257895365963
 11
12.3442627745236
 21
-40.97257895365955
 72
     1
 10
12.3442627745236
 20
-40.97257895365955
 11
16.78564254399564
 21
-40.97257895365952
 97
        0
 75
     0
 76
     1
 98
        1
 10
-5.443333405597002
 20
0.0
  0
DIMENSION
  5
EB
330
1F
100
AcDbEntity
  8
치수문자_일반주서
100
AcDbDimension
  2
_D
 10
13.42339719083184
 20
42.28643490290873
 30
0.0
 11
29.29839719083184
 21
42.28643490290873
 31
0.0
 70
   160
  1
<>
 71
     2
 42
31.75
  3
SLDDIMSTYLE0
100
AcDbAlignedDimension
 13
45.17339719083184
 23
1.587499999999999
 33
0.0
 14
13.42339719083184
 24
3.483675262632624
 34
0.0
100
AcDbRotatedDimension
1001
ACAD
1000
DSTYLE
1002
{
1070
   171
1070
     6
1070
   273
1070
     7
1002
}
  0
DIMENSION
  5
FF
330
1F
100
AcDbEntity
  8
치수문자_일반주서
100
AcDbDimension
  2
_D_1
 10
-31.02660280916817
 20
54.70670173446225
 30
0.0
 11
8.777383041077778
 21
54.70670173446225
 31
0.0
 70
   160
  1
<>
 71
     2
 42
76.20000000000002
  3
SLDDIMSTYLE1
100
AcDbAlignedDimension
 13
45.17339719083184
 23
1.649999999999999
 33
0.0
 14
-31.02660280916817
 24
2.364999999999999
 34
0.0
100
AcDbRotatedDimension
1001
ACAD
1000
DSTYLE
1002
{
1070
   171
1070
     6
1070
   273
1070
     7
1002
}
  0
INSERT
  5
12A
330
1F
100
AcDbEntity
  8
외형선
100
AcDbBlockReference
  2
SW_DOWELSYMBOL_0
 10
0.0
 20
0.0
 30
0.0
  0
DIMENSION
  5
150
102
{ACAD_REACTORS
102
}
102
{ACAD_XDICTIONARY
360
151
102
}
330
1F
100
AcDbEntity
  8
치수문자_일반주서
100
AcDbDimension
  2
*D7
 10
-50.01260701807635
 20
3.175000000000007
 30
0.0
 11
-52.63760701807635
 21
22.46650000000001
 31
0.0
 70
    32
  1
{%%c<>[]}
 71
     5
 42
6.349999999999996
  3
SLDDIMSTYLE0
100
AcDbAlignedDimension
 13
-30.21660280916817
 23
-3.17499999999999
 33
0.0
 14
-30.21660280916817
 24
3.175000000000006
 34
0.0
 50
90.0
100
AcDbRotatedDimension
1001
ACAD
1000
DSTYLE
1002
{
1070
   283
1070
     1
1070
   170
1070
     1
1070
   171
1070
     6
1070
   273
1070
     7
1002
}
  0
LINE
  5
16C
102
{ACAD_REACTORS
102
}
330
1F
100
AcDbEntity
  8
중심선
100
AcDbLine
 10
-34.0266028091682
 20
-0.0000000000000003
 30
0.0
 11
49.64130014184704
 21
-0.0000000000000003
 31
0.0
  0
DIMENSION
  5
16E
102
{ACAD_XDICTIONARY
360
16F
102
}
330
1F
100
AcDbEntity
  8
치수문자_일반주서
100
AcDbDimension
  2
*D8
 10
56.15292653094998
 20
1.649999999999999
 30
0.0
 11
53.52792653094998
 21
20.94149999999999
 31
0.0
 70
    32
  1
{%%c<>[]}
 71
     5
 42
3.2375
  3
SLDDIMSTYLE0
100
AcDbAlignedDimension
 13
45.19653052416358
 23
-1.5875
 33
0.0
 14
45.17339719083184
 24
1.649999999999999
 34
0.0
 50
90.0
100
AcDbRotatedDimension
1001
ACAD
1000
DSTYLE
1002
{
1070
   283
1070
     1
1070
   170
1070
     1
1070
   171
1070
     6
1070
   273
1070
     7
1002
}
  0
DIMENSION
  5
181
102
{ACAD_REACTORS
102
}
102
{ACAD_XDICTIONARY
360
182
102
}
330
1F
100
AcDbEntity
  8
치수문자_일반주서
100
AcDbDimension
  2
*D9
 10
49.64130014184704
 20
-0.0000000000000003
 30
0.0
 11
16.34555946588659
 21
11.99792780555537
 31
0.0
 70
    34
  1
<>
 71
     5
 42
0.0349065850398865
  3
SLDDIMSTYLE0
100
AcDb2LineAngularDimension
 13
25.72227768748824
 23
2.212278990538941
 33
0.0
 14
23.41253332274538
 24
2.292937041084989
 34
0.0
 15
-34.0266028091682
 25
-0.0000000000000003
 35
0.0
 16
18.0391201899958
 26
0.8265616939911347
 36
0.0
1001
ACAD
1000
DSTYLE
1002
{
1070
   171
1070
     6
1070
   273
1070
     7
1002
}
  0
ENDSEC
  0
SECTION
  2
OBJECTS
  0
DICTIONARY
  5
C
330
0
100
AcDbDictionary
281
     1
  3
ACAD_DETAILVIEWSTYLE
350
167
  3
ACAD_GROUP
350
D
  3
ACAD_IMAGE_VARS
350
14E
  3
ACAD_LAYOUT
350
1A
  3
ACAD_MLINESTYLE
350
17
  3
ACAD_PLOTSETTINGS
350
19
  3
ACAD_PLOTSTYLENAME
350
E
  3
ACAD_SCALELIST
350
47
  3
ACAD_SECTIONVIEWSTYLE
350
168
  3
AcDbVariableDictionary
350
162
  3
APPDATA
350
14C
  3
DWGPROPS
350
194
  0
DICTIONARY
  5
151
330
150
100
AcDbDictionary
280
     1
281
     1
  0
DICTIONARY
  5
16F
330
16E
100
AcDbDictionary
280
     1
281
     1
  0
DICTIONARY
  5
182
330
181
100
AcDbDictionary
280
     1
281
     1
  0
DICTIONARY
  5
167
102
{ACAD_REACTORS
330
C
102
}
330
C
100
AcDbDictionary
281
     1
  0
DICTIONARY
  5
D
102
{ACAD_REACTORS
330
C
102
}
330
C
100
AcDbDictionary
281
     1
  0
RASTERVARIABLES
  5
14E
102
{ACAD_REACTORS
330
C
102
}
330
C
100
AcDbRasterVariables
 90
        0
 70
     1
 71
     1
 72
     1
  0
DICTIONARY
  5
1A
102
{ACAD_REACTORS
330
C
102
}
330
C
100
AcDbDictionary
281
     1
  3
Layout1
350
1E
  3
Layout2
350
26
  3
Model
350
22
  0
DICTIONARY
  5
17
102
{ACAD_REACTORS
330
C
102
}
330
C
100
AcDbDictionary
281
     1
  3
Standard
350
18
  0
DICTIONARY
  5
19
102
{ACAD_REACTORS
330
C
102
}
330
C
100
AcDbDictionary
281
     1
  0
ACDBDICTIONARYWDFLT
  5
E
102
{ACAD_REACTORS
330
C
102
}
330
C
100
AcDbDictionary
281
     1
  3
Normal
350
F
100
AcDbDictionaryWithDefault
340
F
  0
DICTIONARY
  5
47
102
{ACAD_REACTORS
330
C
102
}
330
C
100
AcDbDictionary
281
     1
  3
A0
350
48
  3
A1
350
49
  3
A2
350
4A
  3
A3
350
4B
  3
A4
350
4C
  3
A5
350
4D
  3
A6
350
4E
  3
A7
350
4F
  3
A8
350
50
  3
A9
350
51
  3
B0
350
52
  3
B1
350
53
  3
B2
350
54
  3
B3
350
55
  3
B4
350
56
  3
B5
350
57
  3
B6
350
58
  3
B7
350
59
  3
B8
350
5A
  3
B9
350
5B
  3
C0
350
5C
  3
C1
350
5D
  3
C2
350
5E
  3
C3
350
5F
  3
C4
350
60
  3
C5
350
61
  3
C6
350
62
  3
C7
350
63
  3
C8
350
64
  3
C9
350
65
  3
D0
350
66
  3
D1
350
67
  3
D2
350
68
  0
DICTIONARY
  5
168
102
{ACAD_REACTORS
330
C
102
}
330
C
100
AcDbDictionary
281
     1
  0
DICTIONARY
  5
162
102
{ACAD_REACTORS
330
C
102
}
330
C
100
AcDbDictionary
281
     1
  0
DICTIONARY
  5
14C
102
{ACAD_REACTORS
330
C
102
}
330
C
100
AcDbDictionary
281
     1
  0
XRECORD
  5
194
102
{ACAD_REACTORS
330
C
102
}
330
C
100
AcDbXrecord
280
     1
  1
DWGPROPS COOKIE
  2

  3

  4

  6

  7

  8
12015048
  9

300
=
301
=
302
=
303
=
304
=
305
=
306
=
307
=
308
=
309
=
 40
0.0
 41
2458340.217982662
 42
2458341.074341782
  1

 90
        0
  0
LAYOUT
  5
1E
102
{ACAD_REACTORS
330
1A
102
}
330
1A
100
AcDbPlotSettings
  1

  2
none_device
  4

  6

 40
0.0
 41
0.0
 42
0.0
 43
0.0
 44
0.0
 45
0.0
 46
0.0
 47
0.0
 48
0.0
 49
0.0
140
0.0
141
0.0
142
1.0
143
1.0
 70
   688
 72
     1
 73
     0
 74
     5
  7

 75
    16
147
1.0
148
0.0
149
0.0
100
AcDbLayout
  1
Layout1
 70
     1
 71
     1
 10
0.0
 20
0.0
 11
420.0
 21
297.0
 12
0.0
 22
0.0
 32
0.0
 14
1.000000000000000E+20
 24
1.000000000000000E+20
 34
1.000000000000000E+20
 15
-1.000000000000000E+20
 25
-1.000000000000000E+20
 35
-1.000000000000000E+20
146
0.0
 13
0.0
 23
0.0
 33
0.0
 16
1.0
 26
0.0
 36
0.0
 17
0.0
 27
1.0
 37
0.0
 76
     0
330
1B
  0
LAYOUT
  5
26
102
{ACAD_REACTORS
330
1A
102
}
330
1A
100
AcDbPlotSettings
  1

  2
none_device
  4

  6

 40
0.0
 41
0.0
 42
0.0
 43
0.0
 44
0.0
 45
0.0
 46
0.0
 47
0.0
 48
0.0
 49
0.0
140
0.0
141
0.0
142
1.0
143
1.0
 70
   688
 72
     1
 73
     0
 74
     5
  7

 75
    16
147
1.0
148
0.0
149
0.0
100
AcDbLayout
  1
Layout2
 70
     1
 71
     2
 10
0.0
 20
0.0
 11
0.0
 21
0.0
 12
0.0
 22
0.0
 32
0.0
 14
0.0
 24
0.0
 34
0.0
 15
0.0
 25
0.0
 35
0.0
146
0.0
 13
0.0
 23
0.0
 33
0.0
 16
1.0
 26
0.0
 36
0.0
 17
0.0
 27
1.0
 37
0.0
 76
     0
330
23
  0
LAYOUT
  5
22
102
{ACAD_REACTORS
330
1A
102
}
330
1A
100
AcDbPlotSettings
  1

  2
none_device
  4
ANSI_A_(11.00_x_8.50_Inches)
  6

 40
6.35
 41
19.05
 42
6.35000508
 43
19.05000254
 44
279.4
 45
215.9
 46
131.927374017968
 47
100.0349995745547
 48
0.0
 49
0.0
140
0.0
141
0.0
142
0.0915836148719576
143
1.0
 70
  1696
 72
     0
 73
     0
 74
     0
  7

 75
     0
147
0.0235690232323232
148
0.0
149
0.0
100
AcDbLayout
  1
Model
 70
     1
 71
     0
 10
0.0
 20
0.0
 11
420.0
 21
297.0
 12
0.0
 22
0.0
 32
0.0
 14
-54.38760701807635
 24
-49.98438634254138
 34
0.0
 15
56.70325986428332
 25
59.08170173446226
 35
0.0
146
0.0
 13
0.0
 23
0.0
 33
0.0
 16
1.0
 26
0.0
 36
0.0
 17
0.0
 27
1.0
 37
0.0
 76
     0
330
1F
331
29
  0
MLINESTYLE
  5
18
102
{ACAD_REACTORS
330
17
102
}
330
17
100
AcDbMlineStyle
  2
Standard
 70
     0
  3

 62
   256
 51
90.0
 52
90.0
 71
     2
 49
0.5
 62
   256
  6
BYLAYER
 49
-0.5
 62
   256
  6
BYLAYER
  0
ACDBPLACEHOLDER
  5
F
102
{ACAD_REACTORS
330
E
102
}
330
E
  0
SCALE
  5
48
102
{ACAD_REACTORS
330
47
102
}
330
47
100
AcDbScale
 70
     0
300
1:1
140
1.0
141
1.0
290
     1
  0
SCALE
  5
49
102
{ACAD_REACTORS
330
47
102
}
330
47
100
AcDbScale
 70
     0
300
1:2
140
1.0
141
2.0
290
     0
  0
SCALE
  5
4A
102
{ACAD_REACTORS
330
47
102
}
330
47
100
AcDbScale
 70
     0
300
1:4
140
1.0
141
4.0
290
     0
  0
SCALE
  5
4B
102
{ACAD_REACTORS
330
47
102
}
330
47
100
AcDbScale
 70
     0
300
1:5
140
1.0
141
5.0
290
     0
  0
SCALE
  5
4C
102
{ACAD_REACTORS
330
47
102
}
330
47
100
AcDbScale
 70
     0
300
1:8
140
1.0
141
8.0
290
     0
  0
SCALE
  5
4D
102
{ACAD_REACTORS
330
47
102
}
330
47
100
AcDbScale
 70
     0
300
1:10
140
1.0
141
10.0
290
     0
  0
SCALE
  5
4E
102
{ACAD_REACTORS
330
47
102
}
330
47
100
AcDbScale
 70
     0
300
1:16
140
1.0
141
16.0
290
     0
  0
SCALE
  5
4F
102
{ACAD_REACTORS
330
47
102
}
330
47
100
AcDbScale
 70
     0
300
1:20
140
1.0
141
20.0
290
     0
  0
SCALE
  5
50
102
{ACAD_REACTORS
330
47
102
}
330
47
100
AcDbScale
 70
     0
300
1:30
140
1.0
141
30.0
290
     0
  0
SCALE
  5
51
102
{ACAD_REACTORS
330
47
102
}
330
47
100
AcDbScale
 70
     0
300
1:40
140
1.0
141
40.0
290
     0
  0
SCALE
  5
52
102
{ACAD_REACTORS
330
47
102
}
330
47
100
AcDbScale
 70
     0
300
1:50
140
1.0
141
50.0
290
     0
  0
SCALE
  5
53
102
{ACAD_REACTORS
330
47
102
}
330
47
100
AcDbScale
 70
     0
300
1:100
140
1.0
141
100.0
290
     0
  0
SCALE
  5
54
102
{ACAD_REACTORS
330
47
102
}
330
47
100
AcDbScale
 70
     0
300
2:1
140
2.0
141
1.0
290
     0
  0
SCALE
  5
55
102
{ACAD_REACTORS
330
47
102
}
330
47
100
AcDbScale
 70
     0
300
4:1
140
4.0
141
1.0
290
     0
  0
SCALE
  5
56
102
{ACAD_REACTORS
330
47
102
}
330
47
100
AcDbScale
 70
     0
300
8:1
140
8.0
141
1.0
290
     0
  0
SCALE
  5
57
102
{ACAD_REACTORS
330
47
102
}
330
47
100
AcDbScale
 70
     0
300
10:1
140
10.0
141
1.0
290
     0
  0
SCALE
  5
58
102
{ACAD_REACTORS
330
47
102
}
330
47
100
AcDbScale
 70
     0
300
100:1
140
100.0
141
1.0
290
     0
  0
SCALE
  5
59
102
{ACAD_REACTORS
330
47
102
}
330
47
100
AcDbScale
 70
     0
300
1/128" = 1'-0"
140
0.0078125
141
12.0
290
     0
  0
SCALE
  5
5A
102
{ACAD_REACTORS
330
47
102
}
330
47
100
AcDbScale
 70
     0
300
1/64" = 1'-0"
140
0.015625
141
12.0
290
     0
  0
SCALE
  5
5B
102
{ACAD_REACTORS
330
47
102
}
330
47
100
AcDbScale
 70
     0
300
1/32" = 1'-0"
140
0.03125
141
12.0
290
     0
  0
SCALE
  5
5C
102
{ACAD_REACTORS
330
47
102
}
330
47
100
AcDbScale
 70
     0
300
1/16" = 1'-0"
140
0.0625
141
12.0
290
     0
  0
SCALE
  5
5D
102
{ACAD_REACTORS
330
47
102
}
330
47
100
AcDbScale
 70
     0
300
3/32" = 1'-0"
140
0.09375
141
12.0
290
     0
  0
SCALE
  5
5E
102
{ACAD_REACTORS
330
47
102
}
330
47
100
AcDbScale
 70
     0
300
1/8" = 1'-0"
140
0.125
141
12.0
290
     0
  0
SCALE
  5
5F
102
{ACAD_REACTORS
330
47
102
}
330
47
100
AcDbScale
 70
     0
300
3/16" = 1'-0"
140
0.1875
141
12.0
290
     0
  0
SCALE
  5
60
102
{ACAD_REACTORS
330
47
102
}
330
47
100
AcDbScale
 70
     0
300
1/4" = 1'-0"
140
0.25
141
12.0
290
     0
  0
SCALE
  5
61
102
{ACAD_REACTORS
330
47
102
}
330
47
100
AcDbScale
 70
     0
300
3/8" = 1'-0"
140
0.375
141
12.0
290
     0
  0
SCALE
  5
62
102
{ACAD_REACTORS
330
47
102
}
330
47
100
AcDbScale
 70
     0
300
1/2" = 1'-0"
140
0.5
141
12.0
290
     0
  0
SCALE
  5
63
102
{ACAD_REACTORS
330
47
102
}
330
47
100
AcDbScale
 70
     0
300
3/4" = 1'-0"
140
0.75
141
12.0
290
     0
  0
SCALE
  5
64
102
{ACAD_REACTORS
330
47
102
}
330
47
100
AcDbScale
 70
     0
300
1" = 1'-0"
140
1.0
141
12.0
290
     0
  0
SCALE
  5
65
102
{ACAD_REACTORS
330
47
102
}
330
47
100
AcDbScale
 70
     0
300
1-1/2" = 1'-0"
140
1.5
141
12.0
290
     0
  0
SCALE
  5
66
102
{ACAD_REACTORS
330
47
102
}
330
47
100
AcDbScale
 70
     0
300
3" = 1'-0"
140
3.0
141
12.0
290
     0
  0
SCALE
  5
67
102
{ACAD_REACTORS
330
47
102
}
330
47
100
AcDbScale
 70
     0
300
6" = 1'-0"
140
6.0
141
12.0
290
     0
  0
SCALE
  5
68
102
{ACAD_REACTORS
330
47
102
}
330
47
100
AcDbScale
 70
     0
300
1'-0" = 1'-0"
140
12.0
141
12.0
290
     0
  0
ENDSEC
  0
EOF
