  0
SECTION
  2
HEADER
  9
$ACADVER
  1
AC1015
  9
$ACADMAINTVER
 70
     6
  9
$DWGCODEPAGE
  3
ANSI_949
  9
$INSBASE
 10
0.0
 20
0.0
 30
0.0
  9
$EXTMIN
 10
-42.96700000000003
 20
-49.98438634254138
 30
0.0
  9
$EXTMAX
 10
60.10065844934001
 20
46.5517792684898
 30
0.0
  9
$LIMMIN
 10
0.0
 20
0.0
  9
$LIMMAX
 10
420.0
 20
297.0
  9
$ORTHOMODE
 70
     1
  9
$REGENMODE
 70
     1
  9
$FILLMODE
 70
     1
  9
$QTEXTMODE
 70
     0
  9
$MIRRTEXT
 70
     1
  9
$LTSCALE
 40
1.0
  9
$ATTMODE
 70
     1
  9
$TEXTSIZE
 40
3.5
  9
$TRACEWID
 40
1.0
  9
$TEXTSTYLE
  7
Standard
  9
$CLAYER
  8
0
  9
$CELTYPE
  6
ByLayer
  9
$CECOLOR
 62
   256
  9
$CELTSCALE
 40
1.0
  9
$DISPSILH
 70
     0
  9
$DIMSCALE
 40
1.0
  9
$DIMASZ
 40
3.302
  9
$DIMEXO
 40
1.0
  9
$DIMDLI
 40
3.75
  9
$DIMRND
 40
0.0
  9
$DIMDLE
 40
0.0
  9
$DIMEXE
 40
1.0
  9
$DIMTP
 40
0.0
  9
$DIMTM
 40
0.0
  9
$DIMTXT
 40
3.5
  9
$DIMCEN
 40
2.5
  9
$DIMTSZ
 40
0.0
  9
$DIMTOL
 70
     0
  9
$DIMLIM
 70
     0
  9
$DIMTIH
 70
     1
  9
$DIMTOH
 70
     1
  9
$DIMSE1
 70
     0
  9
$DIMSE2
 70
     0
  9
$DIMTAD
 70
     1
  9
$DIMZIN
 70
     0
  9
$DIMBLK
  1

  9
$DIMASO
 70
     1
  9
$DIMSHO
 70
     1
  9
$DIMPOST
  1

  9
$DIMAPOST
  1

  9
$DIMALT
 70
     0
  9
$DIMALTD
 70
     3
  9
$DIMALTF
 40
0.0393700787401575
  9
$DIMLFAC
 40
1.0
  9
$DIMTOFL
 70
     1
  9
$DIMTVP
 40
0.0
  9
$DIMTIX
 70
     0
  9
$DIMSOXD
 70
     0
  9
$DIMSAH
 70
     0
  9
$DIMBLK1
  1

  9
$DIMBLK2
  1

  9
$DIMSTYLE
  2
ISO-25
  9
$DIMCLRD
 70
     0
  9
$DIMCLRE
 70
     0
  9
$DIMCLRT
 70
     0
  9
$DIMTFAC
 40
1.0
  9
$DIMGAP
 40
1.524
  9
$DIMJUST
 70
     0
  9
$DIMSD1
 70
     0
  9
$DIMSD2
 70
     0
  9
$DIMTOLJ
 70
     0
  9
$DIMTZIN
 70
     0
  9
$DIMALTZ
 70
     0
  9
$DIMALTTZ
 70
     0
  9
$DIMUPT
 70
     0
  9
$DIMDEC
 70
     2
  9
$DIMTDEC
 70
     2
  9
$DIMALTU
 70
     2
  9
$DIMALTTD
 70
     3
  9
$DIMTXSTY
  7
Standard
  9
$DIMAUNIT
 70
     0
  9
$DIMADEC
 70
     2
  9
$DIMALTRND
 40
0.0
  9
$DIMAZIN
 70
     0
  9
$DIMDSEP
 70
    44
  9
$DIMATFIT
 70
     3
  9
$DIMFRAC
 70
     0
  9
$DIMLDRBLK
  1

  9
$DIMLUNIT
 70
     2
  9
$DIMLWD
 70
    -2
  9
$DIMLWE
 70
    -2
  9
$DIMTMOVE
 70
     0
  9
$LUNITS
 70
     2
  9
$LUPREC
 70
     2
  9
$SKETCHINC
 40
1.0
  9
$FILLETRAD
 40
10.0
  9
$AUNITS
 70
     0
  9
$AUPREC
 70
     2
  9
$MENU
  1
.
  9
$ELEVATION
 40
0.0
  9
$PELEVATION
 40
0.0
  9
$THICKNESS
 40
0.0
  9
$LIMCHECK
 70
     0
  9
$CHAMFERA
 40
0.0
  9
$CHAMFERB
 40
0.0
  9
$CHAMFERC
 40
0.0
  9
$CHAMFERD
 40
0.0
  9
$SKPOLY
 70
     0
  9
$TDCREATE
 40
2458340.592829745
  9
$TDUCREATE
 40
2458340.217829745
  9
$TDUPDATE
 40
2458341.435727812
  9
$TDUUPDATE
 40
2458341.060727812
  9
$TDINDWG
 40
0.006032581
  9
$TDUSRTIMER
 40
2458341.048061748
  9
$USRTIMER
 70
     1
  9
$ANGBASE
 50
0.0
  9
$ANGDIR
 70
     0
  9
$PDMODE
 70
     0
  9
$PDSIZE
 40
-1.0
  9
$PLINEWID
 40
0.0
  9
$SPLFRAME
 70
     0
  9
$SPLINETYPE
 70
     6
  9
$SPLINESEGS
 70
     8
  9
$HANDSEED
  5
18F
  9
$SURFTAB1
 70
     6
  9
$SURFTAB2
 70
     6
  9
$SURFTYPE
 70
     6
  9
$SURFU
 70
     6
  9
$SURFV
 70
     6
  9
$UCSBASE
  2

  9
$UCSNAME
  2

  9
$UCSORG
 10
0.0
 20
0.0
 30
0.0
  9
$UCSXDIR
 10
1.0
 20
0.0
 30
0.0
  9
$UCSYDIR
 10
0.0
 20
1.0
 30
0.0
  9
$UCSORTHOREF
  2

  9
$UCSORTHOVIEW
 70
     0
  9
$UCSORGTOP
 10
0.0
 20
0.0
 30
0.0
  9
$UCSORGBOTTOM
 10
0.0
 20
0.0
 30
0.0
  9
$UCSORGLEFT
 10
0.0
 20
0.0
 30
0.0
  9
$UCSORGRIGHT
 10
0.0
 20
0.0
 30
0.0
  9
$UCSORGFRONT
 10
0.0
 20
0.0
 30
0.0
  9
$UCSORGBACK
 10
0.0
 20
0.0
 30
0.0
  9
$PUCSBASE
  2

  9
$PUCSNAME
  2

  9
$PUCSORG
 10
0.0
 20
0.0
 30
0.0
  9
$PUCSXDIR
 10
1.0
 20
0.0
 30
0.0
  9
$PUCSYDIR
 10
0.0
 20
1.0
 30
0.0
  9
$PUCSORTHOREF
  2

  9
$PUCSORTHOVIEW
 70
     0
  9
$PUCSORGTOP
 10
0.0
 20
0.0
 30
0.0
  9
$PUCSORGBOTTOM
 10
0.0
 20
0.0
 30
0.0
  9
$PUCSORGLEFT
 10
0.0
 20
0.0
 30
0.0
  9
$PUCSORGRIGHT
 10
0.0
 20
0.0
 30
0.0
  9
$PUCSORGFRONT
 10
0.0
 20
0.0
 30
0.0
  9
$PUCSORGBACK
 10
0.0
 20
0.0
 30
0.0
  9
$USERI1
 70
     0
  9
$USERI2
 70
     0
  9
$USERI3
 70
     0
  9
$USERI4
 70
     0
  9
$USERI5
 70
     0
  9
$USERR1
 40
0.0
  9
$USERR2
 40
0.0
  9
$USERR3
 40
0.0
  9
$USERR4
 40
0.0
  9
$USERR5
 40
0.0
  9
$WORLDVIEW
 70
     1
  9
$SHADEDGE
 70
     3
  9
$SHADEDIF
 70
    70
  9
$TILEMODE
 70
     1
  9
$MAXACTVP
 70
    64
  9
$PINSBASE
 10
0.0
 20
0.0
 30
0.0
  9
$PLIMCHECK
 70
     0
  9
$PEXTMIN
 10
1.000000000000000E+20
 20
1.000000000000000E+20
 30
1.000000000000000E+20
  9
$PEXTMAX
 10
-1.000000000000000E+20
 20
-1.000000000000000E+20
 30
-1.000000000000000E+20
  9
$PLIMMIN
 10
0.0
 20
0.0
  9
$PLIMMAX
 10
0.0
 20
0.0
  9
$UNITMODE
 70
     0
  9
$VISRETAIN
 70
     1
  9
$PLINEGEN
 70
     0
  9
$PSLTSCALE
 70
     1
  9
$TREEDEPTH
 70
  3020
  9
$CMLSTYLE
  2
Standard
  9
$CMLJUST
 70
     0
  9
$CMLSCALE
 40
20.0
  9
$PROXYGRAPHICS
 70
     1
  9
$MEASUREMENT
 70
     1
  9
$CELWEIGHT
370
    -1
  9
$ENDCAPS
280
     0
  9
$JOINSTYLE
280
     0
  9
$LWDISPLAY
290
     1
  9
$INSUNITS
 70
     4
  9
$HYPERLINKBASE
  1

  9
$STYLESHEET
  1

  9
$XEDIT
290
     1
  9
$CEPSNTYPE
380
     0
  9
$PSTYLEMODE
290
     1
  9
$FINGERPRINTGUID
  2
{4C54E37B-94E7-45B6-AB1F-6A72C8A91067}
  9
$VERSIONGUID
  2
{FAEB1C32-E019-11D5-929B-00C0DF256EC4}
  9
$EXTNAMES
290
     1
  9
$PSVPSCALE
 40
0.0
  9
$OLESTARTUP
290
     0
  0
ENDSEC
  0
SECTION
  2
CLASSES
  0
CLASS
  1
ACDBDICTIONARYWDFLT
  2
AcDbDictionaryWithDefault
  3
ObjectDBX Classes
 90
        0
280
     0
281
     0
  0
CLASS
  1
VISUALSTYLE
  2
AcDbVisualStyle
  3
ObjectDBX Classes
 90
     4095
280
     0
281
     0
  0
CLASS
  1
MATERIAL
  2
AcDbMaterial
  3
ObjectDBX Classes
 90
     1153
280
     0
281
     0
  0
CLASS
  1
SCALE
  2
AcDbScale
  3
ObjectDBX Classes
 90
     1153
280
     0
281
     0
  0
CLASS
  1
SUN
  2
AcDbSun
  3
SCENEOE
 90
     1153
280
     0
281
     0
  0
CLASS
  1
ACDBPLACEHOLDER
  2
AcDbPlaceHolder
  3
ObjectDBX Classes
 90
        0
280
     0
281
     0
  0
CLASS
  1
LAYOUT
  2
AcDbLayout
  3
ObjectDBX Classes
 90
        0
280
     0
281
     0
  0
CLASS
  1
TABLESTYLE
  2
AcDbTableStyle
  3
ObjectDBX Classes
 90
     4095
280
     0
281
     0
  0
CLASS
  1
MLEADERSTYLE
  2
AcDbMLeaderStyle
  3
ACDB_MLEADERSTYLE_CLASS
 90
     4095
280
     0
281
     0
  0
CLASS
  1
RASTERVARIABLES
  2
AcDbRasterVariables
  3
ISM
 90
        0
280
     0
281
     0
  0
CLASS
  1
DICTIONARYVAR
  2
AcDbDictionaryVar
  3
ObjectDBX Classes
 90
        0
280
     0
281
     0
  0
CLASS
  1
DIMASSOC
  2
AcDbDimAssoc
  3
"AcDbDimAssoc|Product Desc:     AcDim ARX App For Dimension|Company:          Autodesk, Inc.|WEB Address:      www.autodesk.com"
 90
        0
280
     0
281
     0
  0
ENDSEC
  0
SECTION
  2
TABLES
  0
TABLE
  2
VPORT
  5
8
330
0
100
AcDbSymbolTable
 70
     1
  0
VPORT
  5
29
330
8
100
AcDbSymbolTableRecord
100
AcDbViewportTableRecord
  2
*Active
 70
     0
 10
0.0
 20
0.0
 11
1.0
 21
1.0
 12
9.822135790003358
 22
11.85092433055638
 13
0.0
 23
0.0
 14
10.0
 24
10.0
 15
10.0
 25
10.0
 16
0.0
 26
0.0
 36
1.0
 17
0.0
 27
0.0
 37
0.0
 40
185.7833357997237
 41
1.444267515923567
 42
50.0
 43
0.0
 44
0.0
 50
0.0
 51
0.0
 71
    16
 72
  2000
 73
     1
 74
     3
 75
     0
 76
     0
 77
     0
 78
     0
281
     0
 65
     1
110
0.0
120
0.0
130
0.0
111
1.0
121
0.0
131
0.0
112
0.0
122
1.0
132
0.0
 79
     0
146
0.0
  0
ENDTAB
  0
TABLE
  2
LTYPE
  5
5
330
0
100
AcDbSymbolTable
 70
     6
  0
LTYPE
  5
14
330
5
100
AcDbSymbolTableRecord
100
AcDbLinetypeTableRecord
  2
ByBlock
 70
     0
  3

 72
    65
 73
     0
 40
0.0
  0
LTYPE
  5
15
330
5
100
AcDbSymbolTableRecord
100
AcDbLinetypeTableRecord
  2
ByLayer
 70
     0
  3

 72
    65
 73
     0
 40
0.0
  0
LTYPE
  5
16
330
5
100
AcDbSymbolTableRecord
100
AcDbLinetypeTableRecord
  2
Continuous
 70
     0
  3
Solid line
 72
    65
 73
     0
 40
0.0
  0
LTYPE
  5
6A
330
5
100
AcDbSymbolTableRecord
100
AcDbLinetypeTableRecord
  2
HIDDEN
 70
     0
  3
Hidden __ __ __ __ __ __ __ __ __ __ __ __ __ __
 72
    65
 73
     2
 40
1.905
 49
1.27
 74
     0
 49
-0.635
 74
     0
  0
LTYPE
  5
6B
330
5
100
AcDbSymbolTableRecord
100
AcDbLinetypeTableRecord
  2
PHANTOM
 70
     0
  3
Phantom ______  __  __  ______  __  __  ______
 72
    65
 73
     6
 40
12.7
 49
6.35
 74
     0
 49
-1.27
 74
     0
 49
1.27
 74
     0
 49
-1.27
 74
     0
 49
1.27
 74
     0
 49
-1.27
 74
     0
  0
LTYPE
  5
6C
330
5
100
AcDbSymbolTableRecord
100
AcDbLinetypeTableRecord
  2
CENTER
 70
     0
  3
Center ____ _ ____ _ ____ _ ____ _ ____ _ ____
 72
    65
 73
     4
 40
10.16
 49
6.35
 74
     0
 49
-1.27
 74
     0
 49
1.27
 74
     0
 49
-1.27
 74
     0
  0
LTYPE
  5
6D
330
5
100
AcDbSymbolTableRecord
100
AcDbLinetypeTableRecord
  2
CENTERX2
 70
     0
  3
Center (2x) ________  __  ________  __  _____
 72
    65
 73
     4
 40
20.32
 49
12.7
 74
     0
 49
-2.54
 74
     0
 49
2.54
 74
     0
 49
-2.54
 74
     0
  0
LTYPE
  5
6E
330
5
100
AcDbSymbolTableRecord
100
AcDbLinetypeTableRecord
  2
DOT2
 70
     0
  3
Dot (.5x) ........................................
 72
    65
 73
     2
 40
0.635
 49
0.0
 74
     0
 49
-0.635
 74
     0
  0
ENDTAB
  0
TABLE
  2
LAYER
  5
2
330
0
100
AcDbSymbolTable
 70
    17
  0
LAYER
  5
10
330
2
100
AcDbSymbolTableRecord
100
AcDbLayerTableRecord
  2
0
 70
     0
 62
     7
  6
Continuous
370
    -3
390
F
  0
LAYER
  5
6F
330
2
100
AcDbSymbolTableRecord
100
AcDbLayerTableRecord
  2
FORMAT
 70
     0
 62
     2
  6
Continuous
370
    -3
390
F
  0
LAYER
  5
70
330
2
100
AcDbSymbolTableRecord
100
AcDbLayerTableRecord
  2
외형선
 70
     0
 62
   100
  6
Continuous
370
    30
390
F
  0
LAYER
  5
71
330
2
100
AcDbSymbolTableRecord
100
AcDbLayerTableRecord
  2
숨은선
 70
     0
 62
     2
  6
HIDDEN
370
    15
390
F
  0
LAYER
  5
72
330
2
100
AcDbSymbolTableRecord
100
AcDbLayerTableRecord
  2
중심선
 70
     0
 62
     1
  6
CENTERX2
370
    -3
390
F
  0
LAYER
  5
73
330
2
100
AcDbSymbolTableRecord
100
AcDbLayerTableRecord
  2
파단선
 70
     0
 62
     4
  6
Continuous
370
    -3
390
F
  0
LAYER
  5
74
330
2
100
AcDbSymbolTableRecord
100
AcDbLayerTableRecord
  2
해칭선
 70
     0
 62
     4
  6
Continuous
370
    -3
390
F
  0
LAYER
  5
75
330
2
100
AcDbSymbolTableRecord
100
AcDbLayerTableRecord
  2
가는실선
 70
     0
 62
     4
  6
Continuous
370
    -3
390
F
  0
LAYER
  5
76
330
2
100
AcDbSymbolTableRecord
100
AcDbLayerTableRecord
  2
치수_보조선
 70
     0
 62
     4
  6
Continuous
370
    -3
390
F
  0
LAYER
  5
77
330
2
100
AcDbSymbolTableRecord
100
AcDbLayerTableRecord
  2
치수문자_일반주서
 70
     0
 62
     7
  6
Continuous
370
    15
390
F
  0
LAYER
  5
78
330
2
100
AcDbSymbolTableRecord
100
AcDbLayerTableRecord
  2
개별주서
 70
     0
 62
   100
  6
Continuous
370
    30
390
F
  0
LAYER
  5
79
330
2
100
AcDbSymbolTableRecord
100
AcDbLayerTableRecord
  2
중간선
 70
     0
 62
     2
  6
Continuous
370
    15
390
F
  0
LAYER
  5
7A
330
2
100
AcDbSymbolTableRecord
100
AcDbLayerTableRecord
  2
윤곽선
 70
     0
 62
     3
  6
Continuous
370
    40
390
F
  0
LAYER
  5
7B
330
2
100
AcDbSymbolTableRecord
100
AcDbLayerTableRecord
  2
중심마크
 70
     0
 62
   100
  6
Continuous
370
    30
390
F
  0
LAYER
  5
7C
330
2
100
AcDbSymbolTableRecord
100
AcDbLayerTableRecord
  2
가상선
 70
     0
 62
     4
  6
PHANTOM
370
    -3
390
F
  0
LAYER
  5
7D
330
2
100
AcDbSymbolTableRecord
100
AcDbLayerTableRecord
  2
특수지정선
 70
     0
 62
     5
  6
CENTERX2
370
    60
390
F
  0
LAYER
  5
161
330
2
100
AcDbSymbolTableRecord
100
AcDbLayerTableRecord
  2
Defpoints
 70
     0
 62
     7
  6
Continuous
290
     0
370
    -3
390
F
  0
ENDTAB
  0
TABLE
  2
STYLE
  5
3
330
0
100
AcDbSymbolTable
 70
     2
  0
STYLE
  5
11
330
3
100
AcDbSymbolTableRecord
100
AcDbTextStyleTableRecord
  2
Standard
 70
     0
 40
0.0
 41
1.0
 50
0.0
 71
     0
 42
3.5
  3
txt
  4

  0
STYLE
  5
93
330
3
100
AcDbSymbolTableRecord
100
AcDbTextStyleTableRecord
  2
SLDTEXTSTYLE0
 70
     0
 40
0.0
 41
0.75
 50
0.0
 71
     0
 42
3.5
  3
TXT
  4

  0
ENDTAB
  0
TABLE
  2
VIEW
  5
6
330
0
100
AcDbSymbolTable
 70
     0
  0
ENDTAB
  0
TABLE
  2
UCS
  5
7
330
0
100
AcDbSymbolTable
 70
     0
  0
ENDTAB
  0
TABLE
  2
APPID
  5
9
330
0
100
AcDbSymbolTable
 70
     2
  0
APPID
  5
12
330
9
100
AcDbSymbolTableRecord
100
AcDbRegAppTableRecord
  2
ACAD
 70
     0
  0
APPID
  5
17B
330
9
100
AcDbSymbolTableRecord
100
AcDbRegAppTableRecord
  2
PE_DIMMEASUREMENT
 70
     0
  0
ENDTAB
  0
TABLE
  2
DIMSTYLE
  5
A
330
0
100
AcDbSymbolTable
 70
     4
100
AcDbDimStyleTable
  0
DIMSTYLE
105
27
330
A
100
AcDbSymbolTableRecord
100
AcDbDimStyleTableRecord
  2
ISO-25
 70
     0
 41
2.5
 42
0.625
 43
3.75
 44
1.25
 73
     0
 74
     0
 77
     1
 78
     8
140
2.5
141
2.5
143
0.03937007874016
147
0.625
171
     3
172
     1
178
     0
271
     2
272
     2
274
     3
278
    44
283
     0
284
     8
340
11
  0
DIMSTYLE
105
F8
102
{ACAD_REACTORS
330
F7
330
169
330
17C
102
}
330
A
100
AcDbSymbolTableRecord
100
AcDbDimStyleTableRecord
  2
SLDDIMSTYLE0
 70
     0
 41
3.302
 44
0.0
 45
0.000000001
 73
     0
 74
     0
 77
     1
 78
    12
 79
     3
140
3.5
143
0.0393700787401575
147
0.875
148
0.000000001
170
     1
173
     1
178
     0
271
     2
272
     2
276
     2
284
    12
340
93
  0
DIMSTYLE
105
10C
102
{ACAD_REACTORS
330
10B
102
}
330
A
100
AcDbSymbolTableRecord
100
AcDbDimStyleTableRecord
  2
SLDDIMSTYLE1
 70
     0
 41
3.302
 44
0.0
 45
0.000000001
 73
     0
 74
     0
 77
     1
 78
     4
 79
     1
140
3.5
143
0.0393700787401575
147
0.875
148
0.000000001
170
     1
173
     1
178
     0
271
     2
272
     2
276
     2
284
    12
340
93
  0
DIMSTYLE
105
120
102
{ACAD_REACTORS
330
11F
102
}
330
A
100
AcDbSymbolTableRecord
100
AcDbDimStyleTableRecord
  2
SLDDIMSTYLE2
 70
     0
 41
3.302
 44
0.0
 45
0.000000001
 73
     0
 74
     0
 77
     1
 78
    12
 79
     3
140
3.5
143
0.0393700787401575
147
0.875
148
0.000000001
170
     1
172
     1
173
     1
178
     0
271
     2
272
     2
276
     2
284
    12
289
     0
340
93
  0
ENDTAB
  0
TABLE
  2
BLOCK_RECORD
  5
1
330
0
100
AcDbSymbolTable
 70
     8
  0
BLOCK_RECORD
  5
1F
330
1
100
AcDbSymbolTableRecord
100
AcDbBlockTableRecord
  2
*Model_Space
340
22
  0
BLOCK_RECORD
  5
1B
330
1
100
AcDbSymbolTableRecord
100
AcDbBlockTableRecord
  2
*Paper_Space
340
1E
  0
BLOCK_RECORD
  5
23
330
1
100
AcDbSymbolTableRecord
100
AcDbBlockTableRecord
  2
*Paper_Space0
340
26
  0
BLOCK_RECORD
  5
7E
330
1
100
AcDbSymbolTableRecord
100
AcDbBlockTableRecord
  2
블럭10
340
0
102
{BLKREFS
331
F0
102
}
  0
BLOCK_RECORD
  5
F9
330
1
100
AcDbSymbolTableRecord
100
AcDbBlockTableRecord
  2
_D
340
0
  0
BLOCK_RECORD
  5
10D
330
1
100
AcDbSymbolTableRecord
100
AcDbBlockTableRecord
  2
_D_1
340
0
  0
BLOCK_RECORD
  5
121
330
1
100
AcDbSymbolTableRecord
100
AcDbBlockTableRecord
  2
_D_2
340
0
  0
BLOCK_RECORD
  5
134
330
1
100
AcDbSymbolTableRecord
100
AcDbBlockTableRecord
  2
SW_DOWELSYMBOL_0
340
0
102
{BLKREFS
331
13A
102
}
  0
BLOCK_RECORD
  5
16C
330
1
100
AcDbSymbolTableRecord
100
AcDbBlockTableRecord
  2
*D6
340
0
  0
BLOCK_RECORD
  5
17F
330
1
100
AcDbSymbolTableRecord
100
AcDbBlockTableRecord
  2
*D7
340
0
  0
ENDTAB
  0
ENDSEC
  0
SECTION
  2
BLOCKS
  0
BLOCK
  5
20
330
1F
100
AcDbEntity
  8
0
100
AcDbBlockBegin
  2
*Model_Space
 70
     0
 10
0.0
 20
0.0
 30
0.0
  3
*Model_Space
  1
*Model_Space
  0
ENDBLK
  5
21
330
1F
100
AcDbEntity
  8
0
100
AcDbBlockEnd
  0
BLOCK
  5
1C
330
1B
100
AcDbEntity
 67
     1
  8
0
100
AcDbBlockBegin
  2
*Paper_Space
 70
     0
 10
0.0
 20
0.0
 30
0.0
  3
*Paper_Space
  1
*Paper_Space
  0
ENDBLK
  5
1D
330
1B
100
AcDbEntity
 67
     1
  8
0
100
AcDbBlockEnd
  0
BLOCK
  5
24
330
23
100
AcDbEntity
  8
0
100
AcDbBlockBegin
  2
*Paper_Space0
 70
     0
 10
0.0
 20
0.0
 30
0.0
  3
*Paper_Space0
  1
*Paper_Space0
  0
ENDBLK
  5
25
330
23
100
AcDbEntity
  8
0
100
AcDbBlockEnd
  0
BLOCK
  5
7F
330
7E
100
AcDbEntity
  8
0
100
AcDbBlockBegin
  2
블럭10
 70
     2
 10
0.0
 20
0.0
 30
0.0
  3
블럭10
  1
블럭10
  0
ELLIPSE
  5
81
330
7E
100
AcDbEntity
  8
중심선
100
AcDbEllipse
 10
20.54032771741204
 20
12.0471743016438
 30
0.0
 11
6.600054785286829
 21
-1.261213355974178E-13
 31
0.0
210
0.0
220
0.0
230
1.0
 40
0.636358354079598
 41
0.9219305317359503
 42
6.513795318482858
  0
ELLIPSE
  5
82
330
7E
100
AcDbEntity
  8
중심선
100
AcDbEllipse
 10
20.54032771746488
 20
12.04717430159265
 30
0.0
 11
3.960054785062283
 21
1.540847449632565E-10
 31
0.0
210
0.0
220
0.0
230
1.0
 40
0.3939339440162632
 41
1.131841032648279
 42
5.62031148352944
  0
LINE
  5
83
330
7E
100
AcDbEntity
  8
중심선
100
AcDbLine
 10
2.268634060543552
 20
16.24717430164393
 30
0.0
 11
5.714909304380834
 21
16.24717430164393
 31
0.0
  0
LINE
  5
84
330
7E
100
AcDbEntity
  8
중심선
100
AcDbLine
 10
5.245725140726316
 20
7.84717430164391
 30
0.0
 11
8.692000384563599
 21
7.84717430164391
 31
0.0
  0
LINE
  5
85
330
7E
100
AcDbEntity
  8
중심선
100
AcDbLine
 10
15.74043728645272
 20
16.24717430164393
 30
0.0
 11
8.692000384563599
 21
7.84717430164391
 31
0.0
  0
LINE
  5
86
330
7E
100
AcDbEntity
  8
중심선
100
AcDbLine
 10
0.1404042013395286
 20
13.71084872107135
 30
0.0
 11
3.58671253028996
 21
13.71088815037384
 31
0.0
  0
LINE
  5
87
330
7E
100
AcDbEntity
  8
중심선
100
AcDbLine
 10
2.750260043222114
 20
10.84717430164391
 30
0.0
 11
6.196535287059397
 21
10.84717430164391
 31
0.0
  0
LINE
  5
88
330
7E
100
AcDbEntity
  8
중심선
100
AcDbLine
 10
12.29416204261559
 20
16.24717430164393
 30
0.0
 11
5.245725140726316
 21
7.84717430164391
 31
0.0
  0
LINE
  5
89
330
7E
100
AcDbEntity
  8
중심선
100
AcDbLine
 10
10.72767329541681
 20
16.24717430164393
 30
0.0
 11
6.196535287059397
 21
10.84717430164391
 31
0.0
  0
LINE
  5
8A
330
7E
100
AcDbEntity
  8
중심선
100
AcDbLine
 10
7.28139805157953
 20
16.24717430164393
 30
0.0
 11
2.750260043222114
 21
10.84717430164391
 31
0.0
  0
LINE
  5
8B
330
7E
100
AcDbEntity
  8
중심선
100
AcDbLine
 10
5.714909304380834
 20
16.24717430164393
 30
0.0
 11
3.58671253028996
 21
13.71088815037384
 31
0.0
  0
LINE
  5
8C
330
7E
100
AcDbEntity
  8
중심선
100
AcDbLine
 10
2.268634060543552
 20
16.24717430164393
 30
0.0
 11
0.1404042013395286
 21
13.71084872107135
 31
0.0
  0
LINE
  5
8D
330
7E
100
AcDbEntity
  8
중심선
100
AcDbLine
 10
7.28139805157953
 20
16.24717430164393
 30
0.0
 11
10.72767329541681
 21
16.24717430164393
 31
0.0
  0
LINE
  5
8E
330
7E
100
AcDbEntity
  8
중심선
100
AcDbLine
 10
12.29416204261559
 20
16.24717430164393
 30
0.0
 11
15.74043728645272
 21
16.24717430164393
 31
0.0
  0
LINE
  5
8F
330
7E
100
AcDbEntity
  8
중심선
100
AcDbLine
 10
19.22036997980202
 20
11.08717430171403
 30
0.0
 11
23.66174974927406
 21
11.08717430171406
 31
0.0
  0
LINE
  5
90
330
7E
100
AcDbEntity
  8
중심선
100
AcDbLine
 10
19.22039502424796
 20
13.00717430171391
 30
0.0
 11
19.22036997980202
 21
11.08717430171403
 31
0.0
  0
LINE
  5
91
330
7E
100
AcDbEntity
  8
중심선
100
AcDbLine
 10
19.22039502424796
 20
13.00717430171391
 30
0.0
 11
26.96566020931264
 21
13.00717430171391
 31
0.0
  0
LINE
  5
92
330
7E
100
AcDbEntity
  8
중심선
100
AcDbLine
 10
22.22332737316547
 20
13.45928029700563
 30
0.0
 11
24.52862924686651
 21
15.39360700705356
 31
0.0
  0
ATTDEF
  5
94
330
7E
100
AcDbEntity
  8
FORMAT
 62
     2
100
AcDbText
 10
-9.18129528874128
 20
2.075366912832191
 30
0.0
 40
4.233333333333333
  1
E5078158 [ 3 FLUTE ]
 41
0.75
  7
SLDTEXTSTYLE0
 11
-9.18129528874128
 21
-0.0412997538344756
 31
0.0
100
AcDbAttributeDefinition
  3

  2
AUTOATTR0
 70
     0
 74
     1
  0
ENDBLK
  5
80
330
7E
100
AcDbEntity
  8
0
100
AcDbBlockEnd
  0
BLOCK
  5
FA
330
F9
100
AcDbEntity
  8
0
100
AcDbBlockBegin
  2
_D
 70
     0
 10
0.0
 20
0.0
 30
0.0
  3
_D
  1
_D
  0
LINE
  5
FC
330
F9
100
AcDbEntity
  8
치수문자_일반주서
 62
     0
370
    -2
100
AcDbLine
 10
50.608
 20
1.650000000000019
 30
0.0
 11
50.608
 21
30.66531244900119
 31
0.0
  0
LINE
  5
FD
330
F9
100
AcDbEntity
  8
치수문자_일반주서
 62
     0
370
    -2
100
AcDbLine
 10
12.50800000000001
 20
3.546175262632618
 30
0.0
 11
12.50800000000001
 21
30.66531244900119
 31
0.0
  0
LINE
  5
FE
330
F9
100
AcDbEntity
  8
치수문자_일반주서
 62
     0
370
    -2
100
AcDbLine
 10
47.306
 20
30.66531244900119
 30
0.0
 11
15.81000000000001
 21
30.66531244900119
 31
0.0
  0
SOLID
  5
FF
330
F9
100
AcDbEntity
  8
치수문자_일반주서
 62
     0
100
AcDbTrace
 10
47.306
 20
30.11497911566786
 30
0.0
 11
47.306
 21
31.21564578233453
 31
0.0
 12
50.608
 22
30.66531244900119
 32
0.0
 13
50.608
 23
30.66531244900119
 33
0.0
  0
SOLID
  5
100
330
F9
100
AcDbEntity
  8
치수문자_일반주서
 62
     0
100
AcDbTrace
 10
15.81000000000001
 20
31.21564578233453
 30
0.0
 11
15.81000000000001
 21
30.11497911566786
 31
0.0
 12
12.50800000000001
 22
30.66531244900119
 32
0.0
 13
12.50800000000001
 23
30.66531244900119
 33
0.0
  0
MTEXT
  5
101
330
F9
100
AcDbEntity
  8
치수문자_일반주서
 62
     0
100
AcDbMText
 10
34.34206692949722
 20
35.04031244900119
 30
0.0
 40
3.5
 41
0.0
 71
     2
 72
     1
  1
\A1;38.1 [1 1/2]
  7
SLDTEXTSTYLE0
 73
     1
 44
1.0
  0
POINT
  5
102
330
F9
100
AcDbEntity
  8
Defpoints
 62
     0
100
AcDbPoint
 10
50.608
 20
1.587500000000019
 30
0.0
  0
POINT
  5
103
330
F9
100
AcDbEntity
  8
Defpoints
 62
     0
100
AcDbPoint
 10
12.50800000000001
 20
3.483675262632618
 30
0.0
  0
POINT
  5
104
330
F9
100
AcDbEntity
  8
Defpoints
 62
     0
100
AcDbPoint
 10
12.50800000000001
 20
30.66531244900119
 30
0.0
  0
ENDBLK
  5
FB
330
F9
100
AcDbEntity
  8
0
100
AcDbBlockEnd
  0
BLOCK
  5
10E
330
10D
100
AcDbEntity
  8
0
100
AcDbBlockBegin
  2
_D_1
 70
     0
 10
0.0
 20
0.0
 30
0.0
  3
_D_1
  1
_D_1
  0
LINE
  5
110
330
10D
100
AcDbEntity
  8
치수문자_일반주서
 62
     0
370
    -2
100
AcDbLine
 10
50.60799999999999
 20
1.649999999999995
 30
0.0
 11
50.60799999999999
 21
42.1767792684898
 31
0.0
  0
LINE
  5
111
330
10D
100
AcDbEntity
  8
치수문자_일반주서
 62
     0
370
    -2
100
AcDbLine
 10
-25.592
 20
2.427499999999995
 30
0.0
 11
-25.59199999999999
 21
42.1767792684898
 31
0.0
  0
LINE
  5
112
330
10D
100
AcDbEntity
  8
치수문자_일반주서
 62
     0
370
    -2
100
AcDbLine
 10
47.30599999999999
 20
42.1767792684898
 30
0.0
 11
-22.28999999999999
 21
42.1767792684898
 31
0.0
  0
SOLID
  5
113
330
10D
100
AcDbEntity
  8
치수문자_일반주서
 62
     0
100
AcDbTrace
 10
47.30599999999999
 20
41.62644593515647
 30
0.0
 11
47.30599999999999
 21
42.72711260182314
 31
0.0
 12
50.60799999999999
 22
42.1767792684898
 32
0.0
 13
50.60799999999999
 23
42.1767792684898
 33
0.0
  0
SOLID
  5
114
330
10D
100
AcDbEntity
  8
치수문자_일반주서
 62
     0
100
AcDbTrace
 10
-22.28999999999999
 20
42.72711260182314
 30
0.0
 11
-22.28999999999999
 21
41.62644593515647
 31
0.0
 12
-25.59199999999999
 22
42.1767792684898
 32
0.0
 13
-25.59199999999999
 23
42.1767792684898
 33
0.0
  0
MTEXT
  5
115
330
10D
100
AcDbEntity
  8
치수문자_일반주서
 62
     0
100
AcDbMText
 10
14.21198585024596
 20
46.5517792684898
 30
0.0
 40
3.5
 41
0.0
 71
     2
 72
     1
  1
\A1;76.20 [3]
  7
SLDTEXTSTYLE0
 73
     1
 44
1.0
  0
POINT
  5
116
330
10D
100
AcDbEntity
  8
Defpoints
 62
     0
100
AcDbPoint
 10
50.60799999999999
 20
1.587499999999995
 30
0.0
  0
POINT
  5
117
330
10D
100
AcDbEntity
  8
Defpoints
 62
     0
100
AcDbPoint
 10
-25.592
 20
2.364999999999995
 30
0.0
  0
POINT
  5
118
330
10D
100
AcDbEntity
  8
Defpoints
 62
     0
100
AcDbPoint
 10
-25.592
 20
42.1767792684898
 30
0.0
  0
ENDBLK
  5
10F
330
10D
100
AcDbEntity
  8
0
100
AcDbBlockEnd
  0
BLOCK
  5
122
330
121
100
AcDbEntity
  8
0
100
AcDbBlockBegin
  2
_D_2
 70
     0
 10
0.0
 20
0.0
 30
0.0
  3
_D_2
  1
_D_2
  0
LINE
  5
124
330
121
100
AcDbEntity
  8
치수문자_일반주서
 62
     0
370
    -2
100
AcDbLine
 10
-24.84449999999999
 20
3.175000000000002
 30
0.0
 11
-38.592
 21
3.174999999999955
 31
0.0
  0
LINE
  5
125
330
121
100
AcDbEntity
  8
치수문자_일반주서
 62
     0
370
    -2
100
AcDbLine
 10
-24.84449999999999
 20
-3.174999999999993
 30
0.0
 11
-38.59199999999998
 21
-3.17500000000004
 31
0.0
  0
LINE
  5
126
330
121
100
AcDbEntity
  8
치수문자_일반주서
 62
     0
370
    -2
100
AcDbLine
 10
-38.59199999999998
 20
-0.1270000000000451
 30
0.0
 11
-38.59199999999999
 21
0.1269999999999594
 31
0.0
  0
SOLID
  5
127
330
121
100
AcDbEntity
  8
치수문자_일반주서
 62
     0
100
AcDbTrace
 10
-38.04166666666665
 20
-0.1270000000000432
 30
0.0
 11
-39.14233333333332
 21
-0.1270000000000469
 31
0.0
 12
-38.592
 22
3.174999999999955
 32
0.0
 13
-38.592
 23
3.174999999999955
 33
0.0
  0
SOLID
  5
128
330
121
100
AcDbEntity
  8
치수문자_일반주서
 62
     0
100
AcDbTrace
 10
-39.14233333333333
 20
0.1269999999999575
 30
0.0
 11
-38.04166666666666
 21
0.1269999999999612
 31
0.0
 12
-38.59199999999998
 22
-3.17500000000004
 32
0.0
 13
-38.59199999999998
 23
-3.17500000000004
 33
0.0
  0
MTEXT
  5
129
330
121
100
AcDbEntity
  8
치수문자_일반주서
 62
     0
100
AcDbMText
 10
-42.96699999999999
 20
0.8697769195248065
 30
0.0
 40
3.5
 41
0.0
 71
     2
 72
     1
  1
\A1;%%c6.35 [1/4]
  7
SLDTEXTSTYLE0
 11
-3.356894814614648E-15
 21
1.0
 31
0.0
 73
     1
 44
1.0
  0
POINT
  5
12A
330
121
100
AcDbEntity
  8
Defpoints
 62
     0
100
AcDbPoint
 10
-24.78199999999999
 20
3.175000000000002
 30
0.0
  0
POINT
  5
12B
330
121
100
AcDbEntity
  8
Defpoints
 62
     0
100
AcDbPoint
 10
-24.78199999999999
 20
-3.174999999999993
 30
0.0
  0
POINT
  5
12C
330
121
100
AcDbEntity
  8
Defpoints
 62
     0
100
AcDbPoint
 10
-38.59199999999998
 20
-3.175000000000042
 30
0.0
  0
ENDBLK
  5
123
330
121
100
AcDbEntity
  8
0
100
AcDbBlockEnd
  0
BLOCK
  5
135
330
134
100
AcDbEntity
  8
0
100
AcDbBlockBegin
  2
SW_DOWELSYMBOL_0
 70
     0
 10
0.0
 20
0.0
 30
0.0
  3
SW_DOWELSYMBOL_0
  1
SW_DOWELSYMBOL_0
  0
CIRCLE
  5
137
330
134
100
AcDbEntity
  8
외형선
 62
     0
100
AcDbCircle
 10
0.0
 20
0.0
 30
0.0
 40
2.999999999999997
  0
HATCH
  5
138
330
134
100
AcDbEntity
  8
0
  6
Continuous
 62
     0
370
    30
100
AcDbHatch
 10
0.0
 20
0.0
 30
0.0
210
0.0
220
0.0
230
1.0
  2
SOLID
 70
     1
 71
     0
 91
        1
 92
        0
 93
        3
 72
     2
 10
0.0
 20
0.0
 40
2.999999999999997
 50
0.0
 51
90.0
 73
     1
 72
     1
 10
0.0
 20
2.999999999999997
 11
0.0
 21
0.0
 72
     1
 10
0.0
 20
0.0
 11
2.999999999999999
 21
0.0
 97
        0
 75
     0
 76
     1
 98
        1
 10
0.0
 20
0.0
  0
HATCH
  5
139
330
134
100
AcDbEntity
  8
0
  6
Continuous
 62
     0
370
    30
100
AcDbHatch
 10
0.0
 20
0.0
 30
0.0
210
0.0
220
0.0
230
1.0
  2
SOLID
 70
     1
 71
     0
 91
        1
 92
        0
 93
        3
 72
     2
 10
0.0
 20
0.0
 40
2.999999999999997
 50
180.0
 51
270.0000000000008
 73
     1
 72
     1
 10
0.0
 20
-2.999999999999997
 11
0.0
 21
0.0
 72
     1
 10
0.0
 20
0.0
 11
-2.999999999999999
 21
0.0
 97
        0
 75
     0
 76
     1
 98
        1
 10
0.0
 20
0.0
  0
ENDBLK
  5
136
330
134
100
AcDbEntity
  8
0
100
AcDbBlockEnd
  0
BLOCK
  5
16D
330
16C
100
AcDbEntity
  8
0
100
AcDbBlockBegin
  2
*D6
 70
     1
 10
0.0
 20
0.0
 30
0.0
  3
*D6
  1
*D6
  0
LINE
  5
16F
330
16C
100
AcDbEntity
  8
치수문자_일반주서
 62
     0
370
    -2
100
AcDbLine
 10
50.6394378873427
 20
-1.587500000000004
 30
0.0
 11
59.55032511600668
 21
-1.587500000000005
 31
0.0
  0
LINE
  5
170
330
16C
100
AcDbEntity
  8
치수문자_일반주서
 62
     0
370
    -2
100
AcDbLine
 10
50.63943788734271
 20
1.587499999999995
 30
0.0
 11
59.55032511600668
 21
1.587499999999995
 31
0.0
  0
LINE
  5
171
330
16C
100
AcDbEntity
  8
치수문자_일반주서
 62
     0
370
    -2
100
AcDbLine
 10
59.55032511600668
 20
4.889499999999995
 30
0.0
 11
59.55032511600668
 21
32.69149999999999
 31
0.0
  0
LINE
  5
172
330
16C
100
AcDbEntity
  8
치수문자_일반주서
 62
     0
370
    -2
100
AcDbLine
 10
59.55032511600668
 20
-4.889500000000004
 30
0.0
 11
59.55032511600668
 21
-8.191500000000005
 31
0.0
  0
SOLID
  5
173
330
16C
100
AcDbEntity
  8
치수문자_일반주서
 62
     0
100
AcDbTrace
 10
60.10065844934001
 20
-4.889500000000004
 30
0.0
 11
58.99999178267334
 21
-4.889500000000004
 31
0.0
 12
59.55032511600668
 22
-1.587500000000005
 32
0.0
 13
59.55032511600668
 23
-1.587500000000005
 33
0.0
  0
SOLID
  5
174
330
16C
100
AcDbEntity
  8
치수문자_일반주서
 62
     0
100
AcDbTrace
 10
58.99999178267334
 20
4.889499999999995
 30
0.0
 11
60.10065844934001
 21
4.889499999999995
 31
0.0
 12
59.55032511600668
 22
1.587499999999995
 32
0.0
 13
59.55032511600668
 23
1.587499999999995
 33
0.0
  0
MTEXT
  5
175
330
16C
100
AcDbEntity
  8
치수문자_일반주서
 62
     0
100
AcDbMText
 10
56.92532511600668
 20
20.44149999999999
 30
0.0
 40
3.5
 41
0.0
 71
     5
 72
     1
  1
\A1;{%%c3.18 [1/8]}
  7
SLDTEXTSTYLE0
 11
0.0
 21
1.0
 31
0.0
 73
     1
 44
1.0
  0
POINT
  5
176
330
16C
100
AcDbEntity
  8
Defpoints
 62
     0
100
AcDbPoint
 10
50.5769378873427
 20
-1.587500000000004
 30
0.0
  0
POINT
  5
177
330
16C
100
AcDbEntity
  8
Defpoints
 62
     0
100
AcDbPoint
 10
50.57693788734271
 20
1.587499999999995
 30
0.0
  0
POINT
  5
178
330
16C
100
AcDbEntity
  8
Defpoints
 62
     0
100
AcDbPoint
 10
59.55032511600668
 20
1.587499999999995
 30
0.0
  0
ENDBLK
  5
16E
330
16C
100
AcDbEntity
  8
0
100
AcDbBlockEnd
  0
BLOCK
  5
180
330
17F
100
AcDbEntity
  8
0
100
AcDbBlockBegin
  2
*D7
 70
     1
 10
0.0
 20
0.0
 30
0.0
  3
*D7
  1
*D7
  0
LINE
  5
182
330
17F
100
AcDbEntity
  8
치수문자_일반주서
 62
     0
370
    -2
100
AcDbLine
 10
21.42484136630256
 20
8.911203134845493
 30
0.0
 11
22.216093697828
 21
16.7463511709617
 31
0.0
  0
ARC
  5
183
330
17F
100
AcDbEntity
  8
치수문자_일반주서
 62
     0
370
    -2
100
AcDbCircle
 10
109.6654606474006
 20
-0.0000000000000044
 30
0.0
 40
88.68943811087185
100
AcDbArc
 50
174.2333906577278
 51
176.3666953288639
  0
ARC
  5
184
330
17F
100
AcDbEntity
  8
치수문자_일반주서
 62
     0
370
    -2
100
AcDbCircle
 10
109.6654606474006
 20
-0.0000000000000044
 30
0.0
 40
88.68943811087185
100
AcDbArc
 50
182.1333046711361
 51
184.2666093422722
  0
SOLID
  5
185
330
17F
100
AcDbEntity
  8
치수문자_일반주서
 62
     0
100
AcDbTrace
 10
20.60450163959996
 20
5.644951061936323
 30
0.0
 11
21.70406412082285
 21
5.595661499166251
 31
0.0
 12
21.00641419190119
 22
2.321618836882606
 32
0.0
 13
21.00641419190119
 23
2.321618836882606
 33
0.0
  0
SOLID
  5
186
330
17F
100
AcDbEntity
  8
치수문자_일반주서
 62
     0
100
AcDbTrace
 10
21.58772895271559
 20
-3.291183075760697
 30
0.0
 11
20.48725301375608
 21
-3.311672557996395
 31
0.0
 12
20.97602253652875
 22
-0.0000000000000044
 32
0.0
 13
20.97602253652875
 23
-0.0000000000000044
 33
0.0
  0
MTEXT
  5
187
330
17F
100
AcDbEntity
  8
치수문자_일반주서
 62
     0
100
AcDbMText
 10
19.20875152002654
 20
13.09252793007874
 30
0.0
 40
3.5
 41
0.0
 71
     5
 72
     1
  1
\A1;1.5%%d
  7
SLDTEXTSTYLE0
 11
0.1004764865429126
 21
0.9949394331576129
 31
0.0
 73
     1
 44
1.0
  0
POINT
  5
188
330
17F
100
AcDbEntity
  8
Defpoints
 62
     0
100
AcDbPoint
 10
20.97939955857237
 20
0.773951530005358
 30
0.0
  0
POINT
  5
189
330
17F
100
AcDbEntity
  8
Defpoints
 62
     0
100
AcDbPoint
 10
22.41599260533778
 20
2.284707727102737
 30
0.0
  0
POINT
  5
18A
330
17F
100
AcDbEntity
  8
Defpoints
 62
     0
100
AcDbPoint
 10
-28.59200000000001
 20
-0.0000000000000043
 30
0.0
  0
POINT
  5
18B
330
17F
100
AcDbEntity
  8
Defpoints
 62
     0
100
AcDbPoint
 10
55.06205590543875
 20
-0.0000000000000043
 30
0.0
  0
POINT
  5
18C
330
17F
100
AcDbEntity
  8
Defpoints
 62
     0
100
AcDbPoint
 10
20.03480115468721
 20
2.347061419670692
 30
0.0
  0
ENDBLK
  5
181
330
17F
100
AcDbEntity
  8
0
100
AcDbBlockEnd
  0
ENDSEC
  0
SECTION
  2
ENTITIES
  0
LINE
  5
95
330
1F
100
AcDbEntity
  8
0
  6
Continuous
 62
     4
370
    15
100
AcDbLine
 10
10.61799999999999
 20
3.175000000000006
 30
0.0
 11
-24.78199999999999
 21
3.175000000000002
 31
0.0
  0
LINE
  5
96
330
1F
100
AcDbEntity
  8
0
  6
Continuous
 62
     4
370
    15
100
AcDbLine
 10
10.96774452511836
 20
3.175000000000006
 30
0.0
 11
10.82504033379522
 21
3.175000000000006
 31
0.0
  0
LINE
  5
97
330
1F
100
AcDbEntity
  8
0
  6
Continuous
 62
     4
370
    15
100
AcDbLine
 10
-24.78199999999999
 20
-3.174999999999993
 30
0.0
 11
10.96774452511837
 21
-3.174999999999989
 31
0.0
  0
LINE
  5
98
330
1F
100
AcDbEntity
  8
0
  6
Continuous
 62
     4
370
    15
100
AcDbLine
 10
-24.78199999999999
 20
3.175000000000002
 30
0.0
 11
-25.592
 21
2.364999999999995
 31
0.0
  0
LINE
  5
99
330
1F
100
AcDbEntity
  8
0
  6
Continuous
 62
     4
370
    15
100
AcDbLine
 10
-25.592
 20
-2.364999999999987
 30
0.0
 11
-24.78199999999999
 21
-3.174999999999994
 31
0.0
  0
LINE
  5
9A
330
1F
100
AcDbEntity
  8
0
  6
Continuous
 62
     1
370
    15
100
AcDbLine
 10
43.91548156234123
 20
-1.721723795497029
 30
0.0
 11
45.8549697113864
 21
-1.670936510941765
 31
0.0
  0
LINE
  5
9B
330
1F
100
AcDbEntity
  8
0
  6
Continuous
 62
     1
370
    15
100
AcDbLine
 10
30.91972756100173
 20
-2.062029590508551
 30
0.0
 11
33.06702446650681
 21
-2.005800642155238
 31
0.0
  0
LINE
  5
9C
330
1F
100
AcDbEntity
  8
0
  6
Continuous
 62
     1
370
    15
100
AcDbLine
 10
17.85460467561857
 20
-2.404151873676982
 30
0.0
 11
20.2843185835826
 21
-2.340527575847474
 31
0.0
  0
LINE
  5
9D
330
1F
100
AcDbEntity
  8
0
  6
Continuous
 62
     1
370
    15
100
AcDbLine
 10
13.88011959299161
 20
2.508227428328573
 30
0.0
 11
12.50800000000001
 21
2.544157644374196
 31
0.0
  0
LINE
  5
9E
330
1F
100
AcDbEntity
  8
0
  6
Continuous
 62
     1
370
    15
100
AcDbLine
 10
26.67811918710224
 20
2.173100014714707
 30
0.0
 11
24.39312626465292
 21
2.232934660168111
 31
0.0
  0
LINE
  5
9F
330
1F
100
AcDbEntity
  8
0
  6
Continuous
 62
     1
370
    15
100
AcDbLine
 10
39.4556910080702
 20
1.838507521166187
 30
0.0
 11
37.42839562117281
 21
1.891594119165057
 31
0.0
  0
LINE
  5
A0
330
1F
100
AcDbEntity
  8
0
  6
Continuous
 62
     1
370
    15
100
AcDbLine
 10
39.59374749862719
 20
-1.834892384732329
 30
0.0
 11
41.5872433144138
 21
-1.782690859651638
 31
0.0
  0
LINE
  5
A1
330
1F
100
AcDbEntity
  8
0
  6
Continuous
 62
     1
370
    15
100
AcDbLine
 10
26.57065721476377
 20
-2.175914005494015
 30
0.0
 11
28.80809635898509
 21
-2.117324599547607
 31
0.0
  0
LINE
  5
A2
330
1F
100
AcDbEntity
  8
0
  6
Continuous
 62
     1
370
    15
100
AcDbLine
 10
13.48894769528965
 20
-2.518470624961849
 30
0.0
 11
16.01558165512494
 21
-2.452308386255558
 31
0.0
  0
LINE
  5
A3
102
{ACAD_REACTORS
102
}
330
1F
100
AcDbEntity
  8
0
  6
Continuous
 62
     1
370
    15
100
AcDbLine
 10
22.41599260533778
 20
2.284707727102737
 30
0.0
 11
20.03480115468721
 21
2.347061419670692
 31
0.0
  0
LINE
  5
A4
330
1F
100
AcDbEntity
  8
0
  6
Continuous
 62
     1
370
    15
100
AcDbLine
 10
35.19538319746528
 20
1.950067607355282
 30
0.0
 11
33.0910439890907
 21
2.005171668820743
 31
0.0
  0
LINE
  5
A5
330
1F
100
AcDbEntity
  8
0
  6
Continuous
 62
     1
370
    15
100
AcDbLine
 10
47.99212758629925
 20
1.614973062448344
 30
0.0
 11
46.07138658154877
 21
1.665269435753461
 31
0.0
  0
LINE
  5
A6
330
1F
100
AcDbEntity
  8
0
  6
Continuous
 62
     1
370
    15
100
AcDbLine
 10
48.22316431408702
 20
-1.608923152814875
 30
0.0
 11
49.06205590543875
 21
-1.586956003398688
 31
0.0
  0
LINE
  5
A7
330
1F
100
AcDbEntity
  8
0
  6
Continuous
 62
     1
370
    15
100
AcDbLine
 10
35.26030511547261
 20
-1.948367567102204
 30
0.0
 11
37.32496354571385
 21
-1.894302583380747
 31
0.0
  0
LINE
  5
A8
330
1F
100
AcDbEntity
  8
0
  6
Continuous
 62
     1
370
    15
100
AcDbLine
 10
22.21550684203799
 20
-2.289957631576227
 30
0.0
 11
24.54794519055276
 21
-2.228880583917056
 31
0.0
  0
LINE
  5
A9
330
1F
100
AcDbEntity
  8
0
  6
Continuous
 62
     1
370
    15
100
AcDbLine
 10
18.15091544146856
 20
2.396392703202347
 30
0.0
 11
15.67278384252977
 21
2.461284862890281
 31
0.0
  0
LINE
  5
AA
330
1F
100
AcDbEntity
  8
0
  6
Continuous
 62
     1
370
    15
100
AcDbLine
 10
30.93725139228172
 20
2.061570712837079
 30
0.0
 11
28.74525167618862
 21
2.118970245482373
 31
0.0
  0
LINE
  5
AB
330
1F
100
AcDbEntity
  8
0
  6
Continuous
 62
     1
370
    15
100
AcDbLine
 10
43.72015634985912
 20
1.726838566191587
 30
0.0
 11
41.75616072753757
 21
1.778267601519925
 31
0.0
  0
LINE
  5
AC
330
1F
100
AcDbEntity
  8
0
  6
Continuous
 62
     4
370
    15
100
AcDbLine
 10
10.96774452511837
 20
-3.174999999999987
 30
0.0
 11
11.492
 21
-2.622549999999991
 31
0.0
  0
LINE
  5
AD
330
1F
100
AcDbEntity
  8
0
  6
Continuous
 62
     4
370
    15
100
AcDbLine
 10
12.50800000000001
 20
2.544157644374196
 30
0.0
 11
11.492
 21
2.622550000000009
 31
0.0
  0
ARC
  5
AE
330
1F
100
AcDbEntity
  8
0
  6
Continuous
 62
     1
370
    15
100
AcDbCircle
 10
49.0205
 20
0.0000000000000077
 30
0.0
 40
1.5875
100
AcDbArc
 50
271.5000000000011
 51
293.3409628545135
  0
LINE
  5
AF
330
1F
100
AcDbEntity
  8
0
  6
Continuous
 62
     4
370
    15
100
AcDbLine
 10
11.492
 20
-2.622549999999991
 30
0.0
 11
11.76360391662268
 21
-2.60159363108144
 31
0.0
  0
LINE
  5
B0
330
1F
100
AcDbEntity
  8
0
  6
Continuous
 62
     4
370
    15
100
AcDbLine
 10
11.492
 20
2.622550000000009
 30
0.0
 11
10.96774452511836
 21
3.175000000000004
 31
0.0
  0
ARC
  5
B1
330
1F
100
AcDbEntity
  8
0
  6
Continuous
 62
     1
370
    15
100
AcDbCircle
 10
49.0205
 20
0.0000000000000077
 30
0.0
 40
1.587500000000006
100
AcDbArc
 50
27.85617637447579
 51
44.47545295903531
  0
SPLINE
  5
B2
330
1F
100
AcDbEntity
  8
0
  6
Continuous
 62
     4
370
    15
100
AcDbSpline
210
0.0
220
0.0
230
1.0
 70
     8
 71
     3
 72
     8
 73
     4
 74
     0
 42
0.000000001
 43
0.00000001
 40
0.0
 40
0.0
 40
0.0
 40
0.0
 40
1.0
 40
1.0
 40
1.0
 40
1.0
 10
10.61800000016584
 20
3.15841457874311
 30
0.0
 10
10.73483194546318
 20
3.177110008490083
 30
0.0
 10
10.85094418212827
 20
3.180014929824667
 30
0.0
 10
10.96774452511837
 20
3.167109838573495
 30
0.0
  0
LINE
  5
B3
330
1F
100
AcDbEntity
  8
0
  6
Continuous
 62
     4
370
    15
100
AcDbLine
 10
10.61799999999999
 20
3.06025341104398
 30
0.0
 11
10.61799999999999
 21
3.175000000000006
 31
0.0
  0
SPLINE
  5
B4
330
1F
100
AcDbEntity
  8
0
  6
Continuous
 62
     4
370
    15
100
AcDbSpline
210
0.0
220
0.0
230
1.0
 70
     8
 71
     3
 72
     8
 73
     4
 74
     0
 42
0.000000001
 43
0.00000001
 40
0.0
 40
0.0
 40
0.0
 40
0.0
 40
1.0
 40
1.0
 40
1.0
 40
1.0
 10
10.96774452511836
 20
2.878247822347966
 30
0.0
 10
10.85100025813278
 20
2.952591264166613
 30
0.0
 10
10.73473000510304
 20
3.013331914804803
 30
0.0
 10
10.61799999999999
 20
3.060253411048103
 30
0.0
  0
LINE
  5
B5
330
1F
100
AcDbEntity
  8
0
  6
Continuous
 62
     4
370
    15
100
AcDbLine
 10
10.96774452511836
 20
2.878247822347944
 30
0.0
 11
10.96774452511837
 21
-1.777282054216937
 31
0.0
  0
SPLINE
  5
B6
330
1F
100
AcDbEntity
  8
0
  6
Continuous
 62
     4
370
    15
100
AcDbSpline
210
0.0
220
0.0
230
1.0
 70
     8
 71
     3
 72
     8
 73
     4
 74
     0
 42
0.000000001
 43
0.00000001
 40
0.0
 40
0.0
 40
0.0
 40
0.0
 40
1.0
 40
1.0
 40
1.0
 40
1.0
 10
10.61800000016584
 20
-1.298526400126739
 30
0.0
 10
10.73483194546318
 20
-1.465654498697466
 30
0.0
 10
10.85094418212827
 20
-1.625502346456791
 30
0.0
 10
10.96774452511837
 20
-1.777282054216918
 30
0.0
  0
LINE
  5
B7
330
1F
100
AcDbEntity
  8
0
  6
Continuous
 62
     4
370
    15
100
AcDbLine
 10
10.61799999999999
 20
-2.262660353312512
 30
0.0
 11
10.61799999999999
 21
-1.298526399889507
 31
0.0
  0
SPLINE
  5
B8
330
1F
100
AcDbEntity
  8
0
  6
Continuous
 62
     4
370
    15
100
AcDbSpline
210
0.0
220
0.0
230
1.0
 70
     8
 71
     3
 72
     8
 73
     4
 74
     0
 42
0.000000001
 43
0.00000001
 40
0.0
 40
0.0
 40
0.0
 40
0.0
 40
1.0
 40
1.0
 40
1.0
 40
1.0
 10
10.96774452511836
 20
-2.599828806856746
 30
0.0
 10
10.85100025813278
 20
-2.498736152611629
 30
0.0
 10
10.73473000510304
 20
-2.386215038573988
 30
0.0
 10
10.61799999999999
 20
-2.262660353312196
 30
0.0
  0
LINE
  5
B9
330
1F
100
AcDbEntity
  8
0
  6
Continuous
 62
     4
370
    15
100
AcDbLine
 10
10.96774452511837
 20
-2.599828806856763
 30
0.0
 11
10.96774452511837
 21
-3.174999999999989
 31
0.0
  0
LINE
  5
BA
330
1F
100
AcDbEntity
  8
0
  6
Continuous
 62
     4
370
    15
100
AcDbLine
 10
10.96774452511836
 20
3.175000000000006
 30
0.0
 11
10.96774452511837
 21
3.167109838573497
 31
0.0
  0
LINE
  5
BB
330
1F
100
AcDbEntity
  8
0
  6
Continuous
 62
     4
370
    15
100
AcDbLine
 10
-24.78199999999999
 20
3.175000000000002
 30
0.0
 11
-24.78199999999999
 21
-3.174999999999993
 31
0.0
  0
LINE
  5
BC
330
1F
100
AcDbEntity
  8
0
  6
Continuous
 62
     4
370
    15
100
AcDbLine
 10
-25.592
 20
-2.364999999999987
 30
0.0
 11
-25.592
 21
2.364999999999998
 31
0.0
  0
SPLINE
  5
BD
330
1F
100
AcDbEntity
  8
0
  6
Continuous
 62
     4
370
    15
100
AcDbSpline
210
0.0
220
0.0
230
1.0
 70
     8
 71
     3
 72
    10
 73
     6
 74
     0
 42
0.000000001
 43
0.00000001
 40
0.0
 40
0.0
 40
0.0
 40
0.0
 40
0.5
 40
0.5
 40
1.0
 40
1.0
 40
1.0
 40
1.0
 10
11.492
 20
1.604624618719784
 30
0.0
 10
11.38140145952613
 20
1.845725730568135
 30
0.0
 10
11.28431411796767
 20
2.078030580071371
 30
0.0
 10
11.1068778386823
 20
2.516315888477975
 30
0.0
 10
11.03083083866245
 20
2.711469810484374
 30
0.0
 10
10.96774452511836
 20
2.878247822347943
 30
0.0
  0
LINE
  5
BE
330
1F
100
AcDbEntity
  8
0
  6
Continuous
 62
     4
370
    15
100
AcDbLine
 10
11.492
 20
1.604624618719783
 30
0.0
 11
11.492
 21
-1.535662863749551
 31
0.0
  0
SPLINE
  5
BF
330
1F
100
AcDbEntity
  8
0
  6
Continuous
 62
     4
370
    15
100
AcDbSpline
210
0.0
220
0.0
230
1.0
 70
     8
 71
     3
 72
    12
 73
     8
 74
     0
 42
0.000000001
 43
0.00000001
 40
0.0
 40
0.0
 40
0.0
 40
0.0
 40
0.25
 40
0.25
 40
0.5
 40
0.5
 40
1.0
 40
1.0
 40
1.0
 40
1.0
 10
10.96774452511837
 20
-1.777282054216937
 30
0.0
 10
11.00680742283782
 20
-1.724367318903906
 30
0.0
 10
11.05225765796961
 20
-1.685313978435256
 30
0.0
 10
11.14291920208919
 20
-1.627066134771534
 30
0.0
 10
11.18872064694051
 20
-1.607013357194191
 30
0.0
 10
11.32251085455305
 20
-1.560587601789278
 30
0.0
 10
11.408051056188
 20
-1.546579429737179
 30
0.0
 10
11.49200000000001
 20
-1.535662863749554
 30
0.0
  0
SPLINE
  5
C0
330
1F
100
AcDbEntity
  8
0
  6
Continuous
 62
     1
370
    15
100
AcDbSpline
210
0.0
220
0.0
230
1.0
 70
     8
 71
     3
 72
    17
 73
    13
 74
     0
 42
0.000000001
 43
0.00000001
 40
0.0
 40
0.0
 40
0.0
 40
0.0
 40
0.1279849306733771
 40
0.2294512511827172
 40
0.3338402386375322
 40
0.4355340662903433
 40
0.5402013713235927
 40
0.6414054437963954
 40
0.7455662772286665
 40
0.8463277623197439
 40
0.9500303315461002
 40
1.0
 40
1.0
 40
1.0
 40
1.0
 10
49.06205590543875
 20
-1.374785637175848
 30
0.0
 10
48.83024699998678
 20
-1.274291302503628
 30
0.0
 10
48.41466023433082
 20
-1.094125163365248
 30
0.0
 10
47.81383441305464
 20
-0.6935706650030502
 30
0.0
 10
47.26193315425584
 20
-0.2759595939355431
 30
0.0
 10
46.70647892980374
 20
0.1745144548549252
 30
0.0
 10
46.15855355548847
 20
0.6139231515326808
 30
0.0
 10
45.60834322005822
 20
1.017588901181578
 30
0.0
 10
45.06684603007633
 20
1.350978920445964
 30
0.0
 10
44.52307943399857
 20
1.588833789756097
 30
0.0
 10
44.07596281649582
 20
1.714270499578405
 30
0.0
 10
43.80717949771295
 20
1.712883368554257
 30
0.0
 10
43.71977910888366
 20
1.71243231455501
 30
0.0
  0
SPLINE
  5
C1
330
1F
100
AcDbEntity
  8
0
  6
Continuous
 62
     1
370
    15
100
AcDbSpline
210
0.0
220
0.0
230
1.0
 70
     8
 71
     3
 72
    23
 73
    19
 74
     0
 42
0.000000001
 43
0.00000001
 40
0.0
 40
0.0
 40
0.0
 40
0.0
 40
0.026351730801669
 40
0.0935224616313594
 40
0.1586901668547332
 40
0.2257509412978721
 40
0.2908317648306209
 40
0.3578022661221582
 40
0.4228146349433247
 40
0.4897138160729271
 40
0.5546717191895452
 40
0.6215140164243697
 40
0.6864342063558955
 40
0.7532370305779931
 40
0.8181320677608405
 40
0.8849081910726566
 40
0.9497921412424118
 40
1.0
 40
1.0
 40
1.0
 40
1.0
 10
38.44946596385805
 20
-1.575698885529054
 30
0.0
 10
38.38180128095573
 20
-1.612510214797301
 30
0.0
 10
38.14165888734375
 20
-1.743153858472915
 30
0.0
 10
37.73587418745392
 20
-1.86054165793904
 30
0.0
 10
37.22738644613637
 20
-1.915303462973234
 30
0.0
 10
36.72586832915996
 20
-1.846633372883732
 30
0.0
 10
36.22149390170415
 20
-1.66461724122343
 30
0.0
 10
35.72383329708592
 20
-1.381315310282749
 30
0.0
 10
35.22330462419278
 20
-1.009079589011996
 30
0.0
 10
34.72932474961346
 20
-0.5764057438390727
 30
0.0
 10
34.23244744791569
 20
-0.1012477814659153
 30
0.0
 10
33.74198354868859
 20
0.3801243264014373
 30
0.0
 10
33.24859715613849
 20
0.8480983029043294
 30
0.0
 10
32.76149103406888
 20
1.266873670944922
 30
0.0
 10
32.27141288000228
 20
1.620767880762531
 30
0.0
 10
31.78754009430147
 20
1.878267037653592
 30
0.0
 10
31.34113904542678
 20
2.033038138424214
 30
0.0
 10
31.05972522778135
 20
2.045176481803932
 30
0.0
 10
30.93696075530969
 20
2.050471734660238
 30
0.0
  0
SPLINE
  5
C2
330
1F
100
AcDbEntity
  8
0
  6
Continuous
 62
     1
370
    15
100
AcDbSpline
210
0.0
220
0.0
230
1.0
 70
     8
 71
     3
 72
    24
 73
    20
 74
     0
 42
0.000000001
 43
0.00000001
 40
0.0
 40
0.0
 40
0.0
 40
0.0
 40
0.0567036745775176
 40
0.1175722927722643
 40
0.1802014095571039
 40
0.2411314846968674
 40
0.3038235260879677
 40
0.3648250518491393
 40
0.4275901917859075
 40
0.4886669883851275
 40
0.5515093497619972
 40
0.6126699628782358
 40
0.6755981231002695
 40
0.7368469274457896
 40
0.7998657031831519
 40
0.861208864831838
 40
0.9243242481444308
 40
0.9857679416776374
 40
1.0
 40
1.0
 40
1.0
 40
1.0
 10
25.55540639481545
 20
-1.932949919759431
 30
0.0
 10
25.41222167529848
 20
-2.003679494752999
 30
0.0
 10
25.11533517034103
 20
-2.150333805267451
 30
0.0
 10
24.66208015299055
 20
-2.240195896634683
 30
0.0
 10
24.19933117282397
 20
-2.225206286546311
 30
0.0
 10
23.73349463092733
 20
-2.091042491184222
 30
0.0
 10
23.27299214231218
 20
-1.849636429599153
 30
0.0
 10
22.80935020445583
 20
-1.508098694889921
 30
0.0
 10
22.35094756110937
 20
-1.089679686048481
 30
0.0
 10
21.88940496813967
 20
-0.6082487755052268
 30
0.0
 10
21.43307259351994
 20
-0.0962640218041834
 30
0.0
 10
20.97357144989676
 20
0.4292317867545904
 30
0.0
 10
20.51918240064326
 20
0.9328073363790779
 30
0.0
 10
20.06163934473546
 20
1.398000105964094
 30
0.0
 10
19.60918679347098
 20
1.792647571609558
 30
0.0
 10
19.15351567208338
 20
2.106955608418856
 30
0.0
 10
18.70294779612505
 20
2.307241423056749
 30
0.0
 10
18.36730006282336
 20
2.40057763234434
 30
0.0
 10
18.18493643417896
 20
2.388200967057652
 30
0.0
 10
18.15063998207766
 20
2.385873333464626
 30
0.0
  0
LINE
  5
C3
330
1F
100
AcDbEntity
  8
0
  6
Continuous
 62
     1
370
    15
100
AcDbLine
 10
12.61052484438759
 20
-2.306501570442848
 30
0.0
 11
12.508
 21
-2.367345635547951
 31
0.0
  0
SPLINE
  5
C4
330
1F
100
AcDbEntity
  8
0
  6
Continuous
 62
     4
370
    15
100
AcDbSpline
210
0.0
220
0.0
230
1.0
 70
     8
 71
     3
 72
     8
 73
     4
 74
     0
 42
0.000000001
 43
0.00000001
 40
0.0
 40
0.0
 40
0.0
 40
0.0
 40
1.0
 40
1.0
 40
1.0
 40
1.0
 10
12.50800000000001
 20
-2.367345635547945
 30
0.0
 10
12.16465132781897
 20
-2.552362738292239
 30
0.0
 10
11.82841773579432
 20
-2.632597587000472
 30
0.0
 10
11.49199999999983
 20
-2.598756366830232
 30
0.0
  0
SPLINE
  5
C5
330
1F
100
AcDbEntity
  8
0
  6
Continuous
 62
     4
370
    15
100
AcDbSpline
210
0.0
220
0.0
230
1.0
 70
     8
 71
     3
 72
    10
 73
     6
 74
     0
 42
0.000000001
 43
0.00000001
 40
0.0
 40
0.0
 40
0.0
 40
0.0
 40
0.5
 40
0.5
 40
1.0
 40
1.0
 40
1.0
 40
1.0
 10
11.492
 20
-2.598756366831144
 30
0.0
 10
11.38140145952613
 20
-2.685395078633388
 30
0.0
 10
11.28431411796767
 20
-2.72951297561277
 30
0.0
 10
11.1068778386823
 20
-2.731487927169596
 30
0.0
 10
11.03083083866245
 20
-2.690228998247422
 30
0.0
 10
10.96774452511836
 20
-2.599828806856761
 30
0.0
  0
SPLINE
  5
C6
330
1F
100
AcDbEntity
  8
0
  6
Continuous
 62
     4
370
    15
100
AcDbSpline
210
0.0
220
0.0
230
1.0
 70
     8
 71
     3
 72
     8
 73
     4
 74
     0
 42
0.000000001
 43
0.00000001
 40
0.0
 40
0.0
 40
0.0
 40
0.0
 40
1.0
 40
1.0
 40
1.0
 40
1.0
 10
11.492
 20
-1.535662863749551
 30
0.0
 10
11.82889687295913
 20
-1.854809977953772
 30
0.0
 10
12.16557494604764
 20
-2.106745891455437
 30
0.0
 10
12.508
 20
-2.268009529280778
 30
0.0
  0
SPLINE
  5
C7
330
1F
100
AcDbEntity
  8
0
  6
Continuous
 62
     1
370
    15
100
AcDbSpline
210
0.0
220
0.0
230
1.0
 70
     8
 71
     3
 72
     9
 73
     5
 74
     0
 42
0.000000001
 43
0.00000001
 40
0.0
 40
0.0
 40
0.0
 40
0.0
 40
0.5711620179733577
 40
1.0
 40
1.0
 40
1.0
 40
1.0
 10
12.508
 20
-2.268009529280779
 30
0.0
 10
12.69442387013146
 20
-2.353377602371814
 30
0.0
 10
13.02081789540813
 20
-2.502841450465117
 30
0.0
 10
13.34838368655565
 20
-2.511338169089896
 30
0.0
 10
13.48885633941232
 20
-2.514981884758794
 30
0.0
  0
SPLINE
  5
C8
330
1F
100
AcDbEntity
  8
0
  6
Continuous
 62
     1
370
    15
100
AcDbSpline
210
0.0
220
0.0
230
1.0
 70
     8
 71
     3
 72
    24
 73
    20
 74
     0
 42
0.000000001
 43
0.00000001
 40
0.0
 40
0.0
 40
0.0
 40
0.0
 40
0.0005285599737934
 40
0.0654595389774276
 40
0.1284603414691361
 40
0.1932924404773949
 40
0.2561989204869253
 40
0.3209333801692118
 40
0.3837536106972916
 40
0.4483992545160265
 40
0.5111357542304347
 40
0.5756946730578704
 40
0.6383553900581647
 40
0.7028361758979058
 40
0.7654248558265605
 40
0.8298310038704705
 40
0.8923550412561156
 40
0.9566943802459607
 40
1.0
 40
1.0
 40
1.0
 40
1.0
 10
19.07463896301701
 20
2.124066267326563
 30
0.0
 10
19.0759279680219
 20
2.12483183290733
 30
0.0
 10
19.2355648636313
 20
2.219643344294158
 30
0.0
 10
19.55012230336272
 20
2.308130933154171
 30
0.0
 10
20.02277084983074
 20
2.369578531330185
 30
0.0
 10
20.49204683951571
 20
2.29782088322922
 30
0.0
 10
20.96680773395195
 20
2.11157124867403
 30
0.0
 10
21.43808648500352
 20
1.819908337298944
 30
0.0
 10
21.91494718164281
 20
1.434134301737514
 30
0.0
 10
22.3883100155555
 20
0.9811186652556446
 30
0.0
 10
22.86728616703986
 20
0.4766238037770784
 30
0.0
 10
23.34280398012295
 20
-0.0438544025213833
 30
0.0
 10
23.8239971989182
 20
-0.5622339397485362
 30
0.0
 10
24.30173499652353
 20
-1.042100151835417
 30
0.0
 10
24.7851800342998
 20
-1.466331161708079
 30
0.0
 10
25.26519161094576
 20
-1.80648456217483
 30
0.0
 10
25.75102824866769
 20
-2.045211144081691
 30
0.0
 10
26.18445735593072
 20
-2.172064470272136
 30
0.0
 10
26.4596325159417
 20
-2.166051669991481
 30
0.0
 10
26.57033561791924
 20
-2.163632717486417
 30
0.0
  0
SPLINE
  5
C9
330
1F
100
AcDbEntity
  8
0
  6
Continuous
 62
     1
370
    15
100
AcDbSpline
210
0.0
220
0.0
230
1.0
 70
     8
 71
     3
 72
    23
 73
    19
 74
     0
 42
0.000000001
 43
0.00000001
 40
0.0
 40
0.0
 40
0.0
 40
0.0
 40
0.0206553147605074
 40
0.0871992679923364
 40
0.1556718188759151
 40
0.2222090017882279
 40
0.2906739832055983
 40
0.3572145764867329
 40
0.4256823320751143
 40
0.4922378616121193
 40
0.5607204807925635
 40
0.6273000299434012
 40
0.6958065779083302
 40
0.7624228097485133
 40
0.8309663904033544
 40
0.8976310492425751
 40
0.9662237563707898
 40
0.9999999999999999
 40
0.9999999999999999
 40
0.9999999999999999
 40
0.9999999999999999
 10
32.00181418089157
 20
1.748614271312602
 30
0.0
 10
32.05284746450985
 20
1.775758917921796
 30
0.0
 10
32.26829152945661
 20
1.890353797819635
 30
0.0
 10
32.65441211589945
 20
1.986993154279744
 30
0.0
 10
33.15555490703235
 20
2.023577473679735
 30
0.0
 10
33.66304080753607
 20
1.93316233576954
 30
0.0
 10
34.16733240932421
 20
1.732710304403654
 30
0.0
 10
34.67793865215076
 20
1.42846190464002
 30
0.0
 10
35.1854271215192
 20
1.044885871631067
 30
0.0
 10
35.69929600891944
 20
0.5985687673130453
 30
0.0
 10
36.21008781854955
 20
0.1244700545497981
 30
0.0
 10
36.72732772575782
 20
-0.3564545273507666
 30
0.0
 10
37.24153696499106
 20
-0.8065313113076807
 30
0.0
 10
37.76228810973295
 20
-1.205102268459178
 30
0.0
 10
38.28003768179743
 20
-1.522724850083472
 30
0.0
 10
38.80448817978691
 20
-1.737430745948722
 30
0.0
 10
39.24066616259555
 20
-1.840671394617898
 30
0.0
 10
39.50586794169646
 20
-1.825493787840691
 30
0.0
 10
39.59337025402392
 20
-1.820485994555498
 30
0.0
  0
SPLINE
  5
CA
330
1F
100
AcDbEntity
  8
0
  6
Continuous
 62
     1
370
    15
100
AcDbSpline
210
0.0
220
0.0
230
1.0
 70
     8
 71
     3
 72
    15
 73
    11
 74
     0
 42
0.000000001
 43
0.00000001
 40
0.0
 40
0.0
 40
0.0
 40
0.0
 40
0.0798789354153633
 40
0.2145146841000335
 40
0.345674295206867
 40
0.4806142509122432
 40
0.6121092280731797
 40
0.7473919783554142
 40
0.8720970512870075
 40
1.0
 40
1.0
 40
1.0
 40
1.0
 10
44.89061482468527
 20
1.41306275222492
 30
0.0
 10
45.00031618388036
 20
1.460767652435733
 30
0.0
 10
45.29491891350756
 20
1.58887904432564
 30
0.0
 10
45.77170415919626
 20
1.672877495729532
 30
0.0
 10
46.32583889502074
 20
1.666331251808324
 30
0.0
 10
46.87761163951482
 20
1.536794047563078
 30
0.0
 10
47.43678305416903
 20
1.297521502211034
 30
0.0
 10
47.98366764490448
 20
0.9742963655803958
 30
0.0
 10
48.52693352103834
 20
0.5921475193426782
 30
0.0
 10
48.88218269226222
 20
0.3190972419830941
 30
0.0
 10
49.06205590543875
 20
0.1808437716703876
 30
0.0
  0
SPLINE
  5
CB
330
1F
100
AcDbEntity
  8
0
  6
Continuous
 62
     1
370
    15
100
AcDbSpline
210
0.0
220
0.0
230
1.0
 70
     8
 71
     3
 72
    14
 73
    10
 74
     0
 42
0.000000001
 43
0.00000001
 40
0.0
 40
0.0
 40
0.0
 40
0.0
 40
0.25
 40
0.25
 40
0.5
 40
0.5
 40
0.75
 40
0.75
 40
1.0
 40
1.0
 40
1.0
 40
1.0
 10
49.06205590543875
 20
0.1808437716703851
 30
0.0
 10
49.17190064639918
 20
0.0960939939326014
 30
0.0
 10
49.27970374542961
 20
0.0113968483404742
 30
0.0
 10
49.49610077725924
 20
-0.1514615600292958
 30
0.0
 10
49.6013468899859
 20
-0.2269802903620514
 30
0.0
 10
49.80431564024231
 20
-0.3613270383198487
 30
0.0
 10
49.90267603460655
 20
-0.4202413929906684
 30
0.0
 10
50.07856526672359
 20
-0.5184869287042627
 30
0.0
 10
50.15872495545273
 20
-0.559046912963168
 30
0.0
 10
50.22169432171506
 20
-0.5969055687864071
 30
0.0
  0
SPLINE
  5
CC
330
1F
100
AcDbEntity
  8
0
  6
Continuous
 62
     1
370
    15
100
AcDbSpline
210
0.0
220
0.0
230
1.0
 70
     8
 71
     3
 72
    14
 73
    10
 74
     0
 42
0.000000001
 43
0.00000001
 40
0.0
 40
0.0
 40
0.0
 40
0.0
 40
0.25
 40
0.25
 40
0.5
 40
0.5
 40
0.75
 40
0.75
 40
1.0
 40
1.0
 40
1.0
 40
1.0
 10
49.39312776465805
 20
-1.085913955078193
 30
0.0
 10
49.45916968412815
 20
-1.024860547592781
 30
0.0
 10
49.5314282680808
 20
-0.9634955264895527
 30
0.0
 10
49.68367822285763
 20
-0.8461175220870891
 30
0.0
 10
49.76357190658832
 20
-0.790242896115259
 30
0.0
 10
49.92003083941857
 20
-0.6944856687104853
 30
0.0
 10
49.99713893747928
 20
-0.6545700074904264
 30
0.0
 10
50.12846450764672
 20
-0.6039847132940307
 30
0.0
 10
50.18317342946192
 20
-0.5932514786407453
 30
0.0
 10
50.22169432172329
 20
-0.5969055687915249
 30
0.0
  0
SPLINE
  5
CD
330
1F
100
AcDbEntity
  8
0
  6
Continuous
 62
     1
370
    15
100
AcDbSpline
210
0.0
220
0.0
230
1.0
 70
     8
 71
     3
 72
     8
 73
     4
 74
     0
 42
0.000000001
 43
0.00000001
 40
0.0
 40
0.0
 40
0.0
 40
0.0
 40
1.0
 40
1.0
 40
1.0
 40
1.0
 10
49.39312776467546
 20
-1.085913955055388
 30
0.0
 10
49.50226063780327
 20
-1.18934557141954
 30
0.0
 10
49.60880834712552
 20
-1.292558955587674
 30
0.0
 10
49.71399919849858
 20
-1.395657797656978
 30
0.0
  0
SPLINE
  5
CE
330
1F
100
AcDbEntity
  8
0
  6
Continuous
 62
     1
370
    15
100
AcDbSpline
210
0.0
220
0.0
230
1.0
 70
     8
 71
     3
 72
    10
 73
     6
 74
     0
 42
0.000000001
 43
0.00000001
 40
0.0
 40
0.0
 40
0.0
 40
0.0
 40
0.4999999999999999
 40
0.4999999999999999
 40
1.0
 40
1.0
 40
1.0
 40
1.0
 10
49.71399919850511
 20
-1.39565779766402
 30
0.0
 10
49.60460568339451
 20
-1.433298906200998
 30
0.0
 10
49.49793371287046
 20
-1.44761799515387
 30
0.0
 10
49.27974203165908
 20
-1.438475448877337
 30
0.0
 10
49.17161925458483
 20
-1.414786484946172
 30
0.0
 10
49.06205590543873
 20
-1.374785637175842
 30
0.0
  0
SPLINE
  5
CF
330
1F
100
AcDbEntity
  8
0
  6
Continuous
 62
     1
370
    15
100
AcDbSpline
210
0.0
220
0.0
230
1.0
 70
     8
 71
     3
 72
     9
 73
     5
 74
     0
 42
0.000000001
 43
0.00000001
 40
0.0
 40
0.0
 40
0.0
 40
0.0
 40
0.647936121321891
 40
1.0
 40
1.0
 40
1.0
 40
1.0
 10
49.06205590543875
 20
1.373902364336282
 30
0.0
 10
48.83016724517215
 20
1.459082425534657
 30
0.0
 10
48.47227909441816
 20
1.59054609671353
 30
0.0
 10
48.11691293095616
 20
1.599397870870263
 30
0.0
 10
47.99180134109677
 20
1.602514260813064
 30
0.0
  0
SPLINE
  5
D0
330
1F
100
AcDbEntity
  8
0
  6
Continuous
 62
     1
370
    15
100
AcDbSpline
210
0.0
220
0.0
230
1.0
 70
     8
 71
     3
 72
    23
 73
    19
 74
     0
 42
0.000000001
 43
0.00000001
 40
0.0
 40
0.0
 40
0.0
 40
0.0
 40
0.0455046657739281
 40
0.1149033168317166
 40
0.1821349891608516
 40
0.2513244068993318
 40
0.3183806475697979
 40
0.3873881830004662
 40
0.454293008303885
 40
0.5231435369837604
 40
0.5899203117534922
 40
0.6586379936263496
 40
0.725306519941454
 40
0.7939117131172607
 40
0.8604913568446182
 40
0.9290041978658966
 40
0.9955138103603779
 40
1.0
 40
1.0
 40
1.0
 40
1.0
 10
42.74514386144536
 20
-1.465582999899639
 30
0.0
 10
42.62777545394739
 20
-1.52261044235473
 30
0.0
 10
42.33140981575602
 20
-1.666609792247199
 30
0.0
 10
41.86363402886278
 20
-1.776177054653614
 30
0.0
 10
41.3366885971171
 20
-1.796280321459732
 30
0.0
 10
40.81746944744613
 20
-1.694533328693705
 30
0.0
 10
40.29558438605947
 20
-1.480235211886384
 30
0.0
 10
39.78113949098469
 20
-1.169750166918809
 30
0.0
 10
39.2639954930992
 20
-0.7776209193067904
 30
0.0
 10
38.75408313328298
 20
-0.3356503583587663
 30
0.0
 10
38.24142667084512
 20
0.1362455424751856
 30
0.0
 10
37.73581149158241
 20
0.6000461125694719
 30
0.0
 10
37.22740165334478
 20
1.035488594329558
 30
0.0
 10
36.72587174286875
 20
1.40675398157174
 30
0.0
 10
36.22146613431598
 20
1.70200666703383
 30
0.0
 10
35.72394345098065
 20
1.881470423192524
 30
0.0
 10
35.38039231614525
 20
1.961904052722465
 30
0.0
 10
35.20628870458143
 20
1.947322387707872
 30
0.0
 10
35.19528718343594
 20
1.946400979504139
 30
0.0
  0
SPLINE
  5
D1
330
1F
100
AcDbEntity
  8
0
  6
Continuous
 62
     1
370
    15
100
AcDbSpline
210
0.0
220
0.0
230
1.0
 70
     8
 71
     3
 72
    24
 73
    20
 74
     0
 42
0.000000001
 43
0.00000001
 40
0.0
 40
0.0
 40
0.0
 40
0.0
 40
0.00140770900353
 40
0.0633726061099974
 40
0.1271320275198075
 40
0.1891195546076699
 40
0.2529016670768
 40
0.3149194502778354
 40
0.3787322862502417
 40
0.4407917519162704
 40
0.504646975539228
 40
0.5667537874574707
 40
0.6306573526412438
 40
0.6928225386357805
 40
0.7567857237560096
 40
0.8190136757953653
 40
0.8830411258844371
 40
0.9453420505211829
 40
1.0
 40
1.0
 40
1.0
 40
1.0
 10
29.86446845007005
 20
-1.812512335191815
 30
0.0
 10
29.86088357803137
 20
-1.814766451499408
 30
0.0
 10
29.69949888624344
 20
-1.916242839395651
 30
0.0
 10
29.37715004768844
 20
-2.031673788767879
 30
0.0
 10
28.9018904689816
 20
-2.133850903441952
 30
0.0
 10
28.42376428959865
 20
-2.108457906412758
 30
0.0
 10
27.95131271876404
 20
-1.971296440530444
 30
0.0
 10
27.47581318986784
 20
-1.723246727533814
 30
0.0
 10
27.00596341785486
 20
-1.382659348698705
 30
0.0
 10
26.53303107677352
 20
-0.9613824473649042
 30
0.0
 10
26.06564219378824
 20
-0.4890038880979883
 30
0.0
 10
25.59516000542048
 20
0.0177040130512145
 30
0.0
 10
25.13016670233204
 20
0.5233647114654791
 30
0.0
 10
24.66205942087998
 20
1.010143245066038
 30
0.0
 10
24.19933818703133
 20
1.443869066793719
 30
0.0
 10
23.73348701319664
 20
1.810308882509471
 30
0.0
 10
23.27301600184586
 20
2.080021261421329
 30
0.0
 10
22.83226333046658
 20
2.2494373993746
 30
0.0
 10
22.54843618028279
 20
2.268365749148987
 30
0.0
 10
22.41579630876577
 20
2.277211463452491
 30
0.0
  0
SPLINE
  5
D2
330
1F
100
AcDbEntity
  8
0
  6
Continuous
 62
     1
370
    15
100
AcDbSpline
210
0.0
220
0.0
230
1.0
 70
     8
 71
     3
 72
    18
 73
    14
 74
     0
 42
0.000000001
 43
0.00000001
 40
0.0
 40
0.0
 40
0.0
 40
0.0
 40
0.0081309636549429
 40
0.1068406727584333
 40
0.2084012968829321
 40
0.3072893211590225
 40
0.4090328379886481
 40
0.5081158283845367
 40
0.6100596953314097
 40
0.7093355118373458
 40
0.8114775562985713
 40
0.904568923951776
 40
1.0
 40
1.0
 40
1.0
 40
1.0
 10
16.93377090236412
 20
-2.182287804176288
 30
0.0
 10
16.92159502601418
 20
-2.190132467770326
 30
0.0
 10
16.76160429479746
 20
-2.293211164406865
 30
0.0
 10
16.45076669161591
 20
-2.397663971191426
 30
0.0
 10
16.00516149553769
 20
-2.474114539549776
 30
0.0
 10
15.55648622794729
 20
-2.421101638052768
 30
0.0
 10
15.11260772077163
 20
-2.255532766678077
 30
0.0
 10
14.66552948893651
 20
-1.97831179650489
 30
0.0
 10
14.22318439494478
 20
-1.607932719106888
 30
0.0
 10
13.77763443929546
 20
-1.15495904078175
 30
0.0
 10
13.34619665997812
 20
-0.6591884684962854
 30
0.0
 10
12.92157487011757
 20
-0.1380414768746107
 30
0.0
 10
12.64699420904034
 20
0.2036627637536269
 30
0.0
 10
12.508
 20
0.3766352901708985
 30
0.0
  0
SPLINE
  5
D3
330
1F
100
AcDbEntity
  8
0
  6
Continuous
 62
     4
370
    15
100
AcDbSpline
210
0.0
220
0.0
230
1.0
 70
     8
 71
     3
 72
     8
 73
     4
 74
     0
 42
0.000000001
 43
0.00000001
 40
0.0
 40
0.0
 40
0.0
 40
0.0
 40
1.0
 40
1.0
 40
1.0
 40
1.0
 10
12.50800000000001
 20
0.3766352901708787
 30
0.0
 10
12.16465132781896
 20
0.8135511604403006
 30
0.0
 10
11.82841773579432
 20
1.238200935510009
 30
0.0
 10
11.49199999999983
 20
1.60462461871911
 30
0.0
  0
SPLINE
  5
D4
330
1F
100
AcDbEntity
  8
0
  6
Continuous
 62
     4
370
    15
100
AcDbSpline
210
0.0
220
0.0
230
1.0
 70
     8
 71
     3
 72
    12
 73
     8
 74
     0
 42
0.000000001
 43
0.00000001
 40
0.0
 40
0.0
 40
0.0
 40
0.0
 40
0.2500000000000001
 40
0.2500000000000001
 40
0.5000000000000002
 40
0.5000000000000002
 40
1.0
 40
1.0
 40
1.0
 40
1.0
 10
10.96774452511837
 20
3.167109838573497
 30
0.0
 10
11.00680742283782
 20
3.128588331224603
 30
0.0
 10
11.0522576579696
 20
3.081423404613444
 30
0.0
 10
11.14291920208919
 20
2.986409244602684
 30
0.0
 10
11.18872064694051
 20
2.937841737992297
 30
0.0
 10
11.32251085455305
 20
2.794924076699963
 30
0.0
 10
11.408051056188
 20
2.702064824205154
 30
0.0
 10
11.49200000000001
 20
2.608926500998157
 30
0.0
  0
SPLINE
  5
D5
330
1F
100
AcDbEntity
  8
0
  6
Continuous
 62
     4
370
    15
100
AcDbSpline
210
0.0
220
0.0
230
1.0
 70
     8
 71
     3
 72
     8
 73
     4
 74
     0
 42
0.000000001
 43
0.00000001
 40
0.0
 40
0.0
 40
0.0
 40
0.0
 40
1.0
 40
1.0
 40
1.0
 40
1.0
 10
11.492
 20
2.608926500998157
 30
0.0
 10
11.82889687295914
 20
2.541078256300014
 30
0.0
 10
12.16557494604763
 20
2.376967456793527
 30
0.0
 10
12.508
 20
2.132329947578997
 30
0.0
  0
SPLINE
  5
D6
330
1F
100
AcDbEntity
  8
0
  6
Continuous
 62
     1
370
    15
100
AcDbSpline
210
0.0
220
0.0
230
1.0
 70
     8
 71
     3
 72
    19
 73
    15
 74
     0
 42
0.000000001
 43
0.00000001
 40
0.0
 40
0.0
 40
0.0
 40
0.0
 40
0.1061505752711482
 40
0.1912608615045515
 40
0.278832046118979
 40
0.3640276329885578
 40
0.4517015787448498
 40
0.5367385454349168
 40
0.6242488128691196
 40
0.7091326856712937
 40
0.7964853804113028
 40
0.8812188838494263
 40
0.9684161534700315
 40
1.0
 40
1.0
 40
1.0
 40
1.0
 10
12.508
 20
2.132329947578997
 30
0.0
 10
12.69445301616075
 20
1.989979104869838
 30
0.0
 10
13.03040187380882
 20
1.733493026081223
 30
0.0
 10
13.52156448490547
 20
1.232026132510596
 30
0.0
 10
13.97717587224733
 20
0.7200788106606076
 30
0.0
 10
14.43851610898705
 20
0.16997293002251
 30
0.0
 10
14.89671904150685
 20
-0.379137273851832
 30
0.0
 10
15.36021949359634
 20
-0.9106808939783104
 30
0.0
 10
15.820148801534
 20
-1.389207974143426
 30
0.0
 10
16.28543370086908
 20
-1.79957166804178
 30
0.0
 10
16.74709723646523
 20
-2.117095297566031
 30
0.0
 10
17.21421529784782
 20
-2.32245268414713
 30
0.0
 10
17.58173942766553
 20
-2.414577230012011
 30
0.0
 10
17.79700740478596
 20
-2.395553645545245
 30
0.0
 10
17.85424706520108
 20
-2.390495282804432
 30
0.0
  0
SPLINE
  5
D7
330
1F
100
AcDbEntity
  8
0
  6
Continuous
 62
     1
370
    15
100
AcDbSpline
210
0.0
220
0.0
230
1.0
 70
     8
 71
     3
 72
    23
 73
    19
 74
     0
 42
0.000000001
 43
0.00000001
 40
0.0
 40
0.0
 40
0.0
 40
0.0
 40
0.0585488677500125
 40
0.1244485238067924
 40
0.1884144390268291
 40
0.2542378149171987
 40
0.3181376651646161
 40
0.3838927618982256
 40
0.4477321209831483
 40
0.5134245687736174
 40
0.5772099262360372
 40
0.6428462805936003
 40
0.7065861101187965
 40
0.7721753250236506
 40
0.8358750495361711
 40
0.9014223260205342
 40
0.9650921075649693
 40
1.0
 40
1.0
 40
1.0
 40
1.0
 10
23.38823884906548
 20
1.996603686576256
 30
0.0
 10
23.53196249593435
 20
2.05897162761687
 30
0.0
 10
23.83745423943536
 20
2.191537781218906
 30
0.0
 10
24.30175483337007
 20
2.251635336152993
 30
0.0
 10
24.78517239585613
 20
2.203069564309053
 30
0.0
 10
25.26520210582747
 20
2.036051338860964
 30
0.0
 10
25.75099456705163
 20
1.760174578680495
 30
0.0
 10
26.23338384564617
 20
1.39469795269432
 30
0.0
 10
26.72157651711103
 20
0.9534461095509001
 30
0.0
 10
27.20639097144149
 20
0.468416261528116
 30
0.0
 10
27.69707875465001
 20
-0.0422956135524995
 30
0.0
 10
28.1844142451727
 20
-0.5415217511060609
 30
0.0
 10
28.67766999055734
 20
-1.010675428260138
 30
0.0
 10
29.16759889792543
 20
-1.415022608002862
 30
0.0
 10
29.66349109679318
 20
-1.741300381619065
 30
0.0
 10
30.15616572175779
 20
-1.958289960486863
 30
0.0
 10
30.57625927135292
 20
-2.065733648869245
 30
0.0
 10
30.82961348970828
 20
-2.051791151337928
 30
0.0
 10
30.91933017144042
 20
-2.046853895421337
 30
0.0
  0
SPLINE
  5
D8
330
1F
100
AcDbEntity
  8
0
  6
Continuous
 62
     1
370
    15
100
AcDbSpline
210
0.0
220
0.0
230
1.0
 70
     8
 71
     3
 72
    22
 73
    18
 74
     0
 42
0.000000001
 43
0.00000001
 40
0.0
 40
0.0
 40
0.0
 40
0.0
 40
0.0563491886533867
 40
0.1264781012620149
 40
0.1946719314843171
 40
0.2648387537870039
 40
0.3330821578512844
 40
0.4032992700351642
 40
0.4716046678665992
 40
0.541884670111244
 40
0.6102666560784761
 40
0.6806246270655566
 40
0.7490971430233545
 40
0.8195473852495225
 40
0.8881253955106156
 40
0.9586831704304754
 40
1.0
 40
1.0
 40
1.0
 40
1.0
 10
36.30309060512769
 20
1.63689954027879
 30
0.0
 10
36.44287769610975
 20
1.697118599869935
 30
0.0
 10
36.75663564490836
 20
1.832282787658367
 30
0.0
 10
37.24156514851853
 20
1.90690073164901
 30
0.0
 10
37.76227689832007
 20
1.87818547659583
 30
0.0
 10
38.28005405634583
 20
1.730294793507146
 30
0.0
 10
38.80443486574814
 20
1.474141564843269
 30
0.0
 10
39.32588971302803
 20
1.129618641528723
 30
0.0
 10
39.85404294858433
 20
0.7134577988673017
 30
0.0
 10
40.37932634564125
 20
0.2595818470382923
 30
0.0
 10
40.91140573126099
 20
-0.2100187340273073
 30
0.0
 10
41.44067375295357
 20
-0.6568551117211672
 30
0.0
 10
41.97683495568744
 20
-1.058526013224375
 30
0.0
 10
42.51022683290881
 20
-1.383497979322176
 30
0.0
 10
43.0506815739129
 20
-1.609107193086333
 30
0.0
 10
43.51735345453044
 20
-1.723492799829908
 30
0.0
 10
43.80783777611082
 20
-1.712051283764383
 30
0.0
 10
43.91511762985542
 20
-1.707825774575288
 30
0.0
  0
SPLINE
  5
D9
330
1F
100
AcDbEntity
  8
0
  6
Continuous
 62
     1
370
    15
100
AcDbSpline
210
0.0
220
0.0
230
1.0
 70
     8
 71
     3
 72
    11
 73
     7
 74
     0
 42
0.000000001
 43
0.00000001
 40
0.0
 40
0.0
 40
0.0
 40
0.0
 40
0.1932886455601297
 40
0.5460453173712462
 40
0.8855189149840081
 40
1.0
 40
1.0
 40
1.0
 40
1.0
 10
49.18313207020607
 20
1.309368979056414
 30
0.0
 10
49.25937355308724
 20
1.335274514171797
 30
0.0
 10
49.47475767250131
 20
1.40845830674667
 30
0.0
 10
49.81254443738977
 20
1.359081015861516
 30
0.0
 10
50.08309642968726
 20
1.197222881922327
 30
0.0
 10
50.19378116431146
 20
1.066717507742119
 30
0.0
 10
50.22169432172425
 20
1.033805859491128
 30
0.0
  0
SPLINE
  5
DA
330
1F
100
AcDbEntity
  8
0
  6
Continuous
 62
     1
370
    15
100
AcDbSpline
210
0.0
220
0.0
230
1.0
 70
     8
 71
     3
 72
    12
 73
     8
 74
     0
 42
0.000000001
 43
0.00000001
 40
0.0
 40
0.0
 40
0.0
 40
0.0
 40
0.1066764690865378
 40
0.4083201861247749
 40
0.7114317491756408
 40
0.980713858311684
 40
1.0
 40
1.0
 40
1.0
 40
1.0
 10
49.71957183998759
 20
0.8021939378077672
 30
0.0
 10
49.74035846412137
 20
0.7946016948036336
 30
0.0
 10
49.81992238583608
 20
0.7655412459239695
 30
0.0
 10
49.96294010849304
 20
0.7866198892547683
 30
0.0
 10
50.11636865690142
 20
0.870220966981798
 30
0.0
 10
50.19177084525572
 20
0.973615945919087
 30
0.0
 10
50.21981970690214
 20
1.030035144407824
 30
0.0
 10
50.22169432172328
 20
1.033805859491297
 30
0.0
  0
SPLINE
  5
DB
330
1F
100
AcDbEntity
  8
0
  6
Continuous
 62
     1
370
    15
100
AcDbSpline
210
0.0
220
0.0
230
1.0
 70
     8
 71
     3
 72
    10
 73
     6
 74
     0
 42
0.000000001
 43
0.00000001
 40
0.0
 40
0.0
 40
0.0
 40
0.0
 40
0.5000000000000001
 40
0.5000000000000001
 40
1.0
 40
1.0
 40
1.0
 40
1.0
 10
49.7139991984908
 20
0.9595841616733183
 30
0.0
 10
49.60460568338229
 20
1.045252106579591
 30
0.0
 10
49.49793371286103
 20
1.12609836751955
 30
0.0
 10
49.27974203165421
 20
1.268945654820077
 30
0.0
 10
49.17161925458242
 20
1.328850238478282
 30
0.0
 10
49.06205590543873
 20
1.373902364336288
 30
0.0
  0
SPLINE
  5
DC
330
1F
100
AcDbEntity
  8
0
  6
Continuous
 62
     1
370
    15
100
AcDbSpline
210
0.0
220
0.0
230
1.0
 70
     8
 71
     3
 72
    22
 73
    18
 74
     0
 42
0.000000001
 43
0.00000001
 40
0.0
 40
0.0
 40
0.0
 40
0.0
 40
0.0412507947480001
 40
0.1135429167727731
 40
0.183443036531123
 40
0.2553853462934286
 40
0.3249797776517934
 40
0.3966055712691289
 40
0.4659296277008977
 40
0.5372753912038873
 40
0.6063622428395458
 40
0.6774623000371752
 40
0.7463422519560274
 40
0.8172279461834289
 40
0.8859281654882386
 40
0.9566275183056622
 40
1.0
 40
1.0
 40
1.0
 40
1.0
 10
47.03239102199632
 20
-1.362425370112616
 30
0.0
 10
46.92556720799588
 20
-1.412986906727658
 30
0.0
 10
46.63153439004658
 20
-1.552157664015033
 30
0.0
 10
46.1586103373736
 20
-1.661540505554991
 30
0.0
 10
45.60832369386824
 20
-1.686177600757568
 30
0.0
 10
45.06686654309708
 20
-1.58616433148944
 30
0.0
 10
44.5230181461247
 20
-1.372136192576222
 30
0.0
 10
43.98762359282401
 20
-1.061565566996957
 30
0.0
 10
43.44977935917869
 20
-0.6706026978983908
 30
0.0
 10
42.92009777857385
 20
-0.2330983289432252
 30
0.0
 10
42.38789555886615
 20
0.2292006191596099
 30
0.0
 10
41.86358986824898
 20
0.6769069544121713
 30
0.0
 10
41.33670354846772
 20
1.087860074510538
 30
0.0
 10
40.81745447250691
 20
1.429068554278631
 30
0.0
 10
40.2956285342629
 20
1.678193981131479
 30
0.0
 10
39.84327553905298
 20
1.817847789765367
 30
0.0
 10
39.56221156863995
 20
1.823248464908054
 30
0.0
 10
39.45534520707179
 20
1.825301913813876
 30
0.0
  0
SPLINE
  5
DD
330
1F
100
AcDbEntity
  8
0
  6
Continuous
 62
     1
370
    15
100
AcDbSpline
210
0.0
220
0.0
230
1.0
 70
     8
 71
     3
 72
    23
 73
    19
 74
     0
 42
0.000000001
 43
0.00000001
 40
0.0
 40
0.0
 40
0.0
 40
0.0
 40
0.0536152847348381
 40
0.1171353909893829
 40
0.1824975302124332
 40
0.2459930261682347
 40
0.3113290403189473
 40
0.3748136883667194
 40
0.4401380360861082
 40
0.5036235358932218
 40
0.5689480430266515
 40
0.6324449485041762
 40
0.6977807457637798
 40
0.7613008407220699
 40
0.8266598900504434
 40
0.890210989168314
 40
0.9556015216020352
 40
1.0
 40
1.0
 40
1.0
 40
1.0
 10
34.14731040476239
 20
-1.69663799031379
 30
0.0
 10
34.01061136304503
 20
-1.76375056252227
 30
0.0
 10
33.71195966738347
 20
-1.910374000685889
 30
0.0
 10
33.24862569378581
 20
-2.010451114116931
 30
0.0
 10
32.76148140206506
 20
-2.011177726738341
 30
0.0
 10
32.27142330425391
 20
-1.892195782861226
 30
0.0
 10
31.78750748760164
 20
-1.665732048403524
 30
0.0
 10
31.30061835652659
 20
-1.339461967782833
 30
0.0
 10
30.81977249531067
 20
-0.9375272167971812
 30
0.0
 10
30.33591703226856
 20
-0.4752782724080916
 30
0.0
 10
29.85798736243713
 20
0.013560404489837
 30
0.0
 10
29.37703506809391
 20
0.5103633601982177
 30
0.0
 10
28.90192009554156
 20
0.9792077468406362
 30
0.0
 10
28.42375823350158
 20
1.401976106338512
 30
0.0
 10
27.95130645548096
 20
1.749551992570727
 30
0.0
 10
27.475843452971
 20
2.003518061202365
 30
0.0
 10
27.05270362606746
 20
2.149202427791483
 30
0.0
 10
26.78575996079434
 20
2.157768362505262
 30
0.0
 10
26.67780842296446
 20
2.161232411087784
 30
0.0
  0
SPLINE
  5
DE
330
1F
100
AcDbEntity
  8
0
  6
Continuous
 62
     1
370
    15
100
AcDbSpline
210
0.0
220
0.0
230
1.0
 70
     8
 71
     3
 72
    24
 73
    20
 74
     0
 42
0.000000001
 43
0.00000001
 40
0.0
 40
0.0
 40
0.0
 40
0.0
 40
0.034778658216841
 40
0.0964225298723989
 40
0.1564213192984662
 40
0.2181539571149482
 40
0.2782451781243576
 40
0.3400724518708819
 40
0.4002621530291596
 40
0.4621907173736808
 40
0.522481664288023
 40
0.5845139359965843
 40
0.6449150405998082
 40
0.7070606384039824
 40
0.7675708552058985
 40
0.8298283662303005
 40
0.8904578840523791
 40
0.9528379905995422
 40
1.0
 40
1.0
 40
1.0
 40
1.0
 10
21.23994338938402
 20
-2.052612712180014
 30
0.0
 10
21.15262915840536
 20
-2.101083872900468
 30
0.0
 10
20.91055371684194
 20
-2.235468354135418
 30
0.0
 10
20.51921838379275
 20
-2.335241266606983
 30
0.0
 10
20.06163063916693
 20
-2.352830258890813
 30
0.0
 10
19.60918470535975
 20
-2.248793232270629
 30
0.0
 10
19.15353217611453
 20
-2.03197886666195
 30
0.0
 10
18.70288233985481
 20
-1.714827945089973
 30
0.0
 10
18.24907265137141
 20
-1.307597884063235
 30
0.0
 10
17.8002194978353
 20
-0.8367549015419905
 30
0.0
 10
17.34816078057343
 20
-0.3171154915394904
 30
0.0
 10
16.90100627391904
 20
0.2174455005813785
 30
0.0
 10
16.4506779327095
 20
0.7501673463763165
 30
0.0
 10
16.00518442320873
 20
1.246346168278943
 30
0.0
 10
15.55648146855625
 20
1.690086957266686
 30
0.0
 10
15.11260315906386
 20
2.053718192993438
 30
0.0
 10
14.66555191128826
 20
2.32108765883869
 30
0.0
 10
14.25580874921801
 20
2.479349515891772
 30
0.0
 10
13.99300548416741
 20
2.492573657256145
 30
0.0
 10
13.87985877388555
 20
2.4982671485124
 30
0.0
  0
SPLINE
  5
DF
330
1F
100
AcDbEntity
  8
0
  6
Continuous
 62
     1
370
    15
100
AcDbSpline
210
0.0
220
0.0
230
1.0
 70
     8
 71
     3
 72
    24
 73
    20
 74
     0
 42
0.000000001
 43
0.00000001
 40
0.0
 40
0.0
 40
0.0
 40
0.0
 40
0.0182404634577216
 40
0.0805277314972908
 40
0.1446266251438025
 40
0.2068017560693426
 40
0.2707852319978784
 40
0.3328502214490911
 40
0.3967198526998449
 40
0.4586815155179954
 40
0.5224448267850145
 40
0.5843046559600562
 40
0.6479626231659001
 40
0.7097282561580434
 40
0.7732892819716658
 40
0.8349624417319336
 40
0.8984277424986511
 40
0.960016343751625
 40
1.0
 40
1.0
 40
1.0
 40
1.0
 10
14.76888770980767
 20
2.243870242319445
 30
0.0
 10
14.81311566381803
 20
2.268329646868081
 30
0.0
 10
15.00837258881205
 20
2.376312668606621
 30
0.0
 10
15.36027976775949
 20
2.456797996348066
 30
0.0
 10
15.82013396883083
 20
2.472735785502723
 30
0.0
 10
16.28543429738323
 20
2.358753437340503
 30
0.0
 10
16.74711033388773
 20
2.133579018117199
 30
0.0
 10
17.21416367682446
 20
1.801816174768722
 30
0.0
 10
17.67766455400398
 20
1.387038759105045
 30
0.0
 10
18.14658827245107
 20
0.9024584297345525
 30
0.0
 10
18.61194158865668
 20
0.3812796426865414
 30
0.0
 10
19.08274342803321
 20
-0.1596567280126249
 30
0.0
 10
19.55002083204379
 20
-0.6832904309803712
 30
0.0
 10
20.02279795848551
 20
-1.17279438716984
 30
0.0
 10
20.49204214938045
 20
-1.594221432010439
 30
0.0
 10
20.96680026832489
 20
-1.93559774383453
 30
0.0
 10
21.43812197496241
 20
-2.167299218247664
 30
0.0
 10
21.85563249499305
 20
-2.288438881734125
 30
0.0
 10
22.11358795538753
 20
-2.279242354969328
 30
0.0
 10
22.2151314546611
 20
-2.275622166013325
 30
0.0
  0
SPLINE
  5
E0
330
1F
100
AcDbEntity
  8
0
  6
Continuous
 62
     1
370
    15
100
AcDbSpline
210
0.0
220
0.0
230
1.0
 70
     8
 71
     3
 72
    24
 73
    20
 74
     0
 42
0.000000001
 43
0.00000001
 40
0.0
 40
0.0
 40
0.0
 40
0.0
 40
0.0005034846401244
 40
0.067539720925491
 40
0.132638983592685
 40
0.1996270750424484
 40
0.2646853773435119
 40
0.3316306359166935
 40
0.396658356630719
 40
0.4635718642025134
 40
0.5285747559740159
 40
0.5954620019836759
 40
0.6604508263965216
 40
0.7273231772316103
 40
0.7923053895469638
 40
0.8591703478138869
 40
0.9241558907979157
 40
0.9910235584036131
 40
1.0
 40
1.0
 40
1.0
 40
1.0
 10
27.68895779939293
 20
1.874727356266779
 30
0.0
 10
27.69019763232215
 20
1.875449486469873
 30
0.0
 10
27.85651446378037
 20
1.972319318242335
 30
0.0
 10
28.18452460031423
 20
2.068380511931491
 30
0.0
 10
28.67764064476468
 20
2.141606534870276
 30
0.0
 10
29.16760341550833
 20
2.083110934514844
 30
0.0
 10
29.66350140102288
 20
1.910884734097169
 30
0.0
 10
30.15611877427057
 20
1.633938018078723
 30
0.0
 10
30.65477762122523
 20
1.264535081951779
 30
0.0
 10
31.15016702868077
 20
0.8301475105265642
 30
0.0
 10
31.65165303651229
 20
0.3483564741063237
 30
0.0
 10
32.14991055398692
 20
-0.1445999770523498
 30
0.0
 10
32.65434135861135
 20
-0.6286381629654078
 30
0.0
 10
33.15557179257918
 20
-1.067464087410394
 30
0.0
 10
33.6630423035363
 20
-1.442082434817144
 30
0.0
 10
34.16730857166696
 20
-1.727911173273873
 30
0.0
 10
34.67803035232002
 20
-1.899023849280076
 30
0.0
 10
35.04077308528765
 20
-1.968004831091932
 30
0.0
 10
35.2369127777665
 20
-1.944352151550386
 30
0.0
 10
35.26012666362781
 20
-1.941552766090706
 30
0.0
  0
SPLINE
  5
E1
330
1F
100
AcDbEntity
  8
0
  6
Continuous
 62
     1
370
    15
100
AcDbSpline
210
0.0
220
0.0
230
1.0
 70
     8
 71
     3
 72
    22
 73
    18
 74
     0
 42
0.000000001
 43
0.00000001
 40
0.0
 40
0.0
 40
0.0
 40
0.0
 40
0.041471384757625
 40
0.1135354046212239
 40
0.1836682507062746
 40
0.2558267792135017
 40
0.326067677640902
 40
0.3983363463080216
 40
0.4687025618511577
 40
0.5410991316033148
 40
0.6116078963326187
 40
0.6841500921596925
 40
0.7548193333268257
 40
0.8275254369234443
 40
0.8983753744524904
 40
0.9712661769241526
 40
0.9999999999999999
 40
0.9999999999999999
 40
0.9999999999999999
 40
0.9999999999999999
 10
40.59743615900616
 20
1.519392834321124
 30
0.0
 10
40.70045952129231
 20
1.566473674103836
 30
0.0
 10
40.98250457937171
 20
1.695365974804126
 30
0.0
 10
41.44072047883709
 20
1.782945049793894
 30
0.0
 10
41.97681904128868
 20
1.782729560636124
 30
0.0
 10
42.51024301914607
 20
1.659892414278623
 30
0.0
 10
43.05063345612201
 20
1.426775317730669
 30
0.0
 10
43.58835076279579
 20
1.101767138315088
 30
0.0
 10
44.13316011916184
 20
0.7023737174195683
 30
0.0
 10
44.67536715529056
 20
0.2627495961341689
 30
0.0
 10
45.2247760787408
 20
-0.1935685952808126
 30
0.0
 10
45.77165627989994
 20
-0.6272366685340198
 30
0.0
 10
46.32585645310464
 20
-1.014053421327093
 30
0.0
 10
46.87758993410724
 20
-1.322463997439793
 30
0.0
 10
47.43685126260361
 20
-1.526904794809051
 30
0.0
 10
47.88376546310791
 20
-1.618603970843723
 30
0.0
 10
48.14809238184503
 20
-1.601086741688866
 30
0.0
 10
48.22282941409737
 20
-1.596133838191284
 30
0.0
  0
LINE
  5
E2
330
1F
100
AcDbEntity
  8
0
  6
Continuous
 62
     4
370
    15
100
AcDbLine
 10
12.508
 20
0.3766352901708979
 30
0.0
 11
12.50800000000001
 21
-2.268009529280778
 31
0.0
  0
LINE
  5
E3
330
1F
100
AcDbEntity
  8
0
  6
Continuous
 62
     4
370
    15
100
AcDbLine
 10
12.50800000000001
 20
2.544157644374196
 30
0.0
 11
12.50800000000001
 21
2.132329947578988
 31
0.0
  0
LINE
  5
E4
330
1F
100
AcDbEntity
  8
0
  6
Continuous
 62
     1
370
    15
100
AcDbLine
 10
49.06205590543875
 20
1.373902364336285
 30
0.0
 11
49.06205590543875
 21
0.1808437716703861
 31
0.0
  0
LINE
  5
E5
330
1F
100
AcDbEntity
  8
0
  6
Continuous
 62
     4
370
    15
100
AcDbLine
 10
11.492
 20
-2.598756366831144
 30
0.0
 11
11.492
 21
-2.622549999999991
 31
0.0
  0
ARC
  5
E6
330
1F
100
AcDbEntity
  8
0
  6
Continuous
 62
     1
370
    15
100
AcDbCircle
 10
48.5261535001745
 20
1.165950101436191
 30
0.0
 40
1.205638546224067
100
AcDbArc
 50
336.4341500743346
 51
350.1443025550317
  0
LINE
  5
E7
330
1F
100
AcDbEntity
  8
0
  6
Continuous
 62
     1
370
    15
100
AcDbLine
 10
49.6312432231063
 20
0.6839324581783975
 30
0.0
 11
50.608
 21
0.0000000000000153
 31
0.0
  0
ARC
  5
E8
330
1F
100
AcDbEntity
  8
0
  6
Continuous
 62
     1
370
    15
100
AcDbCircle
 10
49.50705911813252
 20
0.2890499864156428
 30
0.0
 40
1.138253363717413
100
AcDbArc
 50
308.8905664974112
 51
345.2891154443627
  0
LINE
  5
E9
330
1F
100
AcDbEntity
  8
0
  6
Continuous
 62
     4
370
    15
100
AcDbLine
 10
11.492
 20
2.622550000000009
 30
0.0
 11
11.492
 21
2.608926500998157
 31
0.0
  0
ARC
  5
EA
330
1F
100
AcDbEntity
  8
0
  6
Continuous
 62
     1
370
    15
100
AcDbCircle
 10
49.60480374004638
 20
-1.346457453918431
 30
0.0
 40
0.1197677835341887
100
AcDbArc
 50
291.8974562822374
 51
335.7450378709921
  0
ARC
  5
EB
330
1F
100
AcDbEntity
  8
0
  6
Continuous
 62
     1
370
    15
100
AcDbCircle
 10
48.91273378000423
 20
0.0718832404426731
 30
0.0
 40
1.696789544084736
100
AcDbArc
 50
296.5637109239609
 51
357.5719798189085
  0
ARC
  5
EC
330
1F
100
AcDbEntity
  8
0
  6
Continuous
 62
     1
370
    15
100
AcDbCircle
 10
49.04285048721744
 20
0.0042243637088748
 30
0.0
 40
1.565155213584978
100
AcDbArc
 50
359.8453581450548
 51
41.13339186112454
  0
LINE
  5
ED
330
1F
100
AcDbEntity
  8
0
  6
Continuous
 62
     8
370
    15
100
AcDbLine
 10
49.06205590543875
 20
-1.374785637175844
 30
0.0
 11
49.06205590543875
 21
-1.586956003398688
 31
0.0
  0
LINE
  5
EE
102
{ACAD_REACTORS
102
}
330
1F
100
AcDbEntity
  8
중심선
100
AcDbLine
 10
-28.59200000000001
 20
-0.0000000000000043
 30
0.0
 11
55.06205590543874
 21
-0.0000000000000043
 31
0.0
  0
CIRCLE
  5
EF
330
1F
100
AcDbEntity
  8
외형선
100
AcDbCircle
 10
0.0
 20
0.0
 30
0.0
 40
2.999999999999997
  0
INSERT
  5
F0
330
1F
100
AcDbEntity
  8
0
  6
Continuous
 62
     7
100
AcDbBlockReference
 66
     1
  2
블럭10
 10
-1.432773799681436
 20
-52.05975325537357
 30
0.0
  0
ATTRIB
  5
F1
330
F0
100
AcDbEntity
  8
FORMAT
 62
     2
100
AcDbText
 10
-10.61406908842272
 20
-49.98438634254138
 30
0.0
 40
4.233333333333333
  1
E5078158 [ 3 FLUTE ]
 41
0.75
  7
SLDTEXTSTYLE0
 11
-10.61406908842272
 21
-52.10105300920804
 31
0.0
100
AcDbAttribute
  2
AUTOATTR0
 70
     0
 74
     1
  0
SEQEND
  5
F2
330
F0
100
AcDbEntity
  8
0
  6
Continuous
 62
     7
  0
HATCH
  5
F3
330
1F
100
AcDbEntity
  8
중심선
100
AcDbHatch
 10
0.0
 20
0.0
 30
0.0
210
0.0
220
0.0
230
1.0
  2
SOLID
 70
     1
 71
     0
 91
        1
 92
        0
 93
        4
 72
     1
 10
4.282135504699413
 20
-35.81257895372963
 11
0.8358602608621313
 21
-35.81257895372963
 72
     1
 10
0.8358602608621313
 20
-35.81257895372963
 11
-1.292369598341891
 21
-38.34890453430223
 72
     1
 10
-1.292369598341891
 20
-38.34890453430223
 11
2.15393873060854
 21
-38.34886510499974
 72
     1
 10
2.15393873060854
 20
-38.34886510499974
 11
4.282135504699413
 21
-35.81257895372963
 97
        0
 75
     0
 76
     1
 98
        1
 10
0.0
 20
0.0
  0
HATCH
  5
F4
330
1F
100
AcDbEntity
  8
중심선
100
AcDbHatch
 10
0.0
 20
0.0
 30
0.0
210
0.0
220
0.0
230
1.0
  2
SOLID
 70
     1
 71
     0
 91
        1
 92
        0
 93
        4
 72
     1
 10
9.294899495735365
 20
-35.81257895372963
 11
5.848624251898082
 21
-35.81257895372963
 72
     1
 10
5.848624251898082
 20
-35.81257895372963
 11
1.317486243540694
 21
-41.21257895372965
 72
     1
 10
1.317486243540694
 20
-41.21257895372965
 11
4.763761487377977
 21
-41.21257895372965
 72
     1
 10
4.763761487377977
 20
-41.21257895372965
 11
9.294899495735365
 21
-35.81257895372963
 97
        0
 75
     0
 76
     1
 98
        1
 10
0.0
 20
0.0
  0
HATCH
  5
F5
330
1F
100
AcDbEntity
  8
중심선
100
AcDbHatch
 10
0.0
 20
0.0
 30
0.0
210
0.0
220
0.0
230
1.0
  2
SOLID
 70
     1
 71
     0
 91
        1
 92
        0
 93
        4
 72
     1
 10
14.30766348677126
 20
-35.81257895372966
 11
10.86138824293414
 21
-35.81257895372963
 72
     1
 10
10.86138824293414
 20
-35.81257895372963
 11
3.812951341044895
 21
-44.21257895372965
 72
     1
 10
3.812951341044895
 20
-44.21257895372965
 11
7.259226584882178
 21
-44.21257895372965
 72
     1
 10
7.259226584882178
 20
-44.21257895372965
 11
14.30766348677126
 21
-35.81257895372966
 97
        0
 75
     0
 76
     1
 98
        1
 10
0.0
 20
0.0
  0
HATCH
  5
F6
330
1F
100
AcDbEntity
  8
중심선
100
AcDbHatch
 10
0.0
 20
0.0
 30
0.0
210
0.0
220
0.0
230
1.0
  2
SOLID
 70
     1
 71
     0
 91
        1
 92
        0
 93
        6
 72
     3
 10
19.10755391778346
 20
-40.01257895378091
 11
3.960054785062284
 21
1.540850780301639E-10
 40
0.3939339440162633
 50
17.09539180608434
 51
320.0019657685079
 73
     0
 72
     1
 10
20.79055357348405
 20
-38.60047295836794
 11
23.09585544718509
 21
-36.66614624832001
 72
     3
 10
19.10755391773061
 20
-40.01257895372979
 11
6.600054785286829
 21
-1.249000902703301E-13
 40
0.6363583540795982
 50
39.99873849337412
 51
368.4976242363725
 73
     1
 72
     1
 10
25.53288640963122
 20
-39.05257895365965
 11
17.78762122456654
 21
-39.05257895365963
 72
     1
 10
17.78762122456654
 20
-39.05257895365963
 11
17.7875961801206
 21
-40.97257895365955
 72
     1
 10
17.7875961801206
 20
-40.97257895365955
 11
22.22897594959264
 21
-40.97257895365952
 97
        0
 75
     0
 76
     1
 98
        1
 10
0.0
 20
0.0
  0
DIMENSION
  5
F7
330
1F
100
AcDbEntity
  8
치수문자_일반주서
100
AcDbDimension
  2
_D
 10
12.50800000000001
 20
30.66531244900119
 30
0.0
 11
34.34206692949722
 21
30.66531244900119
 31
0.0
 70
   160
  1
<>
 71
     2
 42
38.09999999999999
  3
SLDDIMSTYLE0
100
AcDbAlignedDimension
 13
50.608
 23
1.587500000000019
 33
0.0
 14
12.50800000000001
 24
3.483675262632618
 34
0.0
100
AcDbRotatedDimension
1001
ACAD
1000
DSTYLE
1002
{
1070
   171
1070
     6
1070
   273
1070
     7
1002
}
  0
DIMENSION
  5
10B
330
1F
100
AcDbEntity
  8
치수문자_일반주서
100
AcDbDimension
  2
_D_1
 10
-25.59199999999999
 20
42.1767792684898
 30
0.0
 11
14.21198585024596
 21
42.1767792684898
 31
0.0
 70
   160
  1
<>
 71
     2
 42
76.19999999999999
  3
SLDDIMSTYLE1
100
AcDbAlignedDimension
 13
50.60799999999999
 23
1.587499999999995
 33
0.0
 14
-25.592
 24
2.364999999999995
 34
0.0
100
AcDbRotatedDimension
1001
ACAD
1000
DSTYLE
1002
{
1070
   171
1070
     6
1070
   273
1070
     7
1002
}
  0
DIMENSION
  5
11F
330
1F
100
AcDbEntity
  8
치수문자_일반주서
100
AcDbDimension
  2
_D_2
 10
-38.59199999999998
 20
-3.17500000000004
 30
0.0
 11
-38.59199999999999
 21
0.8697769195248211
 31
0.0
 70
   160
  1
%%c<>
 71
     2
 42
6.349999999999995
  3
SLDDIMSTYLE2
100
AcDbAlignedDimension
 13
-24.78199999999999
 23
3.175000000000002
 33
0.0
 14
-24.78199999999999
 24
-3.174999999999993
 34
0.0
 50
90.0000000000002
100
AcDbRotatedDimension
1001
ACAD
1000
DSTYLE
1002
{
1070
   171
1070
     6
1070
   273
1070
     7
1002
}
  0
INSERT
  5
13A
330
1F
100
AcDbEntity
  8
외형선
100
AcDbBlockReference
  2
SW_DOWELSYMBOL_0
 10
0.0
 20
0.0
 30
0.0
  0
DIMENSION
  5
169
102
{ACAD_XDICTIONARY
360
16A
102
}
330
1F
100
AcDbEntity
  8
치수문자_일반주서
100
AcDbDimension
  2
*D6
 10
59.55032511600668
 20
1.587499999999995
 30
0.0
 11
56.92532511600668
 21
20.44149999999999
 31
0.0
 70
    32
  1
{%%c<>[]}
 71
     5
 42
3.175
  3
SLDDIMSTYLE0
100
AcDbAlignedDimension
 13
50.5769378873427
 23
-1.587500000000004
 33
0.0
 14
50.57693788734271
 24
1.587499999999995
 34
0.0
 50
90.0
100
AcDbRotatedDimension
1001
ACAD
1000
DSTYLE
1002
{
1070
   283
1070
     1
1070
   170
1070
     1
1070
   171
1070
     6
1070
   273
1070
     7
1002
}
  0
DIMENSION
  5
17C
102
{ACAD_REACTORS
102
}
102
{ACAD_XDICTIONARY
360
17D
102
}
330
1F
100
AcDbEntity
  8
치수문자_일반주서
100
AcDbDimension
  2
*D7
 10
20.03480115468721
 20
2.347061419670692
 30
0.0
 11
19.20875152002654
 21
13.09252793007874
 31
0.0
 70
    34
  1
<>
 71
     5
 42
0.026179938779915
  3
SLDDIMSTYLE0
100
AcDb2LineAngularDimension
 13
-28.59200000000001
 23
-0.0000000000000043
 33
0.0
 14
55.06205590543875
 24
-0.0000000000000043
 34
0.0
 15
22.41599260533778
 25
2.284707727102737
 35
0.0
 16
20.97939955857237
 26
0.773951530005358
 36
0.0
1001
ACAD
1000
DSTYLE
1002
{
1070
   179
1070
     1
1070
   171
1070
     6
1070
   273
1070
     7
1002
}
  0
ENDSEC
  0
SECTION
  2
OBJECTS
  0
DICTIONARY
  5
C
330
0
100
AcDbDictionary
281
     1
  3
ACAD_DETAILVIEWSTYLE
350
167
  3
ACAD_GROUP
350
D
  3
ACAD_IMAGE_VARS
350
15E
  3
ACAD_LAYOUT
350
1A
  3
ACAD_MLINESTYLE
350
17
  3
ACAD_PLOTSETTINGS
350
19
  3
ACAD_PLOTSTYLENAME
350
E
  3
ACAD_SCALELIST
350
47
  3
ACAD_SECTIONVIEWSTYLE
350
168
  3
AcDbVariableDictionary
350
162
  3
APPDATA
350
15C
  3
DWGPROPS
350
18E
  0
DICTIONARY
  5
16A
330
169
100
AcDbDictionary
280
     1
281
     1
  0
DICTIONARY
  5
17D
330
17C
100
AcDbDictionary
280
     1
281
     1
  0
DICTIONARY
  5
167
102
{ACAD_REACTORS
330
C
102
}
330
C
100
AcDbDictionary
281
     1
  0
DICTIONARY
  5
D
102
{ACAD_REACTORS
330
C
102
}
330
C
100
AcDbDictionary
281
     1
  0
RASTERVARIABLES
  5
15E
102
{ACAD_REACTORS
330
C
102
}
330
C
100
AcDbRasterVariables
 90
        0
 70
     1
 71
     1
 72
     1
  0
DICTIONARY
  5
1A
102
{ACAD_REACTORS
330
C
102
}
330
C
100
AcDbDictionary
281
     1
  3
Layout1
350
1E
  3
Layout2
350
26
  3
Model
350
22
  0
DICTIONARY
  5
17
102
{ACAD_REACTORS
330
C
102
}
330
C
100
AcDbDictionary
281
     1
  3
Standard
350
18
  0
DICTIONARY
  5
19
102
{ACAD_REACTORS
330
C
102
}
330
C
100
AcDbDictionary
281
     1
  0
ACDBDICTIONARYWDFLT
  5
E
102
{ACAD_REACTORS
330
C
102
}
330
C
100
AcDbDictionary
281
     1
  3
Normal
350
F
100
AcDbDictionaryWithDefault
340
F
  0
DICTIONARY
  5
47
102
{ACAD_REACTORS
330
C
102
}
330
C
100
AcDbDictionary
281
     1
  3
A0
350
48
  3
A1
350
49
  3
A2
350
4A
  3
A3
350
4B
  3
A4
350
4C
  3
A5
350
4D
  3
A6
350
4E
  3
A7
350
4F
  3
A8
350
50
  3
A9
350
51
  3
B0
350
52
  3
B1
350
53
  3
B2
350
54
  3
B3
350
55
  3
B4
350
56
  3
B5
350
57
  3
B6
350
58
  3
B7
350
59
  3
B8
350
5A
  3
B9
350
5B
  3
C0
350
5C
  3
C1
350
5D
  3
C2
350
5E
  3
C3
350
5F
  3
C4
350
60
  3
C5
350
61
  3
C6
350
62
  3
C7
350
63
  3
C8
350
64
  3
C9
350
65
  3
D0
350
66
  3
D1
350
67
  3
D2
350
68
  0
DICTIONARY
  5
168
102
{ACAD_REACTORS
330
C
102
}
330
C
100
AcDbDictionary
281
     1
  0
DICTIONARY
  5
162
102
{ACAD_REACTORS
330
C
102
}
330
C
100
AcDbDictionary
281
     1
  0
DICTIONARY
  5
15C
102
{ACAD_REACTORS
330
C
102
}
330
C
100
AcDbDictionary
281
     1
  0
XRECORD
  5
18E
102
{ACAD_REACTORS
330
C
102
}
330
C
100
AcDbXrecord
280
     1
  1
DWGPROPS COOKIE
  2

  3

  4

  6

  7

  8
12015048
  9

300
=
301
=
302
=
303
=
304
=
305
=
306
=
307
=
308
=
309
=
 40
0.0
 41
2458340.217829745
 42
2458341.060727812
  1

 90
        0
  0
LAYOUT
  5
1E
102
{ACAD_REACTORS
330
1A
102
}
330
1A
100
AcDbPlotSettings
  1

  2
none_device
  4

  6

 40
0.0
 41
0.0
 42
0.0
 43
0.0
 44
0.0
 45
0.0
 46
0.0
 47
0.0
 48
0.0
 49
0.0
140
0.0
141
0.0
142
1.0
143
1.0
 70
   688
 72
     1
 73
     0
 74
     5
  7

 75
    16
147
1.0
148
0.0
149
0.0
100
AcDbLayout
  1
Layout1
 70
     1
 71
     1
 10
0.0
 20
0.0
 11
420.0
 21
297.0
 12
0.0
 22
0.0
 32
0.0
 14
1.000000000000000E+20
 24
1.000000000000000E+20
 34
1.000000000000000E+20
 15
-1.000000000000000E+20
 25
-1.000000000000000E+20
 35
-1.000000000000000E+20
146
0.0
 13
0.0
 23
0.0
 33
0.0
 16
1.0
 26
0.0
 36
0.0
 17
0.0
 27
1.0
 37
0.0
 76
     0
330
1B
  0
LAYOUT
  5
26
102
{ACAD_REACTORS
330
1A
102
}
330
1A
100
AcDbPlotSettings
  1

  2
none_device
  4

  6

 40
0.0
 41
0.0
 42
0.0
 43
0.0
 44
0.0
 45
0.0
 46
0.0
 47
0.0
 48
0.0
 49
0.0
140
0.0
141
0.0
142
1.0
143
1.0
 70
   688
 72
     1
 73
     0
 74
     5
  7

 75
    16
147
1.0
148
0.0
149
0.0
100
AcDbLayout
  1
Layout2
 70
     1
 71
     2
 10
0.0
 20
0.0
 11
0.0
 21
0.0
 12
0.0
 22
0.0
 32
0.0
 14
0.0
 24
0.0
 34
0.0
 15
0.0
 25
0.0
 35
0.0
146
0.0
 13
0.0
 23
0.0
 33
0.0
 16
1.0
 26
0.0
 36
0.0
 17
0.0
 27
1.0
 37
0.0
 76
     0
330
23
  0
LAYOUT
  5
22
102
{ACAD_REACTORS
330
1A
102
}
330
1A
100
AcDbPlotSettings
  1

  2
none_device
  4
ANSI_A_(11.00_x_8.50_Inches)
  6

 40
6.35
 41
19.05
 42
6.35000508
 43
19.05000254
 44
279.4
 45
215.9
 46
124.541613396619
 47
100.0349995745547
 48
0.0
 49
0.0
140
0.0
141
0.0
142
0.0915836148719576
143
1.0
 70
  1696
 72
     0
 73
     0
 74
     0
  7

 75
     0
147
0.0235690232323232
148
0.0
149
0.0
100
AcDbLayout
  1
Model
 70
     1
 71
     0
 10
0.0
 20
0.0
 11
420.0
 21
297.0
 12
0.0
 22
0.0
 32
0.0
 14
-42.96700000000003
 24
-49.98438634254138
 34
0.0
 15
60.10065844934001
 25
46.5517792684898
 35
0.0
146
0.0
 13
0.0
 23
0.0
 33
0.0
 16
1.0
 26
0.0
 36
0.0
 17
0.0
 27
1.0
 37
0.0
 76
     0
330
1F
331
29
  0
MLINESTYLE
  5
18
102
{ACAD_REACTORS
330
17
102
}
330
17
100
AcDbMlineStyle
  2
Standard
 70
     0
  3

 62
   256
 51
90.0
 52
90.0
 71
     2
 49
0.5
 62
   256
  6
BYLAYER
 49
-0.5
 62
   256
  6
BYLAYER
  0
ACDBPLACEHOLDER
  5
F
102
{ACAD_REACTORS
330
E
102
}
330
E
  0
SCALE
  5
48
102
{ACAD_REACTORS
330
47
102
}
330
47
100
AcDbScale
 70
     0
300
1:1
140
1.0
141
1.0
290
     1
  0
SCALE
  5
49
102
{ACAD_REACTORS
330
47
102
}
330
47
100
AcDbScale
 70
     0
300
1:2
140
1.0
141
2.0
290
     0
  0
SCALE
  5
4A
102
{ACAD_REACTORS
330
47
102
}
330
47
100
AcDbScale
 70
     0
300
1:4
140
1.0
141
4.0
290
     0
  0
SCALE
  5
4B
102
{ACAD_REACTORS
330
47
102
}
330
47
100
AcDbScale
 70
     0
300
1:5
140
1.0
141
5.0
290
     0
  0
SCALE
  5
4C
102
{ACAD_REACTORS
330
47
102
}
330
47
100
AcDbScale
 70
     0
300
1:8
140
1.0
141
8.0
290
     0
  0
SCALE
  5
4D
102
{ACAD_REACTORS
330
47
102
}
330
47
100
AcDbScale
 70
     0
300
1:10
140
1.0
141
10.0
290
     0
  0
SCALE
  5
4E
102
{ACAD_REACTORS
330
47
102
}
330
47
100
AcDbScale
 70
     0
300
1:16
140
1.0
141
16.0
290
     0
  0
SCALE
  5
4F
102
{ACAD_REACTORS
330
47
102
}
330
47
100
AcDbScale
 70
     0
300
1:20
140
1.0
141
20.0
290
     0
  0
SCALE
  5
50
102
{ACAD_REACTORS
330
47
102
}
330
47
100
AcDbScale
 70
     0
300
1:30
140
1.0
141
30.0
290
     0
  0
SCALE
  5
51
102
{ACAD_REACTORS
330
47
102
}
330
47
100
AcDbScale
 70
     0
300
1:40
140
1.0
141
40.0
290
     0
  0
SCALE
  5
52
102
{ACAD_REACTORS
330
47
102
}
330
47
100
AcDbScale
 70
     0
300
1:50
140
1.0
141
50.0
290
     0
  0
SCALE
  5
53
102
{ACAD_REACTORS
330
47
102
}
330
47
100
AcDbScale
 70
     0
300
1:100
140
1.0
141
100.0
290
     0
  0
SCALE
  5
54
102
{ACAD_REACTORS
330
47
102
}
330
47
100
AcDbScale
 70
     0
300
2:1
140
2.0
141
1.0
290
     0
  0
SCALE
  5
55
102
{ACAD_REACTORS
330
47
102
}
330
47
100
AcDbScale
 70
     0
300
4:1
140
4.0
141
1.0
290
     0
  0
SCALE
  5
56
102
{ACAD_REACTORS
330
47
102
}
330
47
100
AcDbScale
 70
     0
300
8:1
140
8.0
141
1.0
290
     0
  0
SCALE
  5
57
102
{ACAD_REACTORS
330
47
102
}
330
47
100
AcDbScale
 70
     0
300
10:1
140
10.0
141
1.0
290
     0
  0
SCALE
  5
58
102
{ACAD_REACTORS
330
47
102
}
330
47
100
AcDbScale
 70
     0
300
100:1
140
100.0
141
1.0
290
     0
  0
SCALE
  5
59
102
{ACAD_REACTORS
330
47
102
}
330
47
100
AcDbScale
 70
     0
300
1/128" = 1'-0"
140
0.0078125
141
12.0
290
     0
  0
SCALE
  5
5A
102
{ACAD_REACTORS
330
47
102
}
330
47
100
AcDbScale
 70
     0
300
1/64" = 1'-0"
140
0.015625
141
12.0
290
     0
  0
SCALE
  5
5B
102
{ACAD_REACTORS
330
47
102
}
330
47
100
AcDbScale
 70
     0
300
1/32" = 1'-0"
140
0.03125
141
12.0
290
     0
  0
SCALE
  5
5C
102
{ACAD_REACTORS
330
47
102
}
330
47
100
AcDbScale
 70
     0
300
1/16" = 1'-0"
140
0.0625
141
12.0
290
     0
  0
SCALE
  5
5D
102
{ACAD_REACTORS
330
47
102
}
330
47
100
AcDbScale
 70
     0
300
3/32" = 1'-0"
140
0.09375
141
12.0
290
     0
  0
SCALE
  5
5E
102
{ACAD_REACTORS
330
47
102
}
330
47
100
AcDbScale
 70
     0
300
1/8" = 1'-0"
140
0.125
141
12.0
290
     0
  0
SCALE
  5
5F
102
{ACAD_REACTORS
330
47
102
}
330
47
100
AcDbScale
 70
     0
300
3/16" = 1'-0"
140
0.1875
141
12.0
290
     0
  0
SCALE
  5
60
102
{ACAD_REACTORS
330
47
102
}
330
47
100
AcDbScale
 70
     0
300
1/4" = 1'-0"
140
0.25
141
12.0
290
     0
  0
SCALE
  5
61
102
{ACAD_REACTORS
330
47
102
}
330
47
100
AcDbScale
 70
     0
300
3/8" = 1'-0"
140
0.375
141
12.0
290
     0
  0
SCALE
  5
62
102
{ACAD_REACTORS
330
47
102
}
330
47
100
AcDbScale
 70
     0
300
1/2" = 1'-0"
140
0.5
141
12.0
290
     0
  0
SCALE
  5
63
102
{ACAD_REACTORS
330
47
102
}
330
47
100
AcDbScale
 70
     0
300
3/4" = 1'-0"
140
0.75
141
12.0
290
     0
  0
SCALE
  5
64
102
{ACAD_REACTORS
330
47
102
}
330
47
100
AcDbScale
 70
     0
300
1" = 1'-0"
140
1.0
141
12.0
290
     0
  0
SCALE
  5
65
102
{ACAD_REACTORS
330
47
102
}
330
47
100
AcDbScale
 70
     0
300
1-1/2" = 1'-0"
140
1.5
141
12.0
290
     0
  0
SCALE
  5
66
102
{ACAD_REACTORS
330
47
102
}
330
47
100
AcDbScale
 70
     0
300
3" = 1'-0"
140
3.0
141
12.0
290
     0
  0
SCALE
  5
67
102
{ACAD_REACTORS
330
47
102
}
330
47
100
AcDbScale
 70
     0
300
6" = 1'-0"
140
6.0
141
12.0
290
     0
  0
SCALE
  5
68
102
{ACAD_REACTORS
330
47
102
}
330
47
100
AcDbScale
 70
     0
300
1'-0" = 1'-0"
140
12.0
141
12.0
290
     0
  0
ENDSEC
  0
EOF
