  0
SECTION
  2
HEADER
  9
$ACADVER
  1
AC1015
  9
$ACADMAINTVER
 70
     6
  9
$DWGCODEPAGE
  3
ANSI_949
  9
$INSBASE
 10
0.0
 20
0.0
 30
0.0
  9
$EXTMIN
 10
-55.66700000000004
 20
-49.98438634254138
 30
0.0
  9
$EXTMAX
 10
75.83917459911626
 20
59.30485420199499
 30
0.0
  9
$LIMMIN
 10
0.0
 20
0.0
  9
$LIMMAX
 10
420.0
 20
297.0
  9
$ORTHOMODE
 70
     0
  9
$REGENMODE
 70
     1
  9
$FILLMODE
 70
     1
  9
$QTEXTMODE
 70
     0
  9
$MIRRTEXT
 70
     1
  9
$LTSCALE
 40
1.0
  9
$ATTMODE
 70
     1
  9
$TEXTSIZE
 40
3.5
  9
$TRACEWID
 40
1.0
  9
$TEXTSTYLE
  7
Standard
  9
$CLAYER
  8
0
  9
$CELTYPE
  6
ByLayer
  9
$CECOLOR
 62
   256
  9
$CELTSCALE
 40
1.0
  9
$DISPSILH
 70
     0
  9
$DIMSCALE
 40
1.0
  9
$DIMASZ
 40
3.302
  9
$DIMEXO
 40
1.0
  9
$DIMDLI
 40
3.75
  9
$DIMRND
 40
0.0
  9
$DIMDLE
 40
0.0
  9
$DIMEXE
 40
1.0
  9
$DIMTP
 40
0.0
  9
$DIMTM
 40
0.0
  9
$DIMTXT
 40
3.5
  9
$DIMCEN
 40
2.5
  9
$DIMTSZ
 40
0.0
  9
$DIMTOL
 70
     0
  9
$DIMLIM
 70
     0
  9
$DIMTIH
 70
     1
  9
$DIMTOH
 70
     1
  9
$DIMSE1
 70
     0
  9
$DIMSE2
 70
     0
  9
$DIMTAD
 70
     1
  9
$DIMZIN
 70
     0
  9
$DIMBLK
  1

  9
$DIMASO
 70
     1
  9
$DIMSHO
 70
     1
  9
$DIMPOST
  1

  9
$DIMAPOST
  1

  9
$DIMALT
 70
     0
  9
$DIMALTD
 70
     3
  9
$DIMALTF
 40
0.0393700787401575
  9
$DIMLFAC
 40
1.0
  9
$DIMTOFL
 70
     1
  9
$DIMTVP
 40
0.0
  9
$DIMTIX
 70
     0
  9
$DIMSOXD
 70
     0
  9
$DIMSAH
 70
     0
  9
$DIMBLK1
  1

  9
$DIMBLK2
  1

  9
$DIMSTYLE
  2
ISO-25
  9
$DIMCLRD
 70
     0
  9
$DIMCLRE
 70
     0
  9
$DIMCLRT
 70
     0
  9
$DIMTFAC
 40
1.0
  9
$DIMGAP
 40
1.524
  9
$DIMJUST
 70
     0
  9
$DIMSD1
 70
     0
  9
$DIMSD2
 70
     0
  9
$DIMTOLJ
 70
     0
  9
$DIMTZIN
 70
     0
  9
$DIMALTZ
 70
     0
  9
$DIMALTTZ
 70
     0
  9
$DIMUPT
 70
     0
  9
$DIMDEC
 70
     2
  9
$DIMTDEC
 70
     2
  9
$DIMALTU
 70
     2
  9
$DIMALTTD
 70
     3
  9
$DIMTXSTY
  7
Standard
  9
$DIMAUNIT
 70
     0
  9
$DIMADEC
 70
     2
  9
$DIMALTRND
 40
0.0
  9
$DIMAZIN
 70
     0
  9
$DIMDSEP
 70
    44
  9
$DIMATFIT
 70
     3
  9
$DIMFRAC
 70
     0
  9
$DIMLDRBLK
  1

  9
$DIMLUNIT
 70
     2
  9
$DIMLWD
 70
    -2
  9
$DIMLWE
 70
    -2
  9
$DIMTMOVE
 70
     0
  9
$LUNITS
 70
     2
  9
$LUPREC
 70
     2
  9
$SKETCHINC
 40
1.0
  9
$FILLETRAD
 40
10.0
  9
$AUNITS
 70
     0
  9
$AUPREC
 70
     2
  9
$MENU
  1
.
  9
$ELEVATION
 40
0.0
  9
$PELEVATION
 40
0.0
  9
$THICKNESS
 40
0.0
  9
$LIMCHECK
 70
     0
  9
$CHAMFERA
 40
0.0
  9
$CHAMFERB
 40
0.0
  9
$CHAMFERC
 40
0.0
  9
$CHAMFERD
 40
0.0
  9
$SKPOLY
 70
     0
  9
$TDCREATE
 40
2458340.591013947
  9
$TDUCREATE
 40
2458340.216013947
  9
$TDUPDATE
 40
2458341.380002488
  9
$TDUUPDATE
 40
2458341.005002488
  9
$TDINDWG
 40
0.0005451042
  9
$TDUSRTIMER
 40
2458341.004516412
  9
$USRTIMER
 70
     1
  9
$ANGBASE
 50
0.0
  9
$ANGDIR
 70
     0
  9
$PDMODE
 70
     0
  9
$PDSIZE
 40
-1.0
  9
$PLINEWID
 40
0.0
  9
$SPLFRAME
 70
     0
  9
$SPLINETYPE
 70
     6
  9
$SPLINESEGS
 70
     8
  9
$HANDSEED
  5
1A0
  9
$SURFTAB1
 70
     6
  9
$SURFTAB2
 70
     6
  9
$SURFTYPE
 70
     6
  9
$SURFU
 70
     6
  9
$SURFV
 70
     6
  9
$UCSBASE
  2

  9
$UCSNAME
  2

  9
$UCSORG
 10
0.0
 20
0.0
 30
0.0
  9
$UCSXDIR
 10
1.0
 20
0.0
 30
0.0
  9
$UCSYDIR
 10
0.0
 20
1.0
 30
0.0
  9
$UCSORTHOREF
  2

  9
$UCSORTHOVIEW
 70
     0
  9
$UCSORGTOP
 10
0.0
 20
0.0
 30
0.0
  9
$UCSORGBOTTOM
 10
0.0
 20
0.0
 30
0.0
  9
$UCSORGLEFT
 10
0.0
 20
0.0
 30
0.0
  9
$UCSORGRIGHT
 10
0.0
 20
0.0
 30
0.0
  9
$UCSORGFRONT
 10
0.0
 20
0.0
 30
0.0
  9
$UCSORGBACK
 10
0.0
 20
0.0
 30
0.0
  9
$PUCSBASE
  2

  9
$PUCSNAME
  2

  9
$PUCSORG
 10
0.0
 20
0.0
 30
0.0
  9
$PUCSXDIR
 10
1.0
 20
0.0
 30
0.0
  9
$PUCSYDIR
 10
0.0
 20
1.0
 30
0.0
  9
$PUCSORTHOREF
  2

  9
$PUCSORTHOVIEW
 70
     0
  9
$PUCSORGTOP
 10
0.0
 20
0.0
 30
0.0
  9
$PUCSORGBOTTOM
 10
0.0
 20
0.0
 30
0.0
  9
$PUCSORGLEFT
 10
0.0
 20
0.0
 30
0.0
  9
$PUCSORGRIGHT
 10
0.0
 20
0.0
 30
0.0
  9
$PUCSORGFRONT
 10
0.0
 20
0.0
 30
0.0
  9
$PUCSORGBACK
 10
0.0
 20
0.0
 30
0.0
  9
$USERI1
 70
     0
  9
$USERI2
 70
     0
  9
$USERI3
 70
     0
  9
$USERI4
 70
     0
  9
$USERI5
 70
     0
  9
$USERR1
 40
0.0
  9
$USERR2
 40
0.0
  9
$USERR3
 40
0.0
  9
$USERR4
 40
0.0
  9
$USERR5
 40
0.0
  9
$WORLDVIEW
 70
     1
  9
$SHADEDGE
 70
     3
  9
$SHADEDIF
 70
    70
  9
$TILEMODE
 70
     1
  9
$MAXACTVP
 70
    64
  9
$PINSBASE
 10
0.0
 20
0.0
 30
0.0
  9
$PLIMCHECK
 70
     0
  9
$PEXTMIN
 10
1.000000000000000E+20
 20
1.000000000000000E+20
 30
1.000000000000000E+20
  9
$PEXTMAX
 10
-1.000000000000000E+20
 20
-1.000000000000000E+20
 30
-1.000000000000000E+20
  9
$PLIMMIN
 10
0.0
 20
0.0
  9
$PLIMMAX
 10
0.0
 20
0.0
  9
$UNITMODE
 70
     0
  9
$VISRETAIN
 70
     1
  9
$PLINEGEN
 70
     0
  9
$PSLTSCALE
 70
     1
  9
$TREEDEPTH
 70
  3020
  9
$CMLSTYLE
  2
Standard
  9
$CMLJUST
 70
     0
  9
$CMLSCALE
 40
20.0
  9
$PROXYGRAPHICS
 70
     1
  9
$MEASUREMENT
 70
     1
  9
$CELWEIGHT
370
    -1
  9
$ENDCAPS
280
     0
  9
$JOINSTYLE
280
     0
  9
$LWDISPLAY
290
     1
  9
$INSUNITS
 70
     4
  9
$HYPERLINKBASE
  1

  9
$STYLESHEET
  1

  9
$XEDIT
290
     1
  9
$CEPSNTYPE
380
     0
  9
$PSTYLEMODE
290
     1
  9
$FINGERPRINTGUID
  2
{DEAAFC0C-2847-4782-A54D-E8289A514DD7}
  9
$VERSIONGUID
  2
{FAEB1C32-E019-11D5-929B-00C0DF256EC4}
  9
$EXTNAMES
290
     1
  9
$PSVPSCALE
 40
0.0
  9
$OLESTARTUP
290
     0
  0
ENDSEC
  0
SECTION
  2
CLASSES
  0
CLASS
  1
ACDBDICTIONARYWDFLT
  2
AcDbDictionaryWithDefault
  3
ObjectDBX Classes
 90
        0
280
     0
281
     0
  0
CLASS
  1
VISUALSTYLE
  2
AcDbVisualStyle
  3
ObjectDBX Classes
 90
     4095
280
     0
281
     0
  0
CLASS
  1
MATERIAL
  2
AcDbMaterial
  3
ObjectDBX Classes
 90
     1153
280
     0
281
     0
  0
CLASS
  1
SCALE
  2
AcDbScale
  3
ObjectDBX Classes
 90
     1153
280
     0
281
     0
  0
CLASS
  1
SUN
  2
AcDbSun
  3
SCENEOE
 90
     1153
280
     0
281
     0
  0
CLASS
  1
ACDBPLACEHOLDER
  2
AcDbPlaceHolder
  3
ObjectDBX Classes
 90
        0
280
     0
281
     0
  0
CLASS
  1
LAYOUT
  2
AcDbLayout
  3
ObjectDBX Classes
 90
        0
280
     0
281
     0
  0
CLASS
  1
TABLESTYLE
  2
AcDbTableStyle
  3
ObjectDBX Classes
 90
     4095
280
     0
281
     0
  0
CLASS
  1
MLEADERSTYLE
  2
AcDbMLeaderStyle
  3
ACDB_MLEADERSTYLE_CLASS
 90
     4095
280
     0
281
     0
  0
CLASS
  1
RASTERVARIABLES
  2
AcDbRasterVariables
  3
ISM
 90
        0
280
     0
281
     0
  0
CLASS
  1
DIMASSOC
  2
AcDbDimAssoc
  3
"AcDbDimAssoc|Product Desc:     AcDim ARX App For Dimension|Company:          Autodesk, Inc.|WEB Address:      www.autodesk.com"
 90
        0
280
     0
281
     0
  0
CLASS
  1
DICTIONARYVAR
  2
AcDbDictionaryVar
  3
ObjectDBX Classes
 90
        0
280
     0
281
     0
  0
ENDSEC
  0
SECTION
  2
TABLES
  0
TABLE
  2
VPORT
  5
8
330
0
100
AcDbSymbolTable
 70
     1
  0
VPORT
  5
29
330
8
100
AcDbSymbolTableRecord
100
AcDbViewportTableRecord
  2
*Active
 70
     0
 10
0.0
 20
0.0
 11
1.0
 21
1.0
 12
14.89913493682722
 22
0.3310574624984
 13
0.0
 23
0.0
 14
10.0
 24
10.0
 15
10.0
 25
10.0
 16
0.0
 26
0.0
 36
1.0
 17
0.0
 27
0.0
 37
0.0
 40
145.7844664927269
 41
1.444267515923567
 42
50.0
 43
0.0
 44
0.0
 50
0.0
 51
0.0
 71
    16
 72
  2000
 73
     1
 74
     3
 75
     0
 76
     0
 77
     0
 78
     0
281
     0
 65
     1
110
0.0
120
0.0
130
0.0
111
1.0
121
0.0
131
0.0
112
0.0
122
1.0
132
0.0
 79
     0
146
0.0
  0
ENDTAB
  0
TABLE
  2
LTYPE
  5
5
330
0
100
AcDbSymbolTable
 70
     6
  0
LTYPE
  5
14
330
5
100
AcDbSymbolTableRecord
100
AcDbLinetypeTableRecord
  2
ByBlock
 70
     0
  3

 72
    65
 73
     0
 40
0.0
  0
LTYPE
  5
15
330
5
100
AcDbSymbolTableRecord
100
AcDbLinetypeTableRecord
  2
ByLayer
 70
     0
  3

 72
    65
 73
     0
 40
0.0
  0
LTYPE
  5
16
330
5
100
AcDbSymbolTableRecord
100
AcDbLinetypeTableRecord
  2
Continuous
 70
     0
  3
Solid line
 72
    65
 73
     0
 40
0.0
  0
LTYPE
  5
6A
330
5
100
AcDbSymbolTableRecord
100
AcDbLinetypeTableRecord
  2
HIDDEN
 70
     0
  3
Hidden __ __ __ __ __ __ __ __ __ __ __ __ __ __
 72
    65
 73
     2
 40
1.905
 49
1.27
 74
     0
 49
-0.635
 74
     0
  0
LTYPE
  5
6B
330
5
100
AcDbSymbolTableRecord
100
AcDbLinetypeTableRecord
  2
PHANTOM
 70
     0
  3
Phantom ______  __  __  ______  __  __  ______
 72
    65
 73
     6
 40
12.7
 49
6.35
 74
     0
 49
-1.27
 74
     0
 49
1.27
 74
     0
 49
-1.27
 74
     0
 49
1.27
 74
     0
 49
-1.27
 74
     0
  0
LTYPE
  5
6C
330
5
100
AcDbSymbolTableRecord
100
AcDbLinetypeTableRecord
  2
CENTER
 70
     0
  3
Center ____ _ ____ _ ____ _ ____ _ ____ _ ____
 72
    65
 73
     4
 40
10.16
 49
6.35
 74
     0
 49
-1.27
 74
     0
 49
1.27
 74
     0
 49
-1.27
 74
     0
  0
LTYPE
  5
6D
330
5
100
AcDbSymbolTableRecord
100
AcDbLinetypeTableRecord
  2
CENTERX2
 70
     0
  3
Center (2x) ________  __  ________  __  _____
 72
    65
 73
     4
 40
20.32
 49
12.7
 74
     0
 49
-2.54
 74
     0
 49
2.54
 74
     0
 49
-2.54
 74
     0
  0
LTYPE
  5
6E
330
5
100
AcDbSymbolTableRecord
100
AcDbLinetypeTableRecord
  2
DOT2
 70
     0
  3
Dot (.5x) ........................................
 72
    65
 73
     2
 40
0.635
 49
0.0
 74
     0
 49
-0.635
 74
     0
  0
ENDTAB
  0
TABLE
  2
LAYER
  5
2
330
0
100
AcDbSymbolTable
 70
    17
  0
LAYER
  5
10
330
2
100
AcDbSymbolTableRecord
100
AcDbLayerTableRecord
  2
0
 70
     0
 62
     7
  6
Continuous
370
    -3
390
F
  0
LAYER
  5
6F
330
2
100
AcDbSymbolTableRecord
100
AcDbLayerTableRecord
  2
FORMAT
 70
     0
 62
     2
  6
Continuous
370
    -3
390
F
  0
LAYER
  5
70
330
2
100
AcDbSymbolTableRecord
100
AcDbLayerTableRecord
  2
외형선
 70
     0
 62
   100
  6
Continuous
370
    30
390
F
  0
LAYER
  5
71
330
2
100
AcDbSymbolTableRecord
100
AcDbLayerTableRecord
  2
숨은선
 70
     0
 62
     2
  6
HIDDEN
370
    15
390
F
  0
LAYER
  5
72
330
2
100
AcDbSymbolTableRecord
100
AcDbLayerTableRecord
  2
중심선
 70
     0
 62
     1
  6
CENTERX2
370
    -3
390
F
  0
LAYER
  5
73
330
2
100
AcDbSymbolTableRecord
100
AcDbLayerTableRecord
  2
파단선
 70
     0
 62
     4
  6
Continuous
370
    -3
390
F
  0
LAYER
  5
74
330
2
100
AcDbSymbolTableRecord
100
AcDbLayerTableRecord
  2
해칭선
 70
     0
 62
     4
  6
Continuous
370
    -3
390
F
  0
LAYER
  5
75
330
2
100
AcDbSymbolTableRecord
100
AcDbLayerTableRecord
  2
가는실선
 70
     0
 62
     4
  6
Continuous
370
    -3
390
F
  0
LAYER
  5
76
330
2
100
AcDbSymbolTableRecord
100
AcDbLayerTableRecord
  2
치수_보조선
 70
     0
 62
     4
  6
Continuous
370
    -3
390
F
  0
LAYER
  5
77
330
2
100
AcDbSymbolTableRecord
100
AcDbLayerTableRecord
  2
치수문자_일반주서
 70
     0
 62
     7
  6
Continuous
370
    15
390
F
  0
LAYER
  5
78
330
2
100
AcDbSymbolTableRecord
100
AcDbLayerTableRecord
  2
개별주서
 70
     0
 62
   100
  6
Continuous
370
    30
390
F
  0
LAYER
  5
79
330
2
100
AcDbSymbolTableRecord
100
AcDbLayerTableRecord
  2
중간선
 70
     0
 62
     2
  6
Continuous
370
    15
390
F
  0
LAYER
  5
7A
330
2
100
AcDbSymbolTableRecord
100
AcDbLayerTableRecord
  2
윤곽선
 70
     0
 62
     3
  6
Continuous
370
    40
390
F
  0
LAYER
  5
7B
330
2
100
AcDbSymbolTableRecord
100
AcDbLayerTableRecord
  2
중심마크
 70
     0
 62
   100
  6
Continuous
370
    30
390
F
  0
LAYER
  5
7C
330
2
100
AcDbSymbolTableRecord
100
AcDbLayerTableRecord
  2
가상선
 70
     0
 62
     4
  6
PHANTOM
370
    -3
390
F
  0
LAYER
  5
7D
330
2
100
AcDbSymbolTableRecord
100
AcDbLayerTableRecord
  2
특수지정선
 70
     0
 62
     5
  6
CENTERX2
370
    60
390
F
  0
LAYER
  5
14C
330
2
100
AcDbSymbolTableRecord
100
AcDbLayerTableRecord
  2
Defpoints
 70
     0
 62
     7
  6
Continuous
290
     0
370
    -3
390
F
  0
ENDTAB
  0
TABLE
  2
STYLE
  5
3
330
0
100
AcDbSymbolTable
 70
     2
  0
STYLE
  5
11
330
3
100
AcDbSymbolTableRecord
100
AcDbTextStyleTableRecord
  2
Standard
 70
     0
 40
0.0
 41
1.0
 50
0.0
 71
     0
 42
3.5
  3
txt
  4

  0
STYLE
  5
93
330
3
100
AcDbSymbolTableRecord
100
AcDbTextStyleTableRecord
  2
SLDTEXTSTYLE0
 70
     0
 40
0.0
 41
0.75
 50
0.0
 71
     0
 42
3.5
  3
TXT
  4

  0
ENDTAB
  0
TABLE
  2
VIEW
  5
6
330
0
100
AcDbSymbolTable
 70
     0
  0
ENDTAB
  0
TABLE
  2
UCS
  5
7
330
0
100
AcDbSymbolTable
 70
     0
  0
ENDTAB
  0
TABLE
  2
APPID
  5
9
330
0
100
AcDbSymbolTable
 70
     2
  0
APPID
  5
12
330
9
100
AcDbSymbolTableRecord
100
AcDbRegAppTableRecord
  2
ACAD
 70
     0
  0
APPID
  5
19E
330
9
100
AcDbSymbolTableRecord
100
AcDbRegAppTableRecord
  2
PE_DIMMEASUREMENT
 70
     0
  0
ENDTAB
  0
TABLE
  2
DIMSTYLE
  5
A
330
0
100
AcDbSymbolTable
 70
     4
100
AcDbDimStyleTable
  0
DIMSTYLE
105
27
330
A
100
AcDbSymbolTableRecord
100
AcDbDimStyleTableRecord
  2
ISO-25
 70
     0
 41
2.5
 42
0.625
 43
3.75
 44
1.25
 73
     0
 74
     0
 77
     1
 78
     8
140
2.5
141
2.5
143
0.03937007874016
147
0.625
171
     3
172
     1
178
     0
271
     2
272
     2
274
     3
278
    44
283
     0
284
     8
340
11
  0
DIMSTYLE
105
E5
102
{ACAD_REACTORS
330
E4
330
14D
330
18C
102
}
330
A
100
AcDbSymbolTableRecord
100
AcDbDimStyleTableRecord
  2
SLDDIMSTYLE0
 70
     0
 41
3.302
 44
0.0
 45
0.000000001
 73
     0
 74
     0
 77
     1
 78
    12
 79
     3
140
3.5
143
0.0393700787401575
147
0.875
148
0.000000001
170
     1
173
     1
178
     0
271
     2
272
     2
276
     2
284
    12
340
93
  0
DIMSTYLE
105
F9
102
{ACAD_REACTORS
330
F8
102
}
330
A
100
AcDbSymbolTableRecord
100
AcDbDimStyleTableRecord
  2
SLDDIMSTYLE1
 70
     0
 41
3.302
 44
0.0
 45
0.000000001
 73
     0
 74
     0
 77
     1
 78
     4
 79
     1
140
3.5
143
0.0393700787401575
147
0.875
148
0.000000001
170
     1
173
     1
178
     0
271
     2
272
     2
276
     2
284
    12
340
93
  0
DIMSTYLE
105
10D
102
{ACAD_REACTORS
330
10C
102
}
330
A
100
AcDbSymbolTableRecord
100
AcDbDimStyleTableRecord
  2
SLDDIMSTYLE2
 70
     0
 41
3.302
 44
0.0
 45
0.000000001
 73
     0
 74
     0
 77
     1
 78
     4
 79
     1
140
3.5
143
0.0393700787401575
147
0.875
148
0.000000001
170
     1
172
     1
173
     1
178
     0
271
     2
272
     2
276
     2
284
    12
289
     0
340
93
  0
ENDTAB
  0
TABLE
  2
BLOCK_RECORD
  5
1
330
0
100
AcDbSymbolTable
 70
     8
  0
BLOCK_RECORD
  5
1F
330
1
100
AcDbSymbolTableRecord
100
AcDbBlockTableRecord
  2
*Model_Space
340
22
  0
BLOCK_RECORD
  5
1B
330
1
100
AcDbSymbolTableRecord
100
AcDbBlockTableRecord
  2
*Paper_Space
340
1E
  0
BLOCK_RECORD
  5
23
330
1
100
AcDbSymbolTableRecord
100
AcDbBlockTableRecord
  2
*Paper_Space0
340
26
  0
BLOCK_RECORD
  5
7E
330
1
100
AcDbSymbolTableRecord
100
AcDbBlockTableRecord
  2
블럭10
340
0
102
{BLKREFS
331
DD
102
}
  0
BLOCK_RECORD
  5
E6
330
1
100
AcDbSymbolTableRecord
100
AcDbBlockTableRecord
  2
_D
340
0
  0
BLOCK_RECORD
  5
FA
330
1
100
AcDbSymbolTableRecord
100
AcDbBlockTableRecord
  2
_D_1
340
0
  0
BLOCK_RECORD
  5
10E
330
1
100
AcDbSymbolTableRecord
100
AcDbBlockTableRecord
  2
_D_2
340
0
  0
BLOCK_RECORD
  5
121
330
1
100
AcDbSymbolTableRecord
100
AcDbBlockTableRecord
  2
SW_DOWELSYMBOL_0
340
0
102
{BLKREFS
331
127
102
}
  0
BLOCK_RECORD
  5
150
330
1
100
AcDbSymbolTableRecord
100
AcDbBlockTableRecord
  2
*D6
340
0
  0
BLOCK_RECORD
  5
18F
330
1
100
AcDbSymbolTableRecord
100
AcDbBlockTableRecord
  2
*D7
340
0
  0
ENDTAB
  0
ENDSEC
  0
SECTION
  2
BLOCKS
  0
BLOCK
  5
20
330
1F
100
AcDbEntity
  8
0
100
AcDbBlockBegin
  2
*Model_Space
 70
     0
 10
0.0
 20
0.0
 30
0.0
  3
*Model_Space
  1
*Model_Space
  0
ENDBLK
  5
21
330
1F
100
AcDbEntity
  8
0
100
AcDbBlockEnd
  0
BLOCK
  5
1C
330
1B
100
AcDbEntity
 67
     1
  8
0
100
AcDbBlockBegin
  2
*Paper_Space
 70
     0
 10
0.0
 20
0.0
 30
0.0
  3
*Paper_Space
  1
*Paper_Space
  0
ENDBLK
  5
1D
330
1B
100
AcDbEntity
 67
     1
  8
0
100
AcDbBlockEnd
  0
BLOCK
  5
24
330
23
100
AcDbEntity
  8
0
100
AcDbBlockBegin
  2
*Paper_Space0
 70
     0
 10
0.0
 20
0.0
 30
0.0
  3
*Paper_Space0
  1
*Paper_Space0
  0
ENDBLK
  5
25
330
23
100
AcDbEntity
  8
0
100
AcDbBlockEnd
  0
BLOCK
  5
7F
330
7E
100
AcDbEntity
  8
0
100
AcDbBlockBegin
  2
블럭10
 70
     2
 10
0.0
 20
0.0
 30
0.0
  3
블럭10
  1
블럭10
  0
ELLIPSE
  5
81
330
7E
100
AcDbEntity
  8
중심선
100
AcDbEllipse
 10
20.54032771741204
 20
12.0471743016438
 30
0.0
 11
6.600054785286829
 21
-1.261213355974178E-13
 31
0.0
210
0.0
220
0.0
230
1.0
 40
0.636358354079598
 41
0.9219305317359503
 42
6.513795318482858
  0
ELLIPSE
  5
82
330
7E
100
AcDbEntity
  8
중심선
100
AcDbEllipse
 10
20.54032771746488
 20
12.04717430159265
 30
0.0
 11
3.960054785062283
 21
1.540847449632565E-10
 31
0.0
210
0.0
220
0.0
230
1.0
 40
0.3939339440162632
 41
1.131841032648279
 42
5.62031148352944
  0
LINE
  5
83
330
7E
100
AcDbEntity
  8
중심선
100
AcDbLine
 10
2.268634060543552
 20
16.24717430164393
 30
0.0
 11
5.714909304380834
 21
16.24717430164393
 31
0.0
  0
LINE
  5
84
330
7E
100
AcDbEntity
  8
중심선
100
AcDbLine
 10
5.245725140726316
 20
7.84717430164391
 30
0.0
 11
8.692000384563599
 21
7.84717430164391
 31
0.0
  0
LINE
  5
85
330
7E
100
AcDbEntity
  8
중심선
100
AcDbLine
 10
15.74043728645272
 20
16.24717430164393
 30
0.0
 11
8.692000384563599
 21
7.84717430164391
 31
0.0
  0
LINE
  5
86
330
7E
100
AcDbEntity
  8
중심선
100
AcDbLine
 10
0.1404042013395286
 20
13.71084872107135
 30
0.0
 11
3.58671253028996
 21
13.71088815037384
 31
0.0
  0
LINE
  5
87
330
7E
100
AcDbEntity
  8
중심선
100
AcDbLine
 10
2.750260043222114
 20
10.84717430164391
 30
0.0
 11
6.196535287059397
 21
10.84717430164391
 31
0.0
  0
LINE
  5
88
330
7E
100
AcDbEntity
  8
중심선
100
AcDbLine
 10
12.29416204261559
 20
16.24717430164393
 30
0.0
 11
5.245725140726316
 21
7.84717430164391
 31
0.0
  0
LINE
  5
89
330
7E
100
AcDbEntity
  8
중심선
100
AcDbLine
 10
10.72767329541681
 20
16.24717430164393
 30
0.0
 11
6.196535287059397
 21
10.84717430164391
 31
0.0
  0
LINE
  5
8A
330
7E
100
AcDbEntity
  8
중심선
100
AcDbLine
 10
7.28139805157953
 20
16.24717430164393
 30
0.0
 11
2.750260043222114
 21
10.84717430164391
 31
0.0
  0
LINE
  5
8B
330
7E
100
AcDbEntity
  8
중심선
100
AcDbLine
 10
5.714909304380834
 20
16.24717430164393
 30
0.0
 11
3.58671253028996
 21
13.71088815037384
 31
0.0
  0
LINE
  5
8C
330
7E
100
AcDbEntity
  8
중심선
100
AcDbLine
 10
2.268634060543552
 20
16.24717430164393
 30
0.0
 11
0.1404042013395286
 21
13.71084872107135
 31
0.0
  0
LINE
  5
8D
330
7E
100
AcDbEntity
  8
중심선
100
AcDbLine
 10
7.28139805157953
 20
16.24717430164393
 30
0.0
 11
10.72767329541681
 21
16.24717430164393
 31
0.0
  0
LINE
  5
8E
330
7E
100
AcDbEntity
  8
중심선
100
AcDbLine
 10
12.29416204261559
 20
16.24717430164393
 30
0.0
 11
15.74043728645272
 21
16.24717430164393
 31
0.0
  0
LINE
  5
8F
330
7E
100
AcDbEntity
  8
중심선
100
AcDbLine
 10
19.22036997980202
 20
11.08717430171403
 30
0.0
 11
23.66174974927406
 21
11.08717430171406
 31
0.0
  0
LINE
  5
90
330
7E
100
AcDbEntity
  8
중심선
100
AcDbLine
 10
19.22039502424796
 20
13.00717430171391
 30
0.0
 11
19.22036997980202
 21
11.08717430171403
 31
0.0
  0
LINE
  5
91
330
7E
100
AcDbEntity
  8
중심선
100
AcDbLine
 10
19.22039502424796
 20
13.00717430171391
 30
0.0
 11
26.96566020931264
 21
13.00717430171391
 31
0.0
  0
LINE
  5
92
330
7E
100
AcDbEntity
  8
중심선
100
AcDbLine
 10
22.22332737316547
 20
13.45928029700563
 30
0.0
 11
24.52862924686651
 21
15.39360700705356
 31
0.0
  0
ATTDEF
  5
94
330
7E
100
AcDbEntity
  8
FORMAT
 62
     2
100
AcDbText
 10
-9.18129528874128
 20
2.075366912832191
 30
0.0
 40
4.233333333333333
  1
E5078116 [ 3 FLUTE ]
 41
0.75
  7
SLDTEXTSTYLE0
 11
-9.18129528874128
 21
-0.0412997538344756
 31
0.0
100
AcDbAttributeDefinition
  3

  2
AUTOATTR0
 70
     0
 74
     1
  0
ENDBLK
  5
80
330
7E
100
AcDbEntity
  8
0
100
AcDbBlockEnd
  0
BLOCK
  5
E7
330
E6
100
AcDbEntity
  8
0
100
AcDbBlockBegin
  2
_D
 70
     0
 10
0.0
 20
0.0
 30
0.0
  3
_D
  1
_D
  0
LINE
  5
E9
330
E6
100
AcDbEntity
  8
치수문자_일반주서
 62
     0
370
    -2
100
AcDbLine
 10
63.308
 20
0.1250000000000094
 30
0.0
 11
63.308
 21
32.59568453612552
 31
0.0
  0
LINE
  5
EA
330
E6
100
AcDbEntity
  8
치수문자_일반주서
 62
     0
370
    -2
100
AcDbLine
 10
12.50800000000003
 20
3.178425493853514
 30
0.0
 11
12.50800000000002
 21
32.59568453612552
 31
0.0
  0
LINE
  5
EB
330
E6
100
AcDbEntity
  8
치수문자_일반주서
 62
     0
370
    -2
100
AcDbLine
 10
60.006
 20
32.59568453612552
 30
0.0
 11
15.81000000000002
 21
32.59568453612552
 31
0.0
  0
SOLID
  5
EC
330
E6
100
AcDbEntity
  8
치수문자_일반주서
 62
     0
100
AcDbTrace
 10
60.006
 20
32.04535120279218
 30
0.0
 11
60.006
 21
33.14601786945885
 31
0.0
 12
63.308
 22
32.59568453612552
 32
0.0
 13
63.308
 23
32.59568453612552
 33
0.0
  0
SOLID
  5
ED
330
E6
100
AcDbEntity
  8
치수문자_일반주서
 62
     0
100
AcDbTrace
 10
15.81000000000002
 20
33.14601786945885
 30
0.0
 11
15.81000000000002
 21
32.04535120279218
 31
0.0
 12
12.50800000000002
 22
32.59568453612552
 32
0.0
 13
12.50800000000002
 23
32.59568453612552
 33
0.0
  0
MTEXT
  5
EE
330
E6
100
AcDbEntity
  8
치수문자_일반주서
 62
     0
100
AcDbMText
 10
33.94092024260631
 20
36.97068453612552
 30
0.0
 40
3.5
 41
0.0
 71
     2
 72
     1
  1
\A1;50.8 [2]
  7
SLDTEXTSTYLE0
 73
     1
 44
1.0
  0
POINT
  5
EF
330
E6
100
AcDbEntity
  8
Defpoints
 62
     0
100
AcDbPoint
 10
63.308
 20
0.0625000000000094
 30
0.0
  0
POINT
  5
F0
330
E6
100
AcDbEntity
  8
Defpoints
 62
     0
100
AcDbPoint
 10
12.50800000000003
 20
3.115925493853514
 30
0.0
  0
POINT
  5
F1
330
E6
100
AcDbEntity
  8
Defpoints
 62
     0
100
AcDbPoint
 10
12.50800000000003
 20
32.59568453612552
 30
0.0
  0
ENDBLK
  5
E8
330
E6
100
AcDbEntity
  8
0
100
AcDbBlockEnd
  0
BLOCK
  5
FB
330
FA
100
AcDbEntity
  8
0
100
AcDbBlockBegin
  2
_D_1
 70
     0
 10
0.0
 20
0.0
 30
0.0
  3
_D_1
  1
_D_1
  0
LINE
  5
FD
330
FA
100
AcDbEntity
  8
치수문자_일반주서
 62
     0
370
    -2
100
AcDbLine
 10
63.308
 20
0.0625000000000094
 30
0.0
 11
63.30799999999999
 21
54.929854201995
 31
0.0
  0
LINE
  5
FE
330
FA
100
AcDbEntity
  8
치수문자_일반주서
 62
     0
370
    -2
100
AcDbLine
 10
-38.292
 20
5.602500000000012
 30
0.0
 11
-38.29200000000001
 21
54.929854201995
 31
0.0
  0
LINE
  5
FF
330
FA
100
AcDbEntity
  8
치수문자_일반주서
 62
     0
370
    -2
100
AcDbLine
 10
60.00599999999999
 20
54.929854201995
 30
0.0
 11
-34.99000000000001
 21
54.929854201995
 31
0.0
  0
SOLID
  5
100
330
FA
100
AcDbEntity
  8
치수문자_일반주서
 62
     0
100
AcDbTrace
 10
60.00599999999999
 20
54.37952086866166
 30
0.0
 11
60.00599999999999
 21
55.48018753532833
 31
0.0
 12
63.30799999999999
 22
54.929854201995
 32
0.0
 13
63.30799999999999
 23
54.929854201995
 33
0.0
  0
SOLID
  5
101
330
FA
100
AcDbEntity
  8
치수문자_일반주서
 62
     0
100
AcDbTrace
 10
-34.99000000000001
 20
55.48018753532833
 30
0.0
 11
-34.99000000000001
 21
54.37952086866166
 31
0.0
 12
-38.29200000000001
 22
54.929854201995
 32
0.0
 13
-38.29200000000001
 23
54.929854201995
 33
0.0
  0
MTEXT
  5
102
330
FA
100
AcDbEntity
  8
치수문자_일반주서
 62
     0
100
AcDbMText
 10
14.93796607002496
 20
59.304854201995
 30
0.0
 40
3.5
 41
0.0
 71
     2
 72
     1
  1
\A1;101.60 [4]
  7
SLDTEXTSTYLE0
 73
     1
 44
1.0
  0
POINT
  5
103
330
FA
100
AcDbEntity
  8
Defpoints
 62
     0
100
AcDbPoint
 10
63.308
 20
0.0000000000000094
 30
0.0
  0
POINT
  5
104
330
FA
100
AcDbEntity
  8
Defpoints
 62
     0
100
AcDbPoint
 10
-38.292
 20
5.540000000000012
 30
0.0
  0
POINT
  5
105
330
FA
100
AcDbEntity
  8
Defpoints
 62
     0
100
AcDbPoint
 10
-38.292
 20
54.929854201995
 30
0.0
  0
ENDBLK
  5
FC
330
FA
100
AcDbEntity
  8
0
100
AcDbBlockEnd
  0
BLOCK
  5
10F
330
10E
100
AcDbEntity
  8
0
100
AcDbBlockBegin
  2
_D_2
 70
     0
 10
0.0
 20
0.0
 30
0.0
  3
_D_2
  1
_D_2
  0
LINE
  5
111
330
10E
100
AcDbEntity
  8
치수문자_일반주서
 62
     0
370
    -2
100
AcDbLine
 10
-37.5445
 20
6.350000000000004
 30
0.0
 11
-51.29200000000001
 21
6.349999999999957
 31
0.0
  0
LINE
  5
112
330
10E
100
AcDbEntity
  8
치수문자_일반주서
 62
     0
370
    -2
100
AcDbLine
 10
-37.5445
 20
-6.349999999999986
 30
0.0
 11
-51.29199999999997
 21
-6.350000000000033
 31
0.0
  0
LINE
  5
113
330
10E
100
AcDbEntity
  8
치수문자_일반주서
 62
     0
370
    -2
100
AcDbLine
 10
-51.29199999999999
 20
3.047999999999957
 30
0.0
 11
-51.29199999999998
 21
-3.048000000000034
 31
0.0
  0
SOLID
  5
114
330
10E
100
AcDbEntity
  8
치수문자_일반주서
 62
     0
100
AcDbTrace
 10
-50.74166666666666
 20
3.047999999999959
 30
0.0
 11
-51.84233333333333
 21
3.047999999999956
 31
0.0
 12
-51.29200000000001
 22
6.349999999999957
 32
0.0
 13
-51.29200000000001
 23
6.349999999999957
 33
0.0
  0
SOLID
  5
115
330
10E
100
AcDbEntity
  8
치수문자_일반주서
 62
     0
100
AcDbTrace
 10
-51.84233333333331
 20
-3.048000000000036
 30
0.0
 11
-50.74166666666665
 21
-3.048000000000032
 31
0.0
 12
-51.29199999999997
 22
-6.350000000000033
 32
0.0
 13
-51.29199999999997
 23
-6.350000000000033
 33
0.0
  0
MTEXT
  5
116
330
10E
100
AcDbEntity
  8
치수문자_일반주서
 62
     0
100
AcDbMText
 10
-55.66699999999999
 20
1.739553839049631
 30
0.0
 40
3.5
 41
0.0
 71
     2
 72
     1
  1
\A1;%%c12.70 [1/2]
  7
SLDTEXTSTYLE0
 11
-3.356894814614649E-15
 21
1.0
 31
0.0
 73
     1
 44
1.0
  0
POINT
  5
117
330
10E
100
AcDbEntity
  8
Defpoints
 62
     0
100
AcDbPoint
 10
-37.482
 20
6.350000000000004
 30
0.0
  0
POINT
  5
118
330
10E
100
AcDbEntity
  8
Defpoints
 62
     0
100
AcDbPoint
 10
-37.482
 20
-6.349999999999986
 30
0.0
  0
POINT
  5
119
330
10E
100
AcDbEntity
  8
Defpoints
 62
     0
100
AcDbPoint
 10
-51.29199999999997
 20
-6.350000000000034
 30
0.0
  0
ENDBLK
  5
110
330
10E
100
AcDbEntity
  8
0
100
AcDbBlockEnd
  0
BLOCK
  5
122
330
121
100
AcDbEntity
  8
0
100
AcDbBlockBegin
  2
SW_DOWELSYMBOL_0
 70
     0
 10
0.0
 20
0.0
 30
0.0
  3
SW_DOWELSYMBOL_0
  1
SW_DOWELSYMBOL_0
  0
CIRCLE
  5
124
330
121
100
AcDbEntity
  8
외형선
 62
     0
100
AcDbCircle
 10
0.0
 20
0.0
 30
0.0
 40
2.999999999999999
  0
HATCH
  5
125
330
121
100
AcDbEntity
  8
0
  6
Continuous
 62
     0
370
    30
100
AcDbHatch
 10
0.0
 20
0.0
 30
0.0
210
0.0
220
0.0
230
1.0
  2
SOLID
 70
     1
 71
     0
 91
        1
 92
        0
 93
        3
 72
     2
 10
0.0
 20
0.0
 40
2.999999999999999
 50
0.0
 51
90.0
 73
     1
 72
     1
 10
0.0
 20
2.999999999999999
 11
0.0
 21
0.0
 72
     1
 10
0.0
 20
0.0
 11
2.999999999999999
 21
0.0
 97
        0
 75
     0
 76
     1
 98
        1
 10
0.0
 20
0.0
  0
HATCH
  5
126
330
121
100
AcDbEntity
  8
0
  6
Continuous
 62
     0
370
    30
100
AcDbHatch
 10
0.0
 20
0.0
 30
0.0
210
0.0
220
0.0
230
1.0
  2
SOLID
 70
     1
 71
     0
 91
        1
 92
        0
 93
        3
 72
     2
 10
0.0
 20
0.0
 40
2.999999999999999
 50
180.0
 51
270.0000000000007
 73
     1
 72
     1
 10
0.0
 20
-2.999999999999999
 11
0.0
 21
0.0
 72
     1
 10
0.0
 20
0.0
 11
-2.999999999999999
 21
0.0
 97
        0
 75
     0
 76
     1
 98
        1
 10
0.0
 20
0.0
  0
ENDBLK
  5
123
330
121
100
AcDbEntity
  8
0
100
AcDbBlockEnd
  0
BLOCK
  5
151
330
150
100
AcDbEntity
  8
0
100
AcDbBlockBegin
  2
*D6
 70
     1
 10
0.0
 20
0.0
 30
0.0
  3
*D6
  1
*D6
  0
LINE
  5
153
330
150
100
AcDbEntity
  8
치수문자_일반주서
 62
     0
370
    -2
100
AcDbLine
 10
24.62548992464113
 20
10.39932564015432
 30
0.0
 11
24.83449937075551
 21
14.76933022269596
 31
0.0
  0
LINE
  5
154
330
150
100
AcDbEntity
  8
치수문자_일반주서
 62
     0
370
    -2
100
AcDbLine
 10
28.00222099359624
 20
3.736328475290401
 30
0.0
 11
24.41009510560599
 21
3.799029265895602
 31
0.0
  0
ARC
  5
155
330
150
100
AcDbEntity
  8
치수문자_일반주서
 62
     0
370
    -2
100
AcDbCircle
 10
242.0563359828988
 20
0.0
 30
0.0
 40
217.6793945034296
100
AcDbArc
 50
177.2617327808338
 51
178.1308663904169
  0
ARC
  5
156
330
150
100
AcDbEntity
  8
치수문자_일반주서
 62
     0
370
    -2
100
AcDbCircle
 10
242.0563359828988
 20
0.0
 30
0.0
 40
217.6793945034296
100
AcDbArc
 50
180.8691336095831
 51
181.7382672191662
  0
SOLID
  5
157
330
150
100
AcDbEntity
  8
치수문자_일반주서
 62
     0
100
AcDbTrace
 10
23.94260081889189
 20
7.113772071856186
 30
0.0
 11
25.04292250118797
 21
7.086216553711537
 31
0.0
 12
24.41009510560599
 22
3.799029265895602
 32
0.0
 13
24.41009510560599
 23
3.799029265895602
 33
0.0
  0
SOLID
  5
158
330
150
100
AcDbEntity
  8
치수문자_일반주서
 62
     0
100
AcDbTrace
 10
24.95230316379129
 20
-3.297730994182497
 30
0.0
 11
23.85166815571469
 21
-3.306079054277077
 31
0.0
 12
24.37694147946925
 22
0.0
 32
0.0
 13
24.37694147946925
 23
0.0
 33
0.0
  0
MTEXT
  5
159
330
150
100
AcDbEntity
  8
치수문자_일반주서
 62
     0
100
AcDbMText
 10
22.10799189817333
 20
12.70973359909377
 30
0.0
 40
3.5
 41
0.0
 71
     5
 72
     1
  1
\A1;1%%d
  7
SLDTEXTSTYLE0
 11
0.04777358768328657
 21
0.9988581902952327
 31
0.0
 73
     1
 44
1.0
  0
POINT
  5
15A
330
150
100
AcDbEntity
  8
Defpoints
 62
     0
100
AcDbPoint
 10
24.38062529882857
 20
1.266400238738665
 30
0.0
  0
POINT
  5
15B
330
150
100
AcDbEntity
  8
Defpoints
 62
     0
100
AcDbPoint
 10
-41.29200000000001
 20
0.0
 30
0.0
  0
POINT
  5
15C
330
150
100
AcDbEntity
  8
Defpoints
 62
     0
100
AcDbPoint
 10
32.13024303596087
 20
3.664273582515813
 30
0.0
  0
POINT
  5
15D
330
150
100
AcDbEntity
  8
Defpoints
 62
     0
100
AcDbPoint
 10
28.06471147454351
 20
3.735237699888071
 30
0.0
  0
POINT
  5
15E
330
150
100
AcDbEntity
  8
Defpoints
 62
     0
100
AcDbPoint
 10
66.18841139043835
 20
0.0
 30
0.0
  0
ENDBLK
  5
152
330
150
100
AcDbEntity
  8
0
100
AcDbBlockEnd
  0
BLOCK
  5
190
330
18F
100
AcDbEntity
  8
0
100
AcDbBlockBegin
  2
*D7
 70
     1
 10
0.0
 20
0.0
 30
0.0
  3
*D7
  1
*D7
  0
LINE
  5
192
330
18F
100
AcDbEntity
  8
치수문자_일반주서
 62
     0
370
    -2
100
AcDbLine
 10
63.34402003840051
 20
-3.175
 30
0.0
 11
75.28884126578293
 21
-3.175000000000001
 31
0.0
  0
LINE
  5
193
330
18F
100
AcDbEntity
  8
치수문자_일반주서
 62
     0
370
    -2
100
AcDbLine
 10
63.37049999999999
 20
3.175
 30
0.0
 11
75.28884126578293
 21
3.174999999999999
 31
0.0
  0
LINE
  5
194
330
18F
100
AcDbEntity
  8
치수문자_일반주서
 62
     0
370
    -2
100
AcDbLine
 10
75.28884126578293
 20
6.476999999999999
 30
0.0
 11
75.28884126578293
 21
35.154
 31
0.0
  0
LINE
  5
195
330
18F
100
AcDbEntity
  8
치수문자_일반주서
 62
     0
370
    -2
100
AcDbLine
 10
75.28884126578293
 20
-6.477
 30
0.0
 11
75.28884126578293
 21
-9.779
 31
0.0
  0
SOLID
  5
196
330
18F
100
AcDbEntity
  8
치수문자_일반주서
 62
     0
100
AcDbTrace
 10
75.83917459911626
 20
-6.477
 30
0.0
 11
74.73850793244961
 21
-6.477
 31
0.0
 12
75.28884126578293
 22
-3.175000000000001
 32
0.0
 13
75.28884126578293
 23
-3.175000000000001
 33
0.0
  0
SOLID
  5
197
330
18F
100
AcDbEntity
  8
치수문자_일반주서
 62
     0
100
AcDbTrace
 10
74.73850793244961
 20
6.476999999999999
 30
0.0
 11
75.83917459911626
 21
6.476999999999999
 31
0.0
 12
75.28884126578293
 22
3.174999999999999
 32
0.0
 13
75.28884126578293
 23
3.174999999999999
 33
0.0
  0
MTEXT
  5
198
330
18F
100
AcDbEntity
  8
치수문자_일반주서
 62
     0
100
AcDbMText
 10
72.66384126578293
 20
22.4665
 30
0.0
 40
3.5
 41
0.0
 71
     5
 72
     1
  1
\A1;{%%c6.35 [1/4]}
  7
SLDTEXTSTYLE0
 11
0.0
 21
1.0
 31
0.0
 73
     1
 44
1.0
  0
POINT
  5
199
330
18F
100
AcDbEntity
  8
Defpoints
 62
     0
100
AcDbPoint
 10
63.28152003840051
 20
-3.175
 30
0.0
  0
POINT
  5
19A
330
18F
100
AcDbEntity
  8
Defpoints
 62
     0
100
AcDbPoint
 10
63.30799999999999
 20
3.175
 30
0.0
  0
POINT
  5
19B
330
18F
100
AcDbEntity
  8
Defpoints
 62
     0
100
AcDbPoint
 10
75.28884126578293
 20
3.174999999999999
 30
0.0
  0
ENDBLK
  5
191
330
18F
100
AcDbEntity
  8
0
100
AcDbBlockEnd
  0
ENDSEC
  0
SECTION
  2
ENTITIES
  0
LINE
  5
95
330
1F
100
AcDbEntity
  8
0
  6
Continuous
 62
     4
370
    15
100
AcDbLine
 10
9.312643229903127
 20
6.350000000000004
 30
0.0
 11
-37.482
 21
6.350000000000004
 31
0.0
  0
LINE
  5
96
330
1F
100
AcDbEntity
  8
0
  6
Continuous
 62
     4
370
    15
100
AcDbLine
 10
-37.482
 20
-6.349999999999986
 30
0.0
 11
9.312643229903127
 21
-6.349999999999986
 31
0.0
  0
LINE
  5
97
330
1F
100
AcDbEntity
  8
0
  6
Continuous
 62
     4
370
    15
100
AcDbLine
 10
-37.482
 20
6.350000000000004
 30
0.0
 11
-38.292
 21
5.540000000000012
 31
0.0
  0
LINE
  5
98
330
1F
100
AcDbEntity
  8
0
  6
Continuous
 62
     4
370
    15
100
AcDbLine
 10
-38.292
 20
-5.539999999999995
 30
0.0
 11
-37.482
 21
-6.349999999999986
 31
0.0
  0
LINE
  5
99
330
1F
100
AcDbEntity
  8
0
  6
Continuous
 62
     4
370
    15
100
AcDbLine
 10
9.312643229903127
 20
-6.349999999999986
 30
0.0
 11
10.8815761664135
 21
-4.72532238393906
 31
0.0
  0
LINE
  5
9A
330
1F
100
AcDbEntity
  8
0
  6
Continuous
 62
     4
370
    15
100
AcDbLine
 10
11.492
 20
4.093210000000008
 30
0.0
 11
9.312643229903127
 21
6.350000000000004
 31
0.0
  0
LINE
  5
9B
330
1F
100
AcDbEntity
  8
0
  6
Continuous
 62
     1
370
    15
100
AcDbLine
 10
41.12431690575895
 20
-3.507281439149285
 30
0.0
 11
45.06726823353394
 21
-3.438456967714171
 31
0.0
  0
LINE
  5
9C
330
1F
100
AcDbEntity
  8
0
  6
Continuous
 62
     1
370
    15
100
AcDbLine
 10
14.98145375062775
 20
-3.963606812931606
 30
0.0
 11
19.20148807047997
 21
-3.889945839879279
 31
0.0
  0
LINE
  5
9D
330
1F
100
AcDbEntity
  8
0
  6
Continuous
 62
     1
370
    15
100
AcDbLine
 10
32.13024303596087
 20
3.664273582515813
 30
0.0
 11
28.06471147454351
 21
3.735237699888071
 31
0.0
  0
LINE
  5
9E
330
1F
100
AcDbEntity
  8
0
  6
Continuous
 62
     1
370
    15
100
AcDbLine
 10
58.02300589457943
 20
3.212313725647687
 30
0.0
 11
54.15923631501022
 21
3.279756074526739
 31
0.0
  0
LINE
  5
9F
330
1F
100
AcDbEntity
  8
0
  6
Continuous
 62
     1
370
    15
100
AcDbLine
 10
58.49647372793323
 20
-3.204049313875055
 30
0.0
 11
60.18841139043838
 21
-3.174516432121531
 31
0.0
  0
LINE
  5
A0
330
1F
100
AcDbEntity
  8
0
  6
Continuous
 62
     1
370
    15
100
AcDbLine
 10
32.42047838978714
 20
-3.659207505570294
 30
0.0
 11
36.44090673007791
 21
-3.589030667851272
 31
0.0
  0
LINE
  5
A1
330
1F
100
AcDbEntity
  8
0
  6
Continuous
 62
     1
370
    15
100
AcDbLine
 10
23.51084820103048
 20
3.814725679001466
 30
0.0
 11
19.3448658724704
 21
3.887443171036289
 31
0.0
  0
LINE
  5
A2
330
1F
100
AcDbEntity
  8
0
  6
Continuous
 62
     1
370
    15
100
AcDbLine
 10
49.38368026229676
 20
3.363113715495195
 30
0.0
 11
45.47244067622935
 21
3.431384656419817
 31
0.0
  0
LINE
  5
A3
330
1F
100
AcDbEntity
  8
0
  6
Continuous
 62
     1
370
    15
100
AcDbLine
 10
49.81763942445897
 20
-3.35553893014344
 30
0.0
 11
53.7023098959247
 21
-3.287731754839276
 31
0.0
  0
LINE
  5
A4
330
1F
100
AcDbEntity
  8
0
  6
Continuous
 62
     1
370
    15
100
AcDbLine
 10
23.70613328097673
 20
-3.811316965251474
 30
0.0
 11
27.82038080032154
 21
-3.739502507670553
 31
0.0
  0
LINE
  5
A5
330
1F
100
AcDbEntity
  8
0
  6
Continuous
 62
     1
370
    15
100
AcDbLine
 10
14.8935925450365
 20
3.965140435979891
 30
0.0
 11
12.508
 21
4.006781108745774
 31
0.0
  0
LINE
  5
A6
330
1F
100
AcDbEntity
  8
0
  6
Continuous
 62
     1
370
    15
100
AcDbLine
 10
40.75309153275008
 20
3.513761202138175
 30
0.0
 11
36.77366436578703
 21
3.583222361714627
 31
0.0
  0
LINE
  5
A7
330
1F
100
AcDbEntity
  8
0
  6
Continuous
 62
     4
370
    15
100
AcDbLine
 10
12.508
 20
4.006781108745774
 30
0.0
 11
11.492
 21
4.093210000000008
 31
0.0
  0
ARC
  5
A8
330
1F
100
AcDbEntity
  8
0
  6
Continuous
 62
     1
370
    15
100
AcDbCircle
 10
60.133
 20
0.0000000000000091
 30
0.0
 40
3.175
100
AcDbArc
 50
271.0000000000009
 51
293.3409628545133
  0
ARC
  5
A9
330
1F
100
AcDbEntity
  8
0
  6
Continuous
 62
     1
370
    15
100
AcDbCircle
 10
60.133
 20
0.0000000000000091
 30
0.0
 40
3.175000000000004
100
AcDbArc
 50
27.85617637447585
 51
44.76106993809918
  0
LINE
  5
AA
330
1F
100
AcDbEntity
  8
0
  6
Continuous
 62
     4
370
    15
100
AcDbLine
 10
9.312643229903127
 20
6.350000000000004
 30
0.0
 11
9.312643229903127
 21
-6.349999999999986
 31
0.0
  0
LINE
  5
AB
330
1F
100
AcDbEntity
  8
0
  6
Continuous
 62
     4
370
    15
100
AcDbLine
 10
-37.482
 20
0.0000000000000087
 30
0.0
 11
-37.482
 21
-6.349999999999986
 31
0.0
  0
LINE
  5
AC
330
1F
100
AcDbEntity
  8
0
  6
Continuous
 62
     4
370
    15
100
AcDbLine
 10
-37.482
 20
6.350000000000004
 30
0.0
 11
-37.482
 21
0.0000000000000087
 31
0.0
  0
LINE
  5
AD
330
1F
100
AcDbEntity
  8
0
  6
Continuous
 62
     4
370
    15
100
AcDbLine
 10
-38.292
 20
0.0000000000000087
 30
0.0
 11
-38.292
 21
5.540000000000012
 31
0.0
  0
LINE
  5
AE
330
1F
100
AcDbEntity
  8
0
  6
Continuous
 62
     4
370
    15
100
AcDbLine
 10
-38.292
 20
-5.539999999999995
 30
0.0
 11
-38.292
 21
0.0000000000000087
 31
0.0
  0
SPLINE
  5
AF
330
1F
100
AcDbEntity
  8
0
  6
Continuous
 62
     4
370
    15
100
AcDbSpline
210
0.0
220
0.0
230
1.0
 70
     8
 71
     3
 72
    12
 73
     8
 74
     0
 42
0.000000001
 43
0.00000001
 40
0.0
 40
0.0
 40
0.0
 40
0.0
 40
0.25
 40
0.25
 40
0.5
 40
0.5
 40
1.0
 40
1.0
 40
1.0
 40
1.0
 10
9.988000000038225
 20
5.620560345092597
 30
0.0
 10
10.11726669407506
 20
5.492187023202572
 30
0.0
 10
10.24922598010095
 20
5.355441144270433
 30
0.0
 10
10.510027751319
 20
5.081949403929183
 30
0.0
 10
10.63684508588386
 20
4.946864495777813
 30
0.0
 10
11.01179145344982
 20
4.542052012109429
 30
0.0
 10
11.2544006585281
 20
4.272599884445659
 30
0.0
 10
11.492
 20
3.998913095816087
 30
0.0
  0
LINE
  5
B0
330
1F
100
AcDbEntity
  8
0
  6
Continuous
 62
     4
370
    15
100
AcDbLine
 10
9.987999999999996
 20
4.505179131715157
 30
0.0
 11
9.987999999999996
 21
5.620560345117128
 31
0.0
  0
SPLINE
  5
B1
330
1F
100
AcDbEntity
  8
0
  6
Continuous
 62
     4
370
    15
100
AcDbSpline
210
0.0
220
0.0
230
1.0
 70
     8
 71
     3
 72
    14
 73
    10
 74
     0
 42
0.000000001
 43
0.00000001
 40
0.0
 40
0.0
 40
0.0
 40
0.0
 40
0.2500000000000001
 40
0.2500000000000001
 40
0.5000000000000001
 40
0.5000000000000001
 40
0.7500000000000002
 40
0.7500000000000002
 40
1.0
 40
1.0
 40
1.0
 40
1.0
 10
11.492
 20
1.241681901073858
 30
0.0
 10
11.3306021743174
 20
1.495378454221386
 30
0.0
 10
11.18239502884739
 20
1.762403753919937
 30
0.0
 10
10.90006166086082
 20
2.315529306015883
 30
0.0
 10
10.76581556164297
 20
2.602943086895757
 30
0.0
 10
10.51679434561831
 20
3.166823468742606
 30
0.0
 10
10.39938589335669
 20
3.449052098997071
 30
0.0
 10
10.18075184590676
 20
3.99520530375068
 30
0.0
 10
10.08041478437719
 20
4.256661604575889
 30
0.0
 10
9.987999999980188
 20
4.505179131628315
 30
0.0
  0
LINE
  5
B2
330
1F
100
AcDbEntity
  8
0
  6
Continuous
 62
     4
370
    15
100
AcDbLine
 10
11.492
 20
1.241681901073858
 30
0.0
 11
11.492
 21
-2.755959434325517
 31
0.0
  0
SPLINE
  5
B3
330
1F
100
AcDbEntity
  8
0
  6
Continuous
 62
     4
370
    15
100
AcDbSpline
210
0.0
220
0.0
230
1.0
 70
     8
 71
     3
 72
    12
 73
     8
 74
     0
 42
0.000000001
 43
0.00000001
 40
0.0
 40
0.0
 40
0.0
 40
0.0
 40
0.2500000000000001
 40
0.2500000000000001
 40
0.5000000000000002
 40
0.5000000000000002
 40
1.0
 40
1.0
 40
1.0
 40
1.0
 10
9.988000000038225
 20
-3.314601212437491
 30
0.0
 10
10.11726669407506
 20
-3.19856764805026
 30
0.0
 10
10.24922598010094
 20
-3.124146269026909
 30
0.0
 10
10.51002775131899
 20
-3.005083427445252
 30
0.0
 10
10.63684508588386
 20
-2.962742186712574
 30
0.0
 10
11.01179145344982
 20
-2.854110951681966
 30
0.0
 10
11.2544006585281
 20
-2.806202806269285
 30
0.0
 10
11.492
 20
-2.755959434325516
 30
0.0
  0
LINE
  5
B4
330
1F
100
AcDbEntity
  8
0
  6
Continuous
 62
     4
370
    15
100
AcDbLine
 10
9.987999999999996
 20
-5.206381095332919
 30
0.0
 11
9.987999999999996
 21
-3.314601212439857
 31
0.0
  0
SPLINE
  5
B5
330
1F
100
AcDbEntity
  8
0
  6
Continuous
 62
     4
370
    15
100
AcDbSpline
210
0.0
220
0.0
230
1.0
 70
     8
 71
     3
 72
    14
 73
    10
 74
     0
 42
0.000000001
 43
0.00000001
 40
0.0
 40
0.0
 40
0.0
 40
0.0
 40
0.2499999999999999
 40
0.2499999999999999
 40
0.4999999999999999
 40
0.4999999999999999
 40
0.7499999999999999
 40
0.7499999999999999
 40
1.0
 40
1.0
 40
1.0
 40
1.0
 10
11.492
 20
-3.998628039813592
 30
0.0
 10
11.3306021743174
 20
-4.207430272108553
 30
0.0
 10
11.18239502884739
 20
-4.391698673401822
 30
0.0
 10
10.90006166086082
 20
-4.711868617431339
 30
0.0
 10
10.76581556164297
 20
-4.847449553739314
 30
0.0
 10
10.51679434561831
 20
-5.055857219501561
 30
0.0
 10
10.39938589335669
 20
-5.131245592891833
 30
0.0
 10
10.18075184590676
 20
-5.217728316600043
 30
0.0
 10
10.08041478437719
 20
-5.229100852973569
 30
0.0
 10
9.987999999980188
 20
-5.206381095304512
 30
0.0
  0
LINE
  5
B6
330
1F
100
AcDbEntity
  8
0
  6
Continuous
 62
     4
370
    15
100
AcDbLine
 10
11.492
 20
4.093210000000008
 30
0.0
 11
11.492
 21
3.998913095816093
 31
0.0
  0
SPLINE
  5
B7
330
1F
100
AcDbEntity
  8
0
  6
Continuous
 62
     1
370
    15
100
AcDbSpline
210
0.0
220
0.0
230
1.0
 70
     8
 71
     3
 72
    18
 73
    14
 74
     0
 42
0.000000001
 43
0.00000001
 40
0.0
 40
0.0
 40
0.0
 40
0.0
 40
0.0701336766178349
 40
0.1411821521005419
 40
0.2440292198538525
 40
0.3498386754274864
 40
0.4529287669893232
 40
0.5590245824114268
 40
0.6617617335166629
 40
0.7674934445724723
 40
0.8699011303548327
 40
0.9752923315686168
 40
1.0
 40
1.0
 40
1.0
 40
1.0
 10
60.18841139043838
 20
-2.751391799440038
 30
0.0
 10
59.93314880614212
 20
-2.647964877149567
 30
0.0
 10
59.41929408271063
 20
-2.439761968386175
 30
0.0
 10
58.53313629203502
 20
-1.949740627733118
 30
0.0
 10
57.5182836511975
 20
-1.27808337463125
 30
0.0
 10
56.39013356242863
 20
-0.4219775234809937
 30
0.0
 10
55.2530593266715
 20
0.4819663053494336
 30
0.0
 10
54.12954365630094
 20
1.351297310723176
 30
0.0
 10
52.99946608491143
 20
2.1330708591152
 30
0.0
 10
51.88501366239429
 20
2.762077633080915
 30
0.0
 10
50.76415736343723
 20
3.178973790614401
 30
0.0
 10
49.93412813216765
 20
3.372567381306177
 30
0.0
 10
49.47121726409611
 20
3.346495097105827
 30
0.0
 10
49.3833037543724
 20
3.341543590954945
 30
0.0
  0
SPLINE
  5
B8
330
1F
100
AcDbEntity
  8
0
  6
Continuous
 62
     1
370
    15
100
AcDbSpline
210
0.0
220
0.0
230
1.0
 70
     8
 71
     3
 72
    23
 73
    19
 74
     0
 42
0.000000001
 43
0.00000001
 40
0.0
 40
0.0
 40
0.0
 40
0.0
 40
0.0021266813788481
 40
0.0699773609464514
 40
0.1398006057602402
 40
0.2075281031516238
 40
0.2772241852491217
 40
0.3448354462988237
 40
0.4144113781356263
 40
0.4819189683915023
 40
0.5513875644388386
 40
0.6188058041308271
 40
0.6881819905843873
 40
0.7555159291003076
 40
0.8248050658785886
 40
0.8920602982382603
 40
0.9612679590102698
 40
1.0
 40
1.0
 40
1.0
 40
1.0
 10
38.79100757360367
 20
-2.982122626497403
 30
0.0
 10
38.77998412353646
 20
-2.988346468755409
 30
0.0
 10
38.41726314807618
 20
-3.193138808827579
 30
0.0
 10
37.69497367999779
 20
-3.42637573496253
 30
0.0
 10
36.63482270435281
 20
-3.625234107982513
 30
0.0
 10
35.56815447908249
 20
-3.562371888939718
 30
0.0
 10
34.51488443318836
 20
-3.27068957579518
 30
0.0
 10
33.45477885088651
 20
-2.756470903352914
 30
0.0
 10
32.40805356466527
 20
-2.064144368548514
 30
0.0
 10
31.35433821045755
 20
-1.225791898504025
 30
0.0
 10
30.31379977398533
 20
-0.3101687311043791
 30
0.0
 10
29.26629152876195
 20
0.6401196321551031
 30
0.0
 10
28.23164930507181
 20
1.547888187610072
 30
0.0
 10
27.19015166204187
 20
2.370624070119667
 30
0.0
 10
26.16132569227427
 20
3.045225974903463
 30
0.0
 10
25.12565587162501
 20
3.527607426299766
 30
0.0
 10
24.24527792933637
 20
3.787096018609363
 30
0.0
 10
23.70443143805775
 20
3.78681685403825
 30
0.0
 10
23.51035930215732
 20
3.78671668131742
 30
0.0
  0
LINE
  5
B9
330
1F
100
AcDbEntity
  8
0
  6
Continuous
 62
     1
370
    15
100
AcDbLine
 10
12.76843187795508
 20
-3.439504348661366
 30
0.0
 11
12.508
 21
-3.576887619511554
 31
0.0
  0
SPLINE
  5
BA
330
1F
100
AcDbEntity
  8
0
  6
Continuous
 62
     4
370
    15
100
AcDbSpline
210
0.0
220
0.0
230
1.0
 70
     8
 71
     3
 72
     8
 73
     4
 74
     0
 42
0.000000001
 43
0.00000001
 40
0.0
 40
0.0
 40
0.0
 40
0.0
 40
1.0
 40
1.0
 40
1.0
 40
1.0
 10
12.508
 20
-3.576887619511552
 30
0.0
 10
12.16641451516673
 20
-3.755698560510148
 30
0.0
 10
11.82956344109398
 20
-3.897208980590997
 30
0.0
 10
11.492
 20
-3.998628039813582
 30
0.0
  0
SPLINE
  5
BB
330
1F
100
AcDbEntity
  8
0
  6
Continuous
 62
     4
370
    15
100
AcDbSpline
210
0.0
220
0.0
230
1.0
 70
     8
 71
     3
 72
     8
 73
     4
 74
     0
 42
0.000000001
 43
0.00000001
 40
0.0
 40
0.0
 40
0.0
 40
0.0
 40
1.0
 40
1.0
 40
1.0
 40
1.0
 10
11.492
 20
-2.755959434325517
 30
0.0
 10
11.82997391662791
 20
-2.976500035195677
 30
0.0
 10
12.16703638216317
 20
-3.16595670801898
 30
0.0
 10
12.50799999999993
 20
-3.32160184695302
 30
0.0
  0
SPLINE
  5
BC
330
1F
100
AcDbEntity
  8
0
  6
Continuous
 62
     1
370
    15
100
AcDbSpline
210
0.0
220
0.0
230
1.0
 70
     8
 71
     3
 72
    11
 73
     7
 74
     0
 42
0.000000001
 43
0.00000001
 40
0.0
 40
0.0
 40
0.0
 40
0.0
 40
0.2824853325768324
 40
0.5688381668656427
 40
0.974566547235395
 40
1.0
 40
1.0
 40
1.0
 40
1.0
 10
12.508
 20
-3.321601846953029
 30
0.0
 10
12.74034574774947
 20
-3.434740209931308
 30
0.0
 10
13.20821828478779
 20
-3.662565911222328
 30
0.0
 10
14.01115960802574
 20
-3.887792691773963
 30
0.0
 10
14.60344447888161
 20
-4.004564230253857
 30
0.0
 10
14.9602830719472
 20
-3.959319634340838
 30
0.0
 10
14.98133233188597
 20
-3.956650737874186
 30
0.0
  0
SPLINE
  5
BD
330
1F
100
AcDbEntity
  8
0
  6
Continuous
 62
     1
370
    15
100
AcDbSpline
210
0.0
220
0.0
230
1.0
 70
     8
 71
     3
 72
    22
 73
    18
 74
     0
 42
0.000000001
 43
0.00000001
 40
0.0
 40
0.0
 40
0.0
 40
0.0
 40
0.0359650102965578
 40
0.1043478977728892
 40
0.1747089430148633
 40
0.2431451425353262
 40
0.3135609556849457
 40
0.3820518993441015
 40
0.4525235237770707
 40
0.5210788515707465
 40
0.5916160590300494
 40
0.6602469407695697
 40
0.730861503607639
 40
0.7995726414154484
 40
0.8702695257647685
 40
0.9390654073105735
 40
1.0
 40
1.0
 40
1.0
 40
1.0
 10
25.77765070971473
 20
3.193380360259059
 30
0.0
 10
25.95875392435417
 20
3.281404908634289
 30
0.0
 10
26.48420184086282
 20
3.53679692714408
 30
0.0
 10
27.36626646337423
 20
3.728070120611663
 30
0.0
 10
28.41433107144975
 20
3.757444785081837
 30
0.0
 10
29.47477513884269
 20
3.53578785473947
 30
0.0
 10
30.528239991707
 20
3.095028920032567
 30
0.0
 10
31.5941177873388
 20
2.452868345406924
 30
0.0
 10
32.6529610196602
 20
1.662937854540633
 30
0.0
 10
33.72440716754279
 20
0.7633931620847884
 30
0.0
 10
34.78890993573279
 20
-0.1716645940834688
 30
0.0
 10
35.86606583083505
 20
-1.096565217309454
 30
0.0
 10
36.93642703921487
 20
-1.934035050805088
 30
0.0
 10
38.01948901009953
 20
-2.644821775071648
 30
0.0
 10
39.09580370225127
 20
-3.161590515148239
 30
0.0
 10
40.13377310333592
 20
-3.473381183538718
 30
0.0
 10
40.80757357423794
 20
-3.486379765016202
 30
0.0
 10
41.12405863675231
 20
-3.492485217667476
 30
0.0
  0
SPLINE
  5
BE
330
1F
100
AcDbEntity
  8
0
  6
Continuous
 62
     1
370
    15
100
AcDbSpline
210
0.0
220
0.0
230
1.0
 70
     8
 71
     3
 72
    15
 73
    11
 74
     0
 42
0.000000001
 43
0.00000001
 40
0.0
 40
0.0
 40
0.0
 40
0.0
 40
0.0655080223209449
 40
0.1982852635145471
 40
0.3348921997338083
 40
0.4679576466400052
 40
0.6048594146847867
 40
0.7382416727659799
 40
0.8754682002740434
 40
0.9999999999999999
 40
0.9999999999999999
 40
0.9999999999999999
 40
0.9999999999999999
 10
51.78490680010083
 20
2.76533675614316
 30
0.0
 10
51.96684828426511
 20
2.847124505674512
 30
0.0
 10
52.51756427069795
 20
3.09468663460938
 30
0.0
 10
53.45023930666279
 20
3.277693822466111
 30
0.0
 10
54.57326652731182
 20
3.298318927144968
 30
0.0
 10
55.71028114361282
 20
3.063580419727255
 30
0.0
 10
56.84095403900567
 20
2.609424847879938
 30
0.0
 10
57.98565915383115
 20
1.958430783406355
 30
0.0
 10
59.09823596702272
 20
1.190801668137277
 30
0.0
 10
59.83696179848693
 20
0.6293521883214355
 30
0.0
 10
60.18841139043838
 20
0.3622420072796698
 30
0.0
  0
SPLINE
  5
BF
330
1F
100
AcDbEntity
  8
0
  6
Continuous
 62
     1
370
    15
100
AcDbSpline
210
0.0
220
0.0
230
1.0
 70
     8
 71
     3
 72
    18
 73
    14
 74
     0
 42
0.000000001
 43
0.00000001
 40
0.0
 40
0.0
 40
0.0
 40
0.0
 40
0.2499999999999977
 40
0.2499999999999977
 40
0.3749999999999966
 40
0.3749999999999966
 40
0.4999999999999954
 40
0.4999999999999954
 40
0.7499999999999978
 40
0.7499999999999978
 40
0.874999999999999
 40
0.874999999999999
 40
1.0
 40
1.0
 40
1.0
 40
1.0
 10
60.18841139043837
 20
0.3622420072796725
 30
0.0
 10
60.41039850205388
 20
0.1926550970997203
 30
0.0
 10
60.62788526631308
 20
0.0231841353422749
 30
0.0
 10
60.95486202747342
 20
-0.2209440836046597
 30
0.0
 10
61.06403163153331
 20
-0.3006994833916166
 30
0.0
 10
61.27672144522896
 20
-0.4511195692091592
 30
0.0
 10
61.3810840048084
 20
-0.5224228295919142
 30
0.0
 10
61.68862370657585
 20
-0.7241286589587044
 30
0.0
 10
61.88809985276941
 20
-0.8423320279107392
 30
0.0
 10
62.15520817159222
 20
-0.9896516380486545
 30
0.0
 10
62.23956376988366
 20
-1.034377598947444
 30
0.0
 10
62.3969856307565
 20
-1.118222737091902
 30
0.0
 10
62.46999926389561
 20
-1.157302585942137
 30
0.0
 10
62.53395330207819
 20
-1.195250806658141
 30
0.0
  0
SPLINE
  5
C0
330
1F
100
AcDbEntity
  8
0
  6
Continuous
 62
     1
370
    15
100
AcDbSpline
210
0.0
220
0.0
230
1.0
 70
     8
 71
     3
 72
    18
 73
    14
 74
     0
 42
0.000000001
 43
0.00000001
 40
0.0
 40
0.0
 40
0.0
 40
0.0
 40
0.2500000000000001
 40
0.2500000000000001
 40
0.3750000000000001
 40
0.3750000000000001
 40
0.5
 40
0.5
 40
0.7499999999999999
 40
0.7499999999999999
 40
0.8749999999999999
 40
0.8749999999999999
 40
1.0
 40
1.0
 40
1.0
 40
1.0
 10
60.87292604767121
 20
-2.171827910135591
 30
0.0
 10
61.00601610480638
 20
-2.04936909441961
 30
0.0
 10
61.15125416087301
 20
-1.926574056343225
 30
0.0
 10
61.38067928098532
 20
-1.750423528968315
 30
0.0
 10
61.45814434372336
 20
-1.693752911398012
 30
0.0
 10
61.61526364674878
 20
-1.584936370067994
 30
0.0
 10
61.69567336729812
 20
-1.532363373404372
 30
0.0
 10
61.9308410456887
 20
-1.388971223430587
 30
0.0
 10
62.08517313269672
 20
-1.30940699563811
 30
0.0
 10
62.28208451274059
 20
-1.233982822273199
 30
0.0
 10
62.34340685879425
 20
-1.215581484413655
 30
0.0
 10
62.44967440557897
 20
-1.194503334512275
 30
0.0
 10
62.49545463608799
 20
-1.191447817846175
 30
0.0
 10
62.53395330208709
 20
-1.195250806663532
 30
0.0
  0
SPLINE
  5
C1
330
1F
100
AcDbEntity
  8
0
  6
Continuous
 62
     1
370
    15
100
AcDbSpline
210
0.0
220
0.0
230
1.0
 70
     8
 71
     3
 72
     8
 73
     4
 74
     0
 42
0.000000001
 43
0.00000001
 40
0.0
 40
0.0
 40
0.0
 40
0.0
 40
1.0
 40
1.0
 40
1.0
 40
1.0
 10
60.87292604768691
 20
-2.171827910114736
 30
0.0
 10
61.0924456328991
 20
-2.379745063390366
 30
0.0
 10
61.30686426870027
 20
-2.587213411466075
 30
0.0
 10
61.51862224628262
 20
-2.794447662485037
 30
0.0
  0
SPLINE
  5
C2
330
1F
100
AcDbEntity
  8
0
  6
Continuous
 62
     1
370
    15
100
AcDbSpline
210
0.0
220
0.0
230
1.0
 70
     8
 71
     3
 72
    12
 73
     8
 74
     0
 42
0.000000001
 43
0.00000001
 40
0.0
 40
0.0
 40
0.0
 40
0.0
 40
0.2500000000000024
 40
0.2500000000000024
 40
0.5000000000000049
 40
0.5000000000000049
 40
1.0
 40
1.0
 40
1.0
 40
1.0
 10
61.51862224628911
 20
-2.794447662475206
 30
0.0
 10
61.40780965857655
 20
-2.832980637275031
 30
0.0
 10
61.29779726130874
 20
-2.859583322940637
 30
0.0
 10
61.07639509056376
 20
-2.891572412489766
 30
0.0
 10
60.96425402895784
 20
-2.896790120713643
 30
0.0
 10
60.6315651656503
 20
-2.882314389043629
 30
0.0
 10
60.41252673623708
 20
-2.833939124426545
 30
0.0
 10
60.18841139043837
 20
-2.751391799440035
 30
0.0
  0
SPLINE
  5
C3
330
1F
100
AcDbEntity
  8
0
  6
Continuous
 62
     1
370
    15
100
AcDbSpline
210
0.0
220
0.0
230
1.0
 70
     8
 71
     3
 72
    22
 73
    18
 74
     0
 42
0.000000001
 43
0.00000001
 40
0.0
 40
0.0
 40
0.0
 40
0.0
 40
0.0535856466420823
 40
0.1272894988697555
 40
0.1986601158278941
 40
0.272111027877842
 40
0.3432527681043722
 40
0.4164671308900623
 40
0.4873972008000476
 40
0.5603930722072906
 40
0.6311241999815359
 40
0.7039144496637076
 40
0.7744666507333544
 40
0.8470719720731035
 40
0.9174577670012993
 40
0.9898913124959458
 40
1.0
 40
1.0
 40
1.0
 40
1.0
 10
56.09969134368386
 20
-2.693380226674019
 30
0.0
 10
55.82111861353402
 20
-2.814834276019885
 30
0.0
 10
55.1593857533075
 20
-3.103341106593367
 30
0.0
 10
54.1296014038403
 20
-3.299030860430157
 30
0.0
 10
52.99944149911492
 20
-3.294360658592511
 30
0.0
 10
51.88505385484819
 20
-3.040672808326892
 30
0.0
 10
50.7640242222107
 20
-2.560291016840225
 30
0.0
 10
49.65833617387273
 20
-1.894561069330712
 30
0.0
 10
48.54601724951971
 20
-1.080033298929944
 30
0.0
 10
47.44874953903538
 20
-0.1895297683306634
 30
0.0
 10
46.34477997339904
 20
0.7294252471683238
 30
0.0
 10
45.2556034222284
 20
1.596089149817982
 30
0.0
 10
44.15968616183037
 20
2.363070576847317
 30
0.0
 10
43.07815787950366
 20
2.970829418933569
 30
0.0
 10
41.9901329363781
 20
3.359516159827773
 30
0.0
 10
41.21870454763224
 20
3.533294221885253
 30
0.0
 10
40.80366951121724
 20
3.503129648275529
 30
0.0
 10
40.75284147647751
 20
3.499435487877439
 30
0.0
  0
SPLINE
  5
C4
330
1F
100
AcDbEntity
  8
0
  6
Continuous
 62
     1
370
    15
100
AcDbSpline
210
0.0
220
0.0
230
1.0
 70
     8
 71
     3
 72
    23
 73
    19
 74
     0
 42
0.000000001
 43
0.00000001
 40
0.0
 40
0.0
 40
0.0
 40
0.0
 40
0.054396468138457
 40
0.122760708052139
 40
0.1891124890067874
 40
0.2573909489837298
 40
0.3236651718190363
 40
0.3918633442286638
 40
0.4580718580846843
 40
0.5262018778175301
 40
0.5923567770917741
 40
0.6604312290127762
 40
0.7265364607655528
 40
0.7945596028309453
 40
0.86061780574613
 40
0.928592166553218
 40
0.9946124635472472
 40
1.0
 40
1.0
 40
1.0
 40
1.0
 10
30.11765596955319
 20
-3.122314368652661
 30
0.0
 10
29.83718385362703
 20
-3.253584276738706
 30
0.0
 10
29.20422078234198
 20
-3.54983120993232
 30
0.0
 10
28.23169298014627
 20
-3.749429385573587
 30
0.0
 10
27.19013557491014
 20
-3.747380308984888
 30
0.0
 10
26.16134580727385
 20
-3.503874415601036
 30
0.0
 10
25.12559269961736
 20
-3.036843962980011
 30
0.0
 10
24.10251783049184
 20
-2.381368510309427
 30
0.0
 10
23.07233904086266
 20
-1.567020651746867
 30
0.0
 10
22.05466137428
 20
-0.6578605657250552
 30
0.0
 10
21.02991685752449
 20
0.3062284394838434
 30
0.0
 10
20.01736346852601
 20
1.249291732890961
 30
0.0
 10
18.99790626370308
 20
2.131225900442576
 30
0.0
 10
17.99045944536584
 20
2.880506040846226
 30
0.0
 10
16.97602546819442
 20
3.473825434473314
 30
0.0
 10
15.97382317279576
 20
3.832434714285342
 30
0.0
 10
15.27653288817364
 20
3.99102004516116
 30
0.0
 10
14.92031404251331
 20
3.958736657172704
 30
0.0
 10
14.89343825139184
 20
3.956300958997716
 30
0.0
  0
SPLINE
  5
C5
330
1F
100
AcDbEntity
  8
0
  6
Continuous
 62
     1
370
    15
100
AcDbSpline
210
0.0
220
0.0
230
1.0
 70
     8
 71
     3
 72
    22
 73
    18
 74
     0
 42
0.000000001
 43
0.00000001
 40
0.0
 40
0.0
 40
0.0
 40
0.0
 40
0.0597150030066839
 40
0.1269119413599981
 40
0.1960542125931052
 40
0.2632793420164532
 40
0.3324506067289427
 40
0.3997042934385409
 40
0.4689044610412036
 40
0.5361956761690903
 40
0.6054338756059192
 40
0.6727728745817086
 40
0.7420598340585908
 40
0.8094513312516627
 40
0.8787922225850806
 40
0.9462376282285767
 40
1.0
 40
1.0
 40
1.0
 40
1.0
 10
17.10772042211999
 20
3.361114527956987
 30
0.0
 10
17.40792860020844
 20
3.491093484511492
 30
0.0
 10
18.04595925875314
 20
3.767336989187072
 30
0.0
 10
19.03408038285546
 20
3.918599489195093
 30
0.0
 10
20.06227100581577
 20
3.85750842590238
 30
0.0
 10
21.10236835866767
 20
3.55368402003968
 30
0.0
 10
22.13537073927226
 20
3.038521251775504
 30
0.0
 10
23.18037238421018
 20
2.333562418697261
 30
0.0
 10
24.21817268051021
 20
1.495365116778887
 30
0.0
 10
25.26818878910986
 20
0.5621504765887779
 30
0.0
 10
26.31105858920502
 20
-0.3916811725439546
 30
0.0
 10
27.36619337564362
 20
-1.32233432613584
 30
0.0
 10
28.41435327690946
 20
-2.154480017825254
 30
0.0
 10
29.47475813345386
 20
-2.852117204509825
 30
0.0
 10
30.52828637895439
 20
-3.349361296802235
 30
0.0
 10
31.51314996226697
 20
-3.635462522440857
 30
0.0
 10
32.14142748941735
 20
-3.637030107415798
 30
0.0
 10
32.42010341855894
 20
-3.637725418294385
 30
0.0
  0
SPLINE
  5
C6
330
1F
100
AcDbEntity
  8
0
  6
Continuous
 62
     1
370
    15
100
AcDbSpline
210
0.0
220
0.0
230
1.0
 70
     8
 71
     3
 72
    22
 73
    18
 74
     0
 42
0.000000001
 43
0.00000001
 40
0.0
 40
0.0
 40
0.0
 40
0.0
 40
0.0224531485517648
 40
0.093765763347427
 40
0.1671376322825791
 40
0.2385651754940299
 40
0.3120547400464438
 40
0.3836076337431282
 40
0.4572253410848701
 40
0.5289169944514501
 40
0.602676968566657
 40
0.6745147405744517
 40
0.7484245300126391
 40
0.8204182327815089
 40
0.8944875379715822
 40
0.9666526481951802
 40
1.0
 40
1.0
 40
1.0
 40
1.0
 10
43.1216659869198
 20
2.908872026682339
 30
0.0
 10
43.23492078070306
 20
2.964325819933269
 30
0.0
 10
43.70787993684812
 20
3.195904355241858
 30
0.0
 10
44.55322352437397
 20
3.393914451101466
 30
0.0
 10
45.64828149924429
 20
3.468056049955591
 30
0.0
 10
46.75675062405553
 20
3.284022861764165
 30
0.0
 10
47.85856124260771
 20
2.877024871150307
 30
0.0
 10
48.97380602860903
 20
2.26445570703048
 30
0.0
 10
50.08252454841855
 20
1.501581851261678
 30
0.0
 10
51.20478018731252
 20
0.6303659803319833
 30
0.0
 10
52.32063981285565
 20
-0.2717258001949736
 30
0.0
 10
53.45015140653666
 20
-1.154301526804481
 30
0.0
 10
54.5732962258324
 20
-1.937192488427659
 30
0.0
 10
55.7102490779476
 20
-2.580327381726529
 30
0.0
 10
56.84105431283146
 20
-3.0082422255788
 30
0.0
 10
57.77304663315299
 20
-3.214955975941765
 30
0.0
 10
58.32233086557601
 20
-3.183123943492328
 30
0.0
 10
58.49593286658433
 20
-3.173063387948964
 30
0.0
  0
SPLINE
  5
C7
330
1F
100
AcDbEntity
  8
0
  6
Continuous
 62
     1
370
    15
100
AcDbSpline
210
0.0
220
0.0
230
1.0
 70
     8
 71
     3
 72
    10
 73
     6
 74
     0
 42
0.000000001
 43
0.00000001
 40
0.0
 40
0.0
 40
0.0
 40
0.0
 40
0.3529157147547365
 40
0.7104347372329812
 40
1.0
 40
1.0
 40
1.0
 40
1.0
 10
60.18841139043838
 20
2.747026752518811
 30
0.0
 10
59.93315962279074
 20
2.839101627738047
 30
0.0
 10
59.41932667374502
 20
3.024452370273264
 30
0.0
 10
58.69752518227872
 20
3.185936114043275
 30
0.0
 10
58.23118360234302
 20
3.184109338471843
 30
0.0
 10
58.02249931621159
 20
3.183291870391688
 30
0.0
  0
SPLINE
  5
C8
330
1F
100
AcDbEntity
  8
0
  6
Continuous
 62
     1
370
    15
100
AcDbSpline
210
0.0
220
0.0
230
1.0
 70
     8
 71
     3
 72
    23
 73
    19
 74
     0
 42
0.000000001
 43
0.00000001
 40
0.0
 40
0.0
 40
0.0
 40
0.0
 40
0.001320984598115
 40
0.0708470870100695
 40
0.1423972306773273
 40
0.2117474547061764
 40
0.2831158206006381
 40
0.352302473500388
 40
0.4235019900441561
 40
0.4925350963102462
 40
0.5635758757964235
 40
0.6324725265081437
 40
0.7033721510977762
 40
0.7721437206839571
 40
0.8429142222448495
 40
0.9115677636154864
 40
0.9822162627057058
 40
1.0
 40
1.0
 40
1.0
 40
1.0
 10
47.45826058099046
 20
-2.838396980676111
 30
0.0
 10
47.45139137770516
 20
-2.842171275723532
 30
0.0
 10
47.08298205367687
 20
-3.044594384977032
 30
0.0
 10
46.3449827297235
 20
-3.276673119717639
 30
0.0
 10
45.25555308402392
 20
-3.475628504898746
 30
0.0
 10
44.15969005808484
 20
-3.40996239429231
 30
0.0
 10
43.07819464404422
 20
-3.113657445856084
 30
0.0
 10
41.98998603162603
 20
-2.594104786889647
 30
0.0
 10
40.9159943616762
 20
-1.898208477445342
 30
0.0
 10
39.83519169029199
 20
-1.060398917958729
 30
0.0
 10
38.7684319222896
 20
-0.1523410405709907
 30
0.0
 10
37.69478520680834
 20
0.7808403833333268
 30
0.0
 10
36.63486997735305
 20
1.660585661795874
 30
0.0
 10
35.56814913510721
 20
2.442299730719861
 30
0.0
 10
34.51485679014294
 20
3.066452758003106
 30
0.0
 10
33.45489168838719
 20
3.479674080018945
 30
0.0
 10
32.66340180255883
 20
3.672059199265394
 30
0.0
 10
32.21918753356442
 20
3.647114937704303
 30
0.0
 10
32.12985597094482
 20
3.642098642598141
 30
0.0
  0
SPLINE
  5
C9
330
1F
100
AcDbEntity
  8
0
  6
Continuous
 62
     1
370
    15
100
AcDbSpline
210
0.0
220
0.0
230
1.0
 70
     8
 71
     3
 72
    17
 73
    13
 74
     0
 42
0.000000001
 43
0.00000001
 40
0.0
 40
0.0
 40
0.0
 40
0.0
 40
0.0444229771491622
 40
0.1590823201630958
 40
0.2704248609940237
 40
0.3849977816546616
 40
0.4962611107480165
 40
0.6107518680291376
 40
0.7219513513199426
 40
0.836375728052634
 40
0.9175722671405271
 40
0.9999999999999999
 40
0.9999999999999999
 40
0.9999999999999999
 40
0.9999999999999999
 10
21.44065982501749
 20
-3.271448912239783
 30
0.0
 10
21.3070583574303
 20
-3.3438278738248
 30
0.0
 10
20.82862055778444
 20
-3.603022864319876
 30
0.0
 10
20.01744426740783
 20
-3.830711189060401
 30
0.0
 10
18.99788690748776
 20
-3.930404631172073
 30
0.0
 10
17.99045402918193
 20
-3.780740822296838
 30
0.0
 10
16.97606503276559
 20
-3.402974840978945
 30
0.0
 10
15.97366678046442
 20
-2.821904829494406
 30
0.0
 10
14.96419845104228
 20
-2.062955224037635
 30
0.0
 10
14.05523545087128
 20
-1.261615255662
 30
0.0
 10
13.23366321438875
 20
-0.4824798620505444
 30
0.0
 10
12.75109809476472
 20
-0.012170565233487
 30
0.0
 10
12.508
 20
0.2247535085483857
 30
0.0
  0
SPLINE
  5
CA
330
1F
100
AcDbEntity
  8
0
  6
Continuous
 62
     4
370
    15
100
AcDbSpline
210
0.0
220
0.0
230
1.0
 70
     8
 71
     3
 72
     8
 73
     4
 74
     0
 42
0.000000001
 43
0.00000001
 40
0.0
 40
0.0
 40
0.0
 40
0.0
 40
1.0
 40
1.0
 40
1.0
 40
1.0
 10
12.508
 20
0.2247535085483855
 30
0.0
 10
12.16641451516673
 20
0.5650836110919859
 30
0.0
 10
11.82956344109398
 20
0.9058761851895928
 30
0.0
 10
11.492
 20
1.241681901073854
 30
0.0
  0
SPLINE
  5
CB
330
1F
100
AcDbEntity
  8
0
  6
Continuous
 62
     4
370
    15
100
AcDbSpline
210
0.0
220
0.0
230
1.0
 70
     8
 71
     3
 72
     8
 73
     4
 74
     0
 42
0.000000001
 43
0.00000001
 40
0.0
 40
0.0
 40
0.0
 40
0.0
 40
1.0
 40
1.0
 40
1.0
 40
1.0
 10
11.492
 20
3.998913095816093
 30
0.0
 10
11.82997391662791
 20
3.901580751612785
 30
0.0
 10
12.16703638216317
 20
3.768302639884714
 30
0.0
 10
12.50799999999993
 20
3.601404442434046
 30
0.0
  0
SPLINE
  5
CC
330
1F
100
AcDbEntity
  8
0
  6
Continuous
 62
     1
370
    15
100
AcDbSpline
210
0.0
220
0.0
230
1.0
 70
     8
 71
     3
 72
    19
 73
    15
 74
     0
 42
0.000000001
 43
0.00000001
 40
0.0
 40
0.0
 40
0.0
 40
0.0
 40
0.0629700651703934
 40
0.1268022523937385
 40
0.2172449749248722
 40
0.3102981339856187
 40
0.4009108614745674
 40
0.4941471241710122
 40
0.5847955646448627
 40
0.6780682525335068
 40
0.7687547226646078
 40
0.8620665226579748
 40
0.952791516470752
 40
0.9999999999999999
 40
0.9999999999999999
 40
0.9999999999999999
 40
0.9999999999999999
 10
12.508
 20
3.601404442433998
 30
0.0
 10
12.74035228735606
 20
3.490302692844427
 30
0.0
 10
13.20823799314119
 20
3.266578101568851
 30
0.0
 10
14.01106558240848
 20
2.749415850795168
 30
0.0
 10
14.92755865706241
 20
2.046243546286343
 30
0.0
 10
15.94514789307715
 20
1.147004630769077
 30
0.0
 10
16.97528463513019
 20
0.1773066138677964
 30
0.0
 10
17.99871572806261
 20
-0.7889906484089395
 30
0.0
 10
19.03404239306091
 20
-1.709332977692926
 30
0.0
 10
20.06228590066582
 20
-2.510987070652703
 30
0.0
 10
21.10234640308484
 20
-3.163230300735342
 30
0.0
 10
22.13544507609446
 20
-3.599299810169405
 30
0.0
 10
23.006328195391
 20
-3.815793535664665
 30
0.0
 10
23.52729420132601
 20
-3.78959682532905
 30
0.0
 10
23.70559765299276
 20
-3.780630858601967
 30
0.0
  0
SPLINE
  5
CD
330
1F
100
AcDbEntity
  8
0
  6
Continuous
 62
     1
370
    15
100
AcDbSpline
210
0.0
220
0.0
230
1.0
 70
     8
 71
     3
 72
    22
 73
    18
 74
     0
 42
0.000000001
 43
0.00000001
 40
0.0
 40
0.0
 40
0.0
 40
0.0
 40
0.0225154953824793
 40
0.0923024452160125
 40
0.1641064907038841
 40
0.233975048496832
 40
0.3058628021788898
 40
0.3758175311945039
 40
0.4477933097302939
 40
0.5178460824839747
 40
0.5899220394500151
 40
0.6600832540511818
 40
0.7322704744580972
 40
0.8025447618622602
 40
0.8748477775949252
 40
0.9452453915987377
 40
1.0
 40
1.0
 40
1.0
 40
1.0
 10
34.45864250602244
 20
3.054122263649446
 30
0.0
 10
34.57208260145642
 20
3.11105979201944
 30
0.0
 10
35.03713113875141
 20
3.344475624264293
 30
0.0
 10
35.8661702191452
 20
3.54417076395857
 30
0.0
 10
36.93639706304544
 20
3.620221009537476
 30
0.0
 10
38.01950645924983
 20
3.439589380016547
 30
0.0
 10
39.09576364821582
 20
3.03646199722193
 30
0.0
 10
40.18491820037906
 20
2.426648920931075
 30
0.0
 10
41.26725497325786
 20
1.663203102711326
 30
0.0
 10
42.36262923828356
 20
0.7853398418704585
 30
0.0
 10
43.4513161076423
 20
-0.1319514152445595
 30
0.0
 10
44.55311338648626
 20
-1.04085562092172
 30
0.0
 10
45.64831375577968
 20
-1.862508211436177
 30
0.0
 10
46.75672979752527
 20
-2.556026557421764
 30
0.0
 10
47.85861274900267
 20
-3.051439184333846
 30
0.0
 10
48.88201797143375
 20
-3.33434268104368
 30
0.0
 10
49.53260472721211
 20
-3.333133007003241
 30
0.0
 10
49.81723908974379
 20
-3.332603769670459
 30
0.0
  0
SPLINE
  5
CE
330
1F
100
AcDbEntity
  8
0
  6
Continuous
 62
     1
370
    15
100
AcDbSpline
210
0.0
220
0.0
230
1.0
 70
     8
 71
     3
 72
    14
 73
    10
 74
     0
 42
0.000000001
 43
0.00000001
 40
0.0
 40
0.0
 40
0.0
 40
0.0
 40
0.0644754314571652
 40
0.2259796790003781
 40
0.4003378262056858
 40
0.5746848320199678
 40
0.7423850110658771
 40
0.910131162171901
 40
1.0
 40
1.0
 40
1.0
 40
1.0
 10
60.42175161366978
 20
2.63399401894844
 30
0.0
 10
60.47346372509352
 20
2.653680711961593
 30
0.0
 10
60.65470929531875
 20
2.722680522697982
 30
0.0
 10
60.97309014599073
 20
2.772011142429467
 30
0.0
 10
61.3714896930768
 20
2.765211335744135
 30
0.0
 10
61.75638200979473
 20
2.666295793946446
 30
0.0
 10
62.10588721122062
 20
2.482976892124163
 30
0.0
 10
62.36368957520796
 20
2.273499572345853
 30
0.0
 10
62.48991843749689
 20
2.122046539849768
 30
0.0
 10
62.53395330208767
 20
2.069212238273298
 30
0.0
  0
SPLINE
  5
CF
330
1F
100
AcDbEntity
  8
0
  6
Continuous
 62
     1
370
    15
100
AcDbSpline
210
0.0
220
0.0
230
1.0
 70
     8
 71
     3
 72
    12
 73
     8
 74
     0
 42
0.000000001
 43
0.00000001
 40
0.0
 40
0.0
 40
0.0
 40
0.0
 40
0.121620301547282
 40
0.4203335040800698
 40
0.7204972226059021
 40
0.987420226557232
 40
1.0
 40
1.0
 40
1.0
 40
1.0
 10
61.51578501793334
 20
1.604081564739989
 30
0.0
 10
61.56391238209146
 20
1.586934725616824
 30
0.0
 10
61.73024599055451
 20
1.52767331217809
 30
0.0
 10
62.02298228634071
 20
1.572962966514486
 30
0.0
 10
62.32920380379829
 20
1.745715287843842
 30
0.0
 10
62.47686491740055
 20
1.953084567235229
 30
0.0
 10
62.53149454875344
 20
2.064210707754327
 30
0.0
 10
62.53395330208708
 20
2.06921223827339
 30
0.0
  0
SPLINE
  5
D0
330
1F
100
AcDbEntity
  8
0
  6
Continuous
 62
     1
370
    15
100
AcDbSpline
210
0.0
220
0.0
230
1.0
 70
     8
 71
     3
 72
    12
 73
     8
 74
     0
 42
0.000000001
 43
0.00000001
 40
0.0
 40
0.0
 40
0.0
 40
0.0
 40
0.2500000000000023
 40
0.2500000000000023
 40
0.5000000000000047
 40
0.5000000000000047
 40
1.0
 40
1.0
 40
1.0
 40
1.0
 10
61.51862224628909
 20
1.910842064176036
 30
0.0
 10
61.40780965857653
 20
1.997083401383267
 30
0.0
 10
61.29779726130874
 20
2.081501139275906
 30
0.0
 10
61.07639509056374
 20
2.243792057650308
 30
0.0
 10
60.96425402895784
 20
2.322145137279118
 30
0.0
 10
60.63156516565031
 20
2.537629599003478
 30
0.0
 10
60.41252673623709
 20
2.657293421619124
 30
0.0
 10
60.18841139043837
 20
2.747026752518818
 30
0.0
  0
LINE
  5
D1
330
1F
100
AcDbEntity
  8
0
  6
Continuous
 62
     4
370
    15
100
AcDbLine
 10
12.508
 20
0.2247535085483858
 30
0.0
 11
12.508
 21
-3.321601846952995
 31
0.0
  0
LINE
  5
D2
330
1F
100
AcDbEntity
  8
0
  6
Continuous
 62
     1
370
    15
100
AcDbLine
 10
60.18841139043837
 20
2.747026752518811
 30
0.0
 11
60.18841139043838
 21
0.362242007279676
 31
0.0
  0
LINE
  5
D3
330
1F
100
AcDbEntity
  8
0
  6
Continuous
 62
     4
370
    15
100
AcDbLine
 10
12.508
 20
4.006781108745774
 30
0.0
 11
12.508
 21
3.601404442434023
 31
0.0
  0
ARC
  5
D4
330
1F
100
AcDbEntity
  8
0
  6
Continuous
 62
     1
370
    15
100
AcDbCircle
 10
59.13527865199834
 20
2.33500289053436
 30
0.0
 40
2.420793071494891
100
AcDbArc
 50
336.4522711849235
 51
349.9087922792696
  0
LINE
  5
D5
330
1F
100
AcDbEntity
  8
0
  6
Continuous
 62
     1
370
    15
100
AcDbLine
 10
61.3544864462126
 20
1.367864916356787
 30
0.0
 11
63.308
 21
0.0000000000000094
 31
0.0
  0
ARC
  5
D6
330
1F
100
AcDbEntity
  8
0
  6
Continuous
 62
     1
370
    15
100
AcDbCircle
 10
61.10347316400466
 20
0.5793933150362057
 30
0.0
 40
2.27939360009022
100
AcDbArc
 50
308.8711036220953
 51
345.2745551338558
  0
ARC
  5
D7
330
1F
100
AcDbEntity
  8
0
  6
Continuous
 62
     1
370
    15
100
AcDbCircle
 10
61.30128324967916
 20
-2.692460069349809
 30
0.0
 40
0.2400785467185469
100
AcDbArc
 50
291.9287695519931
 51
334.8614083235818
  0
ARC
  5
D8
330
1F
100
AcDbEntity
  8
0
  6
Continuous
 62
     1
370
    15
100
AcDbCircle
 10
59.92860919123038
 20
0.1365497635733317
 30
0.0
 40
3.382148440906834
100
AcDbArc
 50
296.4495608562458
 51
357.6861298867208
  0
ARC
  5
D9
330
1F
100
AcDbEntity
  8
0
  6
Continuous
 62
     1
370
    15
100
AcDbCircle
 10
60.17801137482056
 20
0.0085232576123069
 30
0.0
 40
3.13000022997971
100
AcDbArc
 50
359.8439785122887
 51
41.17545242983232
  0
LINE
  5
DA
330
1F
100
AcDbEntity
  8
0
  6
Continuous
 62
     8
370
    15
100
AcDbLine
 10
60.18841139043837
 20
-2.751391799440038
 30
0.0
 11
60.18841139043838
 21
-3.174516432121531
 31
0.0
  0
LINE
  5
DB
330
1F
100
AcDbEntity
  8
중심선
100
AcDbLine
 10
-41.29200000000001
 20
0.0
 30
0.0
 11
66.18841139043835
 21
0.0
 31
0.0
  0
CIRCLE
  5
DC
330
1F
100
AcDbEntity
  8
외형선
100
AcDbCircle
 10
0.0
 20
0.0
 30
0.0
 40
2.999999999999999
  0
INSERT
  5
DD
330
1F
100
AcDbEntity
  8
0
  6
Continuous
 62
     7
100
AcDbBlockReference
 66
     1
  2
블럭10
 10
-1.432773799681436
 20
-52.05975325537357
 30
0.0
  0
ATTRIB
  5
DE
330
DD
100
AcDbEntity
  8
FORMAT
 62
     2
100
AcDbText
 10
-10.61406908842272
 20
-49.98438634254137
 30
0.0
 40
4.233333333333333
  1
E5078116 [ 3 FLUTE ]
 41
0.75
  7
SLDTEXTSTYLE0
 11
-10.61406908842272
 21
-52.10105300920804
 31
0.0
100
AcDbAttribute
  2
AUTOATTR0
 70
     0
 74
     1
  0
SEQEND
  5
DF
330
DD
100
AcDbEntity
  8
0
  6
Continuous
 62
     7
  0
HATCH
  5
E0
330
1F
100
AcDbEntity
  8
중심선
100
AcDbHatch
 10
0.0
 20
0.0
 30
0.0
210
0.0
220
0.0
230
1.0
  2
SOLID
 70
     1
 71
     0
 91
        1
 92
        0
 93
        4
 72
     1
 10
4.282135504699413
 20
-35.81257895372963
 11
0.8358602608621313
 21
-35.81257895372963
 72
     1
 10
0.8358602608621313
 20
-35.81257895372963
 11
-1.292369598341891
 21
-38.34890453430223
 72
     1
 10
-1.292369598341891
 20
-38.34890453430223
 11
2.15393873060854
 21
-38.34886510499974
 72
     1
 10
2.15393873060854
 20
-38.34886510499974
 11
4.282135504699413
 21
-35.81257895372963
 97
        0
 75
     0
 76
     1
 98
        1
 10
0.0
 20
0.0
  0
HATCH
  5
E1
330
1F
100
AcDbEntity
  8
중심선
100
AcDbHatch
 10
0.0
 20
0.0
 30
0.0
210
0.0
220
0.0
230
1.0
  2
SOLID
 70
     1
 71
     0
 91
        1
 92
        0
 93
        4
 72
     1
 10
9.294899495735365
 20
-35.81257895372963
 11
5.848624251898082
 21
-35.81257895372963
 72
     1
 10
5.848624251898082
 20
-35.81257895372963
 11
1.317486243540694
 21
-41.21257895372965
 72
     1
 10
1.317486243540694
 20
-41.21257895372965
 11
4.763761487377977
 21
-41.21257895372965
 72
     1
 10
4.763761487377977
 20
-41.21257895372965
 11
9.294899495735365
 21
-35.81257895372963
 97
        0
 75
     0
 76
     1
 98
        1
 10
0.0
 20
0.0
  0
HATCH
  5
E2
330
1F
100
AcDbEntity
  8
중심선
100
AcDbHatch
 10
0.0
 20
0.0
 30
0.0
210
0.0
220
0.0
230
1.0
  2
SOLID
 70
     1
 71
     0
 91
        1
 92
        0
 93
        4
 72
     1
 10
14.30766348677126
 20
-35.81257895372966
 11
10.86138824293414
 21
-35.81257895372963
 72
     1
 10
10.86138824293414
 20
-35.81257895372963
 11
3.812951341044895
 21
-44.21257895372965
 72
     1
 10
3.812951341044895
 20
-44.21257895372965
 11
7.259226584882178
 21
-44.21257895372965
 72
     1
 10
7.259226584882178
 20
-44.21257895372965
 11
14.30766348677126
 21
-35.81257895372966
 97
        0
 75
     0
 76
     1
 98
        1
 10
0.0
 20
0.0
  0
HATCH
  5
E3
330
1F
100
AcDbEntity
  8
중심선
100
AcDbHatch
 10
0.0
 20
0.0
 30
0.0
210
0.0
220
0.0
230
1.0
  2
SOLID
 70
     1
 71
     0
 91
        1
 92
        0
 93
        6
 72
     3
 10
19.10755391778346
 20
-40.01257895378091
 11
3.960054785062284
 21
1.540850780301639E-10
 40
0.3939339440162633
 50
17.09539180608434
 51
320.0019657685079
 73
     0
 72
     1
 10
20.79055357348405
 20
-38.60047295836794
 11
23.09585544718509
 21
-36.66614624832001
 72
     3
 10
19.10755391773061
 20
-40.01257895372979
 11
6.600054785286829
 21
-1.249000902703301E-13
 40
0.6363583540795982
 50
39.99873849337412
 51
368.4976242363724
 73
     1
 72
     1
 10
25.53288640963122
 20
-39.05257895365965
 11
17.78762122456654
 21
-39.05257895365963
 72
     1
 10
17.78762122456654
 20
-39.05257895365963
 11
17.7875961801206
 21
-40.97257895365955
 72
     1
 10
17.7875961801206
 20
-40.97257895365955
 11
22.22897594959264
 21
-40.97257895365952
 97
        0
 75
     0
 76
     1
 98
        1
 10
0.0
 20
0.0
  0
DIMENSION
  5
E4
330
1F
100
AcDbEntity
  8
치수문자_일반주서
100
AcDbDimension
  2
_D
 10
12.50800000000002
 20
32.59568453612552
 30
0.0
 11
33.94092024260631
 21
32.59568453612552
 31
0.0
 70
   160
  1
<>
 71
     2
 42
50.79999999999998
  3
SLDDIMSTYLE0
100
AcDbAlignedDimension
 13
63.308
 23
0.0625000000000094
 33
0.0
 14
12.50800000000003
 24
3.115925493853514
 34
0.0
 50
0.0000000000000023
100
AcDbRotatedDimension
1001
ACAD
1000
DSTYLE
1002
{
1070
   171
1070
     6
1070
   273
1070
     7
1002
}
  0
DIMENSION
  5
F8
102
{ACAD_REACTORS
102
}
330
1F
100
AcDbEntity
  8
치수문자_일반주서
100
AcDbDimension
  2
_D_1
 10
-38.29200000000001
 20
54.929854201995
 30
0.0
 11
14.93796607002496
 21
54.929854201995
 31
0.0
 70
   160
  1
<>
 71
     2
 42
101.6
  3
SLDDIMSTYLE1
100
AcDbAlignedDimension
 13
63.308
 23
0.0000000000000094
 33
0.0
 14
-38.292
 24
5.540000000000012
 34
0.0
 50
-0.000000000000002
100
AcDbRotatedDimension
1001
ACAD
1000
DSTYLE
1002
{
1070
   171
1070
     6
1070
   273
1070
     7
1002
}
  0
DIMENSION
  5
10C
330
1F
100
AcDbEntity
  8
치수문자_일반주서
100
AcDbDimension
  2
_D_2
 10
-51.29199999999997
 20
-6.350000000000033
 30
0.0
 11
-51.29199999999999
 21
1.739553839049646
 31
0.0
 70
   160
  1
%%c<>
 71
     2
 42
12.69999999999999
  3
SLDDIMSTYLE2
100
AcDbAlignedDimension
 13
-37.482
 23
6.350000000000004
 33
0.0
 14
-37.482
 24
-6.349999999999986
 34
0.0
 50
90.0000000000002
100
AcDbRotatedDimension
1001
ACAD
1000
DSTYLE
1002
{
1070
   171
1070
     6
1070
   273
1070
     7
1002
}
  0
INSERT
  5
127
330
1F
100
AcDbEntity
  8
외형선
100
AcDbBlockReference
  2
SW_DOWELSYMBOL_0
 10
0.0
 20
0.0
 30
0.0
  0
DIMENSION
  5
14D
330
1F
100
AcDbEntity
  8
치수문자_일반주서
100
AcDbDimension
  2
*D6
 10
66.18841139043835
 20
0.0
 30
0.0
 11
22.10799189817333
 21
12.70973359909377
 31
0.0
 70
    34
  1
<>
 71
     5
 42
0.0174532925199432
  3
SLDDIMSTYLE0
100
AcDb2LineAngularDimension
 13
32.13024303596087
 23
3.664273582515813
 33
0.0
 14
28.06471147454351
 24
3.735237699888071
 34
0.0
 15
-41.29200000000001
 25
0.0
 35
0.0
 16
24.38062529882857
 26
1.266400238738665
 36
0.0
1001
ACAD
1000
DSTYLE
1002
{
1070
   171
1070
     6
1070
   273
1070
     7
1002
}
  0
DIMENSION
  5
18C
102
{ACAD_XDICTIONARY
360
18D
102
}
330
1F
100
AcDbEntity
  8
치수문자_일반주서
100
AcDbDimension
  2
*D7
 10
75.28884126578293
 20
3.174999999999999
 30
0.0
 11
72.66384126578293
 21
22.4665
 31
0.0
 70
    32
  1
{%%c<>[]}
 71
     5
 42
6.35
  3
SLDDIMSTYLE0
100
AcDbAlignedDimension
 13
63.28152003840051
 23
-3.175
 33
0.0
 14
63.30799999999999
 24
3.175
 34
0.0
 50
90.0
100
AcDbRotatedDimension
1001
ACAD
1000
DSTYLE
1002
{
1070
   283
1070
     1
1070
   170
1070
     1
1070
   171
1070
     6
1070
   273
1070
     7
1002
}
  0
ENDSEC
  0
SECTION
  2
OBJECTS
  0
DICTIONARY
  5
C
330
0
100
AcDbDictionary
281
     1
  3
ACAD_DETAILVIEWSTYLE
350
165
  3
ACAD_GROUP
350
D
  3
ACAD_IMAGE_VARS
350
14B
  3
ACAD_LAYOUT
350
1A
  3
ACAD_MLINESTYLE
350
17
  3
ACAD_PLOTSETTINGS
350
19
  3
ACAD_PLOTSTYLENAME
350
E
  3
ACAD_SCALELIST
350
47
  3
ACAD_SECTIONVIEWSTYLE
350
166
  3
AcDbVariableDictionary
350
160
  3
APPDATA
350
149
  3
DWGPROPS
350
19F
  0
DICTIONARY
  5
18D
330
18C
100
AcDbDictionary
280
     1
281
     1
  0
DICTIONARY
  5
165
102
{ACAD_REACTORS
330
C
102
}
330
C
100
AcDbDictionary
281
     1
  0
DICTIONARY
  5
D
102
{ACAD_REACTORS
330
C
102
}
330
C
100
AcDbDictionary
281
     1
  0
RASTERVARIABLES
  5
14B
102
{ACAD_REACTORS
330
C
102
}
330
C
100
AcDbRasterVariables
 90
        0
 70
     1
 71
     1
 72
     1
  0
DICTIONARY
  5
1A
102
{ACAD_REACTORS
330
C
102
}
330
C
100
AcDbDictionary
281
     1
  3
Layout1
350
1E
  3
Layout2
350
26
  3
Model
350
22
  0
DICTIONARY
  5
17
102
{ACAD_REACTORS
330
C
102
}
330
C
100
AcDbDictionary
281
     1
  3
Standard
350
18
  0
DICTIONARY
  5
19
102
{ACAD_REACTORS
330
C
102
}
330
C
100
AcDbDictionary
281
     1
  0
ACDBDICTIONARYWDFLT
  5
E
102
{ACAD_REACTORS
330
C
102
}
330
C
100
AcDbDictionary
281
     1
  3
Normal
350
F
100
AcDbDictionaryWithDefault
340
F
  0
DICTIONARY
  5
47
102
{ACAD_REACTORS
330
C
102
}
330
C
100
AcDbDictionary
281
     1
  3
A0
350
48
  3
A1
350
49
  3
A2
350
4A
  3
A3
350
4B
  3
A4
350
4C
  3
A5
350
4D
  3
A6
350
4E
  3
A7
350
4F
  3
A8
350
50
  3
A9
350
51
  3
B0
350
52
  3
B1
350
53
  3
B2
350
54
  3
B3
350
55
  3
B4
350
56
  3
B5
350
57
  3
B6
350
58
  3
B7
350
59
  3
B8
350
5A
  3
B9
350
5B
  3
C0
350
5C
  3
C1
350
5D
  3
C2
350
5E
  3
C3
350
5F
  3
C4
350
60
  3
C5
350
61
  3
C6
350
62
  3
C7
350
63
  3
C8
350
64
  3
C9
350
65
  3
D0
350
66
  3
D1
350
67
  3
D2
350
68
  0
DICTIONARY
  5
166
102
{ACAD_REACTORS
330
C
102
}
330
C
100
AcDbDictionary
281
     1
  0
DICTIONARY
  5
160
102
{ACAD_REACTORS
330
C
102
}
330
C
100
AcDbDictionary
281
     1
  0
DICTIONARY
  5
149
102
{ACAD_REACTORS
330
C
102
}
330
C
100
AcDbDictionary
281
     1
  0
XRECORD
  5
19F
102
{ACAD_REACTORS
330
C
102
}
330
C
100
AcDbXrecord
280
     1
  1
DWGPROPS COOKIE
  2

  3

  4

  6

  7

  8
12015048
  9

300
=
301
=
302
=
303
=
304
=
305
=
306
=
307
=
308
=
309
=
 40
0.0
 41
2458340.216013947
 42
2458341.005002488
  1

 90
        0
  0
LAYOUT
  5
1E
102
{ACAD_REACTORS
330
1A
102
}
330
1A
100
AcDbPlotSettings
  1

  2
none_device
  4

  6

 40
0.0
 41
0.0
 42
0.0
 43
0.0
 44
0.0
 45
0.0
 46
0.0
 47
0.0
 48
0.0
 49
0.0
140
0.0
141
0.0
142
1.0
143
1.0
 70
   688
 72
     1
 73
     0
 74
     5
  7

 75
    16
147
1.0
148
0.0
149
0.0
100
AcDbLayout
  1
Layout1
 70
     1
 71
     1
 10
0.0
 20
0.0
 11
420.0
 21
297.0
 12
0.0
 22
0.0
 32
0.0
 14
1.000000000000000E+20
 24
1.000000000000000E+20
 34
1.000000000000000E+20
 15
-1.000000000000000E+20
 25
-1.000000000000000E+20
 35
-1.000000000000000E+20
146
0.0
 13
0.0
 23
0.0
 33
0.0
 16
1.0
 26
0.0
 36
0.0
 17
0.0
 27
1.0
 37
0.0
 76
     0
330
1B
  0
LAYOUT
  5
26
102
{ACAD_REACTORS
330
1A
102
}
330
1A
100
AcDbPlotSettings
  1

  2
none_device
  4

  6

 40
0.0
 41
0.0
 42
0.0
 43
0.0
 44
0.0
 45
0.0
 46
0.0
 47
0.0
 48
0.0
 49
0.0
140
0.0
141
0.0
142
1.0
143
1.0
 70
   688
 72
     1
 73
     0
 74
     5
  7

 75
    16
147
1.0
148
0.0
149
0.0
100
AcDbLayout
  1
Layout2
 70
     1
 71
     2
 10
0.0
 20
0.0
 11
0.0
 21
0.0
 12
0.0
 22
0.0
 32
0.0
 14
0.0
 24
0.0
 34
0.0
 15
0.0
 25
0.0
 35
0.0
146
0.0
 13
0.0
 23
0.0
 33
0.0
 16
1.0
 26
0.0
 36
0.0
 17
0.0
 27
1.0
 37
0.0
 76
     0
330
23
  0
LAYOUT
  5
22
102
{ACAD_REACTORS
330
1A
102
}
330
1A
100
AcDbPlotSettings
  1

  2
none_device
  4
ANSI_A_(11.00_x_8.50_Inches)
  6

 40
6.35
 41
19.05
 42
6.35000508
 43
19.05000254
 44
279.4
 45
215.9
 46
128.9256122211583
 47
99.22200475597035
 48
0.0
 49
0.0
140
0.0
141
0.0
142
0.0848968615077192
143
1.0
 70
  1696
 72
     0
 73
     0
 74
     0
  7

 75
     0
147
0.0235690232323232
148
0.0
149
0.0
100
AcDbLayout
  1
Model
 70
     1
 71
     0
 10
0.0
 20
0.0
 11
420.0
 21
297.0
 12
0.0
 22
0.0
 32
0.0
 14
-55.66700000000004
 24
-49.98438634254138
 34
0.0
 15
75.83917459911626
 25
59.30485420199499
 35
0.0
146
0.0
 13
0.0
 23
0.0
 33
0.0
 16
1.0
 26
0.0
 36
0.0
 17
0.0
 27
1.0
 37
0.0
 76
     0
330
1F
331
29
  0
MLINESTYLE
  5
18
102
{ACAD_REACTORS
330
17
102
}
330
17
100
AcDbMlineStyle
  2
Standard
 70
     0
  3

 62
   256
 51
90.0
 52
90.0
 71
     2
 49
0.5
 62
   256
  6
BYLAYER
 49
-0.5
 62
   256
  6
BYLAYER
  0
ACDBPLACEHOLDER
  5
F
102
{ACAD_REACTORS
330
E
102
}
330
E
  0
SCALE
  5
48
102
{ACAD_REACTORS
330
47
102
}
330
47
100
AcDbScale
 70
     0
300
1:1
140
1.0
141
1.0
290
     1
  0
SCALE
  5
49
102
{ACAD_REACTORS
330
47
102
}
330
47
100
AcDbScale
 70
     0
300
1:2
140
1.0
141
2.0
290
     0
  0
SCALE
  5
4A
102
{ACAD_REACTORS
330
47
102
}
330
47
100
AcDbScale
 70
     0
300
1:4
140
1.0
141
4.0
290
     0
  0
SCALE
  5
4B
102
{ACAD_REACTORS
330
47
102
}
330
47
100
AcDbScale
 70
     0
300
1:5
140
1.0
141
5.0
290
     0
  0
SCALE
  5
4C
102
{ACAD_REACTORS
330
47
102
}
330
47
100
AcDbScale
 70
     0
300
1:8
140
1.0
141
8.0
290
     0
  0
SCALE
  5
4D
102
{ACAD_REACTORS
330
47
102
}
330
47
100
AcDbScale
 70
     0
300
1:10
140
1.0
141
10.0
290
     0
  0
SCALE
  5
4E
102
{ACAD_REACTORS
330
47
102
}
330
47
100
AcDbScale
 70
     0
300
1:16
140
1.0
141
16.0
290
     0
  0
SCALE
  5
4F
102
{ACAD_REACTORS
330
47
102
}
330
47
100
AcDbScale
 70
     0
300
1:20
140
1.0
141
20.0
290
     0
  0
SCALE
  5
50
102
{ACAD_REACTORS
330
47
102
}
330
47
100
AcDbScale
 70
     0
300
1:30
140
1.0
141
30.0
290
     0
  0
SCALE
  5
51
102
{ACAD_REACTORS
330
47
102
}
330
47
100
AcDbScale
 70
     0
300
1:40
140
1.0
141
40.0
290
     0
  0
SCALE
  5
52
102
{ACAD_REACTORS
330
47
102
}
330
47
100
AcDbScale
 70
     0
300
1:50
140
1.0
141
50.0
290
     0
  0
SCALE
  5
53
102
{ACAD_REACTORS
330
47
102
}
330
47
100
AcDbScale
 70
     0
300
1:100
140
1.0
141
100.0
290
     0
  0
SCALE
  5
54
102
{ACAD_REACTORS
330
47
102
}
330
47
100
AcDbScale
 70
     0
300
2:1
140
2.0
141
1.0
290
     0
  0
SCALE
  5
55
102
{ACAD_REACTORS
330
47
102
}
330
47
100
AcDbScale
 70
     0
300
4:1
140
4.0
141
1.0
290
     0
  0
SCALE
  5
56
102
{ACAD_REACTORS
330
47
102
}
330
47
100
AcDbScale
 70
     0
300
8:1
140
8.0
141
1.0
290
     0
  0
SCALE
  5
57
102
{ACAD_REACTORS
330
47
102
}
330
47
100
AcDbScale
 70
     0
300
10:1
140
10.0
141
1.0
290
     0
  0
SCALE
  5
58
102
{ACAD_REACTORS
330
47
102
}
330
47
100
AcDbScale
 70
     0
300
100:1
140
100.0
141
1.0
290
     0
  0
SCALE
  5
59
102
{ACAD_REACTORS
330
47
102
}
330
47
100
AcDbScale
 70
     0
300
1/128" = 1'-0"
140
0.0078125
141
12.0
290
     0
  0
SCALE
  5
5A
102
{ACAD_REACTORS
330
47
102
}
330
47
100
AcDbScale
 70
     0
300
1/64" = 1'-0"
140
0.015625
141
12.0
290
     0
  0
SCALE
  5
5B
102
{ACAD_REACTORS
330
47
102
}
330
47
100
AcDbScale
 70
     0
300
1/32" = 1'-0"
140
0.03125
141
12.0
290
     0
  0
SCALE
  5
5C
102
{ACAD_REACTORS
330
47
102
}
330
47
100
AcDbScale
 70
     0
300
1/16" = 1'-0"
140
0.0625
141
12.0
290
     0
  0
SCALE
  5
5D
102
{ACAD_REACTORS
330
47
102
}
330
47
100
AcDbScale
 70
     0
300
3/32" = 1'-0"
140
0.09375
141
12.0
290
     0
  0
SCALE
  5
5E
102
{ACAD_REACTORS
330
47
102
}
330
47
100
AcDbScale
 70
     0
300
1/8" = 1'-0"
140
0.125
141
12.0
290
     0
  0
SCALE
  5
5F
102
{ACAD_REACTORS
330
47
102
}
330
47
100
AcDbScale
 70
     0
300
3/16" = 1'-0"
140
0.1875
141
12.0
290
     0
  0
SCALE
  5
60
102
{ACAD_REACTORS
330
47
102
}
330
47
100
AcDbScale
 70
     0
300
1/4" = 1'-0"
140
0.25
141
12.0
290
     0
  0
SCALE
  5
61
102
{ACAD_REACTORS
330
47
102
}
330
47
100
AcDbScale
 70
     0
300
3/8" = 1'-0"
140
0.375
141
12.0
290
     0
  0
SCALE
  5
62
102
{ACAD_REACTORS
330
47
102
}
330
47
100
AcDbScale
 70
     0
300
1/2" = 1'-0"
140
0.5
141
12.0
290
     0
  0
SCALE
  5
63
102
{ACAD_REACTORS
330
47
102
}
330
47
100
AcDbScale
 70
     0
300
3/4" = 1'-0"
140
0.75
141
12.0
290
     0
  0
SCALE
  5
64
102
{ACAD_REACTORS
330
47
102
}
330
47
100
AcDbScale
 70
     0
300
1" = 1'-0"
140
1.0
141
12.0
290
     0
  0
SCALE
  5
65
102
{ACAD_REACTORS
330
47
102
}
330
47
100
AcDbScale
 70
     0
300
1-1/2" = 1'-0"
140
1.5
141
12.0
290
     0
  0
SCALE
  5
66
102
{ACAD_REACTORS
330
47
102
}
330
47
100
AcDbScale
 70
     0
300
3" = 1'-0"
140
3.0
141
12.0
290
     0
  0
SCALE
  5
67
102
{ACAD_REACTORS
330
47
102
}
330
47
100
AcDbScale
 70
     0
300
6" = 1'-0"
140
6.0
141
12.0
290
     0
  0
SCALE
  5
68
102
{ACAD_REACTORS
330
47
102
}
330
47
100
AcDbScale
 70
     0
300
1'-0" = 1'-0"
140
12.0
141
12.0
290
     0
  0
ENDSEC
  0
EOF
