  0
SECTION
  2
HEADER
  9
$ACADVER
  1
AC1015
  9
$ACADMAINTVER
 70
     6
  9
$DWGCODEPAGE
  3
ANSI_949
  9
$INSBASE
 10
0.0
 20
0.0
 30
0.0
  9
$EXTMIN
 10
-42.96700000000003
 20
-49.98438634254138
 30
0.0
  9
$EXTMAX
 10
62.37515770448481
 20
59.22319590333735
 30
0.0
  9
$LIMMIN
 10
0.0
 20
0.0
  9
$LIMMAX
 10
420.0
 20
297.0
  9
$ORTHOMODE
 70
     0
  9
$REGENMODE
 70
     1
  9
$FILLMODE
 70
     1
  9
$QTEXTMODE
 70
     0
  9
$MIRRTEXT
 70
     1
  9
$LTSCALE
 40
1.0
  9
$ATTMODE
 70
     1
  9
$TEXTSIZE
 40
3.5
  9
$TRACEWID
 40
1.0
  9
$TEXTSTYLE
  7
Standard
  9
$CLAYER
  8
0
  9
$CELTYPE
  6
ByLayer
  9
$CECOLOR
 62
   256
  9
$CELTSCALE
 40
1.0
  9
$DISPSILH
 70
     0
  9
$DIMSCALE
 40
1.0
  9
$DIMASZ
 40
3.302
  9
$DIMEXO
 40
1.0
  9
$DIMDLI
 40
3.75
  9
$DIMRND
 40
0.0
  9
$DIMDLE
 40
0.0
  9
$DIMEXE
 40
1.0
  9
$DIMTP
 40
0.0
  9
$DIMTM
 40
0.0
  9
$DIMTXT
 40
3.5
  9
$DIMCEN
 40
2.5
  9
$DIMTSZ
 40
0.0
  9
$DIMTOL
 70
     0
  9
$DIMLIM
 70
     0
  9
$DIMTIH
 70
     1
  9
$DIMTOH
 70
     1
  9
$DIMSE1
 70
     0
  9
$DIMSE2
 70
     0
  9
$DIMTAD
 70
     1
  9
$DIMZIN
 70
     0
  9
$DIMBLK
  1

  9
$DIMASO
 70
     1
  9
$DIMSHO
 70
     1
  9
$DIMPOST
  1

  9
$DIMAPOST
  1

  9
$DIMALT
 70
     0
  9
$DIMALTD
 70
     3
  9
$DIMALTF
 40
0.0393700787401575
  9
$DIMLFAC
 40
1.0
  9
$DIMTOFL
 70
     1
  9
$DIMTVP
 40
0.0
  9
$DIMTIX
 70
     0
  9
$DIMSOXD
 70
     0
  9
$DIMSAH
 70
     0
  9
$DIMBLK1
  1

  9
$DIMBLK2
  1

  9
$DIMSTYLE
  2
ISO-25
  9
$DIMCLRD
 70
     0
  9
$DIMCLRE
 70
     0
  9
$DIMCLRT
 70
     0
  9
$DIMTFAC
 40
1.0
  9
$DIMGAP
 40
1.524
  9
$DIMJUST
 70
     0
  9
$DIMSD1
 70
     0
  9
$DIMSD2
 70
     0
  9
$DIMTOLJ
 70
     0
  9
$DIMTZIN
 70
     0
  9
$DIMALTZ
 70
     0
  9
$DIMALTTZ
 70
     0
  9
$DIMUPT
 70
     0
  9
$DIMDEC
 70
     2
  9
$DIMTDEC
 70
     2
  9
$DIMALTU
 70
     2
  9
$DIMALTTD
 70
     3
  9
$DIMTXSTY
  7
Standard
  9
$DIMAUNIT
 70
     0
  9
$DIMADEC
 70
     2
  9
$DIMALTRND
 40
0.0
  9
$DIMAZIN
 70
     0
  9
$DIMDSEP
 70
    44
  9
$DIMATFIT
 70
     3
  9
$DIMFRAC
 70
     0
  9
$DIMLDRBLK
  1

  9
$DIMLUNIT
 70
     2
  9
$DIMLWD
 70
    -2
  9
$DIMLWE
 70
    -2
  9
$DIMTMOVE
 70
     0
  9
$LUNITS
 70
     2
  9
$LUPREC
 70
     2
  9
$SKETCHINC
 40
1.0
  9
$FILLETRAD
 40
10.0
  9
$AUNITS
 70
     0
  9
$AUPREC
 70
     2
  9
$MENU
  1
.
  9
$ELEVATION
 40
0.0
  9
$PELEVATION
 40
0.0
  9
$THICKNESS
 40
0.0
  9
$LIMCHECK
 70
     0
  9
$CHAMFERA
 40
0.0
  9
$CHAMFERB
 40
0.0
  9
$CHAMFERC
 40
0.0
  9
$CHAMFERD
 40
0.0
  9
$SKPOLY
 70
     0
  9
$TDCREATE
 40
2458340.590725197
  9
$TDUCREATE
 40
2458340.215725197
  9
$TDUPDATE
 40
2458341.37837309
  9
$TDUUPDATE
 40
2458341.00337309
  9
$TDINDWG
 40
0.0018617245
  9
$TDUSRTIMER
 40
2458341.00254441
  9
$USRTIMER
 70
     1
  9
$ANGBASE
 50
0.0
  9
$ANGDIR
 70
     0
  9
$PDMODE
 70
     0
  9
$PDSIZE
 40
-1.0
  9
$PLINEWID
 40
0.0
  9
$SPLFRAME
 70
     0
  9
$SPLINETYPE
 70
     6
  9
$SPLINESEGS
 70
     8
  9
$HANDSEED
  5
1A0
  9
$SURFTAB1
 70
     6
  9
$SURFTAB2
 70
     6
  9
$SURFTYPE
 70
     6
  9
$SURFU
 70
     6
  9
$SURFV
 70
     6
  9
$UCSBASE
  2

  9
$UCSNAME
  2

  9
$UCSORG
 10
0.0
 20
0.0
 30
0.0
  9
$UCSXDIR
 10
1.0
 20
0.0
 30
0.0
  9
$UCSYDIR
 10
0.0
 20
1.0
 30
0.0
  9
$UCSORTHOREF
  2

  9
$UCSORTHOVIEW
 70
     0
  9
$UCSORGTOP
 10
0.0
 20
0.0
 30
0.0
  9
$UCSORGBOTTOM
 10
0.0
 20
0.0
 30
0.0
  9
$UCSORGLEFT
 10
0.0
 20
0.0
 30
0.0
  9
$UCSORGRIGHT
 10
0.0
 20
0.0
 30
0.0
  9
$UCSORGFRONT
 10
0.0
 20
0.0
 30
0.0
  9
$UCSORGBACK
 10
0.0
 20
0.0
 30
0.0
  9
$PUCSBASE
  2

  9
$PUCSNAME
  2

  9
$PUCSORG
 10
0.0
 20
0.0
 30
0.0
  9
$PUCSXDIR
 10
1.0
 20
0.0
 30
0.0
  9
$PUCSYDIR
 10
0.0
 20
1.0
 30
0.0
  9
$PUCSORTHOREF
  2

  9
$PUCSORTHOVIEW
 70
     0
  9
$PUCSORGTOP
 10
0.0
 20
0.0
 30
0.0
  9
$PUCSORGBOTTOM
 10
0.0
 20
0.0
 30
0.0
  9
$PUCSORGLEFT
 10
0.0
 20
0.0
 30
0.0
  9
$PUCSORGRIGHT
 10
0.0
 20
0.0
 30
0.0
  9
$PUCSORGFRONT
 10
0.0
 20
0.0
 30
0.0
  9
$PUCSORGBACK
 10
0.0
 20
0.0
 30
0.0
  9
$USERI1
 70
     0
  9
$USERI2
 70
     0
  9
$USERI3
 70
     0
  9
$USERI4
 70
     0
  9
$USERI5
 70
     0
  9
$USERR1
 40
0.0
  9
$USERR2
 40
0.0
  9
$USERR3
 40
0.0
  9
$USERR4
 40
0.0
  9
$USERR5
 40
0.0
  9
$WORLDVIEW
 70
     1
  9
$SHADEDGE
 70
     3
  9
$SHADEDIF
 70
    70
  9
$TILEMODE
 70
     1
  9
$MAXACTVP
 70
    64
  9
$PINSBASE
 10
0.0
 20
0.0
 30
0.0
  9
$PLIMCHECK
 70
     0
  9
$PEXTMIN
 10
1.000000000000000E+20
 20
1.000000000000000E+20
 30
1.000000000000000E+20
  9
$PEXTMAX
 10
-1.000000000000000E+20
 20
-1.000000000000000E+20
 30
-1.000000000000000E+20
  9
$PLIMMIN
 10
0.0
 20
0.0
  9
$PLIMMAX
 10
0.0
 20
0.0
  9
$UNITMODE
 70
     0
  9
$VISRETAIN
 70
     1
  9
$PLINEGEN
 70
     0
  9
$PSLTSCALE
 70
     1
  9
$TREEDEPTH
 70
  3020
  9
$CMLSTYLE
  2
Standard
  9
$CMLJUST
 70
     0
  9
$CMLSCALE
 40
20.0
  9
$PROXYGRAPHICS
 70
     1
  9
$MEASUREMENT
 70
     1
  9
$CELWEIGHT
370
    -1
  9
$ENDCAPS
280
     0
  9
$JOINSTYLE
280
     0
  9
$LWDISPLAY
290
     1
  9
$INSUNITS
 70
     4
  9
$HYPERLINKBASE
  1

  9
$STYLESHEET
  1

  9
$XEDIT
290
     1
  9
$CEPSNTYPE
380
     0
  9
$PSTYLEMODE
290
     1
  9
$FINGERPRINTGUID
  2
{707108EA-BD88-4AB9-AE05-8C0D795FE1D5}
  9
$VERSIONGUID
  2
{FAEB1C32-E019-11D5-929B-00C0DF256EC4}
  9
$EXTNAMES
290
     1
  9
$PSVPSCALE
 40
0.0
  9
$OLESTARTUP
290
     0
  0
ENDSEC
  0
SECTION
  2
CLASSES
  0
CLASS
  1
ACDBDICTIONARYWDFLT
  2
AcDbDictionaryWithDefault
  3
ObjectDBX Classes
 90
        0
280
     0
281
     0
  0
CLASS
  1
VISUALSTYLE
  2
AcDbVisualStyle
  3
ObjectDBX Classes
 90
     4095
280
     0
281
     0
  0
CLASS
  1
MATERIAL
  2
AcDbMaterial
  3
ObjectDBX Classes
 90
     1153
280
     0
281
     0
  0
CLASS
  1
SCALE
  2
AcDbScale
  3
ObjectDBX Classes
 90
     1153
280
     0
281
     0
  0
CLASS
  1
SUN
  2
AcDbSun
  3
SCENEOE
 90
     1153
280
     0
281
     0
  0
CLASS
  1
ACDBPLACEHOLDER
  2
AcDbPlaceHolder
  3
ObjectDBX Classes
 90
        0
280
     0
281
     0
  0
CLASS
  1
LAYOUT
  2
AcDbLayout
  3
ObjectDBX Classes
 90
        0
280
     0
281
     0
  0
CLASS
  1
TABLESTYLE
  2
AcDbTableStyle
  3
ObjectDBX Classes
 90
     4095
280
     0
281
     0
  0
CLASS
  1
MLEADERSTYLE
  2
AcDbMLeaderStyle
  3
ACDB_MLEADERSTYLE_CLASS
 90
     4095
280
     0
281
     0
  0
CLASS
  1
RASTERVARIABLES
  2
AcDbRasterVariables
  3
ISM
 90
        0
280
     0
281
     0
  0
CLASS
  1
DIMASSOC
  2
AcDbDimAssoc
  3
"AcDbDimAssoc|Product Desc:     AcDim ARX App For Dimension|Company:          Autodesk, Inc.|WEB Address:      www.autodesk.com"
 90
        0
280
     0
281
     0
  0
ENDSEC
  0
SECTION
  2
TABLES
  0
TABLE
  2
VPORT
  5
8
330
0
100
AcDbSymbolTable
 70
     1
  0
VPORT
  5
29
330
8
100
AcDbSymbolTableRecord
100
AcDbViewportTableRecord
  2
*Active
 70
     0
 10
0.0
 20
0.0
 11
1.0
 21
1.0
 12
12.96366444665247
 22
1.362939406642599
 13
0.0
 23
0.0
 14
10.0
 24
10.0
 15
10.0
 25
10.0
 16
0.0
 26
0.0
 36
1.0
 17
0.0
 27
0.0
 37
0.0
 40
116.6275731941816
 41
1.444267515923567
 42
50.0
 43
0.0
 44
0.0
 50
0.0
 51
0.0
 71
    16
 72
  2000
 73
     1
 74
     3
 75
     0
 76
     0
 77
     0
 78
     0
281
     0
 65
     1
110
0.0
120
0.0
130
0.0
111
1.0
121
0.0
131
0.0
112
0.0
122
1.0
132
0.0
 79
     0
146
0.0
  0
ENDTAB
  0
TABLE
  2
LTYPE
  5
5
330
0
100
AcDbSymbolTable
 70
     6
  0
LTYPE
  5
14
330
5
100
AcDbSymbolTableRecord
100
AcDbLinetypeTableRecord
  2
ByBlock
 70
     0
  3

 72
    65
 73
     0
 40
0.0
  0
LTYPE
  5
15
330
5
100
AcDbSymbolTableRecord
100
AcDbLinetypeTableRecord
  2
ByLayer
 70
     0
  3

 72
    65
 73
     0
 40
0.0
  0
LTYPE
  5
16
330
5
100
AcDbSymbolTableRecord
100
AcDbLinetypeTableRecord
  2
Continuous
 70
     0
  3
Solid line
 72
    65
 73
     0
 40
0.0
  0
LTYPE
  5
6A
330
5
100
AcDbSymbolTableRecord
100
AcDbLinetypeTableRecord
  2
HIDDEN
 70
     0
  3
Hidden __ __ __ __ __ __ __ __ __ __ __ __ __ __
 72
    65
 73
     2
 40
1.905
 49
1.27
 74
     0
 49
-0.635
 74
     0
  0
LTYPE
  5
6B
330
5
100
AcDbSymbolTableRecord
100
AcDbLinetypeTableRecord
  2
PHANTOM
 70
     0
  3
Phantom ______  __  __  ______  __  __  ______
 72
    65
 73
     6
 40
12.7
 49
6.35
 74
     0
 49
-1.27
 74
     0
 49
1.27
 74
     0
 49
-1.27
 74
     0
 49
1.27
 74
     0
 49
-1.27
 74
     0
  0
LTYPE
  5
6C
330
5
100
AcDbSymbolTableRecord
100
AcDbLinetypeTableRecord
  2
CENTER
 70
     0
  3
Center ____ _ ____ _ ____ _ ____ _ ____ _ ____
 72
    65
 73
     4
 40
10.16
 49
6.35
 74
     0
 49
-1.27
 74
     0
 49
1.27
 74
     0
 49
-1.27
 74
     0
  0
LTYPE
  5
6D
330
5
100
AcDbSymbolTableRecord
100
AcDbLinetypeTableRecord
  2
CENTERX2
 70
     0
  3
Center (2x) ________  __  ________  __  _____
 72
    65
 73
     4
 40
20.32
 49
12.7
 74
     0
 49
-2.54
 74
     0
 49
2.54
 74
     0
 49
-2.54
 74
     0
  0
LTYPE
  5
6E
330
5
100
AcDbSymbolTableRecord
100
AcDbLinetypeTableRecord
  2
DOT2
 70
     0
  3
Dot (.5x) ........................................
 72
    65
 73
     2
 40
0.635
 49
0.0
 74
     0
 49
-0.635
 74
     0
  0
ENDTAB
  0
TABLE
  2
LAYER
  5
2
330
0
100
AcDbSymbolTable
 70
    17
  0
LAYER
  5
10
330
2
100
AcDbSymbolTableRecord
100
AcDbLayerTableRecord
  2
0
 70
     0
 62
     7
  6
Continuous
370
    -3
390
F
  0
LAYER
  5
6F
330
2
100
AcDbSymbolTableRecord
100
AcDbLayerTableRecord
  2
FORMAT
 70
     0
 62
     2
  6
Continuous
370
    -3
390
F
  0
LAYER
  5
70
330
2
100
AcDbSymbolTableRecord
100
AcDbLayerTableRecord
  2
외형선
 70
     0
 62
   100
  6
Continuous
370
    30
390
F
  0
LAYER
  5
71
330
2
100
AcDbSymbolTableRecord
100
AcDbLayerTableRecord
  2
숨은선
 70
     0
 62
     2
  6
HIDDEN
370
    15
390
F
  0
LAYER
  5
72
330
2
100
AcDbSymbolTableRecord
100
AcDbLayerTableRecord
  2
중심선
 70
     0
 62
     1
  6
CENTERX2
370
    -3
390
F
  0
LAYER
  5
73
330
2
100
AcDbSymbolTableRecord
100
AcDbLayerTableRecord
  2
파단선
 70
     0
 62
     4
  6
Continuous
370
    -3
390
F
  0
LAYER
  5
74
330
2
100
AcDbSymbolTableRecord
100
AcDbLayerTableRecord
  2
해칭선
 70
     0
 62
     4
  6
Continuous
370
    -3
390
F
  0
LAYER
  5
75
330
2
100
AcDbSymbolTableRecord
100
AcDbLayerTableRecord
  2
가는실선
 70
     0
 62
     4
  6
Continuous
370
    -3
390
F
  0
LAYER
  5
76
330
2
100
AcDbSymbolTableRecord
100
AcDbLayerTableRecord
  2
치수_보조선
 70
     0
 62
     4
  6
Continuous
370
    -3
390
F
  0
LAYER
  5
77
330
2
100
AcDbSymbolTableRecord
100
AcDbLayerTableRecord
  2
치수문자_일반주서
 70
     0
 62
     7
  6
Continuous
370
    15
390
F
  0
LAYER
  5
78
330
2
100
AcDbSymbolTableRecord
100
AcDbLayerTableRecord
  2
개별주서
 70
     0
 62
   100
  6
Continuous
370
    30
390
F
  0
LAYER
  5
79
330
2
100
AcDbSymbolTableRecord
100
AcDbLayerTableRecord
  2
중간선
 70
     0
 62
     2
  6
Continuous
370
    15
390
F
  0
LAYER
  5
7A
330
2
100
AcDbSymbolTableRecord
100
AcDbLayerTableRecord
  2
윤곽선
 70
     0
 62
     3
  6
Continuous
370
    40
390
F
  0
LAYER
  5
7B
330
2
100
AcDbSymbolTableRecord
100
AcDbLayerTableRecord
  2
중심마크
 70
     0
 62
   100
  6
Continuous
370
    30
390
F
  0
LAYER
  5
7C
330
2
100
AcDbSymbolTableRecord
100
AcDbLayerTableRecord
  2
가상선
 70
     0
 62
     4
  6
PHANTOM
370
    -3
390
F
  0
LAYER
  5
7D
330
2
100
AcDbSymbolTableRecord
100
AcDbLayerTableRecord
  2
특수지정선
 70
     0
 62
     5
  6
CENTERX2
370
    60
390
F
  0
LAYER
  5
153
330
2
100
AcDbSymbolTableRecord
100
AcDbLayerTableRecord
  2
Defpoints
 70
     0
 62
     7
  6
Continuous
290
     0
370
    -3
390
F
  0
ENDTAB
  0
TABLE
  2
STYLE
  5
3
330
0
100
AcDbSymbolTable
 70
     2
  0
STYLE
  5
11
330
3
100
AcDbSymbolTableRecord
100
AcDbTextStyleTableRecord
  2
Standard
 70
     0
 40
0.0
 41
1.0
 50
0.0
 71
     0
 42
3.5
  3
txt
  4

  0
STYLE
  5
93
330
3
100
AcDbSymbolTableRecord
100
AcDbTextStyleTableRecord
  2
SLDTEXTSTYLE0
 70
     0
 40
0.0
 41
0.75
 50
0.0
 71
     0
 42
3.5
  3
TXT
  4

  0
ENDTAB
  0
TABLE
  2
VIEW
  5
6
330
0
100
AcDbSymbolTable
 70
     0
  0
ENDTAB
  0
TABLE
  2
UCS
  5
7
330
0
100
AcDbSymbolTable
 70
     0
  0
ENDTAB
  0
TABLE
  2
APPID
  5
9
330
0
100
AcDbSymbolTable
 70
     2
  0
APPID
  5
12
330
9
100
AcDbSymbolTableRecord
100
AcDbRegAppTableRecord
  2
ACAD
 70
     0
  0
APPID
  5
19E
330
9
100
AcDbSymbolTableRecord
100
AcDbRegAppTableRecord
  2
PE_DIMMEASUREMENT
 70
     0
  0
ENDTAB
  0
TABLE
  2
DIMSTYLE
  5
A
330
0
100
AcDbSymbolTable
 70
     4
100
AcDbDimStyleTable
  0
DIMSTYLE
105
27
330
A
100
AcDbSymbolTableRecord
100
AcDbDimStyleTableRecord
  2
ISO-25
 70
     0
 41
2.5
 42
0.625
 43
3.75
 44
1.25
 73
     0
 74
     0
 77
     1
 78
     8
140
2.5
141
2.5
143
0.03937007874016
147
0.625
171
     3
172
     1
178
     0
271
     2
272
     2
274
     3
278
    44
283
     0
284
     8
340
11
  0
DIMSTYLE
105
EA
102
{ACAD_REACTORS
330
E9
330
155
102
}
330
A
100
AcDbSymbolTableRecord
100
AcDbDimStyleTableRecord
  2
SLDDIMSTYLE0
 70
     0
 41
3.302
 44
0.0
 45
0.000000001
 73
     0
 74
     0
 77
     1
 78
     4
 79
     1
140
3.5
143
0.0393700787401575
147
0.875
148
0.000000001
170
     1
172
     1
173
     1
178
     0
271
     2
272
     2
276
     2
284
    12
289
     0
340
93
  0
DIMSTYLE
105
100
102
{ACAD_REACTORS
330
FF
102
}
330
A
100
AcDbSymbolTableRecord
100
AcDbDimStyleTableRecord
  2
SLDDIMSTYLE1
 70
     0
 41
3.302
 44
0.0
 45
0.000000001
 73
     0
 74
     0
 77
     1
 78
     4
 79
     1
140
3.5
143
0.0393700787401575
147
0.875
148
0.000000001
170
     1
173
     1
178
     0
271
     2
272
     2
276
     2
284
    12
340
93
  0
DIMSTYLE
105
114
102
{ACAD_REACTORS
330
113
330
18C
102
}
330
A
100
AcDbSymbolTableRecord
100
AcDbDimStyleTableRecord
  2
SLDDIMSTYLE2
 70
     0
 41
3.302
 44
0.0
 45
0.000000001
 73
     0
 74
     0
 77
     1
 78
    12
 79
     3
140
3.5
143
0.0393700787401575
147
0.875
148
0.000000001
170
     1
172
     1
173
     1
178
     0
271
     2
272
     2
276
     2
284
    12
289
     0
340
93
  0
ENDTAB
  0
TABLE
  2
BLOCK_RECORD
  5
1
330
0
100
AcDbSymbolTable
 70
     8
  0
BLOCK_RECORD
  5
1F
330
1
100
AcDbSymbolTableRecord
100
AcDbBlockTableRecord
  2
*Model_Space
340
22
  0
BLOCK_RECORD
  5
1B
330
1
100
AcDbSymbolTableRecord
100
AcDbBlockTableRecord
  2
*Paper_Space
340
1E
  0
BLOCK_RECORD
  5
23
330
1
100
AcDbSymbolTableRecord
100
AcDbBlockTableRecord
  2
*Paper_Space0
340
26
  0
BLOCK_RECORD
  5
7E
330
1
100
AcDbSymbolTableRecord
100
AcDbBlockTableRecord
  2
블럭10
340
0
102
{BLKREFS
331
E2
102
}
  0
BLOCK_RECORD
  5
EB
330
1
100
AcDbSymbolTableRecord
100
AcDbBlockTableRecord
  2
_D
340
0
  0
BLOCK_RECORD
  5
101
330
1
100
AcDbSymbolTableRecord
100
AcDbBlockTableRecord
  2
_D_1
340
0
  0
BLOCK_RECORD
  5
115
330
1
100
AcDbSymbolTableRecord
100
AcDbBlockTableRecord
  2
_D_2
340
0
  0
BLOCK_RECORD
  5
128
330
1
100
AcDbSymbolTableRecord
100
AcDbBlockTableRecord
  2
SW_DOWELSYMBOL_0
340
0
102
{BLKREFS
331
12E
102
}
  0
BLOCK_RECORD
  5
158
330
1
100
AcDbSymbolTableRecord
100
AcDbBlockTableRecord
  2
*D6
340
0
  0
BLOCK_RECORD
  5
18F
330
1
100
AcDbSymbolTableRecord
100
AcDbBlockTableRecord
  2
*D7
340
0
  0
ENDTAB
  0
ENDSEC
  0
SECTION
  2
BLOCKS
  0
BLOCK
  5
20
330
1F
100
AcDbEntity
  8
0
100
AcDbBlockBegin
  2
*Model_Space
 70
     0
 10
0.0
 20
0.0
 30
0.0
  3
*Model_Space
  1
*Model_Space
  0
ENDBLK
  5
21
330
1F
100
AcDbEntity
  8
0
100
AcDbBlockEnd
  0
BLOCK
  5
1C
330
1B
100
AcDbEntity
 67
     1
  8
0
100
AcDbBlockBegin
  2
*Paper_Space
 70
     0
 10
0.0
 20
0.0
 30
0.0
  3
*Paper_Space
  1
*Paper_Space
  0
ENDBLK
  5
1D
330
1B
100
AcDbEntity
 67
     1
  8
0
100
AcDbBlockEnd
  0
BLOCK
  5
24
330
23
100
AcDbEntity
  8
0
100
AcDbBlockBegin
  2
*Paper_Space0
 70
     0
 10
0.0
 20
0.0
 30
0.0
  3
*Paper_Space0
  1
*Paper_Space0
  0
ENDBLK
  5
25
330
23
100
AcDbEntity
  8
0
100
AcDbBlockEnd
  0
BLOCK
  5
7F
330
7E
100
AcDbEntity
  8
0
100
AcDbBlockBegin
  2
블럭10
 70
     2
 10
0.0
 20
0.0
 30
0.0
  3
블럭10
  1
블럭10
  0
ELLIPSE
  5
81
330
7E
100
AcDbEntity
  8
중심선
100
AcDbEllipse
 10
20.54032771741204
 20
12.0471743016438
 30
0.0
 11
6.600054785286829
 21
-1.261213355974178E-13
 31
0.0
210
0.0
220
0.0
230
1.0
 40
0.636358354079598
 41
0.9219305317359503
 42
6.513795318482858
  0
ELLIPSE
  5
82
330
7E
100
AcDbEntity
  8
중심선
100
AcDbEllipse
 10
20.54032771746488
 20
12.04717430159265
 30
0.0
 11
3.960054785062283
 21
1.540847449632565E-10
 31
0.0
210
0.0
220
0.0
230
1.0
 40
0.3939339440162632
 41
1.131841032648279
 42
5.62031148352944
  0
LINE
  5
83
330
7E
100
AcDbEntity
  8
중심선
100
AcDbLine
 10
2.268634060543552
 20
16.24717430164393
 30
0.0
 11
5.714909304380834
 21
16.24717430164393
 31
0.0
  0
LINE
  5
84
330
7E
100
AcDbEntity
  8
중심선
100
AcDbLine
 10
5.245725140726316
 20
7.84717430164391
 30
0.0
 11
8.692000384563599
 21
7.84717430164391
 31
0.0
  0
LINE
  5
85
330
7E
100
AcDbEntity
  8
중심선
100
AcDbLine
 10
15.74043728645272
 20
16.24717430164393
 30
0.0
 11
8.692000384563599
 21
7.84717430164391
 31
0.0
  0
LINE
  5
86
330
7E
100
AcDbEntity
  8
중심선
100
AcDbLine
 10
0.1404042013395286
 20
13.71084872107135
 30
0.0
 11
3.58671253028996
 21
13.71088815037384
 31
0.0
  0
LINE
  5
87
330
7E
100
AcDbEntity
  8
중심선
100
AcDbLine
 10
2.750260043222114
 20
10.84717430164391
 30
0.0
 11
6.196535287059397
 21
10.84717430164391
 31
0.0
  0
LINE
  5
88
330
7E
100
AcDbEntity
  8
중심선
100
AcDbLine
 10
12.29416204261559
 20
16.24717430164393
 30
0.0
 11
5.245725140726316
 21
7.84717430164391
 31
0.0
  0
LINE
  5
89
330
7E
100
AcDbEntity
  8
중심선
100
AcDbLine
 10
10.72767329541681
 20
16.24717430164393
 30
0.0
 11
6.196535287059397
 21
10.84717430164391
 31
0.0
  0
LINE
  5
8A
330
7E
100
AcDbEntity
  8
중심선
100
AcDbLine
 10
7.28139805157953
 20
16.24717430164393
 30
0.0
 11
2.750260043222114
 21
10.84717430164391
 31
0.0
  0
LINE
  5
8B
330
7E
100
AcDbEntity
  8
중심선
100
AcDbLine
 10
5.714909304380834
 20
16.24717430164393
 30
0.0
 11
3.58671253028996
 21
13.71088815037384
 31
0.0
  0
LINE
  5
8C
330
7E
100
AcDbEntity
  8
중심선
100
AcDbLine
 10
2.268634060543552
 20
16.24717430164393
 30
0.0
 11
0.1404042013395286
 21
13.71084872107135
 31
0.0
  0
LINE
  5
8D
330
7E
100
AcDbEntity
  8
중심선
100
AcDbLine
 10
7.28139805157953
 20
16.24717430164393
 30
0.0
 11
10.72767329541681
 21
16.24717430164393
 31
0.0
  0
LINE
  5
8E
330
7E
100
AcDbEntity
  8
중심선
100
AcDbLine
 10
12.29416204261559
 20
16.24717430164393
 30
0.0
 11
15.74043728645272
 21
16.24717430164393
 31
0.0
  0
LINE
  5
8F
330
7E
100
AcDbEntity
  8
중심선
100
AcDbLine
 10
19.22036997980202
 20
11.08717430171403
 30
0.0
 11
23.66174974927406
 21
11.08717430171406
 31
0.0
  0
LINE
  5
90
330
7E
100
AcDbEntity
  8
중심선
100
AcDbLine
 10
19.22039502424796
 20
13.00717430171391
 30
0.0
 11
19.22036997980202
 21
11.08717430171403
 31
0.0
  0
LINE
  5
91
330
7E
100
AcDbEntity
  8
중심선
100
AcDbLine
 10
19.22039502424796
 20
13.00717430171391
 30
0.0
 11
26.96566020931264
 21
13.00717430171391
 31
0.0
  0
LINE
  5
92
330
7E
100
AcDbEntity
  8
중심선
100
AcDbLine
 10
22.22332737316547
 20
13.45928029700563
 30
0.0
 11
24.52862924686651
 21
15.39360700705356
 31
0.0
  0
ATTDEF
  5
94
330
7E
100
AcDbEntity
  8
FORMAT
 62
     2
100
AcDbText
 10
-9.18129528874128
 20
2.075366912832191
 30
0.0
 40
4.233333333333333
  1
E5078108 [ 3 FLUTE ]
 41
0.75
  7
SLDTEXTSTYLE0
 11
-9.18129528874128
 21
-0.0412997538344756
 31
0.0
100
AcDbAttributeDefinition
  3

  2
AUTOATTR0
 70
     0
 74
     1
  0
ENDBLK
  5
80
330
7E
100
AcDbEntity
  8
0
100
AcDbBlockEnd
  0
BLOCK
  5
EC
330
EB
100
AcDbEntity
  8
0
100
AcDbBlockBegin
  2
_D
 70
     0
 10
0.0
 20
0.0
 30
0.0
  3
_D
  1
_D
  0
LINE
  5
EE
330
EB
100
AcDbEntity
  8
치수문자_일반주서
 62
     0
370
    -2
100
AcDbLine
 10
50.608
 20
1.649999999999996
 30
0.0
 11
50.60799999999999
 21
40.17689290598011
 31
0.0
  0
LINE
  5
EF
330
EB
100
AcDbEntity
  8
치수문자_일반주서
 62
     0
370
    -2
100
AcDbLine
 10
12.508
 20
3.914274598917539
 30
0.0
 11
12.50799999999999
 21
40.17689290598011
 31
0.0
  0
LINE
  5
F0
330
EB
100
AcDbEntity
  8
치수문자_일반주서
 62
     0
370
    -2
100
AcDbLine
 10
47.30599999999999
 20
40.17689290598011
 30
0.0
 11
15.80999999999999
 21
40.17689290598011
 31
0.0
  0
SOLID
  5
F1
330
EB
100
AcDbEntity
  8
치수문자_일반주서
 62
     0
100
AcDbTrace
 10
47.30599999999999
 20
39.62655957264678
 30
0.0
 11
47.30599999999999
 21
40.72722623931345
 31
0.0
 12
50.60799999999999
 22
40.17689290598011
 32
0.0
 13
50.60799999999999
 23
40.17689290598011
 33
0.0
  0
SOLID
  5
F2
330
EB
100
AcDbEntity
  8
치수문자_일반주서
 62
     0
100
AcDbTrace
 10
15.80999999999999
 20
40.72722623931345
 30
0.0
 11
15.80999999999999
 21
39.62655957264678
 31
0.0
 12
12.50799999999999
 22
40.17689290598011
 32
0.0
 13
12.50799999999999
 23
40.17689290598011
 33
0.0
  0
MTEXT
  5
F3
330
EB
100
AcDbEntity
  8
치수문자_일반주서
 62
     0
100
AcDbMText
 10
31.55799999999999
 20
44.55189290598011
 30
0.0
 40
3.5
 41
0.0
 71
     2
 72
     1
  1
\A1;38.10 [1 1/2]
  7
SLDTEXTSTYLE0
 73
     1
 44
1.0
  0
POINT
  5
F4
330
EB
100
AcDbEntity
  8
Defpoints
 62
     0
100
AcDbPoint
 10
50.608
 20
1.587499999999996
 30
0.0
  0
POINT
  5
F5
330
EB
100
AcDbEntity
  8
Defpoints
 62
     0
100
AcDbPoint
 10
12.508
 20
3.851774598917539
 30
0.0
  0
POINT
  5
F6
330
EB
100
AcDbEntity
  8
Defpoints
 62
     0
100
AcDbPoint
 10
12.508
 20
40.17689290598011
 30
0.0
  0
ENDBLK
  5
ED
330
EB
100
AcDbEntity
  8
0
100
AcDbBlockEnd
  0
BLOCK
  5
102
330
101
100
AcDbEntity
  8
0
100
AcDbBlockBegin
  2
_D_1
 70
     0
 10
0.0
 20
0.0
 30
0.0
  3
_D_1
  1
_D_1
  0
LINE
  5
104
330
101
100
AcDbEntity
  8
치수문자_일반주서
 62
     0
370
    -2
100
AcDbLine
 10
50.608
 20
1.712499999999996
 30
0.0
 11
50.60799999999999
 21
54.84819590333735
 31
0.0
  0
LINE
  5
105
330
101
100
AcDbEntity
  8
치수문자_일반주서
 62
     0
370
    -2
100
AcDbLine
 10
-25.592
 20
2.427499999999995
 30
0.0
 11
-25.59200000000001
 21
54.84819590333735
 31
0.0
  0
LINE
  5
106
330
101
100
AcDbEntity
  8
치수문자_일반주서
 62
     0
370
    -2
100
AcDbLine
 10
47.30599999999999
 20
54.84819590333735
 30
0.0
 11
-22.29000000000001
 21
54.84819590333735
 31
0.0
  0
SOLID
  5
107
330
101
100
AcDbEntity
  8
치수문자_일반주서
 62
     0
100
AcDbTrace
 10
47.30599999999999
 20
54.29786257000401
 30
0.0
 11
47.30599999999999
 21
55.39852923667068
 31
0.0
 12
50.60799999999999
 22
54.84819590333735
 32
0.0
 13
50.60799999999999
 23
54.84819590333735
 33
0.0
  0
SOLID
  5
108
330
101
100
AcDbEntity
  8
치수문자_일반주서
 62
     0
100
AcDbTrace
 10
-22.29000000000001
 20
55.39852923667068
 30
0.0
 11
-22.29000000000001
 21
54.29786257000401
 31
0.0
 12
-25.59200000000001
 22
54.84819590333735
 32
0.0
 13
-25.59200000000001
 23
54.84819590333735
 33
0.0
  0
MTEXT
  5
109
330
101
100
AcDbEntity
  8
치수문자_일반주서
 62
     0
100
AcDbMText
 10
17.51729980218037
 20
59.22319590333735
 30
0.0
 40
3.5
 41
0.0
 71
     2
 72
     1
  1
\A1;76.20 [3]
  7
SLDTEXTSTYLE0
 73
     1
 44
1.0
  0
POINT
  5
10A
330
101
100
AcDbEntity
  8
Defpoints
 62
     0
100
AcDbPoint
 10
50.608
 20
1.649999999999996
 30
0.0
  0
POINT
  5
10B
330
101
100
AcDbEntity
  8
Defpoints
 62
     0
100
AcDbPoint
 10
-25.592
 20
2.364999999999995
 30
0.0
  0
POINT
  5
10C
330
101
100
AcDbEntity
  8
Defpoints
 62
     0
100
AcDbPoint
 10
-25.592
 20
54.84819590333735
 30
0.0
  0
ENDBLK
  5
103
330
101
100
AcDbEntity
  8
0
100
AcDbBlockEnd
  0
BLOCK
  5
116
330
115
100
AcDbEntity
  8
0
100
AcDbBlockBegin
  2
_D_2
 70
     0
 10
0.0
 20
0.0
 30
0.0
  3
_D_2
  1
_D_2
  0
LINE
  5
118
330
115
100
AcDbEntity
  8
치수문자_일반주서
 62
     0
370
    -2
100
AcDbLine
 10
-24.84449999999999
 20
3.175000000000002
 30
0.0
 11
-38.592
 21
3.174999999999955
 31
0.0
  0
LINE
  5
119
330
115
100
AcDbEntity
  8
치수문자_일반주서
 62
     0
370
    -2
100
AcDbLine
 10
-24.84449999999999
 20
-3.174999999999993
 30
0.0
 11
-38.59199999999998
 21
-3.17500000000004
 31
0.0
  0
LINE
  5
11A
330
115
100
AcDbEntity
  8
치수문자_일반주서
 62
     0
370
    -2
100
AcDbLine
 10
-38.59199999999998
 20
-0.1270000000000451
 30
0.0
 11
-38.59199999999999
 21
0.1269999999999594
 31
0.0
  0
SOLID
  5
11B
330
115
100
AcDbEntity
  8
치수문자_일반주서
 62
     0
100
AcDbTrace
 10
-38.04166666666665
 20
-0.1270000000000432
 30
0.0
 11
-39.14233333333332
 21
-0.1270000000000469
 31
0.0
 12
-38.592
 22
3.174999999999955
 32
0.0
 13
-38.592
 23
3.174999999999955
 33
0.0
  0
SOLID
  5
11C
330
115
100
AcDbEntity
  8
치수문자_일반주서
 62
     0
100
AcDbTrace
 10
-39.14233333333333
 20
0.1269999999999575
 30
0.0
 11
-38.04166666666666
 21
0.1269999999999612
 31
0.0
 12
-38.59199999999998
 22
-3.17500000000004
 32
0.0
 13
-38.59199999999998
 23
-3.17500000000004
 33
0.0
  0
MTEXT
  5
11D
330
115
100
AcDbEntity
  8
치수문자_일반주서
 62
     0
100
AcDbMText
 10
-42.96699999999999
 20
0.8697769195248065
 30
0.0
 40
3.5
 41
0.0
 71
     2
 72
     1
  1
\A1;%%c6.35 [1/4]
  7
SLDTEXTSTYLE0
 11
-3.356894814614648E-15
 21
1.0
 31
0.0
 73
     1
 44
1.0
  0
POINT
  5
11E
330
115
100
AcDbEntity
  8
Defpoints
 62
     0
100
AcDbPoint
 10
-24.78199999999999
 20
3.175000000000002
 30
0.0
  0
POINT
  5
11F
330
115
100
AcDbEntity
  8
Defpoints
 62
     0
100
AcDbPoint
 10
-24.78199999999999
 20
-3.174999999999993
 30
0.0
  0
POINT
  5
120
330
115
100
AcDbEntity
  8
Defpoints
 62
     0
100
AcDbPoint
 10
-38.59199999999998
 20
-3.175000000000042
 30
0.0
  0
ENDBLK
  5
117
330
115
100
AcDbEntity
  8
0
100
AcDbBlockEnd
  0
BLOCK
  5
129
330
128
100
AcDbEntity
  8
0
100
AcDbBlockBegin
  2
SW_DOWELSYMBOL_0
 70
     0
 10
0.0
 20
0.0
 30
0.0
  3
SW_DOWELSYMBOL_0
  1
SW_DOWELSYMBOL_0
  0
CIRCLE
  5
12B
330
128
100
AcDbEntity
  8
외형선
 62
     0
100
AcDbCircle
 10
0.0
 20
0.0
 30
0.0
 40
2.999999999999999
  0
HATCH
  5
12C
330
128
100
AcDbEntity
  8
0
  6
Continuous
 62
     0
370
    30
100
AcDbHatch
 10
0.0
 20
0.0
 30
0.0
210
0.0
220
0.0
230
1.0
  2
SOLID
 70
     1
 71
     0
 91
        1
 92
        0
 93
        3
 72
     2
 10
0.0
 20
0.0
 40
2.999999999999999
 50
0.0
 51
90.0
 73
     1
 72
     1
 10
0.0
 20
2.999999999999999
 11
0.0
 21
0.0
 72
     1
 10
0.0
 20
0.0
 11
2.999999999999999
 21
0.0
 97
        0
 75
     0
 76
     1
 98
        1
 10
0.0
 20
0.0
  0
HATCH
  5
12D
330
128
100
AcDbEntity
  8
0
  6
Continuous
 62
     0
370
    30
100
AcDbHatch
 10
0.0
 20
0.0
 30
0.0
210
0.0
220
0.0
230
1.0
  2
SOLID
 70
     1
 71
     0
 91
        1
 92
        0
 93
        3
 72
     2
 10
0.0
 20
0.0
 40
2.999999999999999
 50
180.0
 51
270.0000000000007
 73
     1
 72
     1
 10
0.0
 20
-2.999999999999999
 11
0.0
 21
0.0
 72
     1
 10
0.0
 20
0.0
 11
-2.999999999999999
 21
0.0
 97
        0
 75
     0
 76
     1
 98
        1
 10
0.0
 20
0.0
  0
ENDBLK
  5
12A
330
128
100
AcDbEntity
  8
0
100
AcDbBlockEnd
  0
BLOCK
  5
159
330
158
100
AcDbEntity
  8
0
100
AcDbBlockBegin
  2
*D6
 70
     1
 10
0.0
 20
0.0
 30
0.0
  3
*D6
  1
*D6
  0
LINE
  5
15B
330
158
100
AcDbEntity
  8
치수문자_일반주서
 62
     0
370
    -2
100
AcDbLine
 10
20.9032672752338
 20
8.68037868223651
 30
0.0
 11
21.22134340879163
 21
13.04380079948129
 31
0.0
  0
ARC
  5
15C
330
158
100
AcDbEntity
  8
치수문자_일반주서
 62
     0
370
    -2
100
AcDbCircle
 10
139.9821679914496
 20
-0.0000000000000036
 30
0.0
 40
119.3948640848902
100
AcDbArc
 50
175.8307398265001
 51
177.41536991325
  0
ARC
  5
15D
330
158
100
AcDbEntity
  8
치수문자_일반주서
 62
     0
370
    -2
100
AcDbCircle
 10
139.9821679914496
 20
-0.0000000000000036
 30
0.0
 40
119.3948640848902
100
AcDbArc
 50
181.58463008675
 51
183.1692601735
  0
ARC
  5
15E
330
158
100
AcDbEntity
  8
치수문자_일반주서
 62
     0
370
    -2
100
AcDbCircle
 10
139.9821679914496
 20
-0.0000000000000036
 30
0.0
 40
119.3948640848902
100
AcDbArc
 50
179.0
 51
180.0
  0
SOLID
  5
15F
330
158
100
AcDbEntity
  8
치수문자_일반주서
 62
     0
100
AcDbTrace
 10
20.15869988607121
 20
5.401324847701495
 30
0.0
 11
21.25882806745484
 21
5.366899629667664
 31
0.0
 12
20.60548832266153
 22
2.083727694533716
 32
0.0
 13
20.60548832266153
 23
2.083727694533716
 33
0.0
  0
SOLID
  5
160
330
158
100
AcDbEntity
  8
치수문자_일반주서
 62
     0
100
AcDbTrace
 10
21.18324489352959
 20
-3.294074242913595
 30
0.0
 11
20.08268346409977
 21
-3.30929433366536
 31
0.0
 12
20.58730390655938
 22
-0.0000000000000036
 32
0.0
 13
20.58730390655938
 23
-0.0000000000000036
 33
0.0
  0
MTEXT
  5
161
330
158
100
AcDbEntity
  8
치수문자_일반주서
 62
     0
100
AcDbMText
 10
18.44425207166585
 20
11.0529354209936
 30
0.0
 40
3.5
 41
0.0
 71
     5
 72
     1
  1
\A1;1%%d
  7
SLDTEXTSTYLE0
 11
0.0727031162417902
 21
0.9973536267988063
 31
0.0
 73
     1
 44
1.0
  0
POINT
  5
162
330
158
100
AcDbEntity
  8
Defpoints
 62
     0
100
AcDbPoint
 10
20.58932444282889
 20
0.6946072444118868
 30
0.0
  0
POINT
  5
163
330
158
100
AcDbEntity
  8
Defpoints
 62
     0
100
AcDbPoint
 10
22.09271178041663
 20
2.057768112515832
 30
0.0
  0
POINT
  5
164
330
158
100
AcDbEntity
  8
Defpoints
 62
     0
100
AcDbPoint
 10
-28.59200000000001
 20
-0.0000000000000043
 30
0.0
  0
POINT
  5
165
330
158
100
AcDbEntity
  8
Defpoints
 62
     0
100
AcDbPoint
 10
55.0482056952192
 20
-0.0000000000000043
 30
0.0
  0
POINT
  5
166
330
158
100
AcDbEntity
  8
Defpoints
 62
     0
100
AcDbPoint
 10
19.89617215427393
 20
2.096108854307555
 30
0.0
  0
ENDBLK
  5
15A
330
158
100
AcDbEntity
  8
0
100
AcDbBlockEnd
  0
BLOCK
  5
190
330
18F
100
AcDbEntity
  8
0
100
AcDbBlockBegin
  2
*D7
 70
     1
 10
0.0
 20
0.0
 30
0.0
  3
*D7
  1
*D7
  0
LINE
  5
192
330
18F
100
AcDbEntity
  8
치수문자_일반주서
 62
     0
370
    -2
100
AcDbLine
 10
50.70534007957581
 20
-1.587500000000004
 30
0.0
 11
61.82482437115147
 21
-1.587500000000005
 31
0.0
  0
LINE
  5
193
330
18F
100
AcDbEntity
  8
치수문자_일반주서
 62
     0
370
    -2
100
AcDbLine
 10
50.6705
 20
1.587499999999996
 30
0.0
 11
61.82482437115147
 21
1.587499999999995
 31
0.0
  0
LINE
  5
194
330
18F
100
AcDbEntity
  8
치수문자_일반주서
 62
     0
370
    -2
100
AcDbLine
 10
61.82482437115147
 20
4.889499999999995
 30
0.0
 11
61.82482437115147
 21
32.69149999999999
 31
0.0
  0
LINE
  5
195
330
18F
100
AcDbEntity
  8
치수문자_일반주서
 62
     0
370
    -2
100
AcDbLine
 10
61.82482437115147
 20
-1.587500000000005
 30
0.0
 11
61.82482437115147
 21
1.587499999999995
 31
0.0
  0
LINE
  5
196
330
18F
100
AcDbEntity
  8
치수문자_일반주서
 62
     0
370
    -2
100
AcDbLine
 10
61.82482437115147
 20
-4.889500000000005
 30
0.0
 11
61.82482437115147
 21
-8.191500000000005
 31
0.0
  0
SOLID
  5
197
330
18F
100
AcDbEntity
  8
치수문자_일반주서
 62
     0
100
AcDbTrace
 10
62.37515770448481
 20
-4.889500000000005
 30
0.0
 11
61.27449103781814
 21
-4.889500000000005
 31
0.0
 12
61.82482437115147
 22
-1.587500000000005
 32
0.0
 13
61.82482437115147
 23
-1.587500000000005
 33
0.0
  0
SOLID
  5
198
330
18F
100
AcDbEntity
  8
치수문자_일반주서
 62
     0
100
AcDbTrace
 10
61.27449103781814
 20
4.889499999999995
 30
0.0
 11
62.37515770448481
 21
4.889499999999995
 31
0.0
 12
61.82482437115147
 22
1.587499999999995
 32
0.0
 13
61.82482437115147
 23
1.587499999999995
 33
0.0
  0
MTEXT
  5
199
330
18F
100
AcDbEntity
  8
치수문자_일반주서
 62
     0
100
AcDbMText
 10
59.19982437115147
 20
20.44149999999999
 30
0.0
 40
3.5
 41
0.0
 71
     5
 72
     1
  1
\A1;{%%c3.18 [1/8]}
  7
SLDTEXTSTYLE0
 11
0.0
 21
1.0
 31
0.0
 73
     1
 44
1.0
  0
POINT
  5
19A
330
18F
100
AcDbEntity
  8
Defpoints
 62
     0
100
AcDbPoint
 10
50.64284007957581
 20
-1.587500000000004
 30
0.0
  0
POINT
  5
19B
330
18F
100
AcDbEntity
  8
Defpoints
 62
     0
100
AcDbPoint
 10
50.608
 20
1.587499999999996
 30
0.0
  0
POINT
  5
19C
330
18F
100
AcDbEntity
  8
Defpoints
 62
     0
100
AcDbPoint
 10
61.82482437115147
 20
1.587499999999995
 30
0.0
  0
ENDBLK
  5
191
330
18F
100
AcDbEntity
  8
0
100
AcDbBlockEnd
  0
ENDSEC
  0
SECTION
  2
ENTITIES
  0
LINE
  5
95
330
1F
100
AcDbEntity
  8
0
  6
Continuous
 62
     4
370
    15
100
AcDbLine
 10
10.6322762544525
 20
3.175000000000006
 30
0.0
 11
-24.78199999999999
 21
3.175000000000002
 31
0.0
  0
LINE
  5
96
330
1F
100
AcDbEntity
  8
0
  6
Continuous
 62
     4
370
    15
100
AcDbLine
 10
-24.78199999999999
 20
-3.174999999999993
 30
0.0
 11
10.6322762544525
 21
-3.174999999999989
 31
0.0
  0
LINE
  5
97
330
1F
100
AcDbEntity
  8
0
  6
Continuous
 62
     4
370
    15
100
AcDbLine
 10
-24.78199999999999
 20
3.175000000000002
 30
0.0
 11
-25.592
 21
2.364999999999995
 31
0.0
  0
LINE
  5
98
330
1F
100
AcDbEntity
  8
0
  6
Continuous
 62
     4
370
    15
100
AcDbLine
 10
-25.592
 20
-2.364999999999987
 30
0.0
 11
-24.78199999999999
 21
-3.174999999999994
 31
0.0
  0
LINE
  5
99
330
1F
100
AcDbEntity
  8
0
  6
Continuous
 62
     4
370
    15
100
AcDbLine
 10
10.6322762544525
 20
-3.174999999999987
 30
0.0
 11
11.39135416883726
 21
-2.388951809125663
 31
0.0
  0
LINE
  5
9A
330
1F
100
AcDbEntity
  8
0
  6
Continuous
 62
     4
370
    15
100
AcDbLine
 10
11.492
 20
2.284730000000008
 30
0.0
 11
10.6322762544525
 21
3.175000000000004
 31
0.0
  0
LINE
  5
9B
330
1F
100
AcDbEntity
  8
0
  6
Continuous
 62
     1
370
    15
100
AcDbLine
 10
39.51647893433679
 20
-1.753635125549992
 30
0.0
 11
41.48780693067521
 21
-1.719225467379091
 31
0.0
  0
LINE
  5
9C
330
1F
100
AcDbEntity
  8
0
  6
Continuous
 62
     1
370
    15
100
AcDbLine
 10
26.44550516117998
 20
-1.981789821435474
 30
0.0
 11
28.55460108825546
 21
-1.944975415088532
 31
0.0
  0
LINE
  5
9D
330
1F
100
AcDbEntity
  8
0
  6
Continuous
 62
     1
370
    15
100
AcDbLine
 10
13.33939902504246
 20
-2.210557754997866
 30
0.0
 11
15.63032395980332
 21
-2.170569511515942
 31
0.0
  0
LINE
  5
9E
330
1F
100
AcDbEntity
  8
0
  6
Continuous
 62
     1
370
    15
100
AcDbLine
 10
22.09271178041663
 20
2.057768112515832
 30
0.0
 11
19.89617215427393
 21
2.096108854307555
 31
0.0
  0
LINE
  5
9F
330
1F
100
AcDbEntity
  8
0
  6
Continuous
 62
     1
370
    15
100
AcDbLine
 10
35.01916787782777
 20
1.832135982043767
 30
0.0
 11
32.98595240886068
 21
1.867625890067644
 31
0.0
  0
LINE
  5
A0
330
1F
100
AcDbEntity
  8
0
  6
Continuous
 62
     1
370
    15
100
AcDbLine
 10
47.96533223156802
 20
1.606159842677855
 30
0.0
 11
46.03303055470651
 21
1.639888293908377
 31
0.0
  0
LINE
  5
A1
330
1F
100
AcDbEntity
  8
0
  6
Continuous
 62
     1
370
    15
100
AcDbLine
 10
48.20139154674401
 20
-1.602039412004528
 30
0.0
 11
49.0482056952192
 21
-1.58725821606076
 31
0.0
  0
LINE
  5
A2
330
1F
100
AcDbEntity
  8
0
  6
Continuous
 62
     1
370
    15
100
AcDbLine
 10
35.16418358173114
 20
-1.829604723516503
 30
0.0
 11
37.1746044451804
 21
-1.794512696811953
 31
0.0
  0
LINE
  5
A3
330
1F
100
AcDbEntity
  8
0
  6
Continuous
 62
     1
370
    15
100
AcDbLine
 10
22.07944959204434
 20
-2.057999604874942
 30
0.0
 11
24.24729026132569
 21
-2.020159805238606
 31
0.0
  0
LINE
  5
A4
330
1F
100
AcDbEntity
  8
0
  6
Continuous
 62
     1
370
    15
100
AcDbLine
 10
17.78470336431941
 20
2.132964679130116
 30
0.0
 11
15.52542832365212
 21
2.172400471655666
 31
0.0
  0
LINE
  5
A5
330
1F
100
AcDbEntity
  8
0
  6
Continuous
 62
     1
370
    15
100
AcDbLine
 10
30.70928131389996
 20
1.907365331850379
 30
0.0
 11
28.62598421722972
 21
1.943729417937526
 31
0.0
  0
LINE
  5
A6
330
1F
100
AcDbEntity
  8
0
  6
Continuous
 62
     1
370
    15
100
AcDbLine
 10
43.64592979173099
 20
1.681555292716312
 30
0.0
 11
41.69040741180652
 21
1.715689062826476
 31
0.0
  0
LINE
  5
A7
330
1F
100
AcDbEntity
  8
0
  6
Continuous
 62
     1
370
    15
100
AcDbLine
 10
43.86265639345685
 20
-1.677772315811495
 30
0.0
 11
45.80510244946348
 21
-1.643866793784339
 31
0.0
  0
LINE
  5
A8
330
1F
100
AcDbEntity
  8
0
  6
Continuous
 62
     1
370
    15
100
AcDbLine
 10
30.80645596483296
 20
-1.905669142008948
 30
0.0
 11
32.86412871469408
 21
-1.869752330559098
 31
0.0
  0
LINE
  5
A9
330
1F
100
AcDbEntity
  8
0
  6
Continuous
 62
     1
370
    15
100
AcDbLine
 10
17.71111633365791
 20
-2.13424914552817
 30
0.0
 11
19.9391082463476
 21
-2.095359402032627
 31
0.0
  0
LINE
  5
AA
330
1F
100
AcDbEntity
  8
0
  6
Continuous
 62
     1
370
    15
100
AcDbLine
 10
13.47559123447324
 20
2.208180511139552
 30
0.0
 11
12.50800000000001
 21
2.225069878961256
 31
0.0
  0
LINE
  5
AB
330
1F
100
AcDbEntity
  8
0
  6
Continuous
 62
     1
370
    15
100
AcDbLine
 10
26.40105484473664
 20
1.982565704595091
 30
0.0
 11
24.26315836899932
 21
2.019882826388893
 31
0.0
  0
LINE
  5
AC
330
1F
100
AcDbEntity
  8
0
  6
Continuous
 62
     1
370
    15
100
AcDbLine
 10
39.33074012521892
 20
1.756877208522853
 30
0.0
 11
37.34104493020285
 21
1.791607467339221
 31
0.0
  0
LINE
  5
AD
330
1F
100
AcDbEntity
  8
0
  6
Continuous
 62
     4
370
    15
100
AcDbLine
 10
12.50800000000001
 20
2.225069878961256
 30
0.0
 11
11.492
 21
2.284730000000008
 31
0.0
  0
ARC
  5
AE
330
1F
100
AcDbEntity
  8
0
  6
Continuous
 62
     1
370
    15
100
AcDbCircle
 10
49.0205
 20
0.00000000000001
 30
0.0
 40
1.587499999999999
100
AcDbArc
 50
271.0000000000014
 51
293.3409628545135
  0
ARC
  5
AF
330
1F
100
AcDbEntity
  8
0
  6
Continuous
 62
     1
370
    15
100
AcDbCircle
 10
49.0205
 20
0.00000000000001
 30
0.0
 40
1.587500000000005
100
AcDbArc
 50
27.85617637447577
 51
44.54272678779954
  0
LINE
  5
B0
330
1F
100
AcDbEntity
  8
0
  6
Continuous
 62
     4
370
    15
100
AcDbLine
 10
10.6322762544525
 20
3.175000000000004
 30
0.0
 11
10.6322762544525
 21
-3.174999999999989
 31
0.0
  0
LINE
  5
B1
330
1F
100
AcDbEntity
  8
0
  6
Continuous
 62
     4
370
    15
100
AcDbLine
 10
-24.78199999999999
 20
3.175000000000002
 30
0.0
 11
-24.78199999999999
 21
-3.174999999999993
 31
0.0
  0
LINE
  5
B2
330
1F
100
AcDbEntity
  8
0
  6
Continuous
 62
     4
370
    15
100
AcDbLine
 10
-25.592
 20
-2.364999999999987
 30
0.0
 11
-25.592
 21
2.364999999999998
 31
0.0
  0
SPLINE
  5
B3
330
1F
100
AcDbEntity
  8
0
  6
Continuous
 62
     4
370
    15
100
AcDbSpline
210
0.0
220
0.0
230
1.0
 70
     8
 71
     3
 72
    28
 73
    24
 74
     0
 42
0.000000001
 43
0.00000001
 40
0.0
 40
0.0
 40
0.0
 40
0.0
 40
0.1250000000000001
 40
0.1250000000000001
 40
0.2500000000000002
 40
0.2500000000000002
 40
0.3750000000000001
 40
0.3750000000000001
 40
0.4999999999999999
 40
0.4999999999999999
 40
0.6249999999999997
 40
0.6249999999999997
 40
0.6874999999999996
 40
0.6874999999999996
 40
0.7187499999999996
 40
0.7187499999999996
 40
0.7499999999999994
 40
0.7499999999999994
 40
0.8124999999999996
 40
0.8124999999999996
 40
0.8749999999999998
 40
0.8749999999999998
 40
1.0
 40
1.0
 40
1.0
 40
1.0
 10
11.49200000000058
 20
0.9899510764257861
 30
0.0
 10
11.40784378899958
 20
1.147343748974914
 30
0.0
 10
11.33114784843201
 20
1.307172490657966
 30
0.0
 10
11.18607015269739
 20
1.628702085352822
 30
0.0
 10
11.11781487900362
 20
1.790596519835411
 30
0.0
 10
10.99200732165517
 20
2.101020441641632
 30
0.0
 10
10.93527442639344
 20
2.247292416891037
 30
0.0
 10
10.83226380070471
 20
2.520690065301653
 30
0.0
 10
10.78616756531121
 20
2.64725580808383
 30
0.0
 10
10.71245142887419
 20
2.862535817683789
 30
0.0
 10
10.68282942971693
 20
2.954655072883329
 30
0.0
 10
10.67110999069604
 20
3.040142664699622
 30
0.0
 10
10.67274365132927
 20
3.059468431223338
 30
0.0
 10
10.69432311733782
 20
3.062456756091865
 30
0.0
 10
10.70495083117637
 20
3.058846955620084
 30
0.0
 10
10.73558600317591
 20
3.039233329374836
 30
0.0
 10
10.75604652372184
 20
3.022793878326717
 30
0.0
 10
10.82938162960128
 20
2.95706042142642
 30
0.0
 10
10.89385102295186
 20
2.892232460771625
 30
0.0
 10
11.01805063753129
 20
2.764766791513883
 30
0.0
 10
11.08062067247898
 20
2.69911961560373
 30
0.0
 10
11.26218268962816
 20
2.506282557332603
 30
0.0
 10
11.37823396156414
 20
2.379649211231694
 30
0.0
 10
11.49200000000001
 20
2.251428231202251
 30
0.0
  0
LINE
  5
B4
330
1F
100
AcDbEntity
  8
0
  6
Continuous
 62
     4
370
    15
100
AcDbLine
 10
11.49200000000058
 20
0.9899510764257861
 30
0.0
 11
11.492
 21
-1.46230967333199
 31
0.0
  0
SPLINE
  5
B5
330
1F
100
AcDbEntity
  8
0
  6
Continuous
 62
     4
370
    15
100
AcDbSpline
210
0.0
220
0.0
230
1.0
 70
     8
 71
     3
 72
    28
 73
    24
 74
     0
 42
0.000000001
 43
0.00000001
 40
0.0
 40
0.0
 40
0.0
 40
0.0
 40
0.1249999999999996
 40
0.1249999999999996
 40
0.2499999999999992
 40
0.2499999999999992
 40
0.3749999999999988
 40
0.3749999999999988
 40
0.4999999999999984
 40
0.4999999999999984
 40
0.624999999999998
 40
0.624999999999998
 40
0.6874999999999981
 40
0.6874999999999981
 40
0.7187499999999982
 40
0.7187499999999982
 40
0.7499999999999983
 40
0.7499999999999983
 40
0.8124999999999988
 40
0.8124999999999988
 40
0.8749999999999992
 40
0.8749999999999992
 40
1.0
 40
1.0
 40
1.0
 40
1.0
 10
11.49200000000058
 20
-2.278228472988752
 30
0.0
 10
11.40784378899958
 20
-2.375133697444633
 30
0.0
 10
11.33114784843201
 20
-2.453766767393475
 30
0.0
 10
11.1860701526974
 20
-2.575599333667602
 30
0.0
 10
11.11781487900362
 20
-2.618328984808881
 30
0.0
 10
10.99200732165517
 20
-2.662254378381201
 30
0.0
 10
10.93527442639344
 20
-2.663741438942025
 30
0.0
 10
10.83226380070471
 20
-2.624374237335627
 30
0.0
 10
10.78616756531121
 20
-2.583066039475908
 30
0.0
 10
10.71245142887419
 20
-2.454128348405304
 30
0.0
 10
10.68282942971693
 20
-2.366177617063657
 30
0.0
 10
10.67110999069604
 20
-2.186702941826958
 30
0.0
 10
10.67274365132926
 20
-2.119391814290381
 30
0.0
 10
10.69432311733781
 20
-2.005593867951215
 30
0.0
 10
10.70495083117637
 20
-1.965370968569551
 30
0.0
 10
10.73558600317591
 20
-1.884317028203999
 30
0.0
 10
10.75604652372184
 20
-1.843062531390729
 30
0.0
 10
10.82938162960128
 20
-1.731098343207083
 30
0.0
 10
10.89385102295186
 20
-1.673574778086658
 30
0.0
 10
11.01805063753129
 20
-1.593776186731898
 30
0.0
 10
11.08062067247898
 20
-1.567202961226835
 30
0.0
 10
11.26218268962816
 20
-1.504303458809097
 30
0.0
 10
11.37823396156414
 20
-1.482924830411289
 30
0.0
 10
11.49200000000001
 20
-1.462309673331991
 30
0.0
  0
LINE
  5
B6
330
1F
100
AcDbEntity
  8
0
  6
Continuous
 62
     4
370
    15
100
AcDbLine
 10
11.492
 20
2.284730000000008
 30
0.0
 11
11.492
 21
2.251428231202251
 31
0.0
  0
SPLINE
  5
B7
330
1F
100
AcDbEntity
  8
0
  6
Continuous
 62
     1
370
    15
100
AcDbSpline
210
0.0
220
0.0
230
1.0
 70
     8
 71
     3
 72
    10
 73
     6
 74
     0
 42
0.000000001
 43
0.00000001
 40
0.0
 40
0.0
 40
0.0
 40
0.0
 40
0.5
 40
0.5
 40
1.0
 40
1.0
 40
1.0
 40
1.0
 10
49.7133106466647
 20
0.9554181889719066
 30
0.0
 10
49.6021213296679
 20
1.041959826424266
 30
0.0
 10
49.49263583799283
 20
1.124445442050058
 30
0.0
 10
49.26981881318174
 20
1.26883000495046
 30
0.0
 10
49.16012750562177
 20
1.328697613056044
 30
0.0
 10
49.0482056952192
 20
1.373511758371915
 30
0.0
  0
SPLINE
  5
B8
330
1F
100
AcDbEntity
  8
0
  6
Continuous
 62
     1
370
    15
100
AcDbSpline
210
0.0
220
0.0
230
1.0
 70
     8
 71
     3
 72
     9
 73
     5
 74
     0
 42
0.000000001
 43
0.00000001
 40
0.0
 40
0.0
 40
0.0
 40
0.0
 40
0.6727517574247696
 40
1.0
 40
1.0
 40
1.0
 40
1.0
 10
49.04820569521921
 20
1.373511758371918
 30
0.0
 10
48.80475183157872
 20
1.46024528808409
 30
0.0
 10
48.44287412415751
 20
1.589168815603631
 30
0.0
 10
48.08289569350574
 20
1.591660813433783
 30
0.0
 10
47.96509338470997
 20
1.592476315344201
 30
0.0
  0
SPLINE
  5
B9
330
1F
100
AcDbEntity
  8
0
  6
Continuous
 62
     1
370
    15
100
AcDbSpline
210
0.0
220
0.0
230
1.0
 70
     8
 71
     3
 72
    22
 73
    18
 74
     0
 42
0.000000001
 43
0.00000001
 40
0.0
 40
0.0
 40
0.0
 40
0.0
 40
0.0655307851631561
 40
0.1371136579404619
 40
0.2064925472431185
 40
0.2778905038966379
 40
0.3471050526831131
 40
0.4183332082044103
 40
0.4873971266668751
 40
0.5584696298969921
 40
0.6273944733959026
 40
0.6983232352705021
 40
0.7671208743975589
 40
0.8379181618389066
 40
0.9066004299880926
 40
0.9772784627534367
 40
1.0
 40
1.0
 40
1.0
 40
1.0
 10
42.68049601289391
 20
-1.418545736063459
 30
0.0
 10
42.51048178269104
 20
-1.490640546466097
 30
0.0
 10
42.15475167893891
 20
-1.641488474630211
 30
0.0
 10
41.62052103192479
 20
-1.732100485899331
 30
0.0
 10
41.0723912534876
 20
-1.712022649927813
 30
0.0
 10
40.53154280415039
 20
-1.570920517250863
 30
0.0
 10
39.98729939623732
 20
-1.318697419487513
 30
0.0
 10
39.45017779668414
 20
-0.9763900136867515
 30
0.0
 10
38.90965143810321
 20
-0.5613910868887155
 30
0.0
 10
38.37612182474426
 20
-0.109134154758842
 30
0.0
 10
37.83917359547946
 20
0.3579106055083837
 30
0.0
 10
37.30910784209001
 20
0.8003703793258938
 30
0.0
 10
36.77561569040871
 20
1.195883954769002
 30
0.0
 10
36.24887396446937
 20
1.513995370236807
 30
0.0
 10
35.71876970756975
 20
1.729000265877753
 30
0.0
 10
35.31052339483499
 20
1.832217028885007
 30
0.0
 10
35.07599816361967
 20
1.821865440339265
 30
0.0
 10
35.01894464853776
 20
1.819347184584199
 30
0.0
  0
SPLINE
  5
BA
330
1F
100
AcDbEntity
  8
0
  6
Continuous
 62
     1
370
    15
100
AcDbSpline
210
0.0
220
0.0
230
1.0
 70
     8
 71
     3
 72
    23
 73
    19
 74
     0
 42
0.000000001
 43
0.00000001
 40
0.0
 40
0.0
 40
0.0
 40
0.0
 40
0.0199331925785201
 40
0.087130206752208
 40
0.1523820819946124
 40
0.2195269959445873
 40
0.2847360141727212
 40
0.3518365509673315
 40
0.4170104012926427
 40
0.4840743719047754
 40
0.5492179529467924
 40
0.6162504477701062
 40
0.6813710147682657
 40
0.748379593124082
 40
0.8134824322212326
 40
0.8804723577435165
 40
0.9455634385534484
 40
1.0
 40
1.0
 40
1.0
 40
1.0
 10
29.66345392636708
 20
-1.642508118509983
 30
0.0
 10
29.61230222099883
 20
-1.670677219250084
 30
0.0
 10
29.38871241485479
 20
-1.793807498649159
 30
0.0
 10
28.99872806513697
 20
-1.907079051495697
 30
0.0
 10
28.48882667975613
 20
-1.966122454793695
 30
0.0
 10
27.98506314825235
 20
-1.89940511896059
 30
0.0
 10
27.47776295884074
 20
-1.718442974819935
 30
0.0
 10
26.97645894370167
 20
-1.434697212298056
 30
0.0
 10
26.47163123283588
 20
-1.060596030568844
 30
0.0
 10
25.97271698223381
 20
-0.6245879225542472
 30
0.0
 10
25.47027527682796
 20
-0.1447600584067427
 30
0.0
 10
24.97368697266719
 20
0.3423472775509702
 30
0.0
 10
24.47357294693629
 20
0.8168121434821488
 30
0.0
 10
23.97924906508247
 20
1.242355928851129
 30
0.0
 10
23.4813775898151
 20
1.602780140398261
 30
0.0
 10
22.98926260539427
 20
1.86650130161606
 30
0.0
 10
22.52472549902376
 20
2.028222854771156
 30
0.0
 10
22.22778666369263
 20
2.042217422786764
 30
0.0
 10
22.09255159295741
 20
2.048590979123338
 30
0.0
  0
SPLINE
  5
BB
330
1F
100
AcDbEntity
  8
0
  6
Continuous
 62
     1
370
    15
100
AcDbSpline
210
0.0
220
0.0
230
1.0
 70
     8
 71
     3
 72
    17
 73
    13
 74
     0
 42
0.000000001
 43
0.00000001
 40
0.0
 40
0.0
 40
0.0
 40
0.0
 40
0.0035474494557222
 40
0.1197186025563628
 40
0.2326589121745922
 40
0.3488698557228346
 40
0.4618543052014252
 40
0.5781100006706672
 40
0.6911461348394576
 40
0.8074549969244164
 40
0.9027605047400582
 40
1.0
 40
1.0
 40
1.0
 40
1.0
 10
16.67165387072835
 20
-1.880834013862858
 30
0.0
 10
16.66668218083734
 20
-1.883904968400644
 30
0.0
 10
16.49889860181144
 20
-1.987542917402237
 30
0.0
 10
16.17367006047343
 20
-2.098022985432431
 30
0.0
 10
15.69162375830767
 20
-2.190082302312164
 30
0.0
 10
15.21500439723449
 20
-2.152655446514925
 30
0.0
 10
14.73479262534856
 20
-2.000915427884466
 30
0.0
 10
14.25984826955218
 20
-1.741620403938672
 30
0.0
 10
13.78136354816657
 20
-1.385026635263553
 30
0.0
 10
13.33264538378203
 20
-0.9778348087661304
 30
0.0
 10
12.90680175798219
 20
-0.5474230558791751
 30
0.0
 10
12.64182110457152
 20
-0.2629771192919519
 30
0.0
 10
12.508
 20
-0.1193256151725472
 30
0.0
  0
SPLINE
  5
BC
330
1F
100
AcDbEntity
  8
0
  6
Continuous
 62
     4
370
    15
100
AcDbSpline
210
0.0
220
0.0
230
1.0
 70
     8
 71
     3
 72
    10
 73
     6
 74
     0
 42
0.000000001
 43
0.00000001
 40
0.0
 40
0.0
 40
0.0
 40
0.0
 40
0.5
 40
0.5
 40
1.0
 40
1.0
 40
1.0
 40
1.0
 10
12.50800000000001
 20
-0.119325615172561
 30
0.0
 10
12.33677077690428
 20
0.0678718102137909
 30
0.0
 10
12.16804362792277
 20
0.2562343504131568
 30
0.0
 10
11.82950203309331
 20
0.6297876822167495
 30
0.0
 10
11.6605892554567
 20
0.8140771548888345
 30
0.0
 10
11.492
 20
0.9899510764277049
 30
0.0
  0
SPLINE
  5
BD
330
1F
100
AcDbEntity
  8
0
  6
Continuous
 62
     4
370
    15
100
AcDbSpline
210
0.0
220
0.0
230
1.0
 70
     8
 71
     3
 72
    10
 73
     6
 74
     0
 42
0.000000001
 43
0.00000001
 40
0.0
 40
0.0
 40
0.0
 40
0.0
 40
0.5
 40
0.5
 40
1.0
 40
1.0
 40
1.0
 40
1.0
 10
11.492
 20
2.251428231202251
 30
0.0
 10
11.66073899558979
 20
2.210812095266757
 30
0.0
 10
11.82844470944528
 20
2.149673966213936
 30
0.0
 10
12.16683958924934
 20
1.988566238921796
 30
0.0
 10
12.33705376418754
 20
1.888637005657385
 30
0.0
 10
12.50800000000001
 20
1.772240951338408
 30
0.0
  0
SPLINE
  5
BE
330
1F
100
AcDbEntity
  8
0
  6
Continuous
 62
     1
370
    15
100
AcDbSpline
210
0.0
220
0.0
230
1.0
 70
     8
 71
     3
 72
    18
 73
    14
 74
     0
 42
0.000000001
 43
0.00000001
 40
0.0
 40
0.0
 40
0.0
 40
0.0
 40
0.1224688784941098
 40
0.2150081129396446
 40
0.3102201689324705
 40
0.4029032822638342
 40
0.4982746585764402
 40
0.5909151940435968
 40
0.6862428376410581
 40
0.7788411152801307
 40
0.8741246294910833
 40
0.9666889853765291
 40
1.0
 40
1.0
 40
1.0
 40
1.0
 10
12.508
 20
1.772240951338417
 30
0.0
 10
12.71850813351952
 20
1.618677164458782
 30
0.0
 10
13.08807922050106
 20
1.349078386068367
 30
0.0
 10
13.62212240960171
 20
0.8399917037167479
 30
0.0
 10
14.10600398215585
 20
0.3444416723908386
 30
0.0
 10
14.59564484330145
 20
-0.1736641939540227
 30
0.0
 10
15.08191849503145
 20
-0.6745606584294578
 30
0.0
 10
15.57365089040615
 20
-1.140320919653562
 30
0.0
 10
16.06164689951321
 20
-1.536496045486449
 30
0.0
 10
16.55511689117116
 20
-1.851267213587879
 30
0.0
 10
17.04493374022094
 20
-2.051695107204225
 30
0.0
 10
17.43170198837759
 20
-2.143286272409069
 30
0.0
 10
17.65245415777372
 20
-2.125111557752509
 30
0.0
 10
17.71087288347985
 20
-2.12030189416817
 30
0.0
  0
SPLINE
  5
BF
330
1F
100
AcDbEntity
  8
0
  6
Continuous
 62
     1
370
    15
100
AcDbSpline
210
0.0
220
0.0
230
1.0
 70
     8
 71
     3
 72
    23
 73
    19
 74
     0
 42
0.000000001
 43
0.00000001
 40
0.0
 40
0.0
 40
0.0
 40
0.0
 40
0.0473542783949815
 40
0.1153895540593888
 40
0.1815125829347085
 40
0.2495512111883722
 40
0.3156809776772532
 40
0.3837262561371542
 40
0.449867872182963
 40
0.5179249058421519
 40
0.5840843972007722
 40
0.6521596488923217
 40
0.7183405659716705
 40
0.7864374791325104
 40
0.8526460697213862
 40
0.9207710511627785
 40
0.9870132589695373
 40
1.0
 40
1.0
 40
1.0
 40
1.0
 10
23.16900751573454
 20
1.754257199781055
 30
0.0
 10
23.28769948486621
 20
1.809730327738807
 30
0.0
 10
23.57691967473581
 20
1.944903319795272
 30
0.0
 10
24.03315340840722
 20
2.029318332593203
 30
0.0
 10
24.54219531997394
 20
2.017239232533287
 30
0.0
 10
25.04762570981127
 20
1.883640833460558
 30
0.0
 10
25.55885223940378
 20
1.639038088767207
 30
0.0
 10
26.06644177287865
 20
1.301114402663399
 30
0.0
 10
26.57988285725668
 20
0.8846981918808494
 30
0.0
 10
27.08970799862533
 20
0.4219189503684347
 30
0.0
 10
27.6054287751025
 20
-0.0672815879519515
 30
0.0
 10
28.11754325196198
 20
-0.5448788967165444
 30
0.0
 10
28.63558557068309
 20
-0.9903899321810365
 30
0.0
 10
29.15004343387108
 20
-1.3681478200332
 30
0.0
 10
29.67045663727518
 20
-1.665245800247361
 30
0.0
 10
30.18740146939088
 20
-1.845037325602896
 30
0.0
 10
30.5676286438878
 20
-1.921451551181066
 30
0.0
 10
30.77268035236782
 20
-1.899782568723938
 30
0.0
 10
30.8062912165149
 20
-1.896230717188681
 30
0.0
  0
SPLINE
  5
C0
330
1F
100
AcDbEntity
  8
0
  6
Continuous
 62
     1
370
    15
100
AcDbSpline
210
0.0
220
0.0
230
1.0
 70
     8
 71
     3
 72
    22
 73
    18
 74
     0
 42
0.000000001
 43
0.00000001
 40
0.0
 40
0.0
 40
0.0
 40
0.0
 40
0.0453250357297861
 40
0.1151076650738416
 40
0.1869072990586891
 40
0.2567717771632609
 40
0.3286551011041252
 40
0.3986102744763912
 40
0.4705863819670753
 40
0.5406405946219519
 40
0.6127181141141506
 40
0.6828794058893469
 40
0.7550665649374619
 40
0.8253440951960516
 40
0.8976502397345454
 40
0.9680540620276837
 40
1.0
 40
1.0
 40
1.0
 40
1.0
 10
36.18136434597
 20
1.524885453608589
 30
0.0
 10
36.29563524972938
 20
1.576744944196381
 30
0.0
 10
36.58583815207319
 20
1.708447540286266
 30
0.0
 10
37.05830724196366
 20
1.797350076848532
 30
0.0
 10
37.59389151257585
 20
1.794483155910336
 30
0.0
 10
38.13591388234093
 20
1.667109571745761
 30
0.0
 10
38.6745188680426
 20
1.431591903139075
 30
0.0
 10
39.21957677389047
 20
1.09858555420207
 30
0.0
 10
39.7612608039738
 20
0.6967691200230225
 30
0.0
 10
40.30945763108519
 20
0.2468679043920174
 30
0.0
 10
40.85430833897264
 20
-0.2126289749099491
 30
0.0
 10
41.40573144130682
 20
-0.6577684222729011
 30
0.0
 10
41.95384181841463
 20
-1.049646635805318
 30
0.0
 10
42.50857196307364
 20
-1.369794697232815
 30
0.0
 10
43.06009254524108
 20
-1.581652451340843
 30
0.0
 10
43.51304501284039
 20
-1.683442444920854
 30
0.0
 10
43.77928790109569
 20
-1.667446719527537
 30
0.0
 10
43.86238901214581
 20
-1.662454050762005
 30
0.0
  0
SPLINE
  5
C1
330
1F
100
AcDbEntity
  8
0
  6
Continuous
 62
     1
370
    15
100
AcDbSpline
210
0.0
220
0.0
230
1.0
 70
     8
 71
     3
 72
    11
 73
     7
 74
     0
 42
0.000000001
 43
0.00000001
 40
0.0
 40
0.0
 40
0.0
 40
0.0
 40
0.2062980788351191
 40
0.5561758652526145
 40
0.8929089327036823
 40
1.0
 40
1.0
 40
1.0
 40
1.0
 10
49.1682993359888
 20
1.308802188180788
 30
0.0
 10
49.25071653138178
 20
1.336863126652239
 30
0.0
 10
49.4729117899039
 20
1.41251490597217
 30
0.0
 10
49.81729619691406
 20
1.358624029768502
 30
0.0
 10
50.08540566853488
 20
1.194983436816768
 30
0.0
 10
50.19460309279348
 20
1.065804031789664
 30
0.0
 10
50.22095152180922
 20
1.034634117235716
 30
0.0
  0
SPLINE
  5
C2
330
1F
100
AcDbEntity
  8
0
  6
Continuous
 62
     1
370
    15
100
AcDbSpline
210
0.0
220
0.0
230
1.0
 70
     8
 71
     3
 72
    12
 73
     8
 74
     0
 42
0.000000001
 43
0.00000001
 40
0.0
 40
0.0
 40
0.0
 40
0.0
 40
0.1208949290200906
 40
0.4200517812002738
 40
0.7206414753614764
 40
0.9882706404235255
 40
1.0
 40
1.0
 40
1.0
 40
1.0
 10
49.71316844868572
 20
0.8016678828069482
 30
0.0
 10
49.73704251375234
 20
0.7932051110442239
 30
0.0
 10
49.81999341696232
 20
0.7638010460297758
 30
0.0
 10
49.96602539637644
 20
0.78672260073923
 30
0.0
 10
50.11896665035449
 20
0.873273028613826
 30
0.0
 10
50.19257793865966
 20
0.9768849685833936
 30
0.0
 10
50.21980821088053
 20
1.032307120591369
 30
0.0
 10
50.22095152180923
 20
1.034634117235716
 30
0.0
  0
SPLINE
  5
C3
330
1F
100
AcDbEntity
  8
0
  6
Continuous
 62
     1
370
    15
100
AcDbSpline
210
0.0
220
0.0
230
1.0
 70
     8
 71
     3
 72
    22
 73
    18
 74
     0
 42
0.000000001
 43
0.00000001
 40
0.0
 40
0.0
 40
0.0
 40
0.0
 40
0.0464380076734097
 40
0.120305331365235
 40
0.1918363328329635
 40
0.2654522931200676
 40
0.3367525829419948
 40
0.4101302306225709
 40
0.4812171243185357
 40
0.5543743328131511
 40
0.6252635082420667
 40
0.6982164461070425
 40
0.768923217211127
 40
0.8416876997380396
 40
0.9122269849198565
 40
0.9848184163946417
 40
1.0
 40
1.0
 40
1.0
 40
1.0
 10
46.98751019407835
 20
-1.352034457701097
 30
0.0
 10
46.8670403440151
 20
-1.405744256886046
 30
0.0
 10
46.55494329339854
 20
-1.544888365607259
 30
0.0
 10
46.05872990747493
 20
-1.644725727656121
 30
0.0
 10
45.49348487422964
 20
-1.651733303734588
 30
0.0
 10
44.93612529121235
 20
-1.533127528260933
 30
0.0
 10
44.37545050936354
 20
-1.30050016177401
 30
0.0
 10
43.82246336525014
 20
-0.973605529984243
 30
0.0
 10
43.26615059778637
 20
-0.5704918298528229
 30
0.0
 10
42.71736925305547
 20
-0.1271783308342817
 30
0.0
 10
42.16524188286877
 20
0.3326774434027271
 30
0.0
 10
41.62050113078927
 20
0.7685865574301144
 30
0.0
 10
41.07240103247678
 20
1.156846026128684
 30
0.0
 10
40.53152360719626
 20
1.466821203950539
 30
0.0
 10
39.9873649031239
 20
1.669882266048257
 30
0.0
 10
39.58888230100046
 20
1.762999286670347
 30
0.0
 10
39.36865909486471
 20
1.749391507345471
 30
0.0
 10
39.33056837856953
 20
1.747037849569043
 30
0.0
  0
SPLINE
  5
C4
330
1F
100
AcDbEntity
  8
0
  6
Continuous
 62
     1
370
    15
100
AcDbSpline
210
0.0
220
0.0
230
1.0
 70
     8
 71
     3
 72
    23
 73
    19
 74
     0
 42
0.000000001
 43
0.00000001
 40
0.0
 40
0.0
 40
0.0
 40
0.0
 40
0.0491559314064365
 40
0.1175564676633417
 40
0.1839436492272562
 40
0.252258480669925
 40
0.3185715057884483
 40
0.3868095380540615
 40
0.4530563031991207
 40
0.5212257810708283
 40
0.587415082471437
 40
0.655525058578742
 40
0.7216634684228103
 40
0.7897206364546977
 40
0.8558156070142392
 40
0.9238277949673432
 40
0.9898871198207408
 40
1.0
 40
1.0
 40
1.0
 40
1.0
 10
34.00903431929935
 20
-1.560895196223898
 30
0.0
 10
33.88235465718807
 20
-1.621647851029612
 30
0.0
 10
33.57940009653788
 20
-1.766937896315883
 30
0.0
 10
33.10663007726235
 20
-1.870084170946274
 30
0.0
 10
32.5857328345076
 20
-1.877967059102344
 30
0.0
 10
32.07125738776445
 20
-1.764306824814477
 30
0.0
 10
31.55328136767858
 20
-1.538306780016666
 30
0.0
 10
31.04160286413468
 20
-1.21678154108723
 30
0.0
 10
30.52642809014342
 20
-0.8142154423492063
 30
0.0
 10
30.01746764439743
 20
-0.3623706607236213
 30
0.0
 10
29.5050075466828
 20
0.1189856596730077
 30
0.0
 10
28.99867995117759
 20
0.5919283317681656
 30
0.0
 10
28.48883872945772
 20
1.036227831745414
 30
0.0
 10
27.98506422840374
 20
1.416121549063357
 30
0.0
 10
27.47774727138517
 20
1.719125007740137
 30
0.0
 10
26.9765220732266
 20
1.907286943221564
 30
0.0
 10
26.61605698009364
 20
1.992105430505713
 30
0.0
 10
26.42613557206005
 20
1.97691262007391
 30
0.0
 10
26.40092096205767
 20
1.974895571054295
 30
0.0
  0
SPLINE
  5
C5
330
1F
100
AcDbEntity
  8
0
  6
Continuous
 62
     1
370
    15
100
AcDbSpline
210
0.0
220
0.0
230
1.0
 70
     8
 71
     3
 72
    23
 73
    19
 74
     0
 42
0.000000001
 43
0.00000001
 40
0.0
 40
0.0
 40
0.0
 40
0.0
 40
0.0610392352833011
 40
0.1259860051338012
 40
0.189108685876037
 40
0.2540601379622555
 40
0.3171898691124851
 40
0.3821482611299084
 40
0.445291423047471
 40
0.510263542480393
 40
0.5734228456198199
 40
0.6384111987114809
 40
0.7015921564953154
 40
0.7666027691203402
 40
0.8298084195817802
 40
0.8948440672827753
 40
0.9580786311431658
 40
1.0
 40
1.0
 40
1.0
 40
1.0
 10
21.00170306372502
 20
-1.803861242183988
 30
0.0
 10
20.84620041372003
 20
-1.875643145441642
 30
0.0
 10
20.52524033663321
 20
-2.023802197408122
 30
0.0
 10
20.04466082573249
 20
-2.109078842262011
 30
0.0
 10
19.55517217111083
 20
-2.085535596414063
 30
0.0
 10
19.07120363346313
 20
-1.943861662591584
 30
0.0
 10
18.58367662086201
 20
-1.691901089748231
 30
0.0
 10
18.10160619563595
 20
-1.347056578362033
 30
0.0
 10
17.61599305371227
 20
-0.9223621151825075
 30
0.0
 10
17.1357842750562
 20
-0.4483249506770942
 30
0.0
 10
16.65201600271257
 20
0.0573983902273577
 30
0.0
 10
16.17360356780337
 20
0.5585053625620812
 30
0.0
 10
15.69164146650792
 20
1.036562246113702
 30
0.0
 10
15.21500158883022
 20
1.456926572800107
 30
0.0
 10
14.73478670070957
 20
1.805684848202106
 30
0.0
 10
14.25987549192037
 20
2.051866524742756
 30
0.0
 10
13.83855707185685
 20
2.190162264913582
 30
0.0
 10
13.5788742855224
 20
2.19313831710023
 30
0.0
 10
13.47534938121699
 20
2.194324747368403
 30
0.0
  0
SPLINE
  5
C6
330
1F
100
AcDbEntity
  8
0
  6
Continuous
 62
     1
370
    15
100
AcDbSpline
210
0.0
220
0.0
230
1.0
 70
     8
 71
     3
 72
    24
 73
    20
 74
     0
 42
0.000000001
 43
0.00000001
 40
0.0
 40
0.0
 40
0.0
 40
0.0
 40
0.0137883990041329
 40
0.0800011267000156
 40
0.144317935218976
 40
0.2105003009501765
 40
0.2747877714625764
 40
0.3409394998352186
 40
0.4052034197612401
 40
0.4713309182455377
 40
0.535572712500451
 40
0.6016770427009093
 40
0.6659018384423434
 40
0.7319885446738245
 40
0.7961990297213442
 40
0.8622707872052079
 40
0.9264708423197081
 40
0.9925314787725827
 40
1.0
 40
1.0
 40
1.0
 40
1.0
 10
14.48817627122979
 20
1.917271853794188
 30
0.0
 10
14.52250308934437
 20
1.936529004568437
 30
0.0
 10
14.72166936850189
 20
2.048260160485107
 30
0.0
 10
15.08197003605831
 20
2.145540805967609
 30
0.0
 10
15.57363755579368
 20
2.192452368550664
 30
0.0
 10
16.06164748391953
 20
2.110749561847521
 30
0.0
 10
16.55512730996066
 20
1.914771056998882
 30
0.0
 10
17.04489044601849
 20
1.616058430615841
 30
0.0
 10
17.54017915520668
 20
1.226904457947417
 30
0.0
 10
18.03174287767162
 20
0.7756726732127924
 30
0.0
 10
18.52885440019469
 20
0.2798013381852928
 30
0.0
 10
19.02226050308089
 20
-0.2242742821619192
 30
0.0
 10
19.52126110005651
 20
-0.7169786057078402
 30
0.0
 10
20.01655754781751
 20
-1.162295313834902
 30
0.0
 10
20.51747615396245
 20
-1.541845467715365
 30
0.0
 10
21.01467223908401
 20
-1.831586395326266
 30
0.0
 10
21.51762919061078
 20
-2.005407008920248
 30
0.0
 10
21.87099385092389
 20
-2.076555885597541
 30
0.0
 10
22.06013463071569
 20
-2.05432739264953
 30
0.0
 10
22.07934608333409
 20
-2.052069594836076
 30
0.0
  0
SPLINE
  5
C7
330
1F
100
AcDbEntity
  8
0
  6
Continuous
 62
     1
370
    15
100
AcDbSpline
210
0.0
220
0.0
230
1.0
 70
     8
 71
     3
 72
    23
 73
    19
 74
     0
 42
0.000000001
 43
0.00000001
 40
0.0
 40
0.0
 40
0.0
 40
0.0
 40
0.0119038915563975
 40
0.0810574426973056
 40
0.1482866533146351
 40
0.2174622090385172
 40
0.2847195315086676
 40
0.3539236001094972
 40
0.4212150722880711
 40
0.4904540285531426
 40
0.5577843656068279
 40
0.627062877370791
 40
0.6944390506054027
 40
0.7637642988866038
 40
0.8311927215833272
 40
0.9005714143437352
 40
0.9680577633732611
 40
1.0
 40
1.0
 40
1.0
 40
1.0
 10
27.5111067440608
 20
1.68140281773938
 30
0.0
 10
27.54097891183038
 20
1.697573652673688
 30
0.0
 10
27.74438815121692
 20
1.807686091101505
 30
0.0
 10
28.11760372357715
 20
1.908725805762201
 30
0.0
 10
28.63557014685085
 20
1.9650781736718
 30
0.0
 10
29.15004319941637
 20
1.892413051288835
 30
0.0
 10
29.67047227530134
 20
1.70558669397443
 30
0.0
 10
30.1873376375165
 20
1.41645874535226
 30
0.0
 10
30.71022872471218
 20
1.038987891931034
 30
0.0
 10
31.22956252251256
 20
0.6030045208540937
 30
0.0
 10
31.75496461382006
 20
0.1284662886635778
 30
0.0
 10
32.27682857450657
 20
-0.3466847512824386
 30
0.0
 10
32.80481546887738
 20
-0.8007096962855884
 30
0.0
 10
33.32929094296465
 20
-1.196563807774835
 30
0.0
 10
33.85992256624698
 20
-1.518119995442768
 30
0.0
 10
34.38712007527982
 20
-1.730966923219032
 30
0.0
 10
34.82339087379822
 20
-1.834121292326323
 30
0.0
 10
35.08111943206602
 20
-1.81913582104967
 30
0.0
 10
35.16391681411989
 20
-1.814321617304111
 30
0.0
  0
SPLINE
  5
C8
330
1F
100
AcDbEntity
  8
0
  6
Continuous
 62
     1
370
    15
100
AcDbSpline
210
0.0
220
0.0
230
1.0
 70
     8
 71
     3
 72
    22
 73
    18
 74
     0
 42
0.000000001
 43
0.00000001
 40
0.0
 40
0.0
 40
0.0
 40
0.0
 40
0.0450584799873283
 40
0.1164260966939515
 40
0.18985441261768
 40
0.2613402663652632
 40
0.3348896135678649
 40
0.4065039307642636
 40
0.4801848561223771
 40
0.5519373122646958
 40
0.6257597510721848
 40
0.6976605097777471
 40
0.7716348879228779
 40
0.843694993618839
 40
0.9178326044115778
 40
0.9900640565456607
 40
1.0
 40
1.0
 40
1.0
 40
1.0
 10
40.51837198208662
 20
1.454261947314383
 30
0.0
 10
40.63201298947326
 20
1.504555459754696
 30
0.0
 10
40.92564870284214
 20
1.634508297580143
 30
0.0
 10
41.4057653934081
 20
1.721930585465982
 30
0.0
 10
41.9538298412871
 20
1.717937647478393
 30
0.0
 10
42.50858634136824
 20
1.588705391898211
 30
0.0
 10
43.06004618142678
 20
1.351321794742119
 30
0.0
 10
43.61821834771894
 20
1.017340603463392
 30
0.0
 10
44.17314258491385
 20
0.6166095376785974
 30
0.0
 10
44.73484616696084
 20
0.1713002817887833
 30
0.0
 10
45.29333760150796
 20
-0.2789594922837996
 30
0.0
 10
45.85867780384657
 20
-0.7090448068346978
 30
0.0
 10
46.42085222739846
 20
-1.079389801325717
 30
0.0
 10
46.9899184398214
 20
-1.372813820510051
 30
0.0
 10
47.55598342839075
 20
-1.547772521882961
 30
0.0
 10
47.96153474617806
 20
-1.620625679395166
 30
0.0
 10
48.17540375480885
 20
-1.597601099703192
 30
0.0
 10
48.20126547722532
 20
-1.594816894116035
 30
0.0
  0
SPLINE
  5
C9
330
1F
100
AcDbEntity
  8
0
  6
Continuous
 62
     1
370
    15
100
AcDbSpline
210
0.0
220
0.0
230
1.0
 70
     8
 71
     3
 72
    17
 73
    13
 74
     0
 42
0.000000001
 43
0.00000001
 40
0.0
 40
0.0
 40
0.0
 40
0.0
 40
0.1336094925760889
 40
0.2364711530170274
 40
0.3422945443811188
 40
0.4454153051668607
 40
0.5515426452552731
 40
0.6543133230085619
 40
0.7600795219562726
 40
0.8625187295537129
 40
0.9679425378234301
 40
1.0
 40
1.0
 40
1.0
 40
1.0
 10
49.0482056952192
 20
-1.375697509913755
 30
0.0
 10
48.80481739341788
 20
-1.269149052734843
 30
0.0
 10
48.37405224905481
 20
-1.080572357804772
 30
0.0
 10
47.75352087697676
 20
-0.6661997217141005
 30
0.0
 10
47.18925044998983
 20
-0.2430008717514178
 30
0.0
 10
46.62061292996513
 20
0.2092420345137956
 30
0.0
 10
46.0586941775407
 20
0.6458410205219597
 30
0.0
 10
45.49349850754999
 20
1.041185432635267
 30
0.0
 10
44.93610688539591
 20
1.361611923651997
 30
0.0
 10
44.37550923288236
 20
1.578577152041666
 30
0.0
 10
43.94730938901048
 20
1.682409324032147
 30
0.0
 10
43.70273729268916
 20
1.67144636775034
 30
0.0
 10
43.64570871925647
 20
1.668890059133125
 30
0.0
  0
SPLINE
  5
CA
330
1F
100
AcDbEntity
  8
0
  6
Continuous
 62
     1
370
    15
100
AcDbSpline
210
0.0
220
0.0
230
1.0
 70
     8
 71
     3
 72
    22
 73
    18
 74
     0
 42
0.000000001
 43
0.00000001
 40
0.0
 40
0.0
 40
0.0
 40
0.0
 40
0.0653530860219155
 40
0.1351612459249585
 40
0.2028719526425576
 40
0.2725507152740698
 40
0.3401478737573767
 40
0.4097092658149272
 40
0.4772030821044905
 40
0.5466575795359947
 40
0.614057493863013
 40
0.683414901384916
 40
0.750730788919265
 40
0.8200012926820329
 40
0.8872419863789529
 40
0.9564346166028292
 40
1.0
 40
1.0
 40
1.0
 40
1.0
 10
38.35160320115026
 20
-1.489684125842018
 30
0.0
 10
38.18247885931326
 20
-1.563222660969531
 30
0.0
 10
37.83270108827946
 20
-1.715312801410609
 30
0.0
 10
37.30912574711243
 20
-1.806960934290562
 30
0.0
 10
36.77560742725439
 20
-1.788065651585816
 30
0.0
 10
36.24888904420927
 20
-1.649265131132116
 30
0.0
 10
35.71871876530399
 20
-1.399693957656898
 30
0.0
 10
35.19521633795139
 20
-1.059275661185227
 30
0.0
 10
34.66825390068139
 20
-0.6441849421716642
 30
0.0
 10
34.14785869194453
 20
-0.1884343656309831
 30
0.0
 10
33.62399518185999
 20
0.286767086263294
 30
0.0
 10
33.1066048066801
 20
0.7428297319155
 30
0.0
 10
32.58574154784547
 20
1.15838704609615
 30
0.0
 10
32.07124818470407
 20
1.501410136727045
 30
0.0
 10
31.55330898489778
 20
1.750350625290295
 30
0.0
 10
31.10084349312229
 20
1.889081277251781
 30
0.0
 10
30.81824027651365
 20
1.892843362482619
 30
0.0
 10
30.70905320336951
 20
1.894296888313653
 30
0.0
  0
SPLINE
  5
CB
330
1F
100
AcDbEntity
  8
0
  6
Continuous
 62
     1
370
    15
100
AcDbSpline
210
0.0
220
0.0
230
1.0
 70
     8
 71
     3
 72
    23
 73
    19
 74
     0
 42
0.000000001
 43
0.00000001
 40
0.0
 40
0.0
 40
0.0
 40
0.0
 40
0.0484181589942417
 40
0.1124822899000025
 40
0.178403803386169
 40
0.2424504939866121
 40
0.3083536572399063
 40
0.37238878030514
 40
0.4382798833761296
 40
0.5023094209011447
 40
0.5681944321348482
 40
0.632221982252084
 40
0.6981047283664239
 40
0.762137097627745
 40
0.828024593455547
 40
0.8920641147313704
 40
0.9579586505047566
 40
1.0
 40
1.0
 40
1.0
 40
1.0
 10
25.34067720556535
 20
-1.714315506070015
 30
0.0
 10
25.21675828061571
 20
-1.776091541398248
 30
0.0
 10
24.92887694167551
 20
-1.91960608344206
 30
0.0
 10
24.47359570399974
 20
-2.021261594930396
 30
0.0
 10
23.97924175956073
 20
-2.028003916874149
 30
0.0
 10
23.48138443458675
 20
-1.912962784301227
 30
0.0
 10
22.98924222448954
 20
-1.688966786825855
 30
0.0
 10
22.49356393795223
 20
-1.363615318356574
 30
0.0
 10
22.00355943664633
 20
-0.9613248242131016
 30
0.0
 10
21.51001036474611
 20
-0.4978120090518542
 30
0.0
 10
21.02206634556876
 20
-0.0073668397584642
 30
0.0
 10
20.530576466084
 20
0.4908348411349776
 30
0.0
 10
20.04464633466765
 20
0.9602192784062212
 30
0.0
 10
19.55517769797729
 20
1.382146523105907
 30
0.0
 10
19.07119618774648
 20
1.727173407160007
 30
0.0
 10
18.58370043995366
 20
1.976123174702743
 30
0.0
 10
18.1562300035248
 20
2.114664066045003
 30
0.0
 10
17.88868741303018
 20
2.118574762441667
 30
0.0
 10
17.78447877543153
 20
2.120097990361397
 30
0.0
  0
SPLINE
  5
CC
330
1F
100
AcDbEntity
  8
0
  6
Continuous
 62
     4
370
    15
100
AcDbSpline
210
0.0
220
0.0
230
1.0
 70
     8
 71
     3
 72
    10
 73
     6
 74
     0
 42
0.000000001
 43
0.00000001
 40
0.0
 40
0.0
 40
0.0
 40
0.0
 40
0.1491174728053425
 40
0.520540985380077
 40
1.0
 40
1.0
 40
1.0
 40
1.0
 10
12.32551328884132
 20
-1.97052827690551
 30
0.0
 10
12.28379397785443
 20
-1.995446720441814
 30
0.0
 10
12.13815972827967
 20
-2.08243230910893
 30
0.0
 10
11.85999070646425
 20
-2.200436528219806
 30
0.0
 10
11.62462493575145
 20
-2.250192026699116
 30
0.0
 10
11.492
 20
-2.278228472989139
 30
0.0
  0
SPLINE
  5
CD
330
1F
100
AcDbEntity
  8
0
  6
Continuous
 62
     4
370
    15
100
AcDbSpline
210
0.0
220
0.0
230
1.0
 70
     8
 71
     3
 72
    10
 73
     6
 74
     0
 42
0.000000001
 43
0.00000001
 40
0.0
 40
0.0
 40
0.0
 40
0.0
 40
0.5
 40
0.5
 40
1.0
 40
1.0
 40
1.0
 40
1.0
 10
11.492
 20
-1.46230967333199
 30
0.0
 10
11.66073899558979
 20
-1.595315067655448
 30
0.0
 10
11.82844470944528
 20
-1.711991799680664
 30
0.0
 10
12.16683958924934
 20
-1.910131997948846
 30
0.0
 10
12.33705376418754
 20
-1.991062788688012
 30
0.0
 10
12.50800000000001
 20
-2.051270029372426
 30
0.0
  0
SPLINE
  5
CE
330
1F
100
AcDbEntity
  8
0
  6
Continuous
 62
     1
370
    15
100
AcDbSpline
210
0.0
220
0.0
230
1.0
 70
     8
 71
     3
 72
     9
 73
     5
 74
     0
 42
0.000000001
 43
0.00000001
 40
0.0
 40
0.0
 40
0.0
 40
0.0
 40
0.760291854296241
 40
1.0
 40
1.0
 40
1.0
 40
1.0
 10
12.508
 20
-2.05127002937242
 30
0.0
 10
12.71845728626836
 20
-2.124534542072439
 30
0.0
 10
12.99526846749978
 20
-2.220898211216094
 30
0.0
 10
13.27266055559876
 20
-2.20122003552911
 30
0.0
 10
13.33915369866986
 20
-2.196503016524349
 30
0.0
  0
SPLINE
  5
CF
330
1F
100
AcDbEntity
  8
0
  6
Continuous
 62
     1
370
    15
100
AcDbSpline
210
0.0
220
0.0
230
1.0
 70
     8
 71
     3
 72
    23
 73
    19
 74
     0
 42
0.000000001
 43
0.00000001
 40
0.0
 40
0.0
 40
0.0
 40
0.0
 40
0.0259154363418954
 40
0.0911148995914856
 40
0.1582045294530261
 40
0.2233894648313912
 40
0.2904639190849811
 40
0.3556382662469612
 40
0.4227014306981796
 40
0.4878706780446881
 40
0.5549285055319197
 40
0.6200953310746291
 40
0.6871502314904598
 40
0.7523204402259731
 40
0.8193786449208935
 40
0.8845554941822514
 40
0.9516202532552149
 40
1.0
 40
1.0
 40
1.0
 40
1.0
 10
18.8329894238131
 20
1.833521653895187
 30
0.0
 10
18.89770514546415
 20
1.867793604828677
 30
0.0
 10
19.12523619693611
 20
1.988288792596788
 30
0.0
 10
19.52130148903792
 20
2.084476142932834
 30
0.0
 10
20.01654807310926
 20
2.111508546490267
 30
0.0
 10
20.51747466642736
 20
2.01181335049753
 30
0.0
 10
21.01468826879734
 20
1.801533848363898
 30
0.0
 10
21.5175680011496
 20
1.486979802655144
 30
0.0
 10
22.0167679781732
 20
1.092450820740087
 30
0.0
 10
22.52166543135834
 20
0.6337871639430216
 30
0.0
 10
23.02288732559611
 20
0.1455796727853013
 30
0.0
 10
23.52983681597841
 20
-0.3522470578808119
 30
0.0
 10
24.03313095432661
 20
-0.8221704066096621
 30
0.0
 10
24.54220297582456
 20
-1.244547742346183
 30
0.0
 10
25.04761789294031
 20
-1.5887317192363
 30
0.0
 10
25.55887547789548
 20
-1.835506239925922
 30
0.0
 10
26.02314905375594
 20
-1.972201694110982
 30
0.0
 10
26.32064076183884
 20
-1.971147537200227
 30
0.0
 10
26.44531168830498
 20
-1.970705767849573
 30
0.0
  0
SPLINE
  5
D0
330
1F
100
AcDbEntity
  8
0
  6
Continuous
 62
     1
370
    15
100
AcDbSpline
210
0.0
220
0.0
230
1.0
 70
     8
 71
     3
 72
    22
 73
    18
 74
     0
 42
0.000000001
 43
0.00000001
 40
0.0
 40
0.0
 40
0.0
 40
0.0
 40
0.0589303248443435
 40
0.1272571022058295
 40
0.1975604539314514
 40
0.2659402179378236
 40
0.3362977681858113
 40
0.4047362758021979
 40
0.4751537946344277
 40
0.5436588875106848
 40
0.6141444358609565
 40
0.682723374242134
 40
0.7532845256507582
 40
0.8219439009709959
 40
0.8925872987551259
 40
0.9613358049268813
 40
1.0
 40
1.0
 40
1.0
 40
1.0
 10
31.83589950986442
 20
1.599451300341462
 30
0.0
 10
31.98449675989309
 20
1.663727904284326
 30
0.0
 10
32.30538512228296
 20
1.802530029998141
 30
0.0
 10
32.8048369029815
 20
1.881946680898208
 30
0.0
 10
33.32928256759956
 20
1.856382057312479
 30
0.0
 10
33.85993483909204
 20
1.708928930413396
 30
0.0
 10
34.3870785694357
 20
1.455432786840261
 30
0.0
 10
34.92044623169686
 20
1.107153386414072
 30
0.0
 10
35.45033536141047
 20
0.692953598219384
 30
0.0
 10
35.9865042120468
 20
0.2328731408475858
 30
0.0
 10
36.51922292326347
 20
-0.2350926441186509
 30
0.0
 10
37.05827556137889
 20
-0.6881169053350786
 30
0.0
 10
37.59390226381205
 20
-1.088105724649929
 30
0.0
 10
38.13590211699215
 20
-1.417174828018223
 30
0.0
 10
38.6745558046827
 20
-1.640559575309142
 30
0.0
 10
39.13628046055099
 20
-1.754131474176491
 30
0.0
 10
39.41564993406705
 20
-1.742503002973459
 30
0.0
 10
39.51621155942711
 20
-1.738317227233854
 30
0.0
  0
SPLINE
  5
D1
330
1F
100
AcDbEntity
  8
0
  6
Continuous
 62
     1
370
    15
100
AcDbSpline
210
0.0
220
0.0
230
1.0
 70
     8
 71
     3
 72
    15
 73
    11
 74
     0
 42
0.000000001
 43
0.00000001
 40
0.0
 40
0.0
 40
0.0
 40
0.0
 40
0.1103874955364533
 40
0.242907588171161
 40
0.3792495631499221
 40
0.5120633477888438
 40
0.6487061764160421
 40
0.7818357692086095
 40
0.9188021838097171
 40
1.0
 40
1.0
 40
1.0
 40
1.0
 10
44.83707513776607
 20
1.3836405407516
 30
0.0
 10
44.99080946403644
 20
1.445150211501938
 30
0.0
 10
45.32910171563592
 20
1.58050218863084
 30
0.0
 10
45.85870342988716
 20
1.655588551112266
 30
0.0
 10
46.4208404861492
 20
1.624894491881363
 30
0.0
 10
46.98993986359815
 20
1.470609366538544
 30
0.0
 10
47.55590792709305
 20
1.210809851521404
 30
0.0
 10
48.12884413324841
 20
0.8597145279110383
 30
0.0
 10
48.62502182002776
 20
0.5033086874824941
 30
0.0
 10
48.93342292011816
 20
0.2685086536885667
 30
0.0
 10
49.04820569521921
 20
0.1811192135575591
 30
0.0
  0
SPLINE
  5
D2
330
1F
100
AcDbEntity
  8
0
  6
Continuous
 62
     1
370
    15
100
AcDbSpline
210
0.0
220
0.0
230
1.0
 70
     8
 71
     3
 72
    14
 73
    10
 74
     0
 42
0.000000001
 43
0.00000001
 40
0.0
 40
0.0
 40
0.0
 40
0.0
 40
0.25
 40
0.25
 40
0.5
 40
0.5
 40
0.75
 40
0.75
 40
1.0
 40
1.0
 40
1.0
 40
1.0
 10
49.0482056952192
 20
0.1811192135575528
 30
0.0
 10
49.15917659226222
 20
0.0963356759518959
 30
0.0
 10
49.26801910783466
 20
0.0115155321274797
 30
0.0
 10
49.4864569088562
 20
-0.1515555548631609
 30
0.0
 10
49.59327753637501
 20
-0.2275877657816567
 30
0.0
 10
49.79846818089108
 20
-0.3621571388024737
 30
0.0
 10
49.89808670959748
 20
-0.421195930466616
 30
0.0
 10
50.07607129317702
 20
-0.519390429332103
 30
0.0
 10
50.15707936039245
 20
-0.5597531399331024
 30
0.0
 10
50.22095152180142
 20
-0.5976506003454563
 30
0.0
  0
SPLINE
  5
D3
330
1F
100
AcDbEntity
  8
0
  6
Continuous
 62
     1
370
    15
100
AcDbSpline
210
0.0
220
0.0
230
1.0
 70
     8
 71
     3
 72
    14
 73
    10
 74
     0
 42
0.000000001
 43
0.00000001
 40
0.0
 40
0.0
 40
0.0
 40
0.0
 40
0.25
 40
0.25
 40
0.5
 40
0.5
 40
0.75
 40
0.75
 40
1.0
 40
1.0
 40
1.0
 40
1.0
 10
49.39047906875528
 20
-1.085913955078021
 30
0.0
 10
49.45701998883266
 20
-1.024689921148415
 30
0.0
 10
49.52960029953092
 20
-0.9633183940569315
 30
0.0
 10
49.68256761471301
 20
-0.8458561162625082
 30
0.0
 10
49.76261967651829
 20
-0.790086507350361
 30
0.0
 10
49.91940512181922
 20
-0.6944989510381594
 30
0.0
 10
49.99656108827076
 20
-0.654733673880812
 30
0.0
 10
50.12782884177947
 20
-0.6044569729565058
 30
0.0
 10
50.18244133528349
 20
-0.5938525350127691
 30
0.0
 10
50.22095152181387
 20
-0.5976506003506572
 30
0.0
  0
SPLINE
  5
D4
330
1F
100
AcDbEntity
  8
0
  6
Continuous
 62
     1
370
    15
100
AcDbSpline
210
0.0
220
0.0
230
1.0
 70
     8
 71
     3
 72
     8
 73
     4
 74
     0
 42
0.000000001
 43
0.00000001
 40
0.0
 40
0.0
 40
0.0
 40
0.0
 40
1.0
 40
1.0
 40
1.0
 40
1.0
 10
49.39047906877249
 20
-1.08591395505542
 30
0.0
 10
49.50023021325143
 20
-1.189867711609753
 30
0.0
 10
49.60742855210079
 20
-1.29360270179909
 30
0.0
 10
49.71331064666472
 20
-1.397224894533572
 30
0.0
  0
SPLINE
  5
D5
330
1F
100
AcDbEntity
  8
0
  6
Continuous
 62
     1
370
    15
100
AcDbSpline
210
0.0
220
0.0
230
1.0
 70
     8
 71
     3
 72
    10
 73
     6
 74
     0
 42
0.000000001
 43
0.00000001
 40
0.0
 40
0.0
 40
0.0
 40
0.0
 40
0.5000000000000001
 40
0.5000000000000001
 40
1.0
 40
1.0
 40
1.0
 40
1.0
 10
49.71331064666469
 20
-1.397224894533592
 30
0.0
 10
49.60212132966789
 20
-1.435887055164114
 30
0.0
 10
49.49263583799285
 20
-1.45078243861946
 30
0.0
 10
49.26981881318174
 20
-1.441222683355906
 30
0.0
 10
49.16012750562176
 20
-1.416922697259754
 30
0.0
 10
49.0482056952192
 20
-1.375697509913756
 30
0.0
  0
LINE
  5
D6
330
1F
100
AcDbEntity
  8
0
  6
Continuous
 62
     4
370
    15
100
AcDbLine
 10
12.50800000000001
 20
-0.119325615172561
 30
0.0
 11
12.50800000000001
 21
-2.051270029372426
 31
0.0
  0
LINE
  5
D7
330
1F
100
AcDbEntity
  8
0
  6
Continuous
 62
     1
370
    15
100
AcDbLine
 10
49.04820569521921
 20
1.373511758371917
 30
0.0
 11
49.0482056952192
 21
0.1811192135575501
 31
0.0
  0
LINE
  5
D8
330
1F
100
AcDbEntity
  8
0
  6
Continuous
 62
     4
370
    15
100
AcDbLine
 10
12.50800000000001
 20
2.225069878961256
 30
0.0
 11
12.50800000000001
 21
1.772240951338409
 31
0.0
  0
ARC
  5
D9
330
1F
100
AcDbEntity
  8
0
  6
Continuous
 62
     1
370
    15
100
AcDbCircle
 10
48.52163624428115
 20
1.167502506401102
 30
0.0
 40
1.210399784780053
100
AcDbArc
 50
336.4522834173312
 51
349.9086319336735
  0
LINE
  5
DA
330
1F
100
AcDbEntity
  8
0
  6
Continuous
 62
     1
370
    15
100
AcDbLine
 10
49.6312432231063
 20
0.6839324581783971
 30
0.0
 11
50.608
 21
0.0000000000000155
 31
0.0
  0
ARC
  5
DB
330
1F
100
AcDbEntity
  8
0
  6
Continuous
 62
     1
370
    15
100
AcDbCircle
 10
49.50569028281515
 20
0.2897193044820147
 30
0.0
 40
1.139747335153584
100
AcDbArc
 50
308.8704227872323
 51
345.2740456690066
  0
ARC
  5
DC
330
1F
100
AcDbEntity
  8
0
  6
Continuous
 62
     1
370
    15
100
AcDbCircle
 10
49.60464151023807
 20
-1.346229872975933
 30
0.0
 40
0.120039466157488
100
AcDbArc
 50
291.928791471353
 51
334.8608056312967
  0
ARC
  5
DD
330
1F
100
AcDbEntity
  8
0
  6
Continuous
 62
     1
370
    15
100
AcDbCircle
 10
48.91273378000574
 20
0.0718832404420524
 30
0.0
 40
1.6967895440832
100
AcDbArc
 50
296.5637109233197
 51
357.5719798189273
  0
ARC
  5
DE
330
1F
100
AcDbEntity
  8
0
  6
Continuous
 62
     1
370
    15
100
AcDbCircle
 10
49.04301112545834
 20
0.0042629352334737
 30
0.0
 40
1.56499468052002
100
AcDbArc
 50
359.8439301409136
 51
41.17692474356812
  0
LINE
  5
DF
330
1F
100
AcDbEntity
  8
0
  6
Continuous
 62
     8
370
    15
100
AcDbLine
 10
49.04820569521921
 20
-1.375697509913756
 30
0.0
 11
49.0482056952192
 21
-1.58725821606076
 31
0.0
  0
LINE
  5
E0
330
1F
100
AcDbEntity
  8
중심선
100
AcDbLine
 10
-28.59200000000001
 20
-0.0000000000000043
 30
0.0
 11
55.0482056952192
 21
-0.0000000000000043
 31
0.0
  0
CIRCLE
  5
E1
330
1F
100
AcDbEntity
  8
외형선
100
AcDbCircle
 10
-1.367723745547504
 20
-0.0000000000000043
 30
0.0
 40
3.0
  0
INSERT
  5
E2
330
1F
100
AcDbEntity
  8
0
  6
Continuous
 62
     7
100
AcDbBlockReference
 66
     1
  2
블럭10
 10
-1.432773799681436
 20
-52.05975325537357
 30
0.0
  0
ATTRIB
  5
E3
330
E2
100
AcDbEntity
  8
FORMAT
 62
     2
100
AcDbText
 10
-10.61406908842272
 20
-49.98438634254137
 30
0.0
 40
4.233333333333333
  1
E5078108 [ 3 FLUTE ]
 41
0.75
  7
SLDTEXTSTYLE0
 11
-10.61406908842272
 21
-52.10105300920804
 31
0.0
100
AcDbAttribute
  2
AUTOATTR0
 70
     0
 74
     1
  0
SEQEND
  5
E4
330
E2
100
AcDbEntity
  8
0
  6
Continuous
 62
     7
  0
HATCH
  5
E5
330
1F
100
AcDbEntity
  8
중심선
100
AcDbHatch
 10
0.0
 20
0.0
 30
0.0
210
0.0
220
0.0
230
1.0
  2
SOLID
 70
     1
 71
     0
 91
        1
 92
        0
 93
        4
 72
     1
 10
4.282135504699413
 20
-35.81257895372963
 11
0.8358602608621313
 21
-35.81257895372963
 72
     1
 10
0.8358602608621313
 20
-35.81257895372963
 11
-1.292369598341891
 21
-38.34890453430223
 72
     1
 10
-1.292369598341891
 20
-38.34890453430223
 11
2.15393873060854
 21
-38.34886510499974
 72
     1
 10
2.15393873060854
 20
-38.34886510499974
 11
4.282135504699413
 21
-35.81257895372963
 97
        0
 75
     0
 76
     1
 98
        1
 10
0.0
 20
0.0
  0
HATCH
  5
E6
330
1F
100
AcDbEntity
  8
중심선
100
AcDbHatch
 10
0.0
 20
0.0
 30
0.0
210
0.0
220
0.0
230
1.0
  2
SOLID
 70
     1
 71
     0
 91
        1
 92
        0
 93
        4
 72
     1
 10
9.294899495735365
 20
-35.81257895372963
 11
5.848624251898082
 21
-35.81257895372963
 72
     1
 10
5.848624251898082
 20
-35.81257895372963
 11
1.317486243540694
 21
-41.21257895372965
 72
     1
 10
1.317486243540694
 20
-41.21257895372965
 11
4.763761487377977
 21
-41.21257895372965
 72
     1
 10
4.763761487377977
 20
-41.21257895372965
 11
9.294899495735365
 21
-35.81257895372963
 97
        0
 75
     0
 76
     1
 98
        1
 10
0.0
 20
0.0
  0
HATCH
  5
E7
330
1F
100
AcDbEntity
  8
중심선
100
AcDbHatch
 10
0.0
 20
0.0
 30
0.0
210
0.0
220
0.0
230
1.0
  2
SOLID
 70
     1
 71
     0
 91
        1
 92
        0
 93
        4
 72
     1
 10
14.30766348677126
 20
-35.81257895372966
 11
10.86138824293414
 21
-35.81257895372963
 72
     1
 10
10.86138824293414
 20
-35.81257895372963
 11
3.812951341044895
 21
-44.21257895372965
 72
     1
 10
3.812951341044895
 20
-44.21257895372965
 11
7.259226584882178
 21
-44.21257895372965
 72
     1
 10
7.259226584882178
 20
-44.21257895372965
 11
14.30766348677126
 21
-35.81257895372966
 97
        0
 75
     0
 76
     1
 98
        1
 10
0.0
 20
0.0
  0
HATCH
  5
E8
330
1F
100
AcDbEntity
  8
중심선
100
AcDbHatch
 10
0.0
 20
0.0
 30
0.0
210
0.0
220
0.0
230
1.0
  2
SOLID
 70
     1
 71
     0
 91
        1
 92
        0
 93
        6
 72
     3
 10
19.10755391778346
 20
-40.01257895378091
 11
3.960054785062284
 21
1.540850780301639E-10
 40
0.3939339440162633
 50
17.09539180608434
 51
320.0019657685079
 73
     0
 72
     1
 10
20.79055357348405
 20
-38.60047295836794
 11
23.09585544718509
 21
-36.66614624832001
 72
     3
 10
19.10755391773061
 20
-40.01257895372979
 11
6.600054785286829
 21
-1.249000902703301E-13
 40
0.6363583540795982
 50
39.99873849337412
 51
368.4976242363724
 73
     1
 72
     1
 10
25.53288640963122
 20
-39.05257895365965
 11
17.78762122456654
 21
-39.05257895365963
 72
     1
 10
17.78762122456654
 20
-39.05257895365963
 11
17.7875961801206
 21
-40.97257895365955
 72
     1
 10
17.7875961801206
 20
-40.97257895365955
 11
22.22897594959264
 21
-40.97257895365952
 97
        0
 75
     0
 76
     1
 98
        1
 10
0.0
 20
0.0
  0
DIMENSION
  5
E9
330
1F
100
AcDbEntity
  8
치수문자_일반주서
100
AcDbDimension
  2
_D
 10
12.50799999999999
 20
40.17689290598011
 30
0.0
 11
31.55799999999999
 21
40.17689290598011
 31
0.0
 70
   160
  1
<>
 71
     2
 42
38.09999999999999
  3
SLDDIMSTYLE0
100
AcDbAlignedDimension
 13
50.608
 23
1.587499999999996
 33
0.0
 14
12.508
 24
3.851774598917539
 34
0.0
100
AcDbRotatedDimension
1001
ACAD
1000
DSTYLE
1002
{
1070
   171
1070
     6
1070
   273
1070
     7
1002
}
  0
DIMENSION
  5
FF
102
{ACAD_REACTORS
102
}
330
1F
100
AcDbEntity
  8
치수문자_일반주서
100
AcDbDimension
  2
_D_1
 10
-25.59200000000001
 20
54.84819590333735
 30
0.0
 11
17.51729980218037
 21
54.84819590333735
 31
0.0
 70
   160
  1
<>
 71
     2
 42
76.19999999999999
  3
SLDDIMSTYLE1
100
AcDbAlignedDimension
 13
50.608
 23
1.649999999999996
 33
0.0
 14
-25.592
 24
2.364999999999995
 34
0.0
100
AcDbRotatedDimension
1001
ACAD
1000
DSTYLE
1002
{
1070
   171
1070
     6
1070
   273
1070
     7
1002
}
  0
DIMENSION
  5
113
330
1F
100
AcDbEntity
  8
치수문자_일반주서
100
AcDbDimension
  2
_D_2
 10
-38.59199999999998
 20
-3.17500000000004
 30
0.0
 11
-38.59199999999999
 21
0.8697769195248211
 31
0.0
 70
   160
  1
%%c<>
 71
     2
 42
6.349999999999995
  3
SLDDIMSTYLE2
100
AcDbAlignedDimension
 13
-24.78199999999999
 23
3.175000000000002
 33
0.0
 14
-24.78199999999999
 24
-3.174999999999993
 34
0.0
 50
90.0000000000002
100
AcDbRotatedDimension
1001
ACAD
1000
DSTYLE
1002
{
1070
   171
1070
     6
1070
   273
1070
     7
1002
}
  0
INSERT
  5
12E
330
1F
100
AcDbEntity
  8
외형선
100
AcDbBlockReference
  2
SW_DOWELSYMBOL_0
 10
-1.367723745547504
 20
-0.0000000000000043
 30
0.0
  0
DIMENSION
  5
155
330
1F
100
AcDbEntity
  8
치수문자_일반주서
100
AcDbDimension
  2
*D6
 10
19.89617215427393
 20
2.096108854307555
 30
0.0
 11
18.44425207166585
 21
11.0529354209936
 31
0.0
 70
    34
  1
<>
 71
     5
 42
0.0174532925199432
  3
SLDDIMSTYLE0
100
AcDb2LineAngularDimension
 13
-28.59200000000001
 23
-0.0000000000000043
 33
0.0
 14
55.0482056952192
 24
-0.0000000000000043
 34
0.0
 15
22.09271178041663
 25
2.057768112515832
 35
0.0
 16
20.58932444282889
 26
0.6946072444118868
 36
0.0
1001
ACAD
1000
DSTYLE
1002
{
1070
   171
1070
     6
1070
   273
1070
     7
1002
}
  0
DIMENSION
  5
18C
102
{ACAD_XDICTIONARY
360
18D
102
}
330
1F
100
AcDbEntity
  8
치수문자_일반주서
100
AcDbDimension
  2
*D7
 10
61.82482437115147
 20
1.587499999999995
 30
0.0
 11
59.19982437115147
 21
20.44149999999999
 31
0.0
 70
    32
  1
{%%c<>[]}
 71
     5
 42
3.175
  3
SLDDIMSTYLE2
100
AcDbAlignedDimension
 13
50.64284007957581
 23
-1.587500000000004
 33
0.0
 14
50.608
 24
1.587499999999996
 34
0.0
 50
90.0
100
AcDbRotatedDimension
1001
ACAD
1000
DSTYLE
1002
{
1070
   283
1070
     1
1070
   170
1070
     1
1070
   171
1070
     6
1070
   273
1070
     7
1002
}
  0
ENDSEC
  0
SECTION
  2
OBJECTS
  0
DICTIONARY
  5
C
330
0
100
AcDbDictionary
281
     1
  3
ACAD_GROUP
350
D
  3
ACAD_IMAGE_VARS
350
152
  3
ACAD_LAYOUT
350
1A
  3
ACAD_MLINESTYLE
350
17
  3
ACAD_PLOTSETTINGS
350
19
  3
ACAD_PLOTSTYLENAME
350
E
  3
ACAD_SCALELIST
350
47
  3
APPDATA
350
150
  3
DWGPROPS
350
19F
  0
DICTIONARY
  5
18D
330
18C
100
AcDbDictionary
280
     1
281
     1
  0
DICTIONARY
  5
D
102
{ACAD_REACTORS
330
C
102
}
330
C
100
AcDbDictionary
281
     1
  0
RASTERVARIABLES
  5
152
102
{ACAD_REACTORS
330
C
102
}
330
C
100
AcDbRasterVariables
 90
        0
 70
     1
 71
     1
 72
     1
  0
DICTIONARY
  5
1A
102
{ACAD_REACTORS
330
C
102
}
330
C
100
AcDbDictionary
281
     1
  3
Layout1
350
1E
  3
Layout2
350
26
  3
Model
350
22
  0
DICTIONARY
  5
17
102
{ACAD_REACTORS
330
C
102
}
330
C
100
AcDbDictionary
281
     1
  3
Standard
350
18
  0
DICTIONARY
  5
19
102
{ACAD_REACTORS
330
C
102
}
330
C
100
AcDbDictionary
281
     1
  0
ACDBDICTIONARYWDFLT
  5
E
102
{ACAD_REACTORS
330
C
102
}
330
C
100
AcDbDictionary
281
     1
  3
Normal
350
F
100
AcDbDictionaryWithDefault
340
F
  0
DICTIONARY
  5
47
102
{ACAD_REACTORS
330
C
102
}
330
C
100
AcDbDictionary
281
     1
  3
A0
350
48
  3
A1
350
49
  3
A2
350
4A
  3
A3
350
4B
  3
A4
350
4C
  3
A5
350
4D
  3
A6
350
4E
  3
A7
350
4F
  3
A8
350
50
  3
A9
350
51
  3
B0
350
52
  3
B1
350
53
  3
B2
350
54
  3
B3
350
55
  3
B4
350
56
  3
B5
350
57
  3
B6
350
58
  3
B7
350
59
  3
B8
350
5A
  3
B9
350
5B
  3
C0
350
5C
  3
C1
350
5D
  3
C2
350
5E
  3
C3
350
5F
  3
C4
350
60
  3
C5
350
61
  3
C6
350
62
  3
C7
350
63
  3
C8
350
64
  3
C9
350
65
  3
D0
350
66
  3
D1
350
67
  3
D2
350
68
  0
DICTIONARY
  5
150
102
{ACAD_REACTORS
330
C
102
}
330
C
100
AcDbDictionary
281
     1
  0
XRECORD
  5
19F
102
{ACAD_REACTORS
330
C
102
}
330
C
100
AcDbXrecord
280
     1
  1
DWGPROPS COOKIE
  2

  3

  4

  6

  7

  8
12015048
  9

300
=
301
=
302
=
303
=
304
=
305
=
306
=
307
=
308
=
309
=
 40
0.0
 41
2458340.215725197
 42
2458341.00337309
  1

 90
        0
  0
LAYOUT
  5
1E
102
{ACAD_REACTORS
330
1A
102
}
330
1A
100
AcDbPlotSettings
  1

  2
none_device
  4

  6

 40
0.0
 41
0.0
 42
0.0
 43
0.0
 44
0.0
 45
0.0
 46
0.0
 47
0.0
 48
0.0
 49
0.0
140
0.0
141
0.0
142
1.0
143
1.0
 70
   688
 72
     1
 73
     0
 74
     5
  7

 75
    16
147
1.0
148
0.0
149
0.0
100
AcDbLayout
  1
Layout1
 70
     1
 71
     1
 10
0.0
 20
0.0
 11
420.0
 21
297.0
 12
0.0
 22
0.0
 32
0.0
 14
1.000000000000000E+20
 24
1.000000000000000E+20
 34
1.000000000000000E+20
 15
-1.000000000000000E+20
 25
-1.000000000000000E+20
 35
-1.000000000000000E+20
146
0.0
 13
0.0
 23
0.0
 33
0.0
 16
1.0
 26
0.0
 36
0.0
 17
0.0
 27
1.0
 37
0.0
 76
     0
330
1B
  0
LAYOUT
  5
26
102
{ACAD_REACTORS
330
1A
102
}
330
1A
100
AcDbPlotSettings
  1

  2
none_device
  4

  6

 40
0.0
 41
0.0
 42
0.0
 43
0.0
 44
0.0
 45
0.0
 46
0.0
 47
0.0
 48
0.0
 49
0.0
140
0.0
141
0.0
142
1.0
143
1.0
 70
   688
 72
     1
 73
     0
 74
     5
  7

 75
    16
147
1.0
148
0.0
149
0.0
100
AcDbLayout
  1
Layout2
 70
     1
 71
     2
 10
0.0
 20
0.0
 11
0.0
 21
0.0
 12
0.0
 22
0.0
 32
0.0
 14
0.0
 24
0.0
 34
0.0
 15
0.0
 25
0.0
 35
0.0
146
0.0
 13
0.0
 23
0.0
 33
0.0
 16
1.0
 26
0.0
 36
0.0
 17
0.0
 27
1.0
 37
0.0
 76
     0
330
23
  0
LAYOUT
  5
22
102
{ACAD_REACTORS
330
1A
102
}
330
1A
100
AcDbPlotSettings
  1

  2
none_device
  4
ANSI_A_(11.00_x_8.50_Inches)
  6

 40
6.35
 41
19.05
 42
6.35000508
 43
19.05000254
 44
279.4
 45
215.9
 46
126.762917896009
 47
100.0349995745547
 48
0.0
 49
0.0
140
0.0
141
0.0
142
0.0915836148719576
143
1.0
 70
  1696
 72
     0
 73
     0
 74
     0
  7

 75
     0
147
0.0235690232323232
148
0.0
149
0.0
100
AcDbLayout
  1
Model
 70
     1
 71
     0
 10
0.0
 20
0.0
 11
420.0
 21
297.0
 12
0.0
 22
0.0
 32
0.0
 14
-42.96700000000003
 24
-49.98438634254138
 34
0.0
 15
62.37515770448481
 25
59.22319590333735
 35
0.0
146
0.0
 13
0.0
 23
0.0
 33
0.0
 16
1.0
 26
0.0
 36
0.0
 17
0.0
 27
1.0
 37
0.0
 76
     0
330
1F
331
29
  0
MLINESTYLE
  5
18
102
{ACAD_REACTORS
330
17
102
}
330
17
100
AcDbMlineStyle
  2
Standard
 70
     0
  3

 62
   256
 51
90.0
 52
90.0
 71
     2
 49
0.5
 62
   256
  6
BYLAYER
 49
-0.5
 62
   256
  6
BYLAYER
  0
ACDBPLACEHOLDER
  5
F
102
{ACAD_REACTORS
330
E
102
}
330
E
  0
SCALE
  5
48
102
{ACAD_REACTORS
330
47
102
}
330
47
100
AcDbScale
 70
     0
300
1:1
140
1.0
141
1.0
290
     1
  0
SCALE
  5
49
102
{ACAD_REACTORS
330
47
102
}
330
47
100
AcDbScale
 70
     0
300
1:2
140
1.0
141
2.0
290
     0
  0
SCALE
  5
4A
102
{ACAD_REACTORS
330
47
102
}
330
47
100
AcDbScale
 70
     0
300
1:4
140
1.0
141
4.0
290
     0
  0
SCALE
  5
4B
102
{ACAD_REACTORS
330
47
102
}
330
47
100
AcDbScale
 70
     0
300
1:5
140
1.0
141
5.0
290
     0
  0
SCALE
  5
4C
102
{ACAD_REACTORS
330
47
102
}
330
47
100
AcDbScale
 70
     0
300
1:8
140
1.0
141
8.0
290
     0
  0
SCALE
  5
4D
102
{ACAD_REACTORS
330
47
102
}
330
47
100
AcDbScale
 70
     0
300
1:10
140
1.0
141
10.0
290
     0
  0
SCALE
  5
4E
102
{ACAD_REACTORS
330
47
102
}
330
47
100
AcDbScale
 70
     0
300
1:16
140
1.0
141
16.0
290
     0
  0
SCALE
  5
4F
102
{ACAD_REACTORS
330
47
102
}
330
47
100
AcDbScale
 70
     0
300
1:20
140
1.0
141
20.0
290
     0
  0
SCALE
  5
50
102
{ACAD_REACTORS
330
47
102
}
330
47
100
AcDbScale
 70
     0
300
1:30
140
1.0
141
30.0
290
     0
  0
SCALE
  5
51
102
{ACAD_REACTORS
330
47
102
}
330
47
100
AcDbScale
 70
     0
300
1:40
140
1.0
141
40.0
290
     0
  0
SCALE
  5
52
102
{ACAD_REACTORS
330
47
102
}
330
47
100
AcDbScale
 70
     0
300
1:50
140
1.0
141
50.0
290
     0
  0
SCALE
  5
53
102
{ACAD_REACTORS
330
47
102
}
330
47
100
AcDbScale
 70
     0
300
1:100
140
1.0
141
100.0
290
     0
  0
SCALE
  5
54
102
{ACAD_REACTORS
330
47
102
}
330
47
100
AcDbScale
 70
     0
300
2:1
140
2.0
141
1.0
290
     0
  0
SCALE
  5
55
102
{ACAD_REACTORS
330
47
102
}
330
47
100
AcDbScale
 70
     0
300
4:1
140
4.0
141
1.0
290
     0
  0
SCALE
  5
56
102
{ACAD_REACTORS
330
47
102
}
330
47
100
AcDbScale
 70
     0
300
8:1
140
8.0
141
1.0
290
     0
  0
SCALE
  5
57
102
{ACAD_REACTORS
330
47
102
}
330
47
100
AcDbScale
 70
     0
300
10:1
140
10.0
141
1.0
290
     0
  0
SCALE
  5
58
102
{ACAD_REACTORS
330
47
102
}
330
47
100
AcDbScale
 70
     0
300
100:1
140
100.0
141
1.0
290
     0
  0
SCALE
  5
59
102
{ACAD_REACTORS
330
47
102
}
330
47
100
AcDbScale
 70
     0
300
1/128" = 1'-0"
140
0.0078125
141
12.0
290
     0
  0
SCALE
  5
5A
102
{ACAD_REACTORS
330
47
102
}
330
47
100
AcDbScale
 70
     0
300
1/64" = 1'-0"
140
0.015625
141
12.0
290
     0
  0
SCALE
  5
5B
102
{ACAD_REACTORS
330
47
102
}
330
47
100
AcDbScale
 70
     0
300
1/32" = 1'-0"
140
0.03125
141
12.0
290
     0
  0
SCALE
  5
5C
102
{ACAD_REACTORS
330
47
102
}
330
47
100
AcDbScale
 70
     0
300
1/16" = 1'-0"
140
0.0625
141
12.0
290
     0
  0
SCALE
  5
5D
102
{ACAD_REACTORS
330
47
102
}
330
47
100
AcDbScale
 70
     0
300
3/32" = 1'-0"
140
0.09375
141
12.0
290
     0
  0
SCALE
  5
5E
102
{ACAD_REACTORS
330
47
102
}
330
47
100
AcDbScale
 70
     0
300
1/8" = 1'-0"
140
0.125
141
12.0
290
     0
  0
SCALE
  5
5F
102
{ACAD_REACTORS
330
47
102
}
330
47
100
AcDbScale
 70
     0
300
3/16" = 1'-0"
140
0.1875
141
12.0
290
     0
  0
SCALE
  5
60
102
{ACAD_REACTORS
330
47
102
}
330
47
100
AcDbScale
 70
     0
300
1/4" = 1'-0"
140
0.25
141
12.0
290
     0
  0
SCALE
  5
61
102
{ACAD_REACTORS
330
47
102
}
330
47
100
AcDbScale
 70
     0
300
3/8" = 1'-0"
140
0.375
141
12.0
290
     0
  0
SCALE
  5
62
102
{ACAD_REACTORS
330
47
102
}
330
47
100
AcDbScale
 70
     0
300
1/2" = 1'-0"
140
0.5
141
12.0
290
     0
  0
SCALE
  5
63
102
{ACAD_REACTORS
330
47
102
}
330
47
100
AcDbScale
 70
     0
300
3/4" = 1'-0"
140
0.75
141
12.0
290
     0
  0
SCALE
  5
64
102
{ACAD_REACTORS
330
47
102
}
330
47
100
AcDbScale
 70
     0
300
1" = 1'-0"
140
1.0
141
12.0
290
     0
  0
SCALE
  5
65
102
{ACAD_REACTORS
330
47
102
}
330
47
100
AcDbScale
 70
     0
300
1-1/2" = 1'-0"
140
1.5
141
12.0
290
     0
  0
SCALE
  5
66
102
{ACAD_REACTORS
330
47
102
}
330
47
100
AcDbScale
 70
     0
300
3" = 1'-0"
140
3.0
141
12.0
290
     0
  0
SCALE
  5
67
102
{ACAD_REACTORS
330
47
102
}
330
47
100
AcDbScale
 70
     0
300
6" = 1'-0"
140
6.0
141
12.0
290
     0
  0
SCALE
  5
68
102
{ACAD_REACTORS
330
47
102
}
330
47
100
AcDbScale
 70
     0
300
1'-0" = 1'-0"
140
12.0
141
12.0
290
     0
  0
ENDSEC
  0
EOF
