  0
SECTION
  2
HEADER
  9
$ACADVER
  1
AC1015
  9
$ACADMAINTVER
 70
     6
  9
$DWGCODEPAGE
  3
ANSI_949
  9
$INSBASE
 10
0.0
 20
0.0
 30
0.0
  9
$EXTMIN
 10
-49.31700000000004
 20
-49.98438634254138
 30
0.0
  9
$EXTMAX
 10
54.41468735063668
 20
61.32738804542073
 30
0.0
  9
$LIMMIN
 10
0.0
 20
0.0
  9
$LIMMAX
 10
420.0
 20
297.0
  9
$ORTHOMODE
 70
     1
  9
$REGENMODE
 70
     1
  9
$FILLMODE
 70
     1
  9
$QTEXTMODE
 70
     0
  9
$MIRRTEXT
 70
     1
  9
$LTSCALE
 40
1.0
  9
$ATTMODE
 70
     1
  9
$TEXTSIZE
 40
3.5
  9
$TRACEWID
 40
1.0
  9
$TEXTSTYLE
  7
Standard
  9
$CLAYER
  8
0
  9
$CELTYPE
  6
ByLayer
  9
$CECOLOR
 62
   256
  9
$CELTSCALE
 40
1.0
  9
$DISPSILH
 70
     0
  9
$DIMSCALE
 40
1.0
  9
$DIMASZ
 40
3.302
  9
$DIMEXO
 40
1.0
  9
$DIMDLI
 40
3.75
  9
$DIMRND
 40
0.0
  9
$DIMDLE
 40
0.0
  9
$DIMEXE
 40
1.0
  9
$DIMTP
 40
0.0
  9
$DIMTM
 40
0.0
  9
$DIMTXT
 40
3.5
  9
$DIMCEN
 40
2.5
  9
$DIMTSZ
 40
0.0
  9
$DIMTOL
 70
     0
  9
$DIMLIM
 70
     0
  9
$DIMTIH
 70
     1
  9
$DIMTOH
 70
     1
  9
$DIMSE1
 70
     0
  9
$DIMSE2
 70
     0
  9
$DIMTAD
 70
     1
  9
$DIMZIN
 70
     0
  9
$DIMBLK
  1

  9
$DIMASO
 70
     1
  9
$DIMSHO
 70
     1
  9
$DIMPOST
  1

  9
$DIMAPOST
  1

  9
$DIMALT
 70
     0
  9
$DIMALTD
 70
     3
  9
$DIMALTF
 40
0.0393700787401575
  9
$DIMLFAC
 40
1.0
  9
$DIMTOFL
 70
     1
  9
$DIMTVP
 40
0.0
  9
$DIMTIX
 70
     0
  9
$DIMSOXD
 70
     0
  9
$DIMSAH
 70
     0
  9
$DIMBLK1
  1

  9
$DIMBLK2
  1

  9
$DIMSTYLE
  2
ISO-25
  9
$DIMCLRD
 70
     0
  9
$DIMCLRE
 70
     0
  9
$DIMCLRT
 70
     0
  9
$DIMTFAC
 40
1.0
  9
$DIMGAP
 40
1.524
  9
$DIMJUST
 70
     0
  9
$DIMSD1
 70
     0
  9
$DIMSD2
 70
     0
  9
$DIMTOLJ
 70
     0
  9
$DIMTZIN
 70
     0
  9
$DIMALTZ
 70
     0
  9
$DIMALTTZ
 70
     0
  9
$DIMUPT
 70
     0
  9
$DIMDEC
 70
     2
  9
$DIMTDEC
 70
     2
  9
$DIMALTU
 70
     2
  9
$DIMALTTD
 70
     3
  9
$DIMTXSTY
  7
Standard
  9
$DIMAUNIT
 70
     0
  9
$DIMADEC
 70
     2
  9
$DIMALTRND
 40
0.0
  9
$DIMAZIN
 70
     0
  9
$DIMDSEP
 70
    44
  9
$DIMATFIT
 70
     3
  9
$DIMFRAC
 70
     0
  9
$DIMLDRBLK
  1

  9
$DIMLUNIT
 70
     2
  9
$DIMLWD
 70
    -2
  9
$DIMLWE
 70
    -2
  9
$DIMTMOVE
 70
     0
  9
$LUNITS
 70
     2
  9
$LUPREC
 70
     2
  9
$SKETCHINC
 40
1.0
  9
$FILLETRAD
 40
10.0
  9
$AUNITS
 70
     0
  9
$AUPREC
 70
     2
  9
$MENU
  1
.
  9
$ELEVATION
 40
0.0
  9
$PELEVATION
 40
0.0
  9
$THICKNESS
 40
0.0
  9
$LIMCHECK
 70
     0
  9
$CHAMFERA
 40
0.0
  9
$CHAMFERB
 40
0.0
  9
$CHAMFERC
 40
0.0
  9
$CHAMFERD
 40
0.0
  9
$SKPOLY
 70
     0
  9
$TDCREATE
 40
2458340.590551447
  9
$TDUCREATE
 40
2458340.215551447
  9
$TDUPDATE
 40
2458341.377520961
  9
$TDUUPDATE
 40
2458341.002520961
  9
$TDINDWG
 40
0.0016807755
  9
$TDUSRTIMER
 40
2458341.001420984
  9
$USRTIMER
 70
     1
  9
$ANGBASE
 50
0.0
  9
$ANGDIR
 70
     0
  9
$PDMODE
 70
     0
  9
$PDSIZE
 40
-1.0
  9
$PLINEWID
 40
0.0
  9
$SPLFRAME
 70
     0
  9
$SPLINETYPE
 70
     6
  9
$SPLINESEGS
 70
     8
  9
$HANDSEED
  5
197
  9
$SURFTAB1
 70
     6
  9
$SURFTAB2
 70
     6
  9
$SURFTYPE
 70
     6
  9
$SURFU
 70
     6
  9
$SURFV
 70
     6
  9
$UCSBASE
  2

  9
$UCSNAME
  2

  9
$UCSORG
 10
0.0
 20
0.0
 30
0.0
  9
$UCSXDIR
 10
1.0
 20
0.0
 30
0.0
  9
$UCSYDIR
 10
0.0
 20
1.0
 30
0.0
  9
$UCSORTHOREF
  2

  9
$UCSORTHOVIEW
 70
     0
  9
$UCSORGTOP
 10
0.0
 20
0.0
 30
0.0
  9
$UCSORGBOTTOM
 10
0.0
 20
0.0
 30
0.0
  9
$UCSORGLEFT
 10
0.0
 20
0.0
 30
0.0
  9
$UCSORGRIGHT
 10
0.0
 20
0.0
 30
0.0
  9
$UCSORGFRONT
 10
0.0
 20
0.0
 30
0.0
  9
$UCSORGBACK
 10
0.0
 20
0.0
 30
0.0
  9
$PUCSBASE
  2

  9
$PUCSNAME
  2

  9
$PUCSORG
 10
0.0
 20
0.0
 30
0.0
  9
$PUCSXDIR
 10
1.0
 20
0.0
 30
0.0
  9
$PUCSYDIR
 10
0.0
 20
1.0
 30
0.0
  9
$PUCSORTHOREF
  2

  9
$PUCSORTHOVIEW
 70
     0
  9
$PUCSORGTOP
 10
0.0
 20
0.0
 30
0.0
  9
$PUCSORGBOTTOM
 10
0.0
 20
0.0
 30
0.0
  9
$PUCSORGLEFT
 10
0.0
 20
0.0
 30
0.0
  9
$PUCSORGRIGHT
 10
0.0
 20
0.0
 30
0.0
  9
$PUCSORGFRONT
 10
0.0
 20
0.0
 30
0.0
  9
$PUCSORGBACK
 10
0.0
 20
0.0
 30
0.0
  9
$USERI1
 70
     0
  9
$USERI2
 70
     0
  9
$USERI3
 70
     0
  9
$USERI4
 70
     0
  9
$USERI5
 70
     0
  9
$USERR1
 40
0.0
  9
$USERR2
 40
0.0
  9
$USERR3
 40
0.0
  9
$USERR4
 40
0.0
  9
$USERR5
 40
0.0
  9
$WORLDVIEW
 70
     1
  9
$SHADEDGE
 70
     3
  9
$SHADEDIF
 70
    70
  9
$TILEMODE
 70
     1
  9
$MAXACTVP
 70
    64
  9
$PINSBASE
 10
0.0
 20
0.0
 30
0.0
  9
$PLIMCHECK
 70
     0
  9
$PEXTMIN
 10
1.000000000000000E+20
 20
1.000000000000000E+20
 30
1.000000000000000E+20
  9
$PEXTMAX
 10
-1.000000000000000E+20
 20
-1.000000000000000E+20
 30
-1.000000000000000E+20
  9
$PLIMMIN
 10
0.0
 20
0.0
  9
$PLIMMAX
 10
0.0
 20
0.0
  9
$UNITMODE
 70
     0
  9
$VISRETAIN
 70
     1
  9
$PLINEGEN
 70
     0
  9
$PSLTSCALE
 70
     1
  9
$TREEDEPTH
 70
  3020
  9
$CMLSTYLE
  2
Standard
  9
$CMLJUST
 70
     0
  9
$CMLSCALE
 40
20.0
  9
$PROXYGRAPHICS
 70
     1
  9
$MEASUREMENT
 70
     1
  9
$CELWEIGHT
370
    -1
  9
$ENDCAPS
280
     0
  9
$JOINSTYLE
280
     0
  9
$LWDISPLAY
290
     1
  9
$INSUNITS
 70
     4
  9
$HYPERLINKBASE
  1

  9
$STYLESHEET
  1

  9
$XEDIT
290
     1
  9
$CEPSNTYPE
380
     0
  9
$PSTYLEMODE
290
     1
  9
$FINGERPRINTGUID
  2
{6A1C7339-A29A-4B0E-9693-2A7D529C79A9}
  9
$VERSIONGUID
  2
{FAEB1C32-E019-11D5-929B-00C0DF256EC4}
  9
$EXTNAMES
290
     1
  9
$PSVPSCALE
 40
0.0
  9
$OLESTARTUP
290
     0
  0
ENDSEC
  0
SECTION
  2
CLASSES
  0
CLASS
  1
ACDBDICTIONARYWDFLT
  2
AcDbDictionaryWithDefault
  3
ObjectDBX Classes
 90
        0
280
     0
281
     0
  0
CLASS
  1
VISUALSTYLE
  2
AcDbVisualStyle
  3
ObjectDBX Classes
 90
     4095
280
     0
281
     0
  0
CLASS
  1
MATERIAL
  2
AcDbMaterial
  3
ObjectDBX Classes
 90
     1153
280
     0
281
     0
  0
CLASS
  1
SCALE
  2
AcDbScale
  3
ObjectDBX Classes
 90
     1153
280
     0
281
     0
  0
CLASS
  1
SUN
  2
AcDbSun
  3
SCENEOE
 90
     1153
280
     0
281
     0
  0
CLASS
  1
ACDBPLACEHOLDER
  2
AcDbPlaceHolder
  3
ObjectDBX Classes
 90
        0
280
     0
281
     0
  0
CLASS
  1
LAYOUT
  2
AcDbLayout
  3
ObjectDBX Classes
 90
        0
280
     0
281
     0
  0
CLASS
  1
TABLESTYLE
  2
AcDbTableStyle
  3
ObjectDBX Classes
 90
     4095
280
     0
281
     0
  0
CLASS
  1
MLEADERSTYLE
  2
AcDbMLeaderStyle
  3
ACDB_MLEADERSTYLE_CLASS
 90
     4095
280
     0
281
     0
  0
CLASS
  1
RASTERVARIABLES
  2
AcDbRasterVariables
  3
ISM
 90
        0
280
     0
281
     0
  0
CLASS
  1
DIMASSOC
  2
AcDbDimAssoc
  3
"AcDbDimAssoc|Product Desc:     AcDim ARX App For Dimension|Company:          Autodesk, Inc.|WEB Address:      www.autodesk.com"
 90
        0
280
     0
281
     0
  0
ENDSEC
  0
SECTION
  2
TABLES
  0
TABLE
  2
VPORT
  5
8
330
0
100
AcDbSymbolTable
 70
     1
  0
VPORT
  5
29
330
8
100
AcDbSymbolTableRecord
100
AcDbViewportTableRecord
  2
*Active
 70
     0
 10
0.0
 20
0.0
 11
1.0
 21
1.0
 12
1.605250246218638
 22
12.48908285408996
 13
0.0
 23
0.0
 14
10.0
 24
10.0
 15
10.0
 25
10.0
 16
0.0
 26
0.0
 36
1.0
 17
0.0
 27
0.0
 37
0.0
 40
145.784466492727
 41
1.444267515923567
 42
50.0
 43
0.0
 44
0.0
 50
0.0
 51
0.0
 71
    16
 72
  2000
 73
     1
 74
     3
 75
     0
 76
     0
 77
     0
 78
     0
281
     0
 65
     1
110
0.0
120
0.0
130
0.0
111
1.0
121
0.0
131
0.0
112
0.0
122
1.0
132
0.0
 79
     0
146
0.0
  0
ENDTAB
  0
TABLE
  2
LTYPE
  5
5
330
0
100
AcDbSymbolTable
 70
     6
  0
LTYPE
  5
14
330
5
100
AcDbSymbolTableRecord
100
AcDbLinetypeTableRecord
  2
ByBlock
 70
     0
  3

 72
    65
 73
     0
 40
0.0
  0
LTYPE
  5
15
330
5
100
AcDbSymbolTableRecord
100
AcDbLinetypeTableRecord
  2
ByLayer
 70
     0
  3

 72
    65
 73
     0
 40
0.0
  0
LTYPE
  5
16
330
5
100
AcDbSymbolTableRecord
100
AcDbLinetypeTableRecord
  2
Continuous
 70
     0
  3
Solid line
 72
    65
 73
     0
 40
0.0
  0
LTYPE
  5
6A
330
5
100
AcDbSymbolTableRecord
100
AcDbLinetypeTableRecord
  2
HIDDEN
 70
     0
  3
Hidden __ __ __ __ __ __ __ __ __ __ __ __ __ __
 72
    65
 73
     2
 40
1.905
 49
1.27
 74
     0
 49
-0.635
 74
     0
  0
LTYPE
  5
6B
330
5
100
AcDbSymbolTableRecord
100
AcDbLinetypeTableRecord
  2
PHANTOM
 70
     0
  3
Phantom ______  __  __  ______  __  __  ______
 72
    65
 73
     6
 40
12.7
 49
6.35
 74
     0
 49
-1.27
 74
     0
 49
1.27
 74
     0
 49
-1.27
 74
     0
 49
1.27
 74
     0
 49
-1.27
 74
     0
  0
LTYPE
  5
6C
330
5
100
AcDbSymbolTableRecord
100
AcDbLinetypeTableRecord
  2
CENTER
 70
     0
  3
Center ____ _ ____ _ ____ _ ____ _ ____ _ ____
 72
    65
 73
     4
 40
10.16
 49
6.35
 74
     0
 49
-1.27
 74
     0
 49
1.27
 74
     0
 49
-1.27
 74
     0
  0
LTYPE
  5
6D
330
5
100
AcDbSymbolTableRecord
100
AcDbLinetypeTableRecord
  2
CENTERX2
 70
     0
  3
Center (2x) ________  __  ________  __  _____
 72
    65
 73
     4
 40
20.32
 49
12.7
 74
     0
 49
-2.54
 74
     0
 49
2.54
 74
     0
 49
-2.54
 74
     0
  0
LTYPE
  5
6E
330
5
100
AcDbSymbolTableRecord
100
AcDbLinetypeTableRecord
  2
DOT2
 70
     0
  3
Dot (.5x) ........................................
 72
    65
 73
     2
 40
0.635
 49
0.0
 74
     0
 49
-0.635
 74
     0
  0
ENDTAB
  0
TABLE
  2
LAYER
  5
2
330
0
100
AcDbSymbolTable
 70
    17
  0
LAYER
  5
10
330
2
100
AcDbSymbolTableRecord
100
AcDbLayerTableRecord
  2
0
 70
     0
 62
     7
  6
Continuous
370
    -3
390
F
  0
LAYER
  5
6F
330
2
100
AcDbSymbolTableRecord
100
AcDbLayerTableRecord
  2
FORMAT
 70
     0
 62
     2
  6
Continuous
370
    -3
390
F
  0
LAYER
  5
70
330
2
100
AcDbSymbolTableRecord
100
AcDbLayerTableRecord
  2
외형선
 70
     0
 62
   100
  6
Continuous
370
    30
390
F
  0
LAYER
  5
71
330
2
100
AcDbSymbolTableRecord
100
AcDbLayerTableRecord
  2
숨은선
 70
     0
 62
     2
  6
HIDDEN
370
    15
390
F
  0
LAYER
  5
72
330
2
100
AcDbSymbolTableRecord
100
AcDbLayerTableRecord
  2
중심선
 70
     0
 62
     1
  6
CENTERX2
370
    -3
390
F
  0
LAYER
  5
73
330
2
100
AcDbSymbolTableRecord
100
AcDbLayerTableRecord
  2
파단선
 70
     0
 62
     4
  6
Continuous
370
    -3
390
F
  0
LAYER
  5
74
330
2
100
AcDbSymbolTableRecord
100
AcDbLayerTableRecord
  2
해칭선
 70
     0
 62
     4
  6
Continuous
370
    -3
390
F
  0
LAYER
  5
75
330
2
100
AcDbSymbolTableRecord
100
AcDbLayerTableRecord
  2
가는실선
 70
     0
 62
     4
  6
Continuous
370
    -3
390
F
  0
LAYER
  5
76
330
2
100
AcDbSymbolTableRecord
100
AcDbLayerTableRecord
  2
치수_보조선
 70
     0
 62
     4
  6
Continuous
370
    -3
390
F
  0
LAYER
  5
77
330
2
100
AcDbSymbolTableRecord
100
AcDbLayerTableRecord
  2
치수문자_일반주서
 70
     0
 62
     7
  6
Continuous
370
    15
390
F
  0
LAYER
  5
78
330
2
100
AcDbSymbolTableRecord
100
AcDbLayerTableRecord
  2
개별주서
 70
     0
 62
   100
  6
Continuous
370
    30
390
F
  0
LAYER
  5
79
330
2
100
AcDbSymbolTableRecord
100
AcDbLayerTableRecord
  2
중간선
 70
     0
 62
     2
  6
Continuous
370
    15
390
F
  0
LAYER
  5
7A
330
2
100
AcDbSymbolTableRecord
100
AcDbLayerTableRecord
  2
윤곽선
 70
     0
 62
     3
  6
Continuous
370
    40
390
F
  0
LAYER
  5
7B
330
2
100
AcDbSymbolTableRecord
100
AcDbLayerTableRecord
  2
중심마크
 70
     0
 62
   100
  6
Continuous
370
    30
390
F
  0
LAYER
  5
7C
330
2
100
AcDbSymbolTableRecord
100
AcDbLayerTableRecord
  2
가상선
 70
     0
 62
     4
  6
PHANTOM
370
    -3
390
F
  0
LAYER
  5
7D
330
2
100
AcDbSymbolTableRecord
100
AcDbLayerTableRecord
  2
특수지정선
 70
     0
 62
     5
  6
CENTERX2
370
    60
390
F
  0
LAYER
  5
149
330
2
100
AcDbSymbolTableRecord
100
AcDbLayerTableRecord
  2
Defpoints
 70
     0
 62
     7
  6
Continuous
290
     0
370
    -3
390
F
  0
ENDTAB
  0
TABLE
  2
STYLE
  5
3
330
0
100
AcDbSymbolTable
 70
     2
  0
STYLE
  5
11
330
3
100
AcDbSymbolTableRecord
100
AcDbTextStyleTableRecord
  2
Standard
 70
     0
 40
0.0
 41
1.0
 50
0.0
 71
     0
 42
3.5
  3
txt
  4

  0
STYLE
  5
93
330
3
100
AcDbSymbolTableRecord
100
AcDbTextStyleTableRecord
  2
SLDTEXTSTYLE0
 70
     0
 40
0.0
 41
0.75
 50
0.0
 71
     0
 42
3.5
  3
TXT
  4

  0
ENDTAB
  0
TABLE
  2
VIEW
  5
6
330
0
100
AcDbSymbolTable
 70
     0
  0
ENDTAB
  0
TABLE
  2
UCS
  5
7
330
0
100
AcDbSymbolTable
 70
     0
  0
ENDTAB
  0
TABLE
  2
APPID
  5
9
330
0
100
AcDbSymbolTable
 70
     2
  0
APPID
  5
12
330
9
100
AcDbSymbolTableRecord
100
AcDbRegAppTableRecord
  2
ACAD
 70
     0
  0
APPID
  5
181
330
9
100
AcDbSymbolTableRecord
100
AcDbRegAppTableRecord
  2
PE_DIMMEASUREMENT
 70
     0
  0
ENDTAB
  0
TABLE
  2
DIMSTYLE
  5
A
330
0
100
AcDbSymbolTable
 70
     4
100
AcDbDimStyleTable
  0
DIMSTYLE
105
27
330
A
100
AcDbSymbolTableRecord
100
AcDbDimStyleTableRecord
  2
ISO-25
 70
     0
 41
2.5
 42
0.625
 43
3.75
 44
1.25
 73
     0
 74
     0
 77
     1
 78
     8
140
2.5
141
2.5
143
0.03937007874016
147
0.625
171
     3
172
     1
178
     0
271
     2
272
     2
274
     3
278
    44
283
     0
284
     8
340
11
  0
DIMSTYLE
105
E0
102
{ACAD_REACTORS
330
DF
102
}
330
A
100
AcDbSymbolTableRecord
100
AcDbDimStyleTableRecord
  2
SLDDIMSTYLE0
 70
     0
 41
3.302
 44
0.0
 45
0.000000001
 73
     0
 74
     0
 77
     1
 78
     4
 79
     1
140
3.5
143
0.0393700787401575
147
0.875
148
0.000000001
170
     1
172
     1
173
     1
178
     0
271
     2
272
     2
276
     2
284
    12
289
     0
340
93
  0
DIMSTYLE
105
F6
102
{ACAD_REACTORS
330
F5
102
}
330
A
100
AcDbSymbolTableRecord
100
AcDbDimStyleTableRecord
  2
SLDDIMSTYLE1
 70
     0
 41
3.302
 44
0.0
 45
0.000000001
 73
     0
 74
     0
 77
     1
 78
    12
 79
     3
140
3.5
143
0.0393700787401575
147
0.875
148
0.000000001
170
     1
173
     1
178
     0
271
     2
272
     2
276
     2
284
    12
340
93
  0
DIMSTYLE
105
10A
102
{ACAD_REACTORS
330
109
330
16F
330
183
102
}
330
A
100
AcDbSymbolTableRecord
100
AcDbDimStyleTableRecord
  2
SLDDIMSTYLE2
 70
     0
 41
3.302
 44
0.0
 45
0.000000001
 73
     0
 74
     0
 77
     1
 78
    12
 79
     3
140
3.5
143
0.0393700787401575
147
0.875
148
0.000000001
170
     1
172
     1
173
     1
178
     0
271
     2
272
     2
276
     2
284
    12
289
     0
340
93
  0
ENDTAB
  0
TABLE
  2
BLOCK_RECORD
  5
1
330
0
100
AcDbSymbolTable
 70
     8
  0
BLOCK_RECORD
  5
1F
330
1
100
AcDbSymbolTableRecord
100
AcDbBlockTableRecord
  2
*Model_Space
340
22
  0
BLOCK_RECORD
  5
1B
330
1
100
AcDbSymbolTableRecord
100
AcDbBlockTableRecord
  2
*Paper_Space
340
1E
  0
BLOCK_RECORD
  5
23
330
1
100
AcDbSymbolTableRecord
100
AcDbBlockTableRecord
  2
*Paper_Space0
340
26
  0
BLOCK_RECORD
  5
7E
330
1
100
AcDbSymbolTableRecord
100
AcDbBlockTableRecord
  2
블럭10
340
0
102
{BLKREFS
331
D8
102
}
  0
BLOCK_RECORD
  5
E1
330
1
100
AcDbSymbolTableRecord
100
AcDbBlockTableRecord
  2
_D
340
0
  0
BLOCK_RECORD
  5
F7
330
1
100
AcDbSymbolTableRecord
100
AcDbBlockTableRecord
  2
_D_1
340
0
  0
BLOCK_RECORD
  5
10B
330
1
100
AcDbSymbolTableRecord
100
AcDbBlockTableRecord
  2
_D_2
340
0
  0
BLOCK_RECORD
  5
11E
330
1
100
AcDbSymbolTableRecord
100
AcDbBlockTableRecord
  2
SW_DOWELSYMBOL_0
340
0
102
{BLKREFS
331
124
102
}
  0
BLOCK_RECORD
  5
172
330
1
100
AcDbSymbolTableRecord
100
AcDbBlockTableRecord
  2
*D6
340
0
  0
BLOCK_RECORD
  5
186
330
1
100
AcDbSymbolTableRecord
100
AcDbBlockTableRecord
  2
*D7
340
0
  0
ENDTAB
  0
ENDSEC
  0
SECTION
  2
BLOCKS
  0
BLOCK
  5
20
330
1F
100
AcDbEntity
  8
0
100
AcDbBlockBegin
  2
*Model_Space
 70
     0
 10
0.0
 20
0.0
 30
0.0
  3
*Model_Space
  1
*Model_Space
  0
ENDBLK
  5
21
330
1F
100
AcDbEntity
  8
0
100
AcDbBlockEnd
  0
BLOCK
  5
1C
330
1B
100
AcDbEntity
 67
     1
  8
0
100
AcDbBlockBegin
  2
*Paper_Space
 70
     0
 10
0.0
 20
0.0
 30
0.0
  3
*Paper_Space
  1
*Paper_Space
  0
ENDBLK
  5
1D
330
1B
100
AcDbEntity
 67
     1
  8
0
100
AcDbBlockEnd
  0
BLOCK
  5
24
330
23
100
AcDbEntity
  8
0
100
AcDbBlockBegin
  2
*Paper_Space0
 70
     0
 10
0.0
 20
0.0
 30
0.0
  3
*Paper_Space0
  1
*Paper_Space0
  0
ENDBLK
  5
25
330
23
100
AcDbEntity
  8
0
100
AcDbBlockEnd
  0
BLOCK
  5
7F
330
7E
100
AcDbEntity
  8
0
100
AcDbBlockBegin
  2
블럭10
 70
     2
 10
0.0
 20
0.0
 30
0.0
  3
블럭10
  1
블럭10
  0
ELLIPSE
  5
81
330
7E
100
AcDbEntity
  8
중심선
100
AcDbEllipse
 10
20.54032771741204
 20
12.0471743016438
 30
0.0
 11
6.600054785286829
 21
-1.261213355974178E-13
 31
0.0
210
0.0
220
0.0
230
1.0
 40
0.636358354079598
 41
0.9219305317359503
 42
6.513795318482858
  0
ELLIPSE
  5
82
330
7E
100
AcDbEntity
  8
중심선
100
AcDbEllipse
 10
20.54032771746488
 20
12.04717430159265
 30
0.0
 11
3.960054785062283
 21
1.540847449632565E-10
 31
0.0
210
0.0
220
0.0
230
1.0
 40
0.3939339440162632
 41
1.131841032648279
 42
5.62031148352944
  0
LINE
  5
83
330
7E
100
AcDbEntity
  8
중심선
100
AcDbLine
 10
2.268634060543552
 20
16.24717430164393
 30
0.0
 11
5.714909304380834
 21
16.24717430164393
 31
0.0
  0
LINE
  5
84
330
7E
100
AcDbEntity
  8
중심선
100
AcDbLine
 10
5.245725140726316
 20
7.84717430164391
 30
0.0
 11
8.692000384563599
 21
7.84717430164391
 31
0.0
  0
LINE
  5
85
330
7E
100
AcDbEntity
  8
중심선
100
AcDbLine
 10
15.74043728645272
 20
16.24717430164393
 30
0.0
 11
8.692000384563599
 21
7.84717430164391
 31
0.0
  0
LINE
  5
86
330
7E
100
AcDbEntity
  8
중심선
100
AcDbLine
 10
0.1404042013395286
 20
13.71084872107135
 30
0.0
 11
3.58671253028996
 21
13.71088815037384
 31
0.0
  0
LINE
  5
87
330
7E
100
AcDbEntity
  8
중심선
100
AcDbLine
 10
2.750260043222114
 20
10.84717430164391
 30
0.0
 11
6.196535287059397
 21
10.84717430164391
 31
0.0
  0
LINE
  5
88
330
7E
100
AcDbEntity
  8
중심선
100
AcDbLine
 10
12.29416204261559
 20
16.24717430164393
 30
0.0
 11
5.245725140726316
 21
7.84717430164391
 31
0.0
  0
LINE
  5
89
330
7E
100
AcDbEntity
  8
중심선
100
AcDbLine
 10
10.72767329541681
 20
16.24717430164393
 30
0.0
 11
6.196535287059397
 21
10.84717430164391
 31
0.0
  0
LINE
  5
8A
330
7E
100
AcDbEntity
  8
중심선
100
AcDbLine
 10
7.28139805157953
 20
16.24717430164393
 30
0.0
 11
2.750260043222114
 21
10.84717430164391
 31
0.0
  0
LINE
  5
8B
330
7E
100
AcDbEntity
  8
중심선
100
AcDbLine
 10
5.714909304380834
 20
16.24717430164393
 30
0.0
 11
3.58671253028996
 21
13.71088815037384
 31
0.0
  0
LINE
  5
8C
330
7E
100
AcDbEntity
  8
중심선
100
AcDbLine
 10
2.268634060543552
 20
16.24717430164393
 30
0.0
 11
0.1404042013395286
 21
13.71084872107135
 31
0.0
  0
LINE
  5
8D
330
7E
100
AcDbEntity
  8
중심선
100
AcDbLine
 10
7.28139805157953
 20
16.24717430164393
 30
0.0
 11
10.72767329541681
 21
16.24717430164393
 31
0.0
  0
LINE
  5
8E
330
7E
100
AcDbEntity
  8
중심선
100
AcDbLine
 10
12.29416204261559
 20
16.24717430164393
 30
0.0
 11
15.74043728645272
 21
16.24717430164393
 31
0.0
  0
LINE
  5
8F
330
7E
100
AcDbEntity
  8
중심선
100
AcDbLine
 10
19.22036997980202
 20
11.08717430171403
 30
0.0
 11
23.66174974927406
 21
11.08717430171406
 31
0.0
  0
LINE
  5
90
330
7E
100
AcDbEntity
  8
중심선
100
AcDbLine
 10
19.22039502424796
 20
13.00717430171391
 30
0.0
 11
19.22036997980202
 21
11.08717430171403
 31
0.0
  0
LINE
  5
91
330
7E
100
AcDbEntity
  8
중심선
100
AcDbLine
 10
19.22039502424796
 20
13.00717430171391
 30
0.0
 11
26.96566020931264
 21
13.00717430171391
 31
0.0
  0
LINE
  5
92
330
7E
100
AcDbEntity
  8
중심선
100
AcDbLine
 10
22.22332737316547
 20
13.45928029700563
 30
0.0
 11
24.52862924686651
 21
15.39360700705356
 31
0.0
  0
ATTDEF
  5
94
330
7E
100
AcDbEntity
  8
FORMAT
 62
     2
100
AcDbText
 10
-9.18129528874128
 20
2.075366912832191
 30
0.0
 40
4.233333333333333
  1
E5078098 [ 3 FLUTE ]
 41
0.75
  7
SLDTEXTSTYLE0
 11
-9.18129528874128
 21
-0.0412997538344756
 31
0.0
100
AcDbAttributeDefinition
  3

  2
AUTOATTR0
 70
     0
 74
     1
  0
ENDBLK
  5
80
330
7E
100
AcDbEntity
  8
0
100
AcDbBlockEnd
  0
BLOCK
  5
E2
330
E1
100
AcDbEntity
  8
0
100
AcDbBlockBegin
  2
_D
 70
     0
 10
0.0
 20
0.0
 30
0.0
  3
_D
  1
_D
  0
LINE
  5
E4
330
E1
100
AcDbEntity
  8
치수문자_일반주서
 62
     0
370
    -2
100
AcDbLine
 10
37.90799999999999
 20
1.649999999999994
 30
0.0
 11
37.90799999999999
 21
42.28108504806349
 31
0.0
  0
LINE
  5
E5
330
E1
100
AcDbEntity
  8
치수문자_일반주서
 62
     0
370
    -2
100
AcDbLine
 10
12.508
 20
3.914274598917539
 30
0.0
 11
12.508
 21
42.28108504806349
 31
0.0
  0
LINE
  5
E6
330
E1
100
AcDbEntity
  8
치수문자_일반주서
 62
     0
370
    -2
100
AcDbLine
 10
34.60599999999999
 20
42.28108504806349
 30
0.0
 11
15.81
 21
42.28108504806349
 31
0.0
  0
SOLID
  5
E7
330
E1
100
AcDbEntity
  8
치수문자_일반주서
 62
     0
100
AcDbTrace
 10
34.60599999999999
 20
41.73075171473015
 30
0.0
 11
34.60599999999999
 21
42.83141838139682
 31
0.0
 12
37.90799999999999
 22
42.28108504806349
 32
0.0
 13
37.90799999999999
 23
42.28108504806349
 33
0.0
  0
SOLID
  5
E8
330
E1
100
AcDbEntity
  8
치수문자_일반주서
 62
     0
100
AcDbTrace
 10
15.81
 20
42.83141838139682
 30
0.0
 11
15.81
 21
41.73075171473015
 31
0.0
 12
12.508
 22
42.28108504806349
 32
0.0
 13
12.508
 23
42.28108504806349
 33
0.0
  0
MTEXT
  5
E9
330
E1
100
AcDbEntity
  8
치수문자_일반주서
 62
     0
100
AcDbMText
 10
24.9846096739984
 20
46.65608504806349
 30
0.0
 40
3.5
 41
0.0
 71
     2
 72
     1
  1
\A1;25.40 [1]
  7
SLDTEXTSTYLE0
 73
     1
 44
1.0
  0
POINT
  5
EA
330
E1
100
AcDbEntity
  8
Defpoints
 62
     0
100
AcDbPoint
 10
37.90799999999999
 20
1.587499999999994
 30
0.0
  0
POINT
  5
EB
330
E1
100
AcDbEntity
  8
Defpoints
 62
     0
100
AcDbPoint
 10
12.508
 20
3.851774598917539
 30
0.0
  0
POINT
  5
EC
330
E1
100
AcDbEntity
  8
Defpoints
 62
     0
100
AcDbPoint
 10
12.508
 20
42.28108504806349
 30
0.0
  0
ENDBLK
  5
E3
330
E1
100
AcDbEntity
  8
0
100
AcDbBlockEnd
  0
BLOCK
  5
F8
330
F7
100
AcDbEntity
  8
0
100
AcDbBlockBegin
  2
_D_1
 70
     0
 10
0.0
 20
0.0
 30
0.0
  3
_D_1
  1
_D_1
  0
LINE
  5
FA
330
F7
100
AcDbEntity
  8
치수문자_일반주서
 62
     0
370
    -2
100
AcDbLine
 10
37.90799999999999
 20
1.649999999999994
 30
0.0
 11
37.90799999999999
 21
56.95238804542073
 31
0.0
  0
LINE
  5
FB
330
F7
100
AcDbEntity
  8
치수문자_일반주서
 62
     0
370
    -2
100
AcDbLine
 10
-31.942
 20
4.014999999999999
 30
0.0
 11
-31.94199999999999
 21
56.95238804542073
 31
0.0
  0
LINE
  5
FC
330
F7
100
AcDbEntity
  8
치수문자_일반주서
 62
     0
370
    -2
100
AcDbLine
 10
34.60599999999999
 20
56.95238804542073
 30
0.0
 11
-28.63999999999999
 21
56.95238804542073
 31
0.0
  0
SOLID
  5
FD
330
F7
100
AcDbEntity
  8
치수문자_일반주서
 62
     0
100
AcDbTrace
 10
34.60599999999999
 20
56.4020547120874
 30
0.0
 11
34.60599999999999
 21
57.50272137875407
 31
0.0
 12
37.90799999999999
 22
56.95238804542073
 32
0.0
 13
37.90799999999999
 23
56.95238804542073
 33
0.0
  0
SOLID
  5
FE
330
F7
100
AcDbEntity
  8
치수문자_일반주서
 62
     0
100
AcDbTrace
 10
-28.63999999999999
 20
57.50272137875407
 30
0.0
 11
-28.63999999999999
 21
56.4020547120874
 31
0.0
 12
-31.94199999999999
 22
56.95238804542073
 32
0.0
 13
-31.94199999999999
 23
56.95238804542073
 33
0.0
  0
MTEXT
  5
FF
330
F7
100
AcDbEntity
  8
치수문자_일반주서
 62
     0
100
AcDbMText
 10
4.544987029392129
 20
61.32738804542073
 30
0.0
 40
3.5
 41
0.0
 71
     2
 72
     1
  1
\A1;69.85 [2 3/4]
  7
SLDTEXTSTYLE0
 73
     1
 44
1.0
  0
POINT
  5
100
330
F7
100
AcDbEntity
  8
Defpoints
 62
     0
100
AcDbPoint
 10
37.90799999999999
 20
1.587499999999994
 30
0.0
  0
POINT
  5
101
330
F7
100
AcDbEntity
  8
Defpoints
 62
     0
100
AcDbPoint
 10
-31.942
 20
3.952499999999999
 30
0.0
  0
POINT
  5
102
330
F7
100
AcDbEntity
  8
Defpoints
 62
     0
100
AcDbPoint
 10
-31.942
 20
56.95238804542073
 30
0.0
  0
ENDBLK
  5
F9
330
F7
100
AcDbEntity
  8
0
100
AcDbBlockEnd
  0
BLOCK
  5
10C
330
10B
100
AcDbEntity
  8
0
100
AcDbBlockBegin
  2
_D_2
 70
     0
 10
0.0
 20
0.0
 30
0.0
  3
_D_2
  1
_D_2
  0
LINE
  5
10E
330
10B
100
AcDbEntity
  8
치수문자_일반주서
 62
     0
370
    -2
100
AcDbLine
 10
-31.19449999999999
 20
4.762500000000002
 30
0.0
 11
-44.94200000000001
 21
4.762499999999954
 31
0.0
  0
LINE
  5
10F
330
10B
100
AcDbEntity
  8
치수문자_일반주서
 62
     0
370
    -2
100
AcDbLine
 10
-31.19449999999999
 20
-4.762499999999995
 30
0.0
 11
-44.94199999999997
 21
-4.762500000000042
 31
0.0
  0
LINE
  5
110
330
10B
100
AcDbEntity
  8
치수문자_일반주서
 62
     0
370
    -2
100
AcDbLine
 10
-44.94199999999999
 20
1.460499999999954
 30
0.0
 11
-44.94199999999999
 21
-1.460500000000042
 31
0.0
  0
SOLID
  5
111
330
10B
100
AcDbEntity
  8
치수문자_일반주서
 62
     0
100
AcDbTrace
 10
-44.39166666666666
 20
1.460499999999956
 30
0.0
 11
-45.49233333333333
 21
1.460499999999952
 31
0.0
 12
-44.94200000000001
 22
4.762499999999954
 32
0.0
 13
-44.94200000000001
 23
4.762499999999954
 33
0.0
  0
SOLID
  5
112
330
10B
100
AcDbEntity
  8
치수문자_일반주서
 62
     0
100
AcDbTrace
 10
-45.49233333333332
 20
-1.460500000000044
 30
0.0
 11
-44.39166666666665
 21
-1.46050000000004
 31
0.0
 12
-44.94199999999997
 22
-4.762500000000042
 32
0.0
 13
-44.94199999999997
 23
-4.762500000000042
 33
0.0
  0
MTEXT
  5
113
330
10B
100
AcDbEntity
  8
치수문자_일반주서
 62
     0
100
AcDbMText
 10
-49.31699999999999
 20
1.304665379287214
 30
0.0
 40
3.5
 41
0.0
 71
     2
 72
     1
  1
\A1;%%c9.53 [3/8]
  7
SLDTEXTSTYLE0
 11
-3.729883127349609E-15
 21
1.0
 31
0.0
 73
     1
 44
1.0
  0
POINT
  5
114
330
10B
100
AcDbEntity
  8
Defpoints
 62
     0
100
AcDbPoint
 10
-31.13199999999999
 20
4.762500000000002
 30
0.0
  0
POINT
  5
115
330
10B
100
AcDbEntity
  8
Defpoints
 62
     0
100
AcDbPoint
 10
-31.13199999999999
 20
-4.762499999999995
 30
0.0
  0
POINT
  5
116
330
10B
100
AcDbEntity
  8
Defpoints
 62
     0
100
AcDbPoint
 10
-44.94199999999997
 20
-4.762500000000043
 30
0.0
  0
ENDBLK
  5
10D
330
10B
100
AcDbEntity
  8
0
100
AcDbBlockEnd
  0
BLOCK
  5
11F
330
11E
100
AcDbEntity
  8
0
100
AcDbBlockBegin
  2
SW_DOWELSYMBOL_0
 70
     0
 10
0.0
 20
0.0
 30
0.0
  3
SW_DOWELSYMBOL_0
  1
SW_DOWELSYMBOL_0
  0
CIRCLE
  5
121
330
11E
100
AcDbEntity
  8
외형선
 62
     0
100
AcDbCircle
 10
0.0
 20
0.0
 30
0.0
 40
2.999999999999999
  0
HATCH
  5
122
330
11E
100
AcDbEntity
  8
0
  6
Continuous
 62
     0
370
    30
100
AcDbHatch
 10
0.0
 20
0.0
 30
0.0
210
0.0
220
0.0
230
1.0
  2
SOLID
 70
     1
 71
     0
 91
        1
 92
        0
 93
        3
 72
     2
 10
0.0
 20
0.0
 40
2.999999999999999
 50
0.0
 51
90.0
 73
     1
 72
     1
 10
0.0
 20
2.999999999999999
 11
0.0
 21
0.0
 72
     1
 10
0.0
 20
0.0
 11
2.999999999999999
 21
0.0
 97
        0
 75
     0
 76
     1
 98
        1
 10
0.0
 20
0.0
  0
HATCH
  5
123
330
11E
100
AcDbEntity
  8
0
  6
Continuous
 62
     0
370
    30
100
AcDbHatch
 10
0.0
 20
0.0
 30
0.0
210
0.0
220
0.0
230
1.0
  2
SOLID
 70
     1
 71
     0
 91
        1
 92
        0
 93
        3
 72
     2
 10
0.0
 20
0.0
 40
2.999999999999999
 50
180.0
 51
270.0000000000007
 73
     1
 72
     1
 10
0.0
 20
-2.999999999999999
 11
0.0
 21
0.0
 72
     1
 10
0.0
 20
0.0
 11
-2.999999999999999
 21
0.0
 97
        0
 75
     0
 76
     1
 98
        1
 10
0.0
 20
0.0
  0
ENDBLK
  5
120
330
11E
100
AcDbEntity
  8
0
100
AcDbBlockEnd
  0
BLOCK
  5
173
330
172
100
AcDbEntity
  8
0
100
AcDbBlockBegin
  2
*D6
 70
     1
 10
0.0
 20
0.0
 30
0.0
  3
*D6
  1
*D6
  0
LINE
  5
175
330
172
100
AcDbEntity
  8
치수문자_일반주서
 62
     0
370
    -2
100
AcDbLine
 10
37.97093175029732
 20
-1.587500000000005
 30
0.0
 11
53.86435401730336
 21
-1.587500000000006
 31
0.0
  0
LINE
  5
176
330
172
100
AcDbEntity
  8
치수문자_일반주서
 62
     0
370
    -2
100
AcDbLine
 10
37.97049999999999
 20
1.587499999999994
 30
0.0
 11
53.86435401730336
 21
1.587499999999993
 31
0.0
  0
LINE
  5
177
330
172
100
AcDbEntity
  8
치수문자_일반주서
 62
     0
370
    -2
100
AcDbLine
 10
53.86435401730336
 20
4.889499999999994
 30
0.0
 11
53.86435401730336
 21
32.69149999999999
 31
0.0
  0
LINE
  5
178
330
172
100
AcDbEntity
  8
치수문자_일반주서
 62
     0
370
    -2
100
AcDbLine
 10
53.86435401730336
 20
-1.587500000000006
 30
0.0
 11
53.86435401730336
 21
1.587499999999993
 31
0.0
  0
LINE
  5
179
330
172
100
AcDbEntity
  8
치수문자_일반주서
 62
     0
370
    -2
100
AcDbLine
 10
53.86435401730336
 20
-4.889500000000006
 30
0.0
 11
53.86435401730336
 21
-8.191500000000007
 31
0.0
  0
SOLID
  5
17A
330
172
100
AcDbEntity
  8
치수문자_일반주서
 62
     0
100
AcDbTrace
 10
54.41468735063669
 20
-4.889500000000006
 30
0.0
 11
53.31402068397002
 21
-4.889500000000006
 31
0.0
 12
53.86435401730336
 22
-1.587500000000006
 32
0.0
 13
53.86435401730336
 23
-1.587500000000006
 33
0.0
  0
SOLID
  5
17B
330
172
100
AcDbEntity
  8
치수문자_일반주서
 62
     0
100
AcDbTrace
 10
53.31402068397002
 20
4.889499999999994
 30
0.0
 11
54.41468735063669
 21
4.889499999999994
 31
0.0
 12
53.86435401730336
 22
1.587499999999993
 32
0.0
 13
53.86435401730336
 23
1.587499999999993
 33
0.0
  0
MTEXT
  5
17C
330
172
100
AcDbEntity
  8
치수문자_일반주서
 62
     0
100
AcDbMText
 10
51.23935401730336
 20
20.44149999999999
 30
0.0
 40
3.5
 41
0.0
 71
     5
 72
     1
  1
\A1;{%%c3.18 [1/8]}
  7
SLDTEXTSTYLE0
 11
0.0
 21
1.0
 31
0.0
 73
     1
 44
1.0
  0
POINT
  5
17D
330
172
100
AcDbEntity
  8
Defpoints
 62
     0
100
AcDbPoint
 10
37.90843175029732
 20
-1.587500000000005
 30
0.0
  0
POINT
  5
17E
330
172
100
AcDbEntity
  8
Defpoints
 62
     0
100
AcDbPoint
 10
37.90799999999999
 20
1.587499999999994
 30
0.0
  0
POINT
  5
17F
330
172
100
AcDbEntity
  8
Defpoints
 62
     0
100
AcDbPoint
 10
53.86435401730336
 20
1.587499999999993
 30
0.0
  0
ENDBLK
  5
174
330
172
100
AcDbEntity
  8
0
100
AcDbBlockEnd
  0
BLOCK
  5
187
330
186
100
AcDbEntity
  8
0
100
AcDbBlockBegin
  2
*D7
 70
     1
 10
0.0
 20
0.0
 30
0.0
  3
*D7
  1
*D7
  0
LINE
  5
189
330
186
100
AcDbEntity
  8
치수문자_일반주서
 62
     0
370
    -2
100
AcDbLine
 10
18.17887054167043
 20
11.46460718529876
 30
0.0
 11
20.72111336206354
 21
17.51468220071466
 31
0.0
  0
LINE
  5
18A
330
186
100
AcDbEntity
  8
치수문자_일반주서
 62
     0
370
    -2
100
AcDbLine
 10
16.82625908319631
 20
5.049350388432049
 30
0.0
 11
16.31762429686513
 21
5.139036424589121
 31
0.0
  0
ARC
  5
18B
330
186
100
AcDbEntity
  8
치수문자_일반주서
 62
     0
370
    -2
100
AcDbCircle
 10
45.46254814199045
 20
-0.0000000000000056
 30
0.0
 40
29.59453127372367
100
AcDbArc
 50
157.2078436430943
 51
163.6039218215471
  0
ARC
  5
18C
330
186
100
AcDbEntity
  8
치수문자_일반주서
 62
     0
370
    -2
100
AcDbCircle
 10
45.46254814199045
 20
-0.0000000000000056
 30
0.0
 40
29.59453127372367
100
AcDbArc
 50
186.3960781784528
 51
192.7921563569056
  0
ARC
  5
18D
330
186
100
AcDbEntity
  8
치수문자_일반주서
 62
     0
370
    -2
100
AcDbCircle
 10
45.46254814199045
 20
-0.0000000000000056
 30
0.0
 40
29.59453127372367
100
AcDbArc
 50
169.9999999999999
 51
180.0
  0
SOLID
  5
18E
330
186
100
AcDbEntity
  8
치수문자_일반주서
 62
     0
100
AcDbTrace
 10
16.53573162303353
 20
8.47947052393152
 30
0.0
 11
17.60732607005439
 21
8.228169007371909
 31
0.0
 12
16.31762429686513
 22
5.139036424589121
 32
0.0
 13
16.31762429686513
 23
5.139036424589121
 33
0.0
  0
SOLID
  5
18F
330
186
100
AcDbEntity
  8
치수문자_일반주서
 62
     0
100
AcDbTrace
 10
16.60170293000539
 20
-3.266156080255246
 30
0.0
 11
15.5027503600989
 21
-3.327559339183699
 31
0.0
 12
15.86801686826679
 22
-0.0000000000000054
 32
0.0
 13
15.86801686826679
 23
-0.0000000000000054
 33
0.0
  0
MTEXT
  5
190
330
186
100
AcDbEntity
  8
치수문자_일반주서
 62
     0
100
AcDbMText
 10
17.02996194570062
 20
15.50654182116395
 30
0.0
 40
3.5
 41
0.0
 71
     5
 72
     1
  1
\A1;10%%d
  7
SLDTEXTSTYLE0
 11
0.3873893821551395
 21
0.9219161928252804
 31
0.0
 73
     1
 44
1.0
  0
POINT
  5
191
330
186
100
AcDbEntity
  8
Defpoints
 62
     0
100
AcDbPoint
 10
15.91808613121793
 20
1.720768957596394
 30
0.0
  0
POINT
  5
192
330
186
100
AcDbEntity
  8
Defpoints
 62
     0
100
AcDbPoint
 10
-34.94200000000001
 20
-0.0000000000000051
 30
0.0
  0
POINT
  5
193
330
186
100
AcDbEntity
  8
Defpoints
 62
     0
100
AcDbPoint
 10
20.38313463204328
 20
4.422177262148094
 30
0.0
  0
POINT
  5
194
330
186
100
AcDbEntity
  8
Defpoints
 62
     0
100
AcDbPoint
 10
16.88780956775957
 20
5.038497377327865
 30
0.0
  0
POINT
  5
195
330
186
100
AcDbEntity
  8
Defpoints
 62
     0
100
AcDbPoint
 10
42.59616648204624
 20
-0.0000000000000056
 30
0.0
  0
ENDBLK
  5
188
330
186
100
AcDbEntity
  8
0
100
AcDbBlockEnd
  0
ENDSEC
  0
SECTION
  2
ENTITIES
  0
LINE
  5
95
330
1F
100
AcDbEntity
  8
0
  6
Continuous
 62
     1
370
    15
100
AcDbLine
 10
27.62124050230402
 20
-3.145903907996783
 30
0.0
 11
30.22028399569502
 21
-2.687622416077165
 31
0.0
  0
LINE
  5
96
330
1F
100
AcDbEntity
  8
0
  6
Continuous
 62
     1
370
    15
100
AcDbLine
 10
14.71436209807645
 20
-5.421734807385524
 30
0.0
 11
18.32227222540708
 21
-4.78556290796582
 31
0.0
  0
LINE
  5
97
330
1F
100
AcDbEntity
  8
0
  6
Continuous
 62
     1
370
    15
100
AcDbLine
 10
24.4217507170827
 20
3.710060281632452
 30
0.0
 11
21.2094718291151
 21
4.276471719141325
 31
0.0
  0
LINE
  5
98
330
1F
100
AcDbEntity
  8
0
  6
Continuous
 62
     1
370
    15
100
AcDbLine
 10
35.68595493425413
 20
1.723877161935052
 30
0.0
 11
33.84155133115162
 21
2.049095280477932
 31
0.0
  0
LINE
  5
99
330
1F
100
AcDbEntity
  8
0
  6
Continuous
 62
     1
370
    15
100
AcDbLine
 10
31.80272636714224
 20
-2.408595130574734
 30
0.0
 11
33.88012874438014
 21
-2.042293041679786
 31
0.0
  0
LINE
  5
9A
330
1F
100
AcDbEntity
  8
0
  6
Continuous
 62
     1
370
    15
100
AcDbLine
 10
19.05133695805316
 20
-4.657009124917312
 30
0.0
 11
22.41806065710455
 21
-4.063364900183943
 31
0.0
  0
LINE
  5
9B
330
1F
100
AcDbEntity
  8
0
  6
Continuous
 62
     1
370
    15
100
AcDbLine
 10
16.24048266064515
 20
5.152638576390699
 30
0.0
 11
12.53901315352609
 21
5.805307518765454
 31
0.0
  0
LINE
  5
9C
330
1F
100
AcDbEntity
  8
0
  6
Continuous
 62
     1
370
    15
100
AcDbLine
 10
28.32884157838474
 20
3.021134746705426
 30
0.0
 11
25.49887464203732
 21
3.520134272096353
 31
0.0
  0
LINE
  5
9D
330
1F
100
AcDbEntity
  8
0
  6
Continuous
 62
     1
370
    15
100
AcDbLine
 10
35.80828557494925
 20
-1.702306969413132
 30
0.0
 11
36.59616648204625
 21
-1.56338230790687
 31
0.0
  0
LINE
  5
9E
330
1F
100
AcDbEntity
  8
0
  6
Continuous
 62
     1
370
    15
100
AcDbLine
 10
23.35963240254105
 20
-3.897340397190727
 30
0.0
 11
26.3973157005259
 21
-3.361714872908526
 31
0.0
  0
LINE
  5
9F
330
1F
100
AcDbEntity
  8
0
  6
Continuous
 62
     1
370
    15
100
AcDbLine
 10
12.508
 20
-5.810775974488941
 30
0.0
 11
14.14147079578111
 21
-5.522751000993403
 31
0.0
  0
LINE
  5
A0
102
{ACAD_REACTORS
102
}
330
1F
100
AcDbEntity
  8
0
  6
Continuous
 62
     1
370
    15
100
AcDbLine
 10
20.38313463204328
 20
4.422177262148094
 30
0.0
 11
16.88780956775957
 21
5.038497377327865
 31
0.0
  0
LINE
  5
A1
330
1F
100
AcDbEntity
  8
0
  6
Continuous
 62
     1
370
    15
100
AcDbLine
 10
32.06636610442667
 20
2.362108331704616
 30
0.0
 11
29.72374335914528
 21
2.775175927319059
 31
0.0
  0
LINE
  5
A2
330
1F
100
AcDbEntity
  8
0
  6
Continuous
 62
     4
370
    15
100
AcDbLine
 10
12.508
 20
4.762500000000007
 30
0.0
 11
-31.13199999999999
 21
4.762500000000002
 31
0.0
  0
LINE
  5
A3
330
1F
100
AcDbEntity
  8
0
  6
Continuous
 62
     4
370
    15
100
AcDbLine
 10
-31.13199999999999
 20
-4.762499999999995
 30
0.0
 11
12.508
 21
-4.76249999999999
 31
0.0
  0
LINE
  5
A4
330
1F
100
AcDbEntity
  8
0
  6
Continuous
 62
     4
370
    15
100
AcDbLine
 10
-31.13199999999999
 20
4.762500000000001
 30
0.0
 11
-31.942
 21
3.952499999999999
 31
0.0
  0
LINE
  5
A5
330
1F
100
AcDbEntity
  8
0
  6
Continuous
 62
     4
370
    15
100
AcDbLine
 10
-31.942
 20
-3.952499999999994
 30
0.0
 11
-31.13199999999999
 21
-4.762499999999996
 31
0.0
  0
ARC
  5
AA
330
1F
100
AcDbEntity
  8
0
  6
Continuous
 62
     1
370
    15
100
AcDbCircle
 10
36.3205
 20
0.0000000000000093
 30
0.0
 40
1.587499999999999
100
AcDbArc
 50
280.0000000000009
 51
288.9407102666348
  0
ARC
  5
AB
330
1F
100
AcDbEntity
  8
0
  6
Continuous
 62
     1
370
    15
100
AcDbCircle
 10
36.3205
 20
0.0000000000000093
 30
0.0
 40
1.587500000000005
100
AcDbArc
 50
27.85617637447575
 51
43.36608873993839
  0
SPLINE
  5
AC
330
1F
100
AcDbEntity
  8
0
  6
Continuous
 62
     1
370
    15
100
AcDbSpline
210
0.0
220
0.0
230
1.0
 70
     8
 71
     3
 72
    14
 73
    10
 74
     0
 42
0.000000001
 43
0.00000001
 40
0.0
 40
0.0
 40
0.0
 40
0.0
 40
0.0384352478710364
 40
0.1925883019049945
 40
0.3467478379293187
 40
0.5046469603579459
 40
0.6722761108374726
 40
0.8449319047378705
 40
0.9999999999999999
 40
0.9999999999999999
 40
0.9999999999999999
 40
0.9999999999999999
 10
12.508
 20
-2.830491515397723
 30
0.0
 10
12.53541715723355
 20
-2.89455522146417
 30
0.0
 10
12.67279688150092
 20
-3.215560575884563
 30
0.0
 10
12.92213461949454
 20
-3.74996880586857
 30
0.0
 10
13.26027352559086
 20
-4.364345792255351
 30
0.0
 10
13.61086779679752
 20
-4.869465680578167
 30
0.0
 10
13.97932713508839
 20
-5.235419291340756
 30
0.0
 10
14.34855570013657
 20
-5.440470116196072
 30
0.0
 10
14.59630295535904
 20
-5.424544268128119
 30
0.0
 10
14.71352875501602
 20
-5.417008684037369
 30
0.0
  0
SPLINE
  5
AD
330
1F
100
AcDbEntity
  8
0
  6
Continuous
 62
     1
370
    15
100
AcDbSpline
210
0.0
220
0.0
230
1.0
 70
     8
 71
     3
 72
    25
 73
    21
 74
     0
 42
0.000000001
 43
0.00000001
 40
0.0
 40
0.0
 40
0.0
 40
0.0
 40
0.0179918942728371
 40
0.0824343652821339
 40
0.1437028375905972
 40
0.2068216548910319
 40
0.2668152872639113
 40
0.3286218008672542
 40
0.387353391746613
 40
0.4478606397794553
 40
0.5053446535476273
 40
0.5645673423185236
 40
0.620819877987334
 40
0.6787743857806665
 40
0.7338131843106338
 40
0.7905175922906789
 40
0.8443620916572092
 40
0.8998362516857782
 40
0.9525076930067659
 40
1.0
 40
1.0
 40
1.0
 40
1.0
 10
20.78094086761524
 20
4.243959224531783
 30
0.0
 10
20.81751409204138
 20
4.258012785677764
 30
0.0
 10
20.98508347057211
 20
4.32240269234654
 30
0.0
 10
21.2817267014345
 20
4.279516294525007
 30
0.0
 10
21.67546176250203
 20
4.111253836318213
 30
0.0
 10
22.06482155311233
 20
3.791503019464049
 30
0.0
 10
22.46046830097952
 20
3.341419003700053
 30
0.0
 10
22.8516161460915
 20
2.788181639249197
 30
0.0
 10
23.24905634304727
 20
2.142042321592148
 30
0.0
 10
23.64220392473345
 20
1.445145322265504
 30
0.0
 10
24.04158400649014
 20
0.7076592801371319
 30
0.0
 10
24.43687569019308
 20
-0.0230674799979116
 30
0.0
 10
24.83839208130741
 20
-0.7376412993123675
 30
0.0
 10
25.23597619397864
 20
-1.390945356337866
 30
0.0
 10
25.63984714510544
 20
-1.975789441211839
 30
0.0
 10
26.03989918554777
 20
-2.455874985959188
 30
0.0
 10
26.44633124908102
 20
-2.828380974557391
 30
0.0
 10
26.84915471161947
 20
-3.067351705796535
 30
0.0
 10
27.24095331896816
 20
-3.184084824405841
 30
0.0
 10
27.49806516600557
 20
-3.153311610620355
 30
0.0
 10
27.61997389023573
 20
-3.138720594001409
 30
0.0
  0
SPLINE
  5
AE
330
1F
100
AcDbEntity
  8
0
  6
Continuous
 62
     1
370
    15
100
AcDbSpline
210
0.0
220
0.0
230
1.0
 70
     8
 71
     3
 72
    16
 73
    12
 74
     0
 42
0.000000001
 43
0.00000001
 40
0.0
 40
0.0
 40
0.0
 40
0.0
 40
0.0665151943384971
 40
0.193568087008837
 40
0.3143740978329598
 40
0.4388226970737168
 40
0.5571814363744958
 40
0.6722185548034368
 40
0.7905953544154303
 40
0.8940396748043331
 40
0.9999999999999999
 40
0.9999999999999999
 40
0.9999999999999999
 40
0.9999999999999999
 10
32.90980944053558
 20
1.950222517475893
 30
0.0
 10
32.98615711642646
 20
1.980615633520694
 30
0.0
 10
33.20833903616288
 20
2.069063654901949
 30
0.0
 10
33.57684744458692
 20
2.092347629028837
 30
0.0
 10
34.01915499464192
 20
2.026767840974472
 30
0.0
 10
34.45852552340643
 20
1.852678138562785
 30
0.0
 10
34.89796932247552
 20
1.590732280174217
 30
0.0
 10
35.33650829288355
 20
1.26054536044498
 30
0.0
 10
35.76344312655451
 20
0.8938510157405676
 30
0.0
 10
36.18415162744447
 20
0.5098796697185115
 30
0.0
 10
36.45773250229561
 20
0.2642367848372572
 30
0.0
 10
36.59616648204624
 20
0.1399396380793181
 30
0.0
  0
SPLINE
  5
AF
330
1F
100
AcDbEntity
  8
0
  6
Continuous
 62
     1
370
    15
100
AcDbSpline
210
0.0
220
0.0
230
1.0
 70
     8
 71
     3
 72
    10
 73
     6
 74
     0
 42
0.000000001
 43
0.00000001
 40
0.0
 40
0.0
 40
0.0
 40
0.0
 40
0.4315032149081289
 40
0.9020731989326445
 40
1.0
 40
1.0
 40
1.0
 40
1.0
 10
36.52690552053898
 20
1.392937618481266
 30
0.0
 10
36.40358907311468
 20
1.458031216077353
 30
0.0
 10
36.14579154492539
 20
1.594111754494751
 30
0.0
 10
35.86608114190464
 20
1.700204416439951
 30
0.0
 10
35.71133183038807
 20
1.71420822634248
 30
0.0
 10
35.68467538229269
 20
1.716620462158885
 30
0.0
  0
SPLINE
  5
B0
330
1F
100
AcDbEntity
  8
0
  6
Continuous
 62
     1
370
    15
100
AcDbSpline
210
0.0
220
0.0
230
1.0
 70
     8
 71
     3
 72
    27
 73
    23
 74
     0
 42
0.000000001
 43
0.00000001
 40
0.0
 40
0.0
 40
0.0
 40
0.0
 40
0.037520019226551
 40
0.0861190390502243
 40
0.1345448602361552
 40
0.1843119147469334
 40
0.2338983479262791
 40
0.2848578536426734
 40
0.3356403199200356
 40
0.3878282281744498
 40
0.4398397859999271
 40
0.4932901060519237
 40
0.5465590179833196
 40
0.60130209814497
 40
0.6558527504318927
 40
0.7119156191378087
 40
0.7677456110354749
 40
0.8251249188641565
 40
0.882241503145947
 40
0.940943381585532
 40
0.9993661914058372
 40
1.0
 40
1.0
 40
1.0
 40
1.0
 10
30.96485802246922
 20
-2.326163641781269
 30
0.0
 10
30.87312865773746
 20
-2.392907856460509
 30
0.0
 10
30.66258386308565
 20
-2.546104676420308
 30
0.0
 10
30.33893506192284
 20
-2.675499179499465
 30
0.0
 10
29.99000999023412
 20
-2.724339647544145
 30
0.0
 10
29.64325885674198
 20
-2.665128176459275
 30
0.0
 10
29.29470833377484
 20
-2.500151139448414
 30
0.0
 10
28.94840809608358
 20
-2.233093739814575
 30
0.0
 10
28.59999224612558
 20
-1.869355016704513
 30
0.0
 10
28.25364907210612
 20
-1.423029623258311
 30
0.0
 10
27.90535833360745
 20
-0.9045522667911617
 30
0.0
 10
27.55855968714021
 20
-0.3362857899759918
 30
0.0
 10
27.21022536131507
 20
0.2679200359935376
 30
0.0
 10
26.86294887661789
 20
0.8804390967220846
 30
0.0
 10
26.51418435813624
 20
1.485656283358136
 30
0.0
 10
26.16670119221131
 20
2.054863461927586
 30
0.0
 10
25.81722789782634
 20
2.572690654105067
 30
0.0
 10
25.46972054282834
 20
3.012653741318057
 30
0.0
 10
25.11956469410171
 20
3.366449833478844
 30
0.0
 10
24.77212317817339
 20
3.596531808464862
 30
0.0
 10
24.53835591271916
 20
3.709920640947792
 30
0.0
 10
24.42287504190863
 20
3.709413295327318
 30
0.0
 10
24.42163567585032
 20
3.709407850382735
 30
0.0
  0
SPLINE
  5
B1
330
1F
100
AcDbEntity
  8
0
  6
Continuous
 62
     1
370
    15
100
AcDbSpline
210
0.0
220
0.0
230
1.0
 70
     8
 71
     3
 72
    25
 73
    21
 74
     0
 42
0.000000001
 43
0.00000001
 40
0.0
 40
0.0
 40
0.0
 40
0.0
 40
0.0326018775008924
 40
0.0852876054100965
 40
0.1394453237347037
 40
0.1931592377921297
 40
0.2483743720963687
 40
0.3031270312257636
 40
0.3594096662510551
 40
0.4152120206344301
 40
0.4725734034293432
 40
0.5294364349649038
 40
0.5878891095316224
 40
0.6458222421150456
 40
0.7053776195570984
 40
0.7643656491082716
 40
0.8250069538605265
 40
0.8850502481494654
 40
0.9467767137394006
 40
1.0
 40
1.0
 40
1.0
 40
1.0
 10
18.67530967107901
 20
-4.629018693207201
 30
0.0
 10
18.6024678009642
 20
-4.674415071702038
 30
0.0
 10
18.41191102473207
 20
-4.793173520997145
 30
0.0
 10
18.10430424743387
 20
-4.817550373277515
 30
0.0
 10
17.7531443135382
 20
-4.715153320327524
 30
0.0
 10
17.39938972995854
 20
-4.45121633920202
 30
0.0
 10
17.04845872022442
 20
-4.041686033474479
 30
0.0
 10
16.69456100228764
 20
-3.49034422353784
 30
0.0
 10
16.34324855123717
 20
-2.818227924186378
 30
0.0
 10
15.9896178521532
 20
-2.03672476738626
 30
0.0
 10
15.63765187769688
 20
-1.17752764878728
 30
0.0
 10
15.28423430275486
 20
-0.2559863939461801
 30
0.0
 10
14.93188731226324
 20
0.6886977408095838
 30
0.0
 10
14.57821438615249
 20
1.638737209924254
 30
0.0
 10
14.2260439769321
 20
2.552659193356489
 30
0.0
 10
13.87176077904339
 20
3.411629464735755
 30
0.0
 10
13.52002822333813
 20
4.178402042703893
 30
0.0
 10
13.16534151007701
 20
4.832442128822264
 30
0.0
 10
12.82872054741483
 20
5.334957576538891
 30
0.0
 10
12.60950141602029
 20
5.547503475324765
 30
0.0
 10
12.50799999999998
 20
5.645915094597384
 30
0.0
  0
ELLIPSE
  5
B2
330
1F
100
AcDbEntity
  8
0
  6
Continuous
 62
     1
370
    15
100
AcDbEllipse
 10
37.39650106897462
 20
0.0621930337975103
 30
0.0
 11
2.011660755602371
 21
-0.4321629486331943
 31
0.0
210
0.0
220
0.0
230
1.0
 40
0.6503595706236405
 41
2.152024200084247
 42
2.400382150724015
  0
LINE
  5
B3
330
1F
100
AcDbEntity
  8
0
  6
Continuous
 62
     1
370
    15
100
AcDbLine
 10
36.1023632613617
 20
1.26432045566295
 30
0.0
 11
36.59616648204625
 21
0.918555718147389
 31
0.0
  0
LINE
  5
B4
330
1F
100
AcDbEntity
  8
0
  6
Continuous
 62
     1
370
    15
100
AcDbLine
 10
36.59616648204625
 20
0.9185557181473895
 30
0.0
 11
36.59616648204625
 21
0.1399396380793163
 31
0.0
  0
LINE
  5
B5
330
1F
100
AcDbEntity
  8
0
  6
Continuous
 62
     4
370
    15
100
AcDbLine
 10
12.508
 20
5.645915094597443
 30
0.0
 11
12.508
 21
-2.830491515397723
 31
0.0
  0
SPLINE
  5
B6
330
1F
100
AcDbEntity
  8
0
  6
Continuous
 62
     1
370
    15
100
AcDbSpline
210
0.0
220
0.0
230
1.0
 70
     8
 71
     3
 72
    26
 73
    22
 74
     0
 42
0.000000001
 43
0.00000001
 40
0.0
 40
0.0
 40
0.0
 40
0.0
 40
0.0086450183684997
 40
0.0640889805897023
 40
0.1195352741771646
 40
0.1763265783362461
 40
0.236617464849022
 40
0.298716275503637
 40
0.3579664392392907
 40
0.4189982806630302
 40
0.4771534406790205
 40
0.5370585995618895
 40
0.5941232415414495
 40
0.65290601574538
 40
0.7088862173055476
 40
0.7665525449525219
 40
0.8214546925434214
 40
0.8780107806604132
 40
0.931844592859623
 40
0.9873006046109729
 40
1.0
 40
1.0
 40
1.0
 40
1.0
 10
12.5388307154037
 20
5.804272860758775
 30
0.0
 10
12.55597937844273
 20
5.801251248823362
 30
0.0
 10
12.68310927982646
 20
5.778850830406214
 30
0.0
 10
12.92215289605134
 20
5.662713455709544
 30
0.0
 10
13.26026536171154
 20
5.362668110997948
 30
0.0
 10
13.61088251454672
 20
4.90713183279022
 30
0.0
 10
13.97927290300088
 20
4.290638020712829
 30
0.0
 10
14.35596499002458
 20
3.531980775882809
 30
0.0
 10
14.73852629938534
 20
2.662890532500544
 30
0.0
 10
15.11658219167203
 20
1.735241374586146
 30
0.0
 10
15.49998007828661
 20
0.7593733896485191
 30
0.0
 10
15.87920002603616
 20
-0.2072274281343349
 30
0.0
 10
16.26340341012377
 20
-1.155622464545479
 30
0.0
 10
16.64376528092353
 20
-2.03068570617209
 30
0.0
 10
17.02894712720966
 20
-2.825691530247313
 30
0.0
 10
17.41039191265252
 20
-3.495631604643148
 30
0.0
 10
17.79677157325355
 20
-4.035631974063723
 30
0.0
 10
18.17918754348512
 20
-4.420860101964197
 30
0.0
 10
18.567211445854
 20
-4.63401984425742
 30
0.0
 10
18.85514009436404
 20
-4.70478160952224
 30
0.0
 10
19.01847076241055
 20
-4.652882425946448
 30
0.0
 10
19.04890416189717
 20
-4.643212052306992
 30
0.0
  0
SPLINE
  5
B7
330
1F
100
AcDbEntity
  8
0
  6
Continuous
 62
     1
370
    15
100
AcDbSpline
210
0.0
220
0.0
230
1.0
 70
     8
 71
     3
 72
    24
 73
    20
 74
     0
 42
0.000000001
 43
0.00000001
 40
0.0
 40
0.0
 40
0.0
 40
0.0
 40
0.050038422385127
 40
0.1135576264504818
 40
0.1789990779009253
 40
0.241139964591925
 40
0.3051616108727808
 40
0.3659486941493633
 40
0.4285756156641269
 40
0.4880355616480015
 40
0.5492950477432967
 40
0.6074560077961134
 40
0.667376663053291
 40
0.7242730835025003
 40
0.7828903984779132
 40
0.8385568482455005
 40
0.895906220661321
 40
0.9503805316529828
 40
1.0
 40
1.0
 40
1.0
 40
1.0
 10
24.93824189212543
 20
3.471164230282786
 30
0.0
 10
25.03981734161759
 20
3.500233967697759
 30
0.0
 10
25.2703335409732
 20
3.566205079995742
 30
0.0
 10
25.63996537700878
 20
3.50589714607364
 30
0.0
 10
26.03986202025412
 20
3.323689441978186
 30
0.0
 10
26.44636574001796
 20
3.00976944494569
 30
0.0
 10
26.84905274316952
 20
2.593653939680806
 30
0.0
 10
27.25836100639658
 20
2.082948864230096
 30
0.0
 10
27.66393803453462
 20
1.514355554452826
 30
0.0
 10
28.0763428854131
 20
0.8985351912158992
 30
0.0
 10
28.48505339468844
 20
0.2781010046283021
 30
0.0
 10
28.90082726826626
 20
-0.3361203800620621
 30
0.0
 10
29.31295469882826
 20
-0.9025217244918587
 30
0.0
 10
29.73239731116108
 20
-1.412029537274595
 30
0.0
 10
30.1482728810229
 20
-1.830827240322653
 30
0.0
 10
30.57166684487159
 20
-2.154201507705229
 30
0.0
 10
30.99174369861751
 20
-2.358439329138273
 30
0.0
 10
31.40242975339264
 20
-2.453051456230019
 30
0.0
 10
31.67279353253774
 20
-2.418891354506686
 30
0.0
 10
31.80167065724873
 20
-2.402607902248918
 30
0.0
  0
SPLINE
  5
B8
330
1F
100
AcDbEntity
  8
0
  6
Continuous
 62
     1
370
    15
100
AcDbSpline
210
0.0
220
0.0
230
1.0
 70
     8
 71
     3
 72
    26
 73
    22
 74
     0
 42
0.000000001
 43
0.00000001
 40
0.0
 40
0.0
 40
0.0
 40
0.0
 40
0.0262633700323484
 40
0.0762087246566874
 40
0.1275652461376197
 40
0.1781871939924391
 40
0.2302278383989776
 40
0.2817481790863177
 40
0.3347046696876096
 40
0.3872797632347465
 40
0.4413149157882575
 40
0.4950597224861344
 40
0.550293535013551
 40
0.6052945133314935
 40
0.6618181030071465
 40
0.718140252226435
 40
0.7760223366540471
 40
0.8336943475850829
 40
0.8929633246475469
 40
0.9520263941702181
 40
1.0
 40
1.0
 40
1.0
 40
1.0
 10
34.80544901346757
 20
-1.605363200669558
 30
0.0
 10
34.73980522099901
 20
-1.653529295551465
 30
0.0
 10
34.5493258689777
 20
-1.793293410290813
 30
0.0
 10
34.2383220734285
 20
-1.948101376893275
 30
0.0
 10
33.87312767865316
 20
-2.059416219526281
 30
0.0
 10
33.50954459205576
 20
-2.075014502145124
 30
0.0
 10
33.15152386840074
 20
-1.996150725695237
 30
0.0
 10
32.79371269046605
 20
-1.821919297060216
 30
0.0
 10
32.44029592537523
 20
-1.559673407027465
 30
0.0
 10
32.08643531095379
 20
-1.215595017338059
 30
0.0
 10
31.7359309078712
 20
-0.8057523268513604
 30
0.0
 10
31.38472952426762
 20
-0.3411996362187502
 30
0.0
 10
31.03600096741865
 20
0.1553243405424523
 30
0.0
 10
30.68643218126635
 20
0.6697522854527731
 30
0.0
 10
30.33884185644961
 20
1.17621994188107
 30
0.0
 10
29.99003441475431
 20
1.659555413537609
 30
0.0
 10
29.64325721788122
 20
2.094699359648178
 30
0.0
 10
29.29469025859499
 20
2.468482688592254
 30
0.0
 10
28.94848439597211
 20
2.756951071570291
 30
0.0
 10
28.62449241907785
 20
2.950113145847423
 30
0.0
 10
28.41926702018388
 20
2.993060530364242
 30
0.0
 10
28.32728544134299
 20
3.012309454991672
 30
0.0
  0
SPLINE
  5
B9
330
1F
100
AcDbEntity
  8
0
  6
Continuous
 62
     1
370
    15
100
AcDbSpline
210
0.0
220
0.0
230
1.0
 70
     8
 71
     3
 72
    27
 73
    23
 74
     0
 42
0.000000001
 43
0.00000001
 40
0.0
 40
0.0
 40
0.0
 40
0.0
 40
0.024998537104063
 40
0.0732518889281497
 40
0.1228484755235806
 40
0.1721333587534529
 40
0.2227909739755876
 40
0.2731178009905307
 40
0.3248463608124385
 40
0.3762274225218784
 40
0.4290392562441696
 40
0.4814867376623675
 40
0.53539530969303
 40
0.5889211135220052
 40
0.643940436181305
 40
0.6985371096330696
 40
0.7546591635478771
 40
0.8103213161267185
 40
0.8675391391849668
 40
0.9242777127936486
 40
0.9826017555168746
 40
1.0
 40
1.0
 40
1.0
 40
1.0
 10
22.85512193629151
 20
-3.86716817068055
 30
0.0
 10
22.79434865899784
 20
-3.908902180279366
 30
0.0
 10
22.61626794413104
 20
-4.031193137663505
 30
0.0
 10
22.32184603489321
 20
-4.094016204067958
 30
0.0
 10
21.97204355219421
 20
-4.057764814953138
 30
0.0
 10
21.62002811007747
 20
-3.876964007698894
 30
0.0
 10
21.27040297783698
 20
-3.564479825821925
 30
0.0
 10
20.91796760599508
 20
-3.122528142191845
 30
0.0
 10
20.56799245555052
 20
-2.567640514687803
 30
0.0
 10
20.21557945289816
 20
-1.909880237822061
 30
0.0
 10
19.86490402333544
 20
-1.175705769365817
 30
0.0
 10
19.51258032263217
 20
-0.3792867141001073
 30
0.0
 10
19.16133218500228
 20
0.4453865437762072
 30
0.0
 10
18.8087545878487
 20
1.281687686798426
 30
0.0
 10
18.45743079970509
 20
2.092711417442799
 30
0.0
 10
18.10421767714448
 20
2.860775329670218
 30
0.0
 10
17.75316521118852
 20
3.551535592948571
 30
0.0
 10
17.39939266308596
 20
4.147711100512839
 30
0.0
 10
17.04842447541965
 20
4.625286467350151
 30
0.0
 10
16.69469498169984
 20
4.957281145390914
 30
0.0
 10
16.42503527246553
 20
5.128861307556289
 30
0.0
 10
16.27264695088819
 20
5.135057271973706
 30
0.0
 10
16.23763362293693
 20
5.136480880632662
 30
0.0
  0
SPLINE
  5
BA
330
1F
100
AcDbEntity
  8
0
  6
Continuous
 62
     1
370
    15
100
AcDbSpline
210
0.0
220
0.0
230
1.0
 70
     8
 71
     3
 72
    14
 73
    10
 74
     0
 42
0.000000001
 43
0.00000001
 40
0.0
 40
0.0
 40
0.0
 40
0.0
 40
0.25
 40
0.25
 40
0.5
 40
0.5
 40
0.75
 40
0.75
 40
1.0
 40
1.0
 40
1.0
 40
1.0
 10
36.59616648204625
 20
1.278524101516859
 30
0.0
 10
36.68656080744496
 20
1.310825653318452
 30
0.0
 10
36.77460225650145
 20
1.330067857403122
 30
0.0
 10
36.94870918470766
 20
1.341069391417408
 30
0.0
 10
37.03528286937159
 20
1.332282095677639
 30
0.0
 10
37.1979337263379
 20
1.286688472386359
 30
0.0
 10
37.27592533472094
 20
1.249605743442621
 30
0.0
 10
37.41799864628214
 20
1.150654841364102
 30
0.0
 10
37.48109615916206
 20
1.089767302600529
 30
0.0
 10
37.53301050460345
 20
1.021017644134294
 30
0.0
  0
SPLINE
  5
BB
330
1F
100
AcDbEntity
  8
0
  6
Continuous
 62
     1
370
    15
100
AcDbSpline
210
0.0
220
0.0
230
1.0
 70
     8
 71
     3
 72
    14
 73
    10
 74
     0
 42
0.000000001
 43
0.00000001
 40
0.0
 40
0.0
 40
0.0
 40
0.0
 40
0.25
 40
0.25
 40
0.5
 40
0.5
 40
0.75
 40
0.75
 40
1.0
 40
1.0
 40
1.0
 40
1.0
 10
36.52690552053898
 20
1.392937618481239
 30
0.0
 10
36.57763004940537
 20
1.277739241710558
 30
0.0
 10
36.64136681586483
 20
1.171126183999214
 30
0.0
 10
36.7973844480441
 20
0.9857589551596914
 30
0.0
 10
36.88832205847172
 20
0.9091967201130207
 30
0.0
 10
37.08693516333409
 20
0.8123833038179079
 30
0.0
 10
37.19546886596478
 20
0.7929558116809313
 30
0.0
 10
37.39459614042973
 20
0.8458584135080377
 30
0.0
 10
37.4790502734754
 20
0.9202180576775497
 30
0.0
 10
37.5330105046015
 20
1.021017644134628
 30
0.0
  0
SPLINE
  5
BC
330
1F
100
AcDbEntity
  8
0
  6
Continuous
 62
     1
370
    15
100
AcDbSpline
210
0.0
220
0.0
230
1.0
 70
    24
 71
     3
 72
     9
 73
     5
 74
     0
 42
0.000000001
 43
0.00000001
 40
0.0
 40
0.0
 40
0.0
 40
0.0
 40
0.2858321689411965
 40
0.9999999999999999
 40
0.9999999999999999
 40
0.9999999999999999
 40
0.9999999999999999
 10
12.508
 20
5.694972893908094
 30
0.0
 10
12.508
 20
5.70795982862358
 30
0.0
 10
12.508
 20
5.753395353825641
 30
0.0
 10
12.508
 20
5.786497413043664
 30
0.0
 10
12.508
 20
5.810137838878978
 30
0.0
  0
SPLINE
  5
BD
330
1F
100
AcDbEntity
  8
0
  6
Continuous
 62
     1
370
    15
100
AcDbSpline
210
0.0
220
0.0
230
1.0
 70
     8
 71
     3
 72
    20
 73
    16
 74
     0
 42
0.000000001
 43
0.00000001
 40
0.0
 40
0.0
 40
0.0
 40
0.0
 40
0.0741794912664249
 40
0.1550749303136821
 40
0.2382988143919881
 40
0.3194771677503753
 40
0.4029786438510492
 40
0.4847223198504279
 40
0.5687755993589607
 40
0.6516266299508084
 40
0.7367995876195051
 40
0.8211209838374265
 40
0.9077928723911338
 40
0.9938405427876879
 40
1.0
 40
1.0
 40
1.0
 40
1.0
 10
36.52690552053783
 20
-1.334174087906087
 30
0.0
 10
36.40347029867694
 20
-1.286056758101311
 30
0.0
 10
36.14542446819824
 20
-1.185465726281531
 30
0.0
 10
35.75970475163763
 20
-0.9330071595395298
 30
0.0
 10
35.37063915095547
 20
-0.6091287730596273
 30
0.0
 10
34.98574559327074
 20
-0.2271238300570714
 30
0.0
 10
34.61054573085868
 20
0.1852432102013069
 30
0.0
 10
34.23808469411764
 20
0.6141380364709006
 30
0.0
 10
33.87319253365758
 20
1.03240334934214
 30
0.0
 10
33.5095209266109
 20
1.425946621064158
 30
0.0
 10
33.15155273101986
 20
1.770032763840744
 30
0.0
 10
32.7936210690063
 20
2.055406910206292
 30
0.0
 10
32.44064294807972
 20
2.251253929366325
 30
0.0
 10
32.19714024292421
 20
2.35266212458005
 30
0.0
 10
32.07404168696629
 20
2.358606613492092
 30
0.0
 10
32.0658186752753
 20
2.359003706710938
 30
0.0
  0
SPLINE
  5
BE
330
1F
100
AcDbEntity
  8
0
  6
Continuous
 62
     1
370
    15
100
AcDbSpline
210
0.0
220
0.0
230
1.0
 70
     8
 71
     3
 72
    27
 73
    23
 74
     0
 42
0.000000001
 43
0.00000001
 40
0.0
 40
0.0
 40
0.0
 40
0.0
 40
0.01625349553135
 40
0.0638728181207145
 40
0.1128122114784755
 40
0.1615483178838225
 40
0.2116368806213837
 40
0.2614961020622462
 40
0.3127391865869451
 40
0.3637386615845541
 40
0.4161532923787969
 40
0.4683093037341108
 40
0.5219127446613574
 40
0.5752405158268076
 40
0.6300501003670799
 40
0.6845558518990673
 40
0.7405788870585822
 40
0.7962498300721099
 40
0.8534713760191506
 40
0.9103192720714304
 40
0.9687505296354504
 40
0.9999999999999999
 40
0.9999999999999999
 40
0.9999999999999999
 40
0.9999999999999999
 10
26.98255446648091
 20
-3.084838200420593
 30
0.0
 10
26.94274285062819
 20
-3.116435810086864
 30
0.0
 10
26.78629157566716
 20
-3.24060776875079
 30
0.0
 10
26.51436304316591
 20
-3.348731720781696
 30
0.0
 10
26.16665171436802
 20
-3.398565475588727
 30
0.0
 10
25.81724646236782
 20
-3.320688612252585
 30
0.0
 10
25.46969658104808
 20
-3.124737862202681
 30
0.0
 10
25.11964220875294
 20
-2.810350649702649
 30
0.0
 10
24.77182902675072
 20
-2.388913431124931
 30
0.0
 10
24.42152124348265
 20
-1.868507153832959
 30
0.0
 10
24.07302591295887
 20
-1.269788775475026
 30
0.0
 10
23.72263287046325
 20
-0.6054291356976911
 30
0.0
 10
23.37338701438217
 20
0.0961175279485823
 30
0.0
 10
23.02271505503555
 20
0.8194608712454325
 30
0.0
 10
22.67306660593191
 20
1.532241702627286
 30
0.0
 10
22.32173044061973
 20
2.217745273650531
 30
0.0
 10
21.97207296844418
 20
2.844647984486655
 30
0.0
 10
21.62002623077397
 20
3.396399755445271
 30
0.0
 10
21.27037949346284
 20
3.849100325331324
 30
0.0
 10
20.91806358123066
 20
4.181512454566668
 30
0.0
 10
20.62178866514964
 20
4.373451571257422
 30
0.0
 10
20.4425998187209
 20
4.397079784745972
 30
0.0
 10
20.38016102417194
 20
4.405313093888664
 30
0.0
  0
SPLINE
  5
BF
330
1F
100
AcDbEntity
  8
0
  6
Continuous
 62
     1
370
    15
100
AcDbSpline
210
0.0
220
0.0
230
1.0
 70
     8
 71
     3
 72
    13
 73
     9
 74
     0
 42
0.000000001
 43
0.00000001
 40
0.0
 40
0.0
 40
0.0
 40
0.0
 40
0.0924660614187514
 40
0.2741686147252833
 40
0.4609638000054624
 40
0.6459169161588179
 40
0.8360547541170927
 40
1.0
 40
1.0
 40
1.0
 40
1.0
 10
14.40511677550085
 20
-5.407049232283978
 30
0.0
 10
14.34515448245827
 20
-5.443118635147543
 30
0.0
 10
14.16736191114085
 20
-5.550067044816331
 30
0.0
 10
13.87185885077929
 20
-5.544822750379366
 30
0.0
 10
13.5200019543379
 20
-5.399287014834897
 30
0.0
 10
13.16534873951374
 20
-5.069719228231289
 30
0.0
 10
12.8287190097267
 20
-4.609291082011108
 30
0.0
 10
12.60950092937382
 20
-4.201819776506652
 30
0.0
 10
12.50799999999998
 20
-4.013155063562836
 30
0.0
  0
SPLINE
  5
C0
330
1F
100
AcDbEntity
  8
0
  6
Continuous
 62
     1
370
    15
100
AcDbSpline
210
0.0
220
0.0
230
1.0
 70
     8
 71
     3
 72
    14
 73
    10
 74
     0
 42
0.000000001
 43
0.00000001
 40
0.0
 40
0.0
 40
0.0
 40
0.0
 40
0.25
 40
0.25
 40
0.5
 40
0.5
 40
0.75
 40
0.75
 40
1.0
 40
1.0
 40
1.0
 40
1.0
 10
36.59616648204625
 20
0.1399396380793171
 30
0.0
 10
36.68656080744389
 20
0.0600534399618513
 30
0.0
 10
36.77460225649936
 20
-0.0174455096794914
 30
0.0
 10
36.94870918470355
 20
-0.1645679332783699
 30
0.0
 10
37.03528286936655
 20
-0.2344349156176798
 30
0.0
 10
37.19793372633134
 20
-0.357521026168256
 30
0.0
 10
37.27592533471361
 20
-0.4121590698591485
 30
0.0
 10
37.41799864627431
 20
-0.5075109937402517
 30
0.0
 10
37.48109615915418
 20
-0.547379782497262
 30
0.0
 10
37.53301050459606
 20
-0.5854963039808707
 30
0.0
  0
SPLINE
  5
C1
330
1F
100
AcDbEntity
  8
0
  6
Continuous
 62
     1
370
    15
100
AcDbSpline
210
0.0
220
0.0
230
1.0
 70
     8
 71
     3
 72
    14
 73
    10
 74
     0
 42
0.000000001
 43
0.00000001
 40
0.0
 40
0.0
 40
0.0
 40
0.0
 40
0.25
 40
0.25
 40
0.5
 40
0.5
 40
0.75
 40
0.75
 40
1.0
 40
1.0
 40
1.0
 40
1.0
 10
36.52690552053898
 20
-1.334174087906439
 30
0.0
 10
36.57763004940537
 20
-1.262932372531229
 30
0.0
 10
36.64136681586483
 20
-1.186659993573378
 30
0.0
 10
36.7973844480441
 20
-1.026214434224653
 30
0.0
 10
36.88832205847172
 20
-0.9436296176139762
 30
0.0
 10
37.08693516333409
 20
-0.7877102196571515
 30
0.0
 10
37.19546886596478
 20
-0.7141332589739858
 30
0.0
 10
37.39459614042973
 20
-0.6098930873949361
 30
0.0
 10
37.47905027347539
 20
-0.5837151046765485
 30
0.0
 10
37.53301050460149
 20
-0.5854963039853566
 30
0.0
  0
SPLINE
  5
C2
330
1F
100
AcDbEntity
  8
0
  6
Continuous
 62
     4
370
    15
100
AcDbSpline
210
0.0
220
0.0
230
1.0
 70
    24
 71
     3
 72
    12
 73
     8
 74
     0
 42
0.000000001
 43
0.00000001
 40
0.0
 40
0.0
 40
0.0
 40
0.0
 40
0.2051108997835863
 40
0.418739600899033
 40
0.6323683020144901
 40
0.845997003129901
 40
1.0
 40
1.0
 40
1.0
 40
1.0
 10
12.508
 20
-4.020027771831657
 30
0.0
 10
12.508
 20
-4.000523052053765
 30
0.0
 10
12.508
 20
-3.960703624690033
 30
0.0
 10
12.508
 20
-3.759636406899092
 30
0.0
 10
12.508
 20
-3.477353249640969
 30
0.0
 10
12.508
 20
-3.167095680753391
 30
0.0
 10
12.508
 20
-2.96444206158039
 30
0.0
 10
12.508
 20
-2.879549314708373
 30
0.0
  0
SPLINE
  5
C3
330
1F
100
AcDbEntity
  8
0
  6
Continuous
 62
     1
370
    15
100
AcDbSpline
210
0.0
220
0.0
230
1.0
 70
     8
 71
     3
 72
    26
 73
    22
 74
     0
 42
0.000000001
 43
0.00000001
 40
0.0
 40
0.0
 40
0.0
 40
0.0
 40
0.0161003845590917
 40
0.0766355208227559
 40
0.1389939780030637
 40
0.1983633424025613
 40
0.2595212233191239
 40
0.3177353252024313
 40
0.3777036199646283
 40
0.4347716512433291
 40
0.4935602270068875
 40
0.5494871755063557
 40
0.6071011967148091
 40
0.6618936280585249
 40
0.7183398599935282
 40
0.7720059336878146
 40
0.8272927553289255
 40
0.8798421755250312
 40
0.9339795285362915
 40
0.9854235056024367
 40
0.9999999999999999
 40
0.9999999999999999
 40
0.9999999999999999
 40
0.9999999999999999
 10
16.55175683439131
 20
5.015241685989275
 30
0.0
 10
16.58466712114221
 20
5.027646006357966
 30
0.0
 10
16.74131536493574
 20
5.086688791852813
 30
0.0
 10
17.02914767117437
 20
5.020768515578941
 30
0.0
 10
17.41034473968222
 20
4.815604365444371
 30
0.0
 10
17.79676916249896
 20
4.433356157517367
 30
0.0
 10
18.17924629073023
 20
3.917349357770336
 30
0.0
 10
18.56698954043735
 20
3.271138217434856
 30
0.0
 10
18.95057057000825
 20
2.537026371185379
 30
0.0
 10
19.3398206976448
 20
1.724309771975866
 30
0.0
 10
19.72459722634317
 20
0.883174181776918
 30
0.0
 10
20.11540818200044
 20
0.0235216158890402
 30
0.0
 10
20.50151731129193
 20
-0.8028952535710729
 30
0.0
 10
20.89390829992562
 20
-1.58724408830407
 30
0.0
 10
21.28151935498684
 20
-2.283400688465277
 30
0.0
 10
21.67551327744448
 20
-2.885228812901338
 30
0.0
 10
22.06482658897099
 20
-3.357570904682928
 30
0.0
 10
22.46040244730616
 20
-3.701529828914838
 30
0.0
 10
22.8518791584127
 20
-3.884527529944348
 30
0.0
 10
23.15210997537844
 20
-3.94352724897792
 30
0.0
 10
23.3200036329351
 20
-3.893801109903188
 30
0.0
 10
23.35707245271938
 20
-3.882822200307946
 30
0.0
  0
SPLINE
  5
C4
330
1F
100
AcDbEntity
  8
0
  6
Continuous
 62
     1
370
    15
100
AcDbSpline
210
0.0
220
0.0
230
1.0
 70
     8
 71
     3
 72
    24
 73
    20
 74
     0
 42
0.000000001
 43
0.00000001
 40
0.0
 40
0.0
 40
0.0
 40
0.0
 40
0.0536564796878168
 40
0.1202264299321959
 40
0.1888098612019321
 40
0.2539407211409602
 40
0.321040634248422
 40
0.3847766679686629
 40
0.4504384280250196
 40
0.5128270595866445
 40
0.5770993577501876
 40
0.6381895650403536
 40
0.7011228603337987
 40
0.7609618784988091
 40
0.8226051853158799
 40
0.8812319928951665
 40
0.9382134971461566
 40
0.9968492505658316
 40
1.0
 40
1.0
 40
1.0
 40
1.0
 10
28.99715494018942
 20
2.702603964622468
 30
0.0
 10
29.10484612775153
 20
2.737579883587558
 30
0.0
 10
29.34614647192395
 20
2.815949353505008
 30
0.0
 10
29.73252841041132
 20
2.791404707707774
 30
0.0
 10
30.14823141916164
 20
2.658511935284808
 30
0.0
 10
30.57170603814278
 20
2.407111430872956
 30
0.0
 10
30.9916270152298
 20
2.063231858372756
 30
0.0
 10
31.4193751673848
 20
1.635978331827939
 30
0.0
 10
31.84371441810212
 20
1.158954361940755
 30
0.0
 10
32.27610496467922
 20
0.6450932144971139
 30
0.0
 10
32.70518494374516
 20
0.1333680686427666
 30
0.0
 10
33.14253564476277
 20
-0.3627644043686143
 30
0.0
 10
33.57664546477773
 20
-0.8063065315826943
 30
0.0
 10
34.01920170734157
 20
-1.186234190103358
 30
0.0
 10
34.45854454904254
 20
-1.474217116266002
 30
0.0
 10
34.8978569647291
 20
-1.663780794898883
 30
0.0
 10
35.33693243120696
 20
-1.739604478139585
 30
0.0
 10
35.63941700101567
 20
-1.745049237683463
 30
0.0
 10
35.79972788875403
 20
-1.702315346751367
 30
0.0
 10
35.80790280423723
 20
-1.700136168832969
 30
0.0
  0
ELLIPSE
  5
C5
330
1F
100
AcDbEntity
  8
0
  6
Continuous
 62
     1
370
    15
100
AcDbEllipse
 10
37.39650106897462
 20
-0.3365559933251416
 30
0.0
 11
2.019186212498681
 21
1.379710236556699
 31
0.0
210
0.0
220
0.0
230
1.0
 40
0.1598839377525302
 41
3.912803436483551
 42
4.161161387123289
  0
ELLIPSE
  5
C6
330
1F
100
AcDbEntity
  8
0
  6
Continuous
 62
     1
370
    15
100
AcDbEllipse
 10
37.39650106897462
 20
-0.1790777036450787
 30
0.0
 11
1.971563334270954
 21
0.9769789198149685
 31
0.0
210
0.0
220
0.0
230
1.0
 40
0.500094829270173
 41
3.77869987692172
 42
4.064466335562736
  0
LINE
  5
C7
330
1F
100
AcDbEntity
  8
0
  6
Continuous
 62
     4
370
    15
100
AcDbLine
 10
12.508
 20
-4.013155063562863
 30
0.0
 11
12.508
 21
-5.810775974488941
 31
0.0
  0
LINE
  5
CE
330
1F
100
AcDbEntity
  8
0
  6
Continuous
 62
     4
370
    15
100
AcDbLine
 10
-31.13199999999999
 20
4.762500000000002
 30
0.0
 11
-31.13199999999999
 21
-4.762499999999995
 31
0.0
  0
LINE
  5
CF
330
1F
100
AcDbEntity
  8
0
  6
Continuous
 62
     4
370
    15
100
AcDbLine
 10
-31.942
 20
-3.952499999999994
 30
0.0
 11
-31.942
 21
3.952500000000007
 31
0.0
  0
LINE
  5
D1
330
1F
100
AcDbEntity
  8
0
  6
Continuous
 62
     1
370
    15
100
AcDbLine
 10
36.59616648204625
 20
0.9185557181473895
 30
0.0
 11
37.90799999999999
 21
0.0000000000000138
 31
0.0
  0
ARC
  5
D2
330
1F
100
AcDbEntity
  8
0
  6
Continuous
 62
     1
370
    15
100
AcDbCircle
 10
36.82798208131121
 20
0.2788810986828218
 30
0.0
 40
1.115443128039874
100
AcDbArc
 50
309.2023650912075
 51
345.5214100016011
  0
ARC
  5
D3
330
1F
100
AcDbEntity
  8
0
  6
Continuous
 62
     1
370
    15
100
AcDbCircle
 10
36.34043085574005
 20
0.0036484317994247
 30
0.0
 40
1.567573390017342
100
AcDbArc
 50
359.8666474348154
 51
40.46692508049757
  0
ARC
  5
D4
330
1F
100
AcDbEntity
  8
0
  6
Continuous
 62
     1
370
    15
100
AcDbCircle
 10
36.28910273352833
 20
0.0350287343141115
 30
0.0
 40
1.619276187565627
100
AcDbArc
 50
280.9312068130455
 51
358.7604614838609
  0
LINE
  5
D5
330
1F
100
AcDbEntity
  8
0
  6
Continuous
 62
     8
370
    15
100
AcDbLine
 10
36.59616648204625
 20
-1.554866616318496
 30
0.0
 11
36.59616648204625
 21
-1.56338230790687
 31
0.0
  0
CIRCLE
  5
D7
330
1F
100
AcDbEntity
  8
외형선
100
AcDbCircle
 10
-1.243446672984198
 20
-0.0000000000000056
 30
0.0
 40
3.0
  0
INSERT
  5
D8
330
1F
100
AcDbEntity
  8
0
  6
Continuous
 62
     7
100
AcDbBlockReference
 66
     1
  2
블럭10
 10
-1.432773799681436
 20
-52.05975325537357
 30
0.0
  0
ATTRIB
  5
D9
330
D8
100
AcDbEntity
  8
FORMAT
 62
     2
100
AcDbText
 10
-10.61406908842272
 20
-49.98438634254137
 30
0.0
 40
4.233333333333333
  1
E5078098 [ 3 FLUTE ]
 41
0.75
  7
SLDTEXTSTYLE0
 11
-10.61406908842272
 21
-52.10105300920804
 31
0.0
100
AcDbAttribute
  2
AUTOATTR0
 70
     0
 74
     1
  0
SEQEND
  5
DA
330
D8
100
AcDbEntity
  8
0
  6
Continuous
 62
     7
  0
HATCH
  5
DB
330
1F
100
AcDbEntity
  8
중심선
100
AcDbHatch
 10
0.0
 20
0.0
 30
0.0
210
0.0
220
0.0
230
1.0
  2
SOLID
 70
     1
 71
     0
 91
        1
 92
        0
 93
        4
 72
     1
 10
4.282135504699413
 20
-35.81257895372963
 11
0.8358602608621313
 21
-35.81257895372963
 72
     1
 10
0.8358602608621313
 20
-35.81257895372963
 11
-1.292369598341891
 21
-38.34890453430223
 72
     1
 10
-1.292369598341891
 20
-38.34890453430223
 11
2.15393873060854
 21
-38.34886510499974
 72
     1
 10
2.15393873060854
 20
-38.34886510499974
 11
4.282135504699413
 21
-35.81257895372963
 97
        0
 75
     0
 76
     1
 98
        1
 10
0.0
 20
0.0
  0
HATCH
  5
DC
330
1F
100
AcDbEntity
  8
중심선
100
AcDbHatch
 10
0.0
 20
0.0
 30
0.0
210
0.0
220
0.0
230
1.0
  2
SOLID
 70
     1
 71
     0
 91
        1
 92
        0
 93
        4
 72
     1
 10
9.294899495735365
 20
-35.81257895372963
 11
5.848624251898082
 21
-35.81257895372963
 72
     1
 10
5.848624251898082
 20
-35.81257895372963
 11
1.317486243540694
 21
-41.21257895372965
 72
     1
 10
1.317486243540694
 20
-41.21257895372965
 11
4.763761487377977
 21
-41.21257895372965
 72
     1
 10
4.763761487377977
 20
-41.21257895372965
 11
9.294899495735365
 21
-35.81257895372963
 97
        0
 75
     0
 76
     1
 98
        1
 10
0.0
 20
0.0
  0
HATCH
  5
DD
330
1F
100
AcDbEntity
  8
중심선
100
AcDbHatch
 10
0.0
 20
0.0
 30
0.0
210
0.0
220
0.0
230
1.0
  2
SOLID
 70
     1
 71
     0
 91
        1
 92
        0
 93
        4
 72
     1
 10
14.30766348677126
 20
-35.81257895372966
 11
10.86138824293414
 21
-35.81257895372963
 72
     1
 10
10.86138824293414
 20
-35.81257895372963
 11
3.812951341044895
 21
-44.21257895372965
 72
     1
 10
3.812951341044895
 20
-44.21257895372965
 11
7.259226584882178
 21
-44.21257895372965
 72
     1
 10
7.259226584882178
 20
-44.21257895372965
 11
14.30766348677126
 21
-35.81257895372966
 97
        0
 75
     0
 76
     1
 98
        1
 10
0.0
 20
0.0
  0
HATCH
  5
DE
330
1F
100
AcDbEntity
  8
중심선
100
AcDbHatch
 10
0.0
 20
0.0
 30
0.0
210
0.0
220
0.0
230
1.0
  2
SOLID
 70
     1
 71
     0
 91
        1
 92
        0
 93
        6
 72
     3
 10
19.10755391778346
 20
-40.01257895378091
 11
3.960054785062284
 21
1.540850780301639E-10
 40
0.3939339440162633
 50
17.09539180608434
 51
320.0019657685079
 73
     0
 72
     1
 10
20.79055357348405
 20
-38.60047295836794
 11
23.09585544718509
 21
-36.66614624832001
 72
     3
 10
19.10755391773061
 20
-40.01257895372979
 11
6.600054785286829
 21
-1.249000902703301E-13
 40
0.6363583540795982
 50
39.99873849337412
 51
368.4976242363724
 73
     1
 72
     1
 10
25.53288640963122
 20
-39.05257895365965
 11
17.78762122456654
 21
-39.05257895365963
 72
     1
 10
17.78762122456654
 20
-39.05257895365963
 11
17.7875961801206
 21
-40.97257895365955
 72
     1
 10
17.7875961801206
 20
-40.97257895365955
 11
22.22897594959264
 21
-40.97257895365952
 97
        0
 75
     0
 76
     1
 98
        1
 10
0.0
 20
0.0
  0
DIMENSION
  5
DF
102
{ACAD_REACTORS
102
}
330
1F
100
AcDbEntity
  8
치수문자_일반주서
100
AcDbDimension
  2
_D
 10
12.508
 20
42.28108504806349
 30
0.0
 11
24.9846096739984
 21
42.28108504806349
 31
0.0
 70
   160
  1
<>
 71
     2
 42
25.39999999999999
  3
SLDDIMSTYLE0
100
AcDbAlignedDimension
 13
37.90799999999999
 23
1.587499999999994
 33
0.0
 14
12.508
 24
3.851774598917539
 34
0.0
100
AcDbRotatedDimension
1001
ACAD
1000
DSTYLE
1002
{
1070
   171
1070
     6
1070
   273
1070
     7
1002
}
  0
DIMENSION
  5
F5
330
1F
100
AcDbEntity
  8
치수문자_일반주서
100
AcDbDimension
  2
_D_1
 10
-31.94199999999999
 20
56.95238804542073
 30
0.0
 11
4.544987029392129
 21
56.95238804542073
 31
0.0
 70
   160
  1
<>
 71
     2
 42
69.85
  3
SLDDIMSTYLE1
100
AcDbAlignedDimension
 13
37.90799999999999
 23
1.587499999999994
 33
0.0
 14
-31.942
 24
3.952499999999999
 34
0.0
100
AcDbRotatedDimension
1001
ACAD
1000
DSTYLE
1002
{
1070
   171
1070
     6
1070
   273
1070
     7
1002
}
  0
DIMENSION
  5
109
330
1F
100
AcDbEntity
  8
치수문자_일반주서
100
AcDbDimension
  2
_D_2
 10
-44.94199999999997
 20
-4.762500000000042
 30
0.0
 11
-44.94199999999999
 21
1.30466537928723
 31
0.0
 70
   160
  1
%%c<>
 71
     2
 42
9.524999999999997
  3
SLDDIMSTYLE2
100
AcDbAlignedDimension
 13
-31.13199999999999
 23
4.762500000000002
 33
0.0
 14
-31.13199999999999
 24
-4.762499999999995
 34
0.0
 50
90.0000000000002
100
AcDbRotatedDimension
1001
ACAD
1000
DSTYLE
1002
{
1070
   171
1070
     6
1070
   273
1070
     7
1002
}
  0
INSERT
  5
124
330
1F
100
AcDbEntity
  8
외형선
100
AcDbBlockReference
  2
SW_DOWELSYMBOL_0
 10
-1.243446672984198
 20
-0.0000000000000056
 30
0.0
  0
DIMENSION
  5
16F
102
{ACAD_XDICTIONARY
360
170
102
}
330
1F
100
AcDbEntity
  8
치수문자_일반주서
100
AcDbDimension
  2
*D6
 10
53.86435401730336
 20
1.587499999999993
 30
0.0
 11
51.23935401730336
 21
20.44149999999999
 31
0.0
 70
    32
  1
{%%c<>[]}
 71
     5
 42
3.175
  3
SLDDIMSTYLE2
100
AcDbAlignedDimension
 13
37.90843175029732
 23
-1.587500000000005
 33
0.0
 14
37.90799999999999
 24
1.587499999999994
 34
0.0
 50
90.0
100
AcDbRotatedDimension
1001
ACAD
1000
DSTYLE
1002
{
1070
   283
1070
     1
1070
   170
1070
     1
1070
   171
1070
     6
1070
   273
1070
     7
1002
}
  0
LINE
  5
182
102
{ACAD_REACTORS
102
}
330
1F
100
AcDbEntity
  8
중심선
100
AcDbLine
 10
-34.94200000000001
 20
-0.0000000000000051
 30
0.0
 11
42.59616648204624
 21
-0.0000000000000056
 31
0.0
  0
DIMENSION
  5
183
102
{ACAD_REACTORS
102
}
102
{ACAD_XDICTIONARY
360
184
102
}
330
1F
100
AcDbEntity
  8
치수문자_일반주서
100
AcDbDimension
  2
*D7
 10
42.59616648204624
 20
-0.0000000000000056
 30
0.0
 11
17.02996194570062
 21
15.50654182116395
 31
0.0
 70
    34
  1
<>
 71
     5
 42
0.174532925199434
  3
SLDDIMSTYLE2
100
AcDb2LineAngularDimension
 13
20.38313463204328
 23
4.422177262148094
 33
0.0
 14
16.88780956775957
 24
5.038497377327865
 34
0.0
 15
-34.94200000000001
 25
-0.0000000000000051
 35
0.0
 16
15.91808613121793
 26
1.720768957596394
 36
0.0
1001
ACAD
1000
DSTYLE
1002
{
1070
   171
1070
     6
1070
   273
1070
     7
1002
}
  0
ENDSEC
  0
SECTION
  2
OBJECTS
  0
DICTIONARY
  5
C
330
0
100
AcDbDictionary
281
     1
  3
ACAD_GROUP
350
D
  3
ACAD_IMAGE_VARS
350
148
  3
ACAD_LAYOUT
350
1A
  3
ACAD_MLINESTYLE
350
17
  3
ACAD_PLOTSETTINGS
350
19
  3
ACAD_PLOTSTYLENAME
350
E
  3
ACAD_SCALELIST
350
47
  3
APPDATA
350
146
  3
DWGPROPS
350
196
  0
DICTIONARY
  5
170
330
16F
100
AcDbDictionary
280
     1
281
     1
  0
DICTIONARY
  5
184
330
183
100
AcDbDictionary
280
     1
281
     1
  0
DICTIONARY
  5
D
102
{ACAD_REACTORS
330
C
102
}
330
C
100
AcDbDictionary
281
     1
  0
RASTERVARIABLES
  5
148
102
{ACAD_REACTORS
330
C
102
}
330
C
100
AcDbRasterVariables
 90
        0
 70
     1
 71
     1
 72
     1
  0
DICTIONARY
  5
1A
102
{ACAD_REACTORS
330
C
102
}
330
C
100
AcDbDictionary
281
     1
  3
Layout1
350
1E
  3
Layout2
350
26
  3
Model
350
22
  0
DICTIONARY
  5
17
102
{ACAD_REACTORS
330
C
102
}
330
C
100
AcDbDictionary
281
     1
  3
Standard
350
18
  0
DICTIONARY
  5
19
102
{ACAD_REACTORS
330
C
102
}
330
C
100
AcDbDictionary
281
     1
  0
ACDBDICTIONARYWDFLT
  5
E
102
{ACAD_REACTORS
330
C
102
}
330
C
100
AcDbDictionary
281
     1
  3
Normal
350
F
100
AcDbDictionaryWithDefault
340
F
  0
DICTIONARY
  5
47
102
{ACAD_REACTORS
330
C
102
}
330
C
100
AcDbDictionary
281
     1
  3
A0
350
48
  3
A1
350
49
  3
A2
350
4A
  3
A3
350
4B
  3
A4
350
4C
  3
A5
350
4D
  3
A6
350
4E
  3
A7
350
4F
  3
A8
350
50
  3
A9
350
51
  3
B0
350
52
  3
B1
350
53
  3
B2
350
54
  3
B3
350
55
  3
B4
350
56
  3
B5
350
57
  3
B6
350
58
  3
B7
350
59
  3
B8
350
5A
  3
B9
350
5B
  3
C0
350
5C
  3
C1
350
5D
  3
C2
350
5E
  3
C3
350
5F
  3
C4
350
60
  3
C5
350
61
  3
C6
350
62
  3
C7
350
63
  3
C8
350
64
  3
C9
350
65
  3
D0
350
66
  3
D1
350
67
  3
D2
350
68
  0
DICTIONARY
  5
146
102
{ACAD_REACTORS
330
C
102
}
330
C
100
AcDbDictionary
281
     1
  0
XRECORD
  5
196
102
{ACAD_REACTORS
330
C
102
}
330
C
100
AcDbXrecord
280
     1
  1
DWGPROPS COOKIE
  2

  3

  4

  6

  7

  8
12015048
  9

300
=
301
=
302
=
303
=
304
=
305
=
306
=
307
=
308
=
309
=
 40
0.0
 41
2458340.215551447
 42
2458341.002520961
  1

 90
        0
  0
LAYOUT
  5
1E
102
{ACAD_REACTORS
330
1A
102
}
330
1A
100
AcDbPlotSettings
  1

  2
none_device
  4

  6

 40
0.0
 41
0.0
 42
0.0
 43
0.0
 44
0.0
 45
0.0
 46
0.0
 47
0.0
 48
0.0
 49
0.0
140
0.0
141
0.0
142
1.0
143
1.0
 70
   688
 72
     1
 73
     0
 74
     5
  7

 75
    16
147
1.0
148
0.0
149
0.0
100
AcDbLayout
  1
Layout1
 70
     1
 71
     1
 10
0.0
 20
0.0
 11
420.0
 21
297.0
 12
0.0
 22
0.0
 32
0.0
 14
1.000000000000000E+20
 24
1.000000000000000E+20
 34
1.000000000000000E+20
 15
-1.000000000000000E+20
 25
-1.000000000000000E+20
 35
-1.000000000000000E+20
146
0.0
 13
0.0
 23
0.0
 33
0.0
 16
1.0
 26
0.0
 36
0.0
 17
0.0
 27
1.0
 37
0.0
 76
     0
330
1B
  0
LAYOUT
  5
26
102
{ACAD_REACTORS
330
1A
102
}
330
1A
100
AcDbPlotSettings
  1

  2
none_device
  4

  6

 40
0.0
 41
0.0
 42
0.0
 43
0.0
 44
0.0
 45
0.0
 46
0.0
 47
0.0
 48
0.0
 49
0.0
140
0.0
141
0.0
142
1.0
143
1.0
 70
   688
 72
     1
 73
     0
 74
     5
  7

 75
    16
147
1.0
148
0.0
149
0.0
100
AcDbLayout
  1
Layout2
 70
     1
 71
     2
 10
0.0
 20
0.0
 11
0.0
 21
0.0
 12
0.0
 22
0.0
 32
0.0
 14
0.0
 24
0.0
 34
0.0
 15
0.0
 25
0.0
 35
0.0
146
0.0
 13
0.0
 23
0.0
 33
0.0
 16
1.0
 26
0.0
 36
0.0
 17
0.0
 27
1.0
 37
0.0
 76
     0
330
23
  0
LAYOUT
  5
22
102
{ACAD_REACTORS
330
1A
102
}
330
1A
100
AcDbPlotSettings
  1

  2
none_device
  4
ANSI_A_(11.00_x_8.50_Inches)
  6

 40
6.35
 41
19.05
 42
6.35000508
 43
19.05000254
 44
279.4
 45
215.9
 46
143.477010241664
 47
100.0349995745547
 48
0.0
 49
0.0
140
0.0
141
0.0
142
0.0915836148719576
143
1.0
 70
  1696
 72
     0
 73
     0
 74
     0
  7

 75
     0
147
0.0235690232323232
148
0.0
149
0.0
100
AcDbLayout
  1
Model
 70
     1
 71
     0
 10
0.0
 20
0.0
 11
420.0
 21
297.0
 12
0.0
 22
0.0
 32
0.0
 14
-49.31700000000004
 24
-49.98438634254138
 34
0.0
 15
54.41468735063668
 25
61.32738804542073
 35
0.0
146
0.0
 13
0.0
 23
0.0
 33
0.0
 16
1.0
 26
0.0
 36
0.0
 17
0.0
 27
1.0
 37
0.0
 76
     0
330
1F
331
29
  0
MLINESTYLE
  5
18
102
{ACAD_REACTORS
330
17
102
}
330
17
100
AcDbMlineStyle
  2
Standard
 70
     0
  3

 62
   256
 51
90.0
 52
90.0
 71
     2
 49
0.5
 62
   256
  6
BYLAYER
 49
-0.5
 62
   256
  6
BYLAYER
  0
ACDBPLACEHOLDER
  5
F
102
{ACAD_REACTORS
330
E
102
}
330
E
  0
SCALE
  5
48
102
{ACAD_REACTORS
330
47
102
}
330
47
100
AcDbScale
 70
     0
300
1:1
140
1.0
141
1.0
290
     1
  0
SCALE
  5
49
102
{ACAD_REACTORS
330
47
102
}
330
47
100
AcDbScale
 70
     0
300
1:2
140
1.0
141
2.0
290
     0
  0
SCALE
  5
4A
102
{ACAD_REACTORS
330
47
102
}
330
47
100
AcDbScale
 70
     0
300
1:4
140
1.0
141
4.0
290
     0
  0
SCALE
  5
4B
102
{ACAD_REACTORS
330
47
102
}
330
47
100
AcDbScale
 70
     0
300
1:5
140
1.0
141
5.0
290
     0
  0
SCALE
  5
4C
102
{ACAD_REACTORS
330
47
102
}
330
47
100
AcDbScale
 70
     0
300
1:8
140
1.0
141
8.0
290
     0
  0
SCALE
  5
4D
102
{ACAD_REACTORS
330
47
102
}
330
47
100
AcDbScale
 70
     0
300
1:10
140
1.0
141
10.0
290
     0
  0
SCALE
  5
4E
102
{ACAD_REACTORS
330
47
102
}
330
47
100
AcDbScale
 70
     0
300
1:16
140
1.0
141
16.0
290
     0
  0
SCALE
  5
4F
102
{ACAD_REACTORS
330
47
102
}
330
47
100
AcDbScale
 70
     0
300
1:20
140
1.0
141
20.0
290
     0
  0
SCALE
  5
50
102
{ACAD_REACTORS
330
47
102
}
330
47
100
AcDbScale
 70
     0
300
1:30
140
1.0
141
30.0
290
     0
  0
SCALE
  5
51
102
{ACAD_REACTORS
330
47
102
}
330
47
100
AcDbScale
 70
     0
300
1:40
140
1.0
141
40.0
290
     0
  0
SCALE
  5
52
102
{ACAD_REACTORS
330
47
102
}
330
47
100
AcDbScale
 70
     0
300
1:50
140
1.0
141
50.0
290
     0
  0
SCALE
  5
53
102
{ACAD_REACTORS
330
47
102
}
330
47
100
AcDbScale
 70
     0
300
1:100
140
1.0
141
100.0
290
     0
  0
SCALE
  5
54
102
{ACAD_REACTORS
330
47
102
}
330
47
100
AcDbScale
 70
     0
300
2:1
140
2.0
141
1.0
290
     0
  0
SCALE
  5
55
102
{ACAD_REACTORS
330
47
102
}
330
47
100
AcDbScale
 70
     0
300
4:1
140
4.0
141
1.0
290
     0
  0
SCALE
  5
56
102
{ACAD_REACTORS
330
47
102
}
330
47
100
AcDbScale
 70
     0
300
8:1
140
8.0
141
1.0
290
     0
  0
SCALE
  5
57
102
{ACAD_REACTORS
330
47
102
}
330
47
100
AcDbScale
 70
     0
300
10:1
140
10.0
141
1.0
290
     0
  0
SCALE
  5
58
102
{ACAD_REACTORS
330
47
102
}
330
47
100
AcDbScale
 70
     0
300
100:1
140
100.0
141
1.0
290
     0
  0
SCALE
  5
59
102
{ACAD_REACTORS
330
47
102
}
330
47
100
AcDbScale
 70
     0
300
1/128" = 1'-0"
140
0.0078125
141
12.0
290
     0
  0
SCALE
  5
5A
102
{ACAD_REACTORS
330
47
102
}
330
47
100
AcDbScale
 70
     0
300
1/64" = 1'-0"
140
0.015625
141
12.0
290
     0
  0
SCALE
  5
5B
102
{ACAD_REACTORS
330
47
102
}
330
47
100
AcDbScale
 70
     0
300
1/32" = 1'-0"
140
0.03125
141
12.0
290
     0
  0
SCALE
  5
5C
102
{ACAD_REACTORS
330
47
102
}
330
47
100
AcDbScale
 70
     0
300
1/16" = 1'-0"
140
0.0625
141
12.0
290
     0
  0
SCALE
  5
5D
102
{ACAD_REACTORS
330
47
102
}
330
47
100
AcDbScale
 70
     0
300
3/32" = 1'-0"
140
0.09375
141
12.0
290
     0
  0
SCALE
  5
5E
102
{ACAD_REACTORS
330
47
102
}
330
47
100
AcDbScale
 70
     0
300
1/8" = 1'-0"
140
0.125
141
12.0
290
     0
  0
SCALE
  5
5F
102
{ACAD_REACTORS
330
47
102
}
330
47
100
AcDbScale
 70
     0
300
3/16" = 1'-0"
140
0.1875
141
12.0
290
     0
  0
SCALE
  5
60
102
{ACAD_REACTORS
330
47
102
}
330
47
100
AcDbScale
 70
     0
300
1/4" = 1'-0"
140
0.25
141
12.0
290
     0
  0
SCALE
  5
61
102
{ACAD_REACTORS
330
47
102
}
330
47
100
AcDbScale
 70
     0
300
3/8" = 1'-0"
140
0.375
141
12.0
290
     0
  0
SCALE
  5
62
102
{ACAD_REACTORS
330
47
102
}
330
47
100
AcDbScale
 70
     0
300
1/2" = 1'-0"
140
0.5
141
12.0
290
     0
  0
SCALE
  5
63
102
{ACAD_REACTORS
330
47
102
}
330
47
100
AcDbScale
 70
     0
300
3/4" = 1'-0"
140
0.75
141
12.0
290
     0
  0
SCALE
  5
64
102
{ACAD_REACTORS
330
47
102
}
330
47
100
AcDbScale
 70
     0
300
1" = 1'-0"
140
1.0
141
12.0
290
     0
  0
SCALE
  5
65
102
{ACAD_REACTORS
330
47
102
}
330
47
100
AcDbScale
 70
     0
300
1-1/2" = 1'-0"
140
1.5
141
12.0
290
     0
  0
SCALE
  5
66
102
{ACAD_REACTORS
330
47
102
}
330
47
100
AcDbScale
 70
     0
300
3" = 1'-0"
140
3.0
141
12.0
290
     0
  0
SCALE
  5
67
102
{ACAD_REACTORS
330
47
102
}
330
47
100
AcDbScale
 70
     0
300
6" = 1'-0"
140
6.0
141
12.0
290
     0
  0
SCALE
  5
68
102
{ACAD_REACTORS
330
47
102
}
330
47
100
AcDbScale
 70
     0
300
1'-0" = 1'-0"
140
12.0
141
12.0
290
     0
  0
ENDSEC
  0
EOF
