  0
SECTION
  2
HEADER
  9
$ACADVER
  1
AC1015
  9
$ACADMAINTVER
 70
     6
  9
$DWGCODEPAGE
  3
ANSI_949
  9
$INSBASE
 10
0.0
 20
0.0
 30
0.0
  9
$EXTMIN
 10
-68.36700000000005
 20
-51.43048365903652
 30
0.0
  9
$EXTMAX
 10
37.49758530457481
 20
36.669625
 30
0.0
  9
$LIMMIN
 10
0.0
 20
0.0
  9
$LIMMAX
 10
420.0
 20
297.0
  9
$ORTHOMODE
 70
     1
  9
$REGENMODE
 70
     1
  9
$FILLMODE
 70
     1
  9
$QTEXTMODE
 70
     0
  9
$MIRRTEXT
 70
     1
  9
$LTSCALE
 40
1.0
  9
$ATTMODE
 70
     1
  9
$TEXTSIZE
 40
3.5
  9
$TRACEWID
 40
1.0
  9
$TEXTSTYLE
  7
Standard
  9
$CLAYER
  8
0
  9
$CELTYPE
  6
ByLayer
  9
$CECOLOR
 62
   256
  9
$CELTSCALE
 40
1.0
  9
$DISPSILH
 70
     0
  9
$DIMSCALE
 40
1.0
  9
$DIMASZ
 40
3.302
  9
$DIMEXO
 40
1.0
  9
$DIMDLI
 40
3.75
  9
$DIMRND
 40
0.0
  9
$DIMDLE
 40
0.0
  9
$DIMEXE
 40
1.0
  9
$DIMTP
 40
0.0
  9
$DIMTM
 40
0.0
  9
$DIMTXT
 40
3.5
  9
$DIMCEN
 40
2.5
  9
$DIMTSZ
 40
0.0
  9
$DIMTOL
 70
     0
  9
$DIMLIM
 70
     0
  9
$DIMTIH
 70
     1
  9
$DIMTOH
 70
     1
  9
$DIMSE1
 70
     0
  9
$DIMSE2
 70
     0
  9
$DIMTAD
 70
     1
  9
$DIMZIN
 70
     0
  9
$DIMBLK
  1

  9
$DIMASO
 70
     1
  9
$DIMSHO
 70
     1
  9
$DIMPOST
  1

  9
$DIMAPOST
  1

  9
$DIMALT
 70
     0
  9
$DIMALTD
 70
     3
  9
$DIMALTF
 40
0.0393700787401575
  9
$DIMLFAC
 40
1.0
  9
$DIMTOFL
 70
     1
  9
$DIMTVP
 40
0.0
  9
$DIMTIX
 70
     0
  9
$DIMSOXD
 70
     0
  9
$DIMSAH
 70
     0
  9
$DIMBLK1
  1

  9
$DIMBLK2
  1

  9
$DIMSTYLE
  2
ISO-25
  9
$DIMCLRD
 70
     0
  9
$DIMCLRE
 70
     0
  9
$DIMCLRT
 70
     0
  9
$DIMTFAC
 40
1.0
  9
$DIMGAP
 40
1.524
  9
$DIMJUST
 70
     0
  9
$DIMSD1
 70
     0
  9
$DIMSD2
 70
     0
  9
$DIMTOLJ
 70
     0
  9
$DIMTZIN
 70
     0
  9
$DIMALTZ
 70
     0
  9
$DIMALTTZ
 70
     0
  9
$DIMUPT
 70
     0
  9
$DIMDEC
 70
     2
  9
$DIMTDEC
 70
     2
  9
$DIMALTU
 70
     2
  9
$DIMALTTD
 70
     3
  9
$DIMTXSTY
  7
Standard
  9
$DIMAUNIT
 70
     0
  9
$DIMADEC
 70
     2
  9
$DIMALTRND
 40
0.0
  9
$DIMAZIN
 70
     0
  9
$DIMDSEP
 70
    44
  9
$DIMATFIT
 70
     3
  9
$DIMFRAC
 70
     0
  9
$DIMLDRBLK
  1

  9
$DIMLUNIT
 70
     2
  9
$DIMLWD
 70
    -2
  9
$DIMLWE
 70
    -2
  9
$DIMTMOVE
 70
     0
  9
$LUNITS
 70
     2
  9
$LUPREC
 70
     2
  9
$SKETCHINC
 40
1.0
  9
$FILLETRAD
 40
10.0
  9
$AUNITS
 70
     0
  9
$AUPREC
 70
     2
  9
$MENU
  1
.
  9
$ELEVATION
 40
0.0
  9
$PELEVATION
 40
0.0
  9
$THICKNESS
 40
0.0
  9
$LIMCHECK
 70
     0
  9
$CHAMFERA
 40
0.0
  9
$CHAMFERB
 40
0.0
  9
$CHAMFERC
 40
0.0
  9
$CHAMFERD
 40
0.0
  9
$SKPOLY
 70
     0
  9
$TDCREATE
 40
2458340.589775949
  9
$TDUCREATE
 40
2458340.214775949
  9
$TDUPDATE
 40
2458341.372168021
  9
$TDUUPDATE
 40
2458340.997168021
  9
$TDINDWG
 40
0.0338512037
  9
$TDUSRTIMER
 40
2458340.97901456
  9
$USRTIMER
 70
     1
  9
$ANGBASE
 50
0.0
  9
$ANGDIR
 70
     0
  9
$PDMODE
 70
     0
  9
$PDSIZE
 40
-1.0
  9
$PLINEWID
 40
0.0
  9
$SPLFRAME
 70
     0
  9
$SPLINETYPE
 70
     6
  9
$SPLINESEGS
 70
     8
  9
$HANDSEED
  5
1A1
  9
$SURFTAB1
 70
     6
  9
$SURFTAB2
 70
     6
  9
$SURFTYPE
 70
     6
  9
$SURFU
 70
     6
  9
$SURFV
 70
     6
  9
$UCSBASE
  2

  9
$UCSNAME
  2

  9
$UCSORG
 10
0.0
 20
0.0
 30
0.0
  9
$UCSXDIR
 10
1.0
 20
0.0
 30
0.0
  9
$UCSYDIR
 10
0.0
 20
1.0
 30
0.0
  9
$UCSORTHOREF
  2

  9
$UCSORTHOVIEW
 70
     0
  9
$UCSORGTOP
 10
0.0
 20
0.0
 30
0.0
  9
$UCSORGBOTTOM
 10
0.0
 20
0.0
 30
0.0
  9
$UCSORGLEFT
 10
0.0
 20
0.0
 30
0.0
  9
$UCSORGRIGHT
 10
0.0
 20
0.0
 30
0.0
  9
$UCSORGFRONT
 10
0.0
 20
0.0
 30
0.0
  9
$UCSORGBACK
 10
0.0
 20
0.0
 30
0.0
  9
$PUCSBASE
  2

  9
$PUCSNAME
  2

  9
$PUCSORG
 10
0.0
 20
0.0
 30
0.0
  9
$PUCSXDIR
 10
1.0
 20
0.0
 30
0.0
  9
$PUCSYDIR
 10
0.0
 20
1.0
 30
0.0
  9
$PUCSORTHOREF
  2

  9
$PUCSORTHOVIEW
 70
     0
  9
$PUCSORGTOP
 10
0.0
 20
0.0
 30
0.0
  9
$PUCSORGBOTTOM
 10
0.0
 20
0.0
 30
0.0
  9
$PUCSORGLEFT
 10
0.0
 20
0.0
 30
0.0
  9
$PUCSORGRIGHT
 10
0.0
 20
0.0
 30
0.0
  9
$PUCSORGFRONT
 10
0.0
 20
0.0
 30
0.0
  9
$PUCSORGBACK
 10
0.0
 20
0.0
 30
0.0
  9
$USERI1
 70
     0
  9
$USERI2
 70
     0
  9
$USERI3
 70
     0
  9
$USERI4
 70
     0
  9
$USERI5
 70
     0
  9
$USERR1
 40
0.0
  9
$USERR2
 40
0.0
  9
$USERR3
 40
0.0
  9
$USERR4
 40
0.0
  9
$USERR5
 40
0.0
  9
$WORLDVIEW
 70
     1
  9
$SHADEDGE
 70
     3
  9
$SHADEDIF
 70
    70
  9
$TILEMODE
 70
     1
  9
$MAXACTVP
 70
    64
  9
$PINSBASE
 10
0.0
 20
0.0
 30
0.0
  9
$PLIMCHECK
 70
     0
  9
$PEXTMIN
 10
1.000000000000000E+20
 20
1.000000000000000E+20
 30
1.000000000000000E+20
  9
$PEXTMAX
 10
-1.000000000000000E+20
 20
-1.000000000000000E+20
 30
-1.000000000000000E+20
  9
$PLIMMIN
 10
0.0
 20
0.0
  9
$PLIMMAX
 10
0.0
 20
0.0
  9
$UNITMODE
 70
     0
  9
$VISRETAIN
 70
     1
  9
$PLINEGEN
 70
     0
  9
$PSLTSCALE
 70
     1
  9
$TREEDEPTH
 70
  3020
  9
$CMLSTYLE
  2
Standard
  9
$CMLJUST
 70
     0
  9
$CMLSCALE
 40
20.0
  9
$PROXYGRAPHICS
 70
     1
  9
$MEASUREMENT
 70
     1
  9
$CELWEIGHT
370
    -1
  9
$ENDCAPS
280
     0
  9
$JOINSTYLE
280
     0
  9
$LWDISPLAY
290
     1
  9
$INSUNITS
 70
     4
  9
$HYPERLINKBASE
  1

  9
$STYLESHEET
  1

  9
$XEDIT
290
     1
  9
$CEPSNTYPE
380
     0
  9
$PSTYLEMODE
290
     1
  9
$FINGERPRINTGUID
  2
{A0D58ED3-2E52-4B53-BEAE-5A7EB1CE55D0}
  9
$VERSIONGUID
  2
{FAEB1C32-E019-11D5-929B-00C0DF256EC4}
  9
$EXTNAMES
290
     1
  9
$PSVPSCALE
 40
0.0
  9
$OLESTARTUP
290
     0
  0
ENDSEC
  0
SECTION
  2
CLASSES
  0
CLASS
  1
ACDBDICTIONARYWDFLT
  2
AcDbDictionaryWithDefault
  3
ObjectDBX Classes
 90
        0
280
     0
281
     0
  0
CLASS
  1
VISUALSTYLE
  2
AcDbVisualStyle
  3
ObjectDBX Classes
 90
     4095
280
     0
281
     0
  0
CLASS
  1
MATERIAL
  2
AcDbMaterial
  3
ObjectDBX Classes
 90
     1153
280
     0
281
     0
  0
CLASS
  1
SCALE
  2
AcDbScale
  3
ObjectDBX Classes
 90
     1153
280
     0
281
     0
  0
CLASS
  1
SUN
  2
AcDbSun
  3
SCENEOE
 90
     1153
280
     0
281
     0
  0
CLASS
  1
ACDBPLACEHOLDER
  2
AcDbPlaceHolder
  3
ObjectDBX Classes
 90
        0
280
     0
281
     0
  0
CLASS
  1
LAYOUT
  2
AcDbLayout
  3
ObjectDBX Classes
 90
        0
280
     0
281
     0
  0
CLASS
  1
TABLESTYLE
  2
AcDbTableStyle
  3
ObjectDBX Classes
 90
     4095
280
     0
281
     0
  0
CLASS
  1
MLEADERSTYLE
  2
AcDbMLeaderStyle
  3
ACDB_MLEADERSTYLE_CLASS
 90
     4095
280
     0
281
     0
  0
CLASS
  1
RASTERVARIABLES
  2
AcDbRasterVariables
  3
ISM
 90
        0
280
     0
281
     0
  0
CLASS
  1
DICTIONARYVAR
  2
AcDbDictionaryVar
  3
ObjectDBX Classes
 90
        0
280
     0
281
     0
  0
CLASS
  1
DIMASSOC
  2
AcDbDimAssoc
  3
"AcDbDimAssoc|Product Desc:     AcDim ARX App For Dimension|Company:          Autodesk, Inc.|WEB Address:      www.autodesk.com"
 90
        0
280
     0
281
     0
  0
ENDSEC
  0
SECTION
  2
TABLES
  0
TABLE
  2
VPORT
  5
8
330
0
100
AcDbSymbolTable
 70
     1
  0
VPORT
  5
29
330
8
100
AcDbSymbolTableRecord
100
AcDbViewportTableRecord
  2
*Active
 70
     0
 10
0.0
 20
0.0
 11
1.0
 21
1.0
 12
-1.546182238816193
 22
-4.172991553175812
 13
0.0
 23
0.0
 14
10.0
 24
10.0
 15
10.0
 25
10.0
 16
0.0
 26
0.0
 36
1.0
 17
0.0
 27
0.0
 37
0.0
 40
116.6275731941813
 41
1.444267515923567
 42
50.0
 43
0.0
 44
0.0
 50
0.0
 51
0.0
 71
    16
 72
  2000
 73
     1
 74
     3
 75
     0
 76
     0
 77
     0
 78
     0
281
     0
 65
     1
110
0.0
120
0.0
130
0.0
111
1.0
121
0.0
131
0.0
112
0.0
122
1.0
132
0.0
 79
     0
146
0.0
  0
ENDTAB
  0
TABLE
  2
LTYPE
  5
5
330
0
100
AcDbSymbolTable
 70
     6
  0
LTYPE
  5
14
330
5
100
AcDbSymbolTableRecord
100
AcDbLinetypeTableRecord
  2
ByBlock
 70
     0
  3

 72
    65
 73
     0
 40
0.0
  0
LTYPE
  5
15
330
5
100
AcDbSymbolTableRecord
100
AcDbLinetypeTableRecord
  2
ByLayer
 70
     0
  3

 72
    65
 73
     0
 40
0.0
  0
LTYPE
  5
16
330
5
100
AcDbSymbolTableRecord
100
AcDbLinetypeTableRecord
  2
Continuous
 70
     0
  3
Solid line
 72
    65
 73
     0
 40
0.0
  0
LTYPE
  5
6A
330
5
100
AcDbSymbolTableRecord
100
AcDbLinetypeTableRecord
  2
HIDDEN
 70
     0
  3
Hidden __ __ __ __ __ __ __ __ __ __ __ __ __ __
 72
    65
 73
     2
 40
1.905
 49
1.27
 74
     0
 49
-0.635
 74
     0
  0
LTYPE
  5
6B
330
5
100
AcDbSymbolTableRecord
100
AcDbLinetypeTableRecord
  2
PHANTOM
 70
     0
  3
Phantom ______  __  __  ______  __  __  ______
 72
    65
 73
     6
 40
12.7
 49
6.35
 74
     0
 49
-1.27
 74
     0
 49
1.27
 74
     0
 49
-1.27
 74
     0
 49
1.27
 74
     0
 49
-1.27
 74
     0
  0
LTYPE
  5
6C
330
5
100
AcDbSymbolTableRecord
100
AcDbLinetypeTableRecord
  2
CENTER
 70
     0
  3
Center ____ _ ____ _ ____ _ ____ _ ____ _ ____
 72
    65
 73
     4
 40
10.16
 49
6.35
 74
     0
 49
-1.27
 74
     0
 49
1.27
 74
     0
 49
-1.27
 74
     0
  0
LTYPE
  5
6D
330
5
100
AcDbSymbolTableRecord
100
AcDbLinetypeTableRecord
  2
CENTERX2
 70
     0
  3
Center (2x) ________  __  ________  __  _____
 72
    65
 73
     4
 40
20.32
 49
12.7
 74
     0
 49
-2.54
 74
     0
 49
2.54
 74
     0
 49
-2.54
 74
     0
  0
LTYPE
  5
6E
330
5
100
AcDbSymbolTableRecord
100
AcDbLinetypeTableRecord
  2
DOT2
 70
     0
  3
Dot (.5x) ........................................
 72
    65
 73
     2
 40
0.635
 49
0.0
 74
     0
 49
-0.635
 74
     0
  0
ENDTAB
  0
TABLE
  2
LAYER
  5
2
330
0
100
AcDbSymbolTable
 70
    17
  0
LAYER
  5
10
330
2
100
AcDbSymbolTableRecord
100
AcDbLayerTableRecord
  2
0
 70
     0
 62
     7
  6
Continuous
370
    -3
390
F
  0
LAYER
  5
6F
330
2
100
AcDbSymbolTableRecord
100
AcDbLayerTableRecord
  2
FORMAT
 70
     0
 62
     2
  6
Continuous
370
    -3
390
F
  0
LAYER
  5
70
330
2
100
AcDbSymbolTableRecord
100
AcDbLayerTableRecord
  2
외형선
 70
     0
 62
   100
  6
Continuous
370
    30
390
F
  0
LAYER
  5
71
330
2
100
AcDbSymbolTableRecord
100
AcDbLayerTableRecord
  2
숨은선
 70
     0
 62
     2
  6
HIDDEN
370
    15
390
F
  0
LAYER
  5
72
330
2
100
AcDbSymbolTableRecord
100
AcDbLayerTableRecord
  2
중심선
 70
     0
 62
     1
  6
CENTERX2
370
    -3
390
F
  0
LAYER
  5
73
330
2
100
AcDbSymbolTableRecord
100
AcDbLayerTableRecord
  2
파단선
 70
     0
 62
     4
  6
Continuous
370
    -3
390
F
  0
LAYER
  5
74
330
2
100
AcDbSymbolTableRecord
100
AcDbLayerTableRecord
  2
해칭선
 70
     0
 62
     4
  6
Continuous
370
    -3
390
F
  0
LAYER
  5
75
330
2
100
AcDbSymbolTableRecord
100
AcDbLayerTableRecord
  2
가는실선
 70
     0
 62
     4
  6
Continuous
370
    -3
390
F
  0
LAYER
  5
76
330
2
100
AcDbSymbolTableRecord
100
AcDbLayerTableRecord
  2
치수_보조선
 70
     0
 62
     4
  6
Continuous
370
    -3
390
F
  0
LAYER
  5
77
330
2
100
AcDbSymbolTableRecord
100
AcDbLayerTableRecord
  2
치수문자_일반주서
 70
     0
 62
     7
  6
Continuous
370
    15
390
F
  0
LAYER
  5
78
330
2
100
AcDbSymbolTableRecord
100
AcDbLayerTableRecord
  2
개별주서
 70
     0
 62
   100
  6
Continuous
370
    30
390
F
  0
LAYER
  5
79
330
2
100
AcDbSymbolTableRecord
100
AcDbLayerTableRecord
  2
중간선
 70
     0
 62
     2
  6
Continuous
370
    15
390
F
  0
LAYER
  5
7A
330
2
100
AcDbSymbolTableRecord
100
AcDbLayerTableRecord
  2
윤곽선
 70
     0
 62
     3
  6
Continuous
370
    40
390
F
  0
LAYER
  5
7B
330
2
100
AcDbSymbolTableRecord
100
AcDbLayerTableRecord
  2
중심마크
 70
     0
 62
   100
  6
Continuous
370
    30
390
F
  0
LAYER
  5
7C
330
2
100
AcDbSymbolTableRecord
100
AcDbLayerTableRecord
  2
가상선
 70
     0
 62
     4
  6
PHANTOM
370
    -3
390
F
  0
LAYER
  5
7D
330
2
100
AcDbSymbolTableRecord
100
AcDbLayerTableRecord
  2
특수지정선
 70
     0
 62
     5
  6
CENTERX2
370
    60
390
F
  0
LAYER
  5
146
330
2
100
AcDbSymbolTableRecord
100
AcDbLayerTableRecord
  2
Defpoints
 70
     0
 62
     7
  6
Continuous
290
     0
370
    -3
390
F
  0
ENDTAB
  0
TABLE
  2
STYLE
  5
3
330
0
100
AcDbSymbolTable
 70
     2
  0
STYLE
  5
11
330
3
100
AcDbSymbolTableRecord
100
AcDbTextStyleTableRecord
  2
Standard
 70
     0
 40
0.0
 41
1.0
 50
0.0
 71
     0
 42
3.5
  3
txt
  4

  0
STYLE
  5
93
330
3
100
AcDbSymbolTableRecord
100
AcDbTextStyleTableRecord
  2
SLDTEXTSTYLE0
 70
     0
 40
0.0
 41
0.75
 50
0.0
 71
     0
 42
3.5
  3
TXT
  4

  0
ENDTAB
  0
TABLE
  2
VIEW
  5
6
330
0
100
AcDbSymbolTable
 70
     0
  0
ENDTAB
  0
TABLE
  2
UCS
  5
7
330
0
100
AcDbSymbolTable
 70
     0
  0
ENDTAB
  0
TABLE
  2
APPID
  5
9
330
0
100
AcDbSymbolTable
 70
     2
  0
APPID
  5
12
330
9
100
AcDbSymbolTableRecord
100
AcDbRegAppTableRecord
  2
ACAD
 70
     0
  0
APPID
  5
189
330
9
100
AcDbSymbolTableRecord
100
AcDbRegAppTableRecord
  2
PE_DIMMEASUREMENT
 70
     0
  0
ENDTAB
  0
TABLE
  2
DIMSTYLE
  5
A
330
0
100
AcDbSymbolTable
 70
     4
100
AcDbDimStyleTable
  0
DIMSTYLE
105
27
330
A
100
AcDbSymbolTableRecord
100
AcDbDimStyleTableRecord
  2
ISO-25
 70
     0
 41
2.5
 42
0.625
 43
3.75
 44
1.25
 73
     0
 74
     0
 77
     1
 78
     8
140
2.5
141
2.5
143
0.03937007874016
147
0.625
171
     3
172
     1
178
     0
271
     2
272
     2
274
     3
278
    44
283
     0
284
     8
340
11
  0
DIMSTYLE
105
DF
102
{ACAD_REACTORS
330
DE
330
173
330
18E
102
}
330
A
100
AcDbSymbolTableRecord
100
AcDbDimStyleTableRecord
  2
SLDDIMSTYLE0
 70
     0
 41
3.302
 44
0.0
 45
0.000000001
 73
     0
 74
     0
 77
     1
 78
    12
 79
     3
140
3.5
143
0.0393700787401575
147
0.875
148
0.000000001
170
     1
173
     1
178
     0
271
     2
272
     2
276
     2
284
    12
340
93
  0
DIMSTYLE
105
F3
102
{ACAD_REACTORS
330
F2
102
}
330
A
100
AcDbSymbolTableRecord
100
AcDbDimStyleTableRecord
  2
SLDDIMSTYLE1
 70
     0
 41
3.302
 44
0.0
 45
0.000000001
 73
     0
 74
     0
 77
     1
 78
     4
 79
     1
140
3.5
143
0.0393700787401575
147
0.875
148
0.000000001
170
     1
173
     1
178
     0
271
     2
272
     2
276
     2
284
    12
340
93
  0
DIMSTYLE
105
107
102
{ACAD_REACTORS
330
106
102
}
330
A
100
AcDbSymbolTableRecord
100
AcDbDimStyleTableRecord
  2
SLDDIMSTYLE2
 70
     0
 41
3.302
 44
0.0
 45
0.000000001
 73
     0
 74
     0
 77
     1
 78
    12
 79
     3
140
3.5
143
0.0393700787401575
147
0.875
148
0.000000001
170
     1
172
     1
173
     1
178
     0
271
     2
272
     2
276
     2
284
    12
289
     0
340
93
  0
ENDTAB
  0
TABLE
  2
BLOCK_RECORD
  5
1
330
0
100
AcDbSymbolTable
 70
     8
  0
BLOCK_RECORD
  5
1F
330
1
100
AcDbSymbolTableRecord
100
AcDbBlockTableRecord
  2
*Model_Space
340
22
  0
BLOCK_RECORD
  5
1B
330
1
100
AcDbSymbolTableRecord
100
AcDbBlockTableRecord
  2
*Paper_Space
340
1E
  0
BLOCK_RECORD
  5
23
330
1
100
AcDbSymbolTableRecord
100
AcDbBlockTableRecord
  2
*Paper_Space0
340
26
  0
BLOCK_RECORD
  5
7E
330
1
100
AcDbSymbolTableRecord
100
AcDbBlockTableRecord
  2
블럭10
340
0
102
{BLKREFS
331
D7
102
}
  0
BLOCK_RECORD
  5
E0
330
1
100
AcDbSymbolTableRecord
100
AcDbBlockTableRecord
  2
_D
340
0
  0
BLOCK_RECORD
  5
F4
330
1
100
AcDbSymbolTableRecord
100
AcDbBlockTableRecord
  2
_D_1
340
0
  0
BLOCK_RECORD
  5
108
330
1
100
AcDbSymbolTableRecord
100
AcDbBlockTableRecord
  2
_D_2
340
0
  0
BLOCK_RECORD
  5
11B
330
1
100
AcDbSymbolTableRecord
100
AcDbBlockTableRecord
  2
SW_DOWELSYMBOL_0
340
0
102
{BLKREFS
331
121
102
}
  0
BLOCK_RECORD
  5
176
330
1
100
AcDbSymbolTableRecord
100
AcDbBlockTableRecord
  2
*D6
340
0
  0
BLOCK_RECORD
  5
191
330
1
100
AcDbSymbolTableRecord
100
AcDbBlockTableRecord
  2
*D7
340
0
  0
ENDTAB
  0
ENDSEC
  0
SECTION
  2
BLOCKS
  0
BLOCK
  5
20
330
1F
100
AcDbEntity
  8
0
100
AcDbBlockBegin
  2
*Model_Space
 70
     0
 10
0.0
 20
0.0
 30
0.0
  3
*Model_Space
  1
*Model_Space
  0
ENDBLK
  5
21
330
1F
100
AcDbEntity
  8
0
100
AcDbBlockEnd
  0
BLOCK
  5
1C
330
1B
100
AcDbEntity
 67
     1
  8
0
100
AcDbBlockBegin
  2
*Paper_Space
 70
     0
 10
0.0
 20
0.0
 30
0.0
  3
*Paper_Space
  1
*Paper_Space
  0
ENDBLK
  5
1D
330
1B
100
AcDbEntity
 67
     1
  8
0
100
AcDbBlockEnd
  0
BLOCK
  5
24
330
23
100
AcDbEntity
  8
0
100
AcDbBlockBegin
  2
*Paper_Space0
 70
     0
 10
0.0
 20
0.0
 30
0.0
  3
*Paper_Space0
  1
*Paper_Space0
  0
ENDBLK
  5
25
330
23
100
AcDbEntity
  8
0
100
AcDbBlockEnd
  0
BLOCK
  5
7F
330
7E
100
AcDbEntity
  8
0
100
AcDbBlockBegin
  2
블럭10
 70
     2
 10
0.0
 20
0.0
 30
0.0
  3
블럭10
  1
블럭10
  0
ELLIPSE
  5
81
330
7E
100
AcDbEntity
  8
중심선
100
AcDbEllipse
 10
20.54032771741204
 20
12.0471743016438
 30
0.0
 11
6.600054785286829
 21
-1.261213355974178E-13
 31
0.0
210
0.0
220
0.0
230
1.0
 40
0.636358354079598
 41
0.9219305317359503
 42
6.513795318482858
  0
ELLIPSE
  5
82
330
7E
100
AcDbEntity
  8
중심선
100
AcDbEllipse
 10
20.54032771746488
 20
12.04717430159265
 30
0.0
 11
3.960054785062283
 21
1.540847449632565E-10
 31
0.0
210
0.0
220
0.0
230
1.0
 40
0.3939339440162632
 41
1.131841032648279
 42
5.62031148352944
  0
LINE
  5
83
330
7E
100
AcDbEntity
  8
중심선
100
AcDbLine
 10
2.268634060543552
 20
16.24717430164393
 30
0.0
 11
5.714909304380834
 21
16.24717430164393
 31
0.0
  0
LINE
  5
84
330
7E
100
AcDbEntity
  8
중심선
100
AcDbLine
 10
5.245725140726316
 20
7.84717430164391
 30
0.0
 11
8.692000384563599
 21
7.84717430164391
 31
0.0
  0
LINE
  5
85
330
7E
100
AcDbEntity
  8
중심선
100
AcDbLine
 10
15.74043728645272
 20
16.24717430164393
 30
0.0
 11
8.692000384563599
 21
7.84717430164391
 31
0.0
  0
LINE
  5
86
330
7E
100
AcDbEntity
  8
중심선
100
AcDbLine
 10
0.1404042013395286
 20
13.71084872107135
 30
0.0
 11
3.58671253028996
 21
13.71088815037384
 31
0.0
  0
LINE
  5
87
330
7E
100
AcDbEntity
  8
중심선
100
AcDbLine
 10
2.750260043222114
 20
10.84717430164391
 30
0.0
 11
6.196535287059397
 21
10.84717430164391
 31
0.0
  0
LINE
  5
88
330
7E
100
AcDbEntity
  8
중심선
100
AcDbLine
 10
12.29416204261559
 20
16.24717430164393
 30
0.0
 11
5.245725140726316
 21
7.84717430164391
 31
0.0
  0
LINE
  5
89
330
7E
100
AcDbEntity
  8
중심선
100
AcDbLine
 10
10.72767329541681
 20
16.24717430164393
 30
0.0
 11
6.196535287059397
 21
10.84717430164391
 31
0.0
  0
LINE
  5
8A
330
7E
100
AcDbEntity
  8
중심선
100
AcDbLine
 10
7.28139805157953
 20
16.24717430164393
 30
0.0
 11
2.750260043222114
 21
10.84717430164391
 31
0.0
  0
LINE
  5
8B
330
7E
100
AcDbEntity
  8
중심선
100
AcDbLine
 10
5.714909304380834
 20
16.24717430164393
 30
0.0
 11
3.58671253028996
 21
13.71088815037384
 31
0.0
  0
LINE
  5
8C
330
7E
100
AcDbEntity
  8
중심선
100
AcDbLine
 10
2.268634060543552
 20
16.24717430164393
 30
0.0
 11
0.1404042013395286
 21
13.71084872107135
 31
0.0
  0
LINE
  5
8D
330
7E
100
AcDbEntity
  8
중심선
100
AcDbLine
 10
7.28139805157953
 20
16.24717430164393
 30
0.0
 11
10.72767329541681
 21
16.24717430164393
 31
0.0
  0
LINE
  5
8E
330
7E
100
AcDbEntity
  8
중심선
100
AcDbLine
 10
12.29416204261559
 20
16.24717430164393
 30
0.0
 11
15.74043728645272
 21
16.24717430164393
 31
0.0
  0
LINE
  5
8F
330
7E
100
AcDbEntity
  8
중심선
100
AcDbLine
 10
19.22036997980202
 20
11.08717430171403
 30
0.0
 11
23.66174974927406
 21
11.08717430171406
 31
0.0
  0
LINE
  5
90
330
7E
100
AcDbEntity
  8
중심선
100
AcDbLine
 10
19.22039502424796
 20
13.00717430171391
 30
0.0
 11
19.22036997980202
 21
11.08717430171403
 31
0.0
  0
LINE
  5
91
330
7E
100
AcDbEntity
  8
중심선
100
AcDbLine
 10
19.22039502424796
 20
13.00717430171391
 30
0.0
 11
26.96566020931264
 21
13.00717430171391
 31
0.0
  0
LINE
  5
92
330
7E
100
AcDbEntity
  8
중심선
100
AcDbLine
 10
22.22332737316547
 20
13.45928029700563
 30
0.0
 11
24.52862924686651
 21
15.39360700705356
 31
0.0
  0
ATTDEF
  5
94
330
7E
100
AcDbEntity
  8
FORMAT
 62
     2
100
AcDbText
 10
-9.18129528874128
 20
2.075366912832191
 30
0.0
 40
4.233333333333333
  1
E5078006 [ 3 FLUTE ]
 41
0.75
  7
SLDTEXTSTYLE0
 11
-9.18129528874128
 21
-0.0412997538344756
 31
0.0
100
AcDbAttributeDefinition
  3

  2
AUTOATTR0
 70
     0
 74
     1
  0
ENDBLK
  5
80
330
7E
100
AcDbEntity
  8
0
100
AcDbBlockEnd
  0
BLOCK
  5
E1
330
E0
100
AcDbEntity
  8
0
100
AcDbBlockBegin
  2
_D
 70
     0
 10
0.0
 20
0.0
 30
0.0
  3
_D
  1
_D
  0
LINE
  5
E3
330
E0
100
AcDbEntity
  8
치수문자_일반주서
 62
     0
370
    -2
100
AcDbLine
 10
25.20799999999999
 20
1.062500000000011
 30
0.0
 11
25.20799999999999
 21
21.11876058865636
 31
0.0
  0
LINE
  5
E4
330
E0
100
AcDbEntity
  8
치수문자_일반주서
 62
     0
370
    -2
100
AcDbLine
 10
12.508
 20
3.914274598917539
 30
0.0
 11
12.508
 21
21.11876058865636
 31
0.0
  0
LINE
  5
E5
330
E0
100
AcDbEntity
  8
치수문자_일반주서
 62
     0
370
    -2
100
AcDbLine
 10
12.508
 20
21.11876058865636
 30
0.0
 11
-12.669
 21
21.11876058865636
 31
0.0
  0
LINE
  5
E6
330
E0
100
AcDbEntity
  8
치수문자_일반주서
 62
     0
370
    -2
100
AcDbLine
 10
21.90599999999999
 20
21.11876058865636
 30
0.0
 11
15.81
 21
21.11876058865636
 31
0.0
  0
SOLID
  5
E7
330
E0
100
AcDbEntity
  8
치수문자_일반주서
 62
     0
100
AcDbTrace
 10
21.90599999999999
 20
20.56842725532303
 30
0.0
 11
21.90599999999999
 21
21.6690939219897
 31
0.0
 12
25.20799999999999
 22
21.11876058865636
 32
0.0
 13
25.20799999999999
 23
21.11876058865636
 33
0.0
  0
SOLID
  5
E8
330
E0
100
AcDbEntity
  8
치수문자_일반주서
 62
     0
100
AcDbTrace
 10
15.81
 20
21.6690939219897
 30
0.0
 11
15.81
 21
20.56842725532303
 31
0.0
 12
12.508
 22
21.11876058865636
 32
0.0
 13
12.508
 23
21.11876058865636
 33
0.0
  0
MTEXT
  5
E9
330
E0
100
AcDbEntity
  8
치수문자_일반주서
 62
     0
100
AcDbMText
 10
-1.7315
 20
25.49376058865636
 30
0.0
 40
3.5
 41
0.0
 71
     2
 72
     1
  1
\A1;12.7 [1/2]
  7
SLDTEXTSTYLE0
 73
     1
 44
1.0
  0
POINT
  5
EA
330
E0
100
AcDbEntity
  8
Defpoints
 62
     0
100
AcDbPoint
 10
25.20799999999999
 20
1.000000000000011
 30
0.0
  0
POINT
  5
EB
330
E0
100
AcDbEntity
  8
Defpoints
 62
     0
100
AcDbPoint
 10
12.508
 20
3.851774598917539
 30
0.0
  0
POINT
  5
EC
330
E0
100
AcDbEntity
  8
Defpoints
 62
     0
100
AcDbPoint
 10
12.508
 20
21.11876058865636
 30
0.0
  0
ENDBLK
  5
E2
330
E0
100
AcDbEntity
  8
0
100
AcDbBlockEnd
  0
BLOCK
  5
F5
330
F4
100
AcDbEntity
  8
0
100
AcDbBlockBegin
  2
_D_1
 70
     0
 10
0.0
 20
0.0
 30
0.0
  3
_D_1
  1
_D_1
  0
LINE
  5
F7
330
F4
100
AcDbEntity
  8
치수문자_일반주서
 62
     0
370
    -2
100
AcDbLine
 10
25.20799999999999
 20
1.294067302496654
 30
0.0
 11
25.20799999999999
 21
30.36201422519888
 31
0.0
  0
LINE
  5
F8
330
F4
100
AcDbEntity
  8
치수문자_일반주서
 62
     0
370
    -2
100
AcDbLine
 10
-50.992
 20
2.427499999999984
 30
0.0
 11
-50.992
 21
30.36201422519888
 31
0.0
  0
LINE
  5
F9
330
F4
100
AcDbEntity
  8
치수문자_일반주서
 62
     0
370
    -2
100
AcDbLine
 10
21.90599999999999
 20
30.36201422519888
 30
0.0
 11
-47.69
 21
30.36201422519888
 31
0.0
  0
SOLID
  5
FA
330
F4
100
AcDbEntity
  8
치수문자_일반주서
 62
     0
100
AcDbTrace
 10
21.90599999999999
 20
29.81168089186555
 30
0.0
 11
21.90599999999999
 21
30.91234755853221
 31
0.0
 12
25.20799999999999
 22
30.36201422519888
 32
0.0
 13
25.20799999999999
 23
30.36201422519888
 33
0.0
  0
SOLID
  5
FB
330
F4
100
AcDbEntity
  8
치수문자_일반주서
 62
     0
100
AcDbTrace
 10
-47.69
 20
30.91234755853221
 30
0.0
 11
-47.69
 21
29.81168089186555
 31
0.0
 12
-50.992
 22
30.36201422519888
 32
0.0
 13
-50.992
 23
30.36201422519888
 33
0.0
  0
MTEXT
  5
FC
330
F4
100
AcDbEntity
  8
치수문자_일반주서
 62
     0
100
AcDbMText
 10
-11.18801414975405
 20
34.73701422519888
 30
0.0
 40
3.5
 41
0.0
 71
     2
 72
     1
  1
\A1;76.20 [3]
  7
SLDTEXTSTYLE0
 73
     1
 44
1.0
  0
POINT
  5
FD
330
F4
100
AcDbEntity
  8
Defpoints
 62
     0
100
AcDbPoint
 10
25.20799999999999
 20
1.231567302496654
 30
0.0
  0
POINT
  5
FE
330
F4
100
AcDbEntity
  8
Defpoints
 62
     0
100
AcDbPoint
 10
-50.992
 20
2.364999999999984
 30
0.0
  0
POINT
  5
FF
330
F4
100
AcDbEntity
  8
Defpoints
 62
     0
100
AcDbPoint
 10
-50.992
 20
30.36201422519888
 30
0.0
  0
ENDBLK
  5
F6
330
F4
100
AcDbEntity
  8
0
100
AcDbBlockEnd
  0
BLOCK
  5
109
330
108
100
AcDbEntity
  8
0
100
AcDbBlockBegin
  2
_D_2
 70
     0
 10
0.0
 20
0.0
 30
0.0
  3
_D_2
  1
_D_2
  0
LINE
  5
10B
330
108
100
AcDbEntity
  8
치수문자_일반주서
 62
     0
370
    -2
100
AcDbLine
 10
-50.24449999999998
 20
3.175
 30
0.0
 11
-63.99199999999995
 21
3.174999999999951
 31
0.0
  0
LINE
  5
10C
330
108
100
AcDbEntity
  8
치수문자_일반주서
 62
     0
370
    -2
100
AcDbLine
 10
-50.24449999999998
 20
-3.174999999999998
 30
0.0
 11
-63.99199999999993
 21
-3.175000000000047
 31
0.0
  0
LINE
  5
10D
330
108
100
AcDbEntity
  8
치수문자_일반주서
 62
     0
370
    -2
100
AcDbLine
 10
-63.99199999999995
 20
3.174999999999951
 30
0.0
 11
-63.99200000000005
 21
35.15399999999995
 31
0.0
  0
LINE
  5
10E
330
108
100
AcDbEntity
  8
치수문자_일반주서
 62
     0
370
    -2
100
AcDbLine
 10
-63.99199999999995
 20
3.174999999999951
 30
0.0
 11
-63.99199999999993
 21
-3.175000000000047
 31
0.0
  0
LINE
  5
10F
330
108
100
AcDbEntity
  8
치수문자_일반주서
 62
     0
370
    -2
100
AcDbLine
 10
-63.99199999999996
 20
6.476999999999951
 30
0.0
 11
-63.99199999999998
 21
9.77899999999995
 31
0.0
  0
LINE
  5
110
330
108
100
AcDbEntity
  8
치수문자_일반주서
 62
     0
370
    -2
100
AcDbLine
 10
-63.99199999999991
 20
-6.477000000000046
 30
0.0
 11
-63.9919999999999
 21
-9.779000000000046
 31
0.0
  0
SOLID
  5
111
330
108
100
AcDbEntity
  8
치수문자_일반주서
 62
     0
100
AcDbTrace
 10
-64.54233333333329
 20
6.476999999999949
 30
0.0
 11
-63.44166666666663
 21
6.476999999999952
 31
0.0
 12
-63.99199999999995
 22
3.174999999999951
 32
0.0
 13
-63.99199999999995
 23
3.174999999999951
 33
0.0
  0
SOLID
  5
112
330
108
100
AcDbEntity
  8
치수문자_일반주서
 62
     0
100
AcDbTrace
 10
-63.44166666666658
 20
-6.477000000000045
 30
0.0
 11
-64.54233333333325
 21
-6.477000000000048
 31
0.0
 12
-63.99199999999993
 22
-3.175000000000047
 32
0.0
 13
-63.99199999999993
 23
-3.175000000000047
 33
0.0
  0
MTEXT
  5
113
330
108
100
AcDbEntity
  8
치수문자_일반주서
 62
     0
100
AcDbMText
 10
-68.36700000000002
 20
22.46649999999994
 30
0.0
 40
3.5
 41
0.0
 71
     2
 72
     1
  1
\A1;%%c6.35 [1/4]
  7
SLDTEXTSTYLE0
 11
-3.356894814614648E-15
 21
1.0
 31
0.0
 73
     1
 44
1.0
  0
POINT
  5
18A
330
108
100
AcDbEntity
  8
Defpoints
 62
     0
100
AcDbPoint
 10
-50.18199999999998
 20
3.175
 30
0.0
  0
POINT
  5
18C
330
108
100
AcDbEntity
  8
Defpoints
 62
     0
100
AcDbPoint
 10
-50.18199999999998
 20
-3.174999999999998
 30
0.0
  0
POINT
  5
18D
330
108
100
AcDbEntity
  8
Defpoints
 62
     0
100
AcDbPoint
 10
-63.99199999999993
 20
-3.175000000000046
 30
0.0
  0
ENDBLK
  5
10A
330
108
100
AcDbEntity
  8
0
100
AcDbBlockEnd
  0
BLOCK
  5
11C
330
11B
100
AcDbEntity
  8
0
100
AcDbBlockBegin
  2
SW_DOWELSYMBOL_0
 70
     0
 10
0.0
 20
0.0
 30
0.0
  3
SW_DOWELSYMBOL_0
  1
SW_DOWELSYMBOL_0
  0
CIRCLE
  5
11E
330
11B
100
AcDbEntity
  8
외형선
 62
     0
100
AcDbCircle
 10
0.0
 20
0.0
 30
0.0
 40
2.999999999999999
  0
HATCH
  5
11F
330
11B
100
AcDbEntity
  8
0
  6
Continuous
 62
     0
370
    30
100
AcDbHatch
 10
0.0
 20
0.0
 30
0.0
210
0.0
220
0.0
230
1.0
  2
SOLID
 70
     1
 71
     0
 91
        1
 92
        0
 93
        3
 72
     2
 10
-0.0000000000000121
 20
-0.0000000000000078
 40
2.999999999999999
 50
0.0
 51
90.0
 73
     1
 72
     1
 10
-0.0000000000000121
 20
2.999999999999992
 11
-0.0000000000000121
 21
-0.000000000000008
 72
     1
 10
-0.0000000000000121
 20
-0.0000000000000078
 11
2.999999999999987
 21
-0.0000000000000078
 97
        0
 75
     0
 76
     1
 98
        1
 10
0.0
 20
0.0
  0
HATCH
  5
120
330
11B
100
AcDbEntity
  8
0
  6
Continuous
 62
     0
370
    30
100
AcDbHatch
 10
0.0
 20
0.0
 30
0.0
210
0.0
220
0.0
230
1.0
  2
SOLID
 70
     1
 71
     0
 91
        1
 92
        0
 93
        3
 72
     2
 10
-0.0000000000000121
 20
-0.0000000000000078
 40
2.999999999999999
 50
180.0
 51
270.0000000000007
 73
     1
 72
     1
 10
-0.0000000000000121
 20
-3.000000000000007
 11
-0.0000000000000121
 21
-0.000000000000008
 72
     1
 10
-0.0000000000000121
 20
-0.0000000000000078
 11
-3.000000000000012
 21
-0.0000000000000078
 97
        0
 75
     0
 76
     1
 98
        1
 10
0.0
 20
0.0
  0
ENDBLK
  5
11D
330
11B
100
AcDbEntity
  8
0
100
AcDbBlockEnd
  0
BLOCK
  5
177
330
176
100
AcDbEntity
  8
0
100
AcDbBlockBegin
  2
*D6
 70
     1
 10
0.0
 20
0.0
 30
0.0
  3
*D6
  1
*D6
  0
LINE
  5
179
330
176
100
AcDbEntity
  8
치수문자_일반주서
 62
     0
370
    -2
100
AcDbLine
 10
25.27049999999999
 20
1.190624999999992
 30
0.0
 11
36.94725197124148
 21
1.190624999999994
 31
0.0
  0
LINE
  5
17A
330
176
100
AcDbEntity
  8
치수문자_일반주서
 62
     0
370
    -2
100
AcDbLine
 10
25.27049999999999
 20
-1.190625000000008
 30
0.0
 11
36.94725197124148
 21
-1.190625000000008
 31
0.0
  0
LINE
  5
17B
330
176
100
AcDbEntity
  8
치수문자_일반주서
 62
     0
370
    -2
100
AcDbLine
 10
36.94725197124148
 20
1.190624999999994
 30
0.0
 11
36.94725197124148
 21
36.669625
 31
0.0
  0
LINE
  5
17C
330
176
100
AcDbEntity
  8
치수문자_일반주서
 62
     0
370
    -2
100
AcDbLine
 10
36.94725197124148
 20
4.492624999999993
 30
0.0
 11
36.94725197124148
 21
7.794624999999993
 31
0.0
  0
LINE
  5
17D
330
176
100
AcDbEntity
  8
치수문자_일반주서
 62
     0
370
    -2
100
AcDbLine
 10
36.94725197124148
 20
-4.492625000000007
 30
0.0
 11
36.94725197124148
 21
-7.794625000000007
 31
0.0
  0
SOLID
  5
17E
330
176
100
AcDbEntity
  8
치수문자_일반주서
 62
     0
100
AcDbTrace
 10
36.39691863790814
 20
4.492624999999993
 30
0.0
 11
37.49758530457481
 21
4.492624999999993
 31
0.0
 12
36.94725197124148
 22
1.190624999999994
 32
0.0
 13
36.94725197124148
 23
1.190624999999994
 33
0.0
  0
SOLID
  5
17F
330
176
100
AcDbEntity
  8
치수문자_일반주서
 62
     0
100
AcDbTrace
 10
37.49758530457481
 20
-4.492625000000007
 30
0.0
 11
36.39691863790814
 21
-4.492625000000007
 31
0.0
 12
36.94725197124148
 22
-1.190625000000008
 32
0.0
 13
36.94725197124148
 23
-1.190625000000008
 33
0.0
  0
MTEXT
  5
180
330
176
100
AcDbEntity
  8
치수문자_일반주서
 62
     0
100
AcDbMText
 10
34.32225197124148
 20
22.23212499999999
 30
0.0
 40
3.5
 41
0.0
 71
     5
 72
     1
  1
\A1;{%%c2.38 [3/32]}
  7
SLDTEXTSTYLE0
 11
0.0
 21
1.0
 31
0.0
 73
     1
 44
1.0
  0
POINT
  5
181
330
176
100
AcDbEntity
  8
Defpoints
 62
     0
100
AcDbPoint
 10
25.20799999999999
 20
1.190624999999992
 30
0.0
  0
POINT
  5
182
330
176
100
AcDbEntity
  8
Defpoints
 62
     0
100
AcDbPoint
 10
25.20799999999999
 20
-1.190625000000008
 30
0.0
  0
POINT
  5
188
330
176
100
AcDbEntity
  8
Defpoints
 62
     0
100
AcDbPoint
 10
36.94725197124148
 20
-1.190625000000008
 30
0.0
  0
ENDBLK
  5
178
330
176
100
AcDbEntity
  8
0
100
AcDbBlockEnd
  0
BLOCK
  5
192
330
191
100
AcDbEntity
  8
0
100
AcDbBlockBegin
  2
*D7
 70
     1
 10
0.0
 20
0.0
 30
0.0
  3
*D7
  1
*D7
  0
LINE
  5
194
330
191
100
AcDbEntity
  8
치수문자_일반주서
 62
     0
370
    -2
100
AcDbLine
 10
18.43219859034471
 20
8.702279090382785
 30
0.0
 11
22.19353767970882
 21
14.07989329231486
 31
0.0
  0
ARC
  5
195
330
191
100
AcDbEntity
  8
치수문자_일반주서
 62
     0
370
    -2
100
AcDbCircle
 10
30.87391110649297
 20
-0.0000000000000089
 30
0.0
 40
15.18307846589069
100
AcDbArc
 50
145.0293719848308
 51
157.5146859924154
  0
ARC
  5
196
330
191
100
AcDbEntity
  8
치수문자_일반주서
 62
     0
370
    -2
100
AcDbCircle
 10
30.87391110649297
 20
-0.0000000000000089
 30
0.0
 40
15.18307846589069
100
AcDbArc
 50
192.4853140075846
 51
204.9706280151692
  0
SOLID
  5
197
330
191
100
AcDbEntity
  8
치수문자_일반주서
 62
     0
100
AcDbTrace
 10
16.31671967044876
 20
5.960648438944609
 30
0.0
 11
17.373454007749
 21
5.652785398808686
 31
0.0
 12
15.92149771869111
 22
2.636513906975926
 32
0.0
 13
15.92149771869111
 23
2.636513906975926
 33
0.0
  0
SOLID
  5
198
330
191
100
AcDbEntity
  8
치수문자_일반주서
 62
     0
100
AcDbTrace
 10
16.59696040319584
 20
-3.222577113993552
 30
0.0
 11
15.50282037905775
 21
-3.342263030835058
 31
0.0
 12
15.69083264060227
 22
-0.0000000000000089
 32
0.0
 13
15.69083264060227
 23
-0.0000000000000089
 33
0.0
  0
MTEXT
  5
199
330
191
100
AcDbEntity
  8
치수문자_일반주서
 62
     0
100
AcDbMText
 10
18.16182245425394
 20
12.89562182709447
 30
0.0
 40
3.5
 41
0.0
 71
     5
 72
     1
  1
\A1;10%%d
  7
SLDTEXTSTYLE0
 11
0.5731564326650067
 21
0.8194459736277453
 31
0.0
 73
     1
 44
1.0
  0
POINT
  5
19A
330
191
100
AcDbEntity
  8
Defpoints
 62
     0
100
AcDbPoint
 10
15.71652000632148
 20
0.8828174997335364
 30
0.0
  0
POINT
  5
19B
330
191
100
AcDbEntity
  8
Defpoints
 62
     0
100
AcDbPoint
 10
18.02358420275356
 20
2.265859344053121
 30
0.0
  0
POINT
  5
19C
330
191
100
AcDbEntity
  8
Defpoints
 62
     0
100
AcDbPoint
 10
-53.99200000000001
 20
-0.0000000000000078
 30
0.0
  0
POINT
  5
19D
330
191
100
AcDbEntity
  8
Defpoints
 62
     0
100
AcDbPoint
 10
30.22412486153468
 20
-0.0000000000000077
 30
0.0
  0
POINT
  5
19E
330
191
100
AcDbEntity
  8
Defpoints
 62
     0
100
AcDbPoint
 10
15.9013125930584
 20
2.640073089233963
 30
0.0
  0
ENDBLK
  5
193
330
191
100
AcDbEntity
  8
0
100
AcDbBlockEnd
  0
ENDSEC
  0
SECTION
  2
ENTITIES
  0
LINE
  5
95
330
1F
100
AcDbEntity
  8
0
  6
Continuous
 62
     1
370
    15
100
AcDbLine
 10
12.48591002994608
 20
-2.346787173233893
 30
0.0
 11
12.5222235267361
 21
-2.395208719758129
 31
0.0
  0
LINE
  5
96
330
1F
100
AcDbEntity
  8
0
  6
Continuous
 62
     4
370
    15
100
AcDbLine
 10
11.93334027818631
 20
-1.452536983138227
 30
0.0
 11
12.0
 21
-1.56931869891319
 31
0.0
  0
LINE
  5
97
330
1F
100
AcDbEntity
  8
0
  6
Continuous
 62
     1
370
    15
100
AcDbLine
 10
12.44770288005695
 20
-2.295840570745785
 30
0.0
 11
12.48591002994608
 21
-2.346787173233893
 31
0.0
  0
LINE
  5
98
330
1F
100
AcDbEntity
  8
0
  6
Continuous
 62
     4
370
    15
100
AcDbLine
 10
12.10330724207622
 20
3.378972135104912
 30
0.0
 11
12.0
 21
3.414855000000009
 31
0.0
  0
LINE
  5
99
330
1F
100
AcDbEntity
  8
0
  6
Continuous
 62
     1
370
    15
100
AcDbLine
 10
23.63290134407835
 20
-1.276785388687067
 30
0.0
 11
24.22412486153469
 21
-1.172536730930152
 31
0.0
  0
LINE
  5
9A
330
1F
100
AcDbEntity
  8
0
  6
Continuous
 62
     1
370
    15
100
AcDbLine
 10
14.29672040518892
 20
-2.923005984989361
 30
0.0
 11
16.5749223479216
 21
-2.521297514983149
 31
0.0
  0
LINE
  5
9B
330
1F
100
AcDbEntity
  8
0
  6
Continuous
 62
     1
370
    15
100
AcDbLine
 10
20.82675811563172
 20
1.771584151594582
 30
0.0
 11
19.06967532683838
 21
2.081405254597322
 31
0.0
  0
LINE
  5
9C
330
1F
100
AcDbEntity
  8
0
  6
Continuous
 62
     4
370
    15
100
AcDbLine
 10
-50.18199999999997
 20
3.174999999999999
 30
0.0
 11
-50.99200000000001
 21
2.364999999999985
 31
0.0
  0
LINE
  5
9D
330
1F
100
AcDbEntity
  8
0
  6
Continuous
 62
     4
370
    15
100
AcDbLine
 10
-50.99200000000001
 20
-2.364999999999984
 30
0.0
 11
-50.18199999999997
 21
-3.174999999999998
 31
0.0
  0
LINE
  5
9E
330
1F
100
AcDbEntity
  8
0
  6
Continuous
 62
     4
370
    15
100
AcDbLine
 10
12.0
 20
3.175000000000008
 30
0.0
 11
-50.18199999999997
 21
3.175
 31
0.0
  0
LINE
  5
9F
330
1F
100
AcDbEntity
  8
0
  6
Continuous
 62
     4
370
    15
100
AcDbLine
 10
11.15772297711733
 20
-3.17499999999999
 30
0.0
 11
12.0
 21
-3.17499999999999
 31
0.0
  0
LINE
  5
A0
330
1F
100
AcDbEntity
  8
0
  6
Continuous
 62
     4
370
    15
100
AcDbLine
 10
-50.18199999999997
 20
-3.174999999999998
 30
0.0
 11
10.618
 21
-3.174999999999991
 31
0.0
  0
LINE
  5
A1
330
1F
100
AcDbEntity
  8
0
  6
Continuous
 62
     4
370
    15
100
AcDbLine
 10
12.0
 20
-3.414854999999991
 30
0.0
 11
12.50799999999999
 21
-3.238405653367947
 31
0.0
  0
LINE
  5
A2
330
1F
100
AcDbEntity
  8
0
  6
Continuous
 62
     1
370
    15
100
AcDbLine
 10
17.49211174717409
 20
-2.359572277475148
 30
0.0
 11
19.44219485872042
 21
-2.015720010285614
 31
0.0
  0
LINE
  5
A3
330
1F
100
AcDbEntity
  8
0
  6
Continuous
 62
     1
370
    15
100
AcDbLine
 10
15.09326777314531
 20
2.782553192606354
 30
0.0
 11
12.6835070976969
 21
3.207459016738165
 31
0.0
  0
LINE
  5
A4
330
1F
100
AcDbEntity
  8
0
  6
Continuous
 62
     1
370
    15
100
AcDbLine
 10
23.54147548177642
 20
1.29290623494545
 30
0.0
 11
22.15838221916542
 21
1.536782893979868
 31
0.0
  0
LINE
  5
A5
330
1F
100
AcDbEntity
  8
0
  6
Continuous
 62
     1
370
    15
100
AcDbLine
 10
20.6281210466622
 20
-1.80660922622274
 30
0.0
 11
22.18708077529151
 21
-1.531722564227445
 31
0.0
  0
LINE
  5
A6
330
1F
100
AcDbEntity
  8
0
  6
Continuous
 62
     1
370
    15
100
AcDbLine
 10
12.50799999999999
 20
-3.238405653367948
 30
0.0
 11
13.59050224273099
 21
-3.047531301297049
 31
0.0
  0
LINE
  5
A7
102
{ACAD_REACTORS
102
}
330
1F
100
AcDbEntity
  8
0
  6
Continuous
 62
     1
370
    15
100
AcDbLine
 10
18.02358420275356
 20
2.265859344053121
 30
0.0
 11
15.9013125930584
 21
2.640073089233963
 31
0.0
  0
ARC
  5
A8
330
1F
100
AcDbEntity
  8
0
  6
Continuous
 62
     1
370
    15
100
AcDbCircle
 10
24.017375
 20
0.0000000000000081
 30
0.0
 40
1.190625
100
AcDbArc
 50
280.0000000000008
 51
288.9407102666348
  0
ARC
  5
A9
330
1F
100
AcDbEntity
  8
0
  6
Continuous
 62
     1
370
    15
100
AcDbCircle
 10
24.017375
 20
0.0000000000000081
 30
0.0
 40
1.190625000000001
100
AcDbArc
 50
27.85617637447569
 51
43.30145575780004
  0
SPLINE
  5
AA
330
1F
100
AcDbEntity
  8
0
  6
Continuous
 62
     1
370
    15
100
AcDbSpline
210
0.0
220
0.0
230
1.0
 70
     8
 71
     3
 72
    26
 73
    22
 74
     0
 42
0.000000001
 43
0.00000001
 40
0.0
 40
0.0
 40
0.0
 40
0.0
 40
0.0262550478605807
 40
0.0761969747945548
 40
0.1275494387146148
 40
0.178173054082977
 40
0.230214939587294
 40
0.2817423911958374
 40
0.3347060051889481
 40
0.3872870774974129
 40
0.4413286633336462
 40
0.4950758474025262
 40
0.5503129048317472
 40
0.6053108053113433
 40
0.6618316750127178
 40
0.7181441312629012
 40
0.7760152877967437
 40
0.8336910078415771
 40
0.8929629823972953
 40
0.9520391603331951
 40
1.0
 40
1.0
 40
1.0
 40
1.0
 10
22.88093091725603
 20
-1.204131268901138
 30
0.0
 10
22.83171432007091
 20
-1.240240245527469
 30
0.0
 10
22.6888787086067
 20
-1.345035132836917
 30
0.0
 10
22.45566614799431
 20
-1.461103780783993
 30
0.0
 10
22.18176869279966
 20
-1.544576056253634
 30
0.0
 10
21.90912568830038
 20
-1.556249813225181
 30
0.0
 10
21.64053694374146
 20
-1.49711820902098
 30
0.0
 10
21.37224165035859
 20
-1.366373165685357
 30
0.0
 10
21.10706546446417
 20
-1.169703226582717
 30
0.0
 10
20.84170418210994
 20
-0.9115566578741185
 30
0.0
 10
20.57879563527412
 20
-0.6041408197575505
 30
0.0
 10
20.31533384880172
 20
-0.2557299833307456
 30
0.0
 10
20.05389764019769
 20
0.1167446717440782
 30
0.0
 10
19.79159578956248
 20
0.5024585676317167
 30
0.0
 10
19.53106221558391
 20
0.8823359752134492
 30
0.0
 10
19.26941691368685
 20
1.24472195207037
 30
0.0
 10
19.00936678691586
 20
1.571045584299446
 30
0.0
 10
18.74803697609757
 20
1.851381763010952
 30
0.0
 10
18.48822019050027
 20
2.067736595490086
 30
0.0
 10
18.24537006414159
 20
2.212604160146246
 30
0.0
 10
18.09140392008458
 20
2.244802381902129
 30
0.0
 10
18.02241521211588
 20
2.259229668702309
 30
0.0
  0
SPLINE
  5
AB
330
1F
100
AcDbEntity
  8
0
  6
Continuous
 62
     1
370
    15
100
AcDbSpline
210
0.0
220
0.0
230
1.0
 70
     8
 71
     3
 72
    13
 73
     9
 74
     0
 42
0.000000001
 43
0.00000001
 40
0.0
 40
0.0
 40
0.0
 40
0.0
 40
0.0961031736105877
 40
0.2774572390472554
 40
0.4638542164411395
 40
0.6491300401747654
 40
0.8395617069108595
 40
1.0
 40
1.0
 40
1.0
 40
1.0
 10
13.92117366776363
 20
-2.898553486969793
 30
0.0
 10
13.87457494538635
 20
-2.93058530050921
 30
0.0
 10
13.74004085698756
 20
-3.023063604944145
 30
0.0
 10
13.51824331056179
 20
-3.070514644394033
 30
0.0
 10
13.25584666061141
 20
-3.043557407080983
 30
0.0
 10
12.99212075556316
 20
-2.906806399215256
 30
0.0
 10
12.742869992125
 20
-2.688526697597977
 30
0.0
 10
12.58169750130105
 20
-2.481347542847956
 30
0.0
 10
12.508
 20
-2.386613100582507
 30
0.0
  0
SPLINE
  5
AC
330
1F
100
AcDbEntity
  8
0
  6
Continuous
 62
     4
370
    15
100
AcDbSpline
210
0.0
220
0.0
230
1.0
 70
     8
 71
     3
 72
    10
 73
     6
 74
     0
 42
0.000000001
 43
0.00000001
 40
0.0
 40
0.0
 40
0.0
 40
0.0
 40
0.5
 40
0.5
 40
1.0
 40
1.0
 40
1.0
 40
1.0
 10
12.50799999999999
 20
-2.386613100582501
 30
0.0
 10
12.42055618562731
 20
-2.268607320196064
 30
0.0
 10
12.33448196356415
 20
-2.133184542699974
 30
0.0
 10
12.16535578725492
 20
-1.834243366115686
 30
0.0
 10
12.08244946138177
 20
-1.671233810478485
 30
0.0
 10
11.99999999999968
 20
-1.49500791065309
 30
0.0
  0
SPLINE
  5
AD
330
1F
100
AcDbEntity
  8
0
  6
Continuous
 62
     4
370
    15
100
AcDbSpline
210
0.0
220
0.0
230
1.0
 70
     8
 71
     3
 72
    14
 73
    10
 74
     0
 42
0.000000001
 43
0.00000001
 40
0.0
 40
0.0
 40
0.0
 40
0.0
 40
0.25
 40
0.25
 40
0.5
 40
0.5
 40
0.75
 40
0.75
 40
1.0
 40
1.0
 40
1.0
 40
1.0
 10
12.0
 20
-1.57453074710367
 30
0.0
 10
11.88305950676081
 20
-1.366244876487153
 30
0.0
 10
11.76679421228884
 20
-1.144968970588759
 30
0.0
 10
11.53493891256611
 20
-0.6872242610009662
 30
0.0
 10
11.42091892567311
 20
-0.4537584617492276
 30
0.0
 10
11.1918164136639
 20
0.019871843562734
 30
0.0
 10
11.07570727361768
 20
0.2622217421911621
 30
0.0
 10
10.8468375439595
 20
0.7327171575891117
 30
0.0
 10
10.73319512126024
 20
0.9626253719311163
 30
0.0
 10
10.61799999999999
 20
1.185919112830831
 30
0.0
  0
SPLINE
  5
AE
330
1F
100
AcDbEntity
  8
0
  6
Continuous
 62
     4
370
    15
100
AcDbSpline
210
0.0
220
0.0
230
1.0
 70
     8
 71
     3
 72
    14
 73
    10
 74
     0
 42
0.000000001
 43
0.00000001
 40
0.0
 40
0.0
 40
0.0
 40
0.0
 40
0.25
 40
0.25
 40
0.5
 40
0.5
 40
0.75
 40
0.75
 40
1.0
 40
1.0
 40
1.0
 40
1.0
 10
10.61800000000224
 20
2.452553028466692
 30
0.0
 10
10.73516384782478
 20
2.296248788734906
 30
0.0
 10
10.85173661949205
 20
2.117931555859103
 30
0.0
 10
11.08245364740645
 20
1.729647304870033
 30
0.0
 10
11.19837731250182
 20
1.516593630733473
 30
0.0
 10
11.42852571957385
 20
1.068587800504859
 30
0.0
 10
11.54221320025952
 20
0.8349969138503277
 30
0.0
 10
11.77178269167862
 20
0.3505801705540145
 30
0.0
 10
11.88572677576397
 20
0.1038495058027924
 30
0.0
 10
12.0
 20
-0.1433934029698956
 30
0.0
  0
SPLINE
  5
AF
330
1F
100
AcDbEntity
  8
0
  6
Continuous
 62
     4
370
    15
100
AcDbSpline
210
0.0
220
0.0
230
1.0
 70
     8
 71
     3
 72
     8
 73
     4
 74
     0
 42
0.000000001
 43
0.00000001
 40
0.0
 40
0.0
 40
0.0
 40
0.0
 40
1.0
 40
1.0
 40
1.0
 40
1.0
 10
12.0
 20
-0.3780060173785183
 30
0.0
 10
12.16805507696165
 20
-0.7037612624907361
 30
0.0
 10
12.33645297092378
 20
-1.013304650824403
 30
0.0
 10
12.50799999999999
 20
-1.294119266127943
 30
0.0
  0
SPLINE
  5
B0
330
1F
100
AcDbEntity
  8
0
  6
Continuous
 62
     1
370
    15
100
AcDbSpline
210
0.0
220
0.0
230
1.0
 70
     8
 71
     3
 72
    14
 73
    10
 74
     0
 42
0.000000001
 43
0.00000001
 40
0.0
 40
0.0
 40
0.0
 40
0.0
 40
0.0810310282559349
 40
0.303825523915411
 40
0.4637093230143214
 40
0.628239242637202
 40
0.787694251232588
 40
0.9519651743435054
 40
1.0
 40
1.0
 40
1.0
 40
1.0
 10
12.508
 20
-1.294119266127957
 30
0.0
 10
12.55446012296833
 20
-1.378730084833404
 30
0.0
 10
12.72866217255166
 20
-1.69597801905558
 30
0.0
 10
12.99899841315015
 20
-2.120586806657669
 30
0.0
 10
13.32146907682833
 20
-2.513127871145725
 30
0.0
 10
13.61037084114847
 20
-2.767521170954522
 30
0.0
 10
13.90584336956756
 20
-2.910852019234313
 30
0.0
 10
14.13300148420226
 20
-2.957893554081158
 30
0.0
 10
14.26496860606577
 20
-2.920684240974519
 30
0.0
 10
14.29482657141954
 20
-2.912265519963655
 30
0.0
  0
SPLINE
  5
B1
330
1F
100
AcDbEntity
  8
0
  6
Continuous
 62
     1
370
    15
100
AcDbSpline
210
0.0
220
0.0
230
1.0
 70
     8
 71
     3
 72
    24
 73
    20
 74
     0
 42
0.000000001
 43
0.00000001
 40
0.0
 40
0.0
 40
0.0
 40
0.0
 40
0.0495021838799813
 40
0.118879085493857
 40
0.1847531246309443
 40
0.2526193254377396
 40
0.3170741795664365
 40
0.3834771762851998
 40
0.4465613383129624
 40
0.5115511190759773
 40
0.5733106507275716
 40
0.6369343347302536
 40
0.6974177027370196
 40
0.759725264871906
 40
0.8189823402817346
 40
0.8800264362681033
 40
0.9380795609291886
 40
0.9978840226947436
 40
1.0
 40
1.0
 40
1.0
 40
1.0
 10
18.52482531315113
 20
2.02694171770093
 30
0.0
 10
18.59929184188283
 20
2.051736950631697
 30
0.0
 10
18.77812259522876
 20
2.111282497603185
 30
0.0
 10
19.06161502202592
 20
2.096177327574866
 30
0.0
 10
19.3774959897438
 20
1.998842651811259
 30
0.0
 10
19.69084476092705
 20
1.815865976065531
 30
0.0
 10
20.00991086032012
 20
1.557364615609843
 30
0.0
 10
20.32642005305166
 20
1.243049457316926
 30
0.0
 10
20.64883941734584
 20
0.8820648842037456
 30
0.0
 10
20.96878532088442
 20
0.5020626692533054
 30
0.0
 10
21.29480175642253
 20
0.1131656299391052
 30
0.0
 10
21.61841671882946
 20
-0.2553370064445151
 30
0.0
 10
21.94823270294255
 20
-0.5939280402647182
 30
0.0
 10
22.27571273036365
 20
-0.8777555136686678
 30
0.0
 10
22.60952739258188
 20
-1.099324722460268
 30
0.0
 10
22.94083318596035
 20
-1.245761662629613
 30
0.0
 10
23.27894651823492
 20
-1.304956965460786
 30
0.0
 10
23.50807893632034
 20
-1.309064535916397
 30
0.0
 10
23.62858839421997
 20
-1.276783529249555
 30
0.0
 10
23.63270650581303
 20
-1.275680405975191
 30
0.0
  0
SPLINE
  5
B2
330
1F
100
AcDbEntity
  8
0
  6
Continuous
 62
     4
370
    15
100
AcDbSpline
210
0.0
220
0.0
230
1.0
 70
     8
 71
     3
 72
     9
 73
     5
 74
     0
 42
0.000000001
 43
0.00000001
 40
0.0
 40
0.0
 40
0.0
 40
0.0
 40
0.4531258670826759
 40
1.0
 40
1.0
 40
1.0
 40
1.0
 10
12.50799999999999
 20
3.088962587899385
 30
0.0
 10
12.44462534497285
 20
3.15189562100645
 30
0.0
 10
12.30476430495949
 20
3.290782048992211
 30
0.0
 10
12.17057625263395
 20
3.336412796755473
 30
0.0
 10
12.09719227787055
 20
3.361367072372876
 30
0.0
  0
LINE
  5
B3
330
1F
100
AcDbEntity
  8
0
  6
Continuous
 62
     4
370
    15
100
AcDbLine
 10
12.508
 20
3.088962587899381
 30
0.0
 11
12.50799999999999
 21
-1.294119266127954
 31
0.0
  0
LINE
  5
B4
330
1F
100
AcDbEntity
  8
0
  6
Continuous
 62
     4
370
    15
100
AcDbLine
 10
12.0
 20
3.414855000000009
 30
0.0
 11
12.0
 21
-0.3780060173785183
 31
0.0
  0
SPLINE
  5
B5
330
1F
100
AcDbEntity
  8
0
  6
Continuous
 62
     1
370
    15
100
AcDbSpline
210
0.0
220
0.0
230
1.0
 70
     8
 71
     3
 72
    20
 73
    16
 74
     0
 42
0.000000001
 43
0.00000001
 40
0.0
 40
0.0
 40
0.0
 40
0.0
 40
0.0741616698865436
 40
0.1550754757275345
 40
0.2383188908550928
 40
0.3195019492274436
 40
0.403008419295855
 40
0.4847443640845917
 40
0.568788821585896
 40
0.651640431140831
 40
0.7368132096342646
 40
0.8211440554454051
 40
0.9078253530027878
 40
0.9938805752776343
 40
1.0
 40
1.0
 40
1.0
 40
1.0
 10
24.17219051410715
 20
-1.000624331022781
 30
0.0
 10
24.0796316732256
 20
-0.9645494279354578
 30
0.0
 10
23.88608686356242
 20
-0.8891151400256813
 30
0.0
 10
23.59678504639657
 20
-0.6997465338929401
 30
0.0
 10
23.30491914886168
 20
-0.456802779540063
 30
0.0
 10
23.01622487608234
 20
-0.1702463211769581
 30
0.0
 10
22.73481456544475
 20
0.1390302366020985
 30
0.0
 10
22.4554881453972
 20
0.46069087839821
 30
0.0
 10
22.18181731349391
 20
0.7743550203134181
 30
0.0
 10
21.9091080094914
 20
1.069516153160202
 30
0.0
 10
21.64055832218903
 20
1.327561618611627
 30
0.0
 10
21.37217392910008
 20
1.541618041913346
 30
0.0
 10
21.10732190910528
 20
1.688483569462381
 30
0.0
 10
20.92477188202329
 20
1.764525089715581
 30
0.0
 10
20.83247736479348
 20
1.768974140415881
 30
0.0
 10
20.82634998195151
 20
1.769269510474063
 30
0.0
  0
SPLINE
  5
B6
330
1F
100
AcDbEntity
  8
0
  6
Continuous
 62
     1
370
    15
100
AcDbSpline
210
0.0
220
0.0
230
1.0
 70
     8
 71
     3
 72
    25
 73
    21
 74
     0
 42
0.000000001
 43
0.00000001
 40
0.0
 40
0.0
 40
0.0
 40
0.0
 40
0.0183835917455559
 40
0.0711643232987413
 40
0.1254073356751998
 40
0.1794329960571099
 40
0.2349565722377983
 40
0.29024105094716
 40
0.3470595341229462
 40
0.403614280248593
 40
0.4617393267452071
 40
0.5195733747000046
 40
0.579014149083545
 40
0.6381341619918177
 40
0.6988974226686924
 40
0.7593093800052545
 40
0.8214012124594652
 40
0.8831195705891375
 40
0.9465554229847866
 40
1.0
 40
1.0
 40
1.0
 40
1.0
 10
17.01549670421421
 20
-2.312400125645437
 30
0.0
 10
16.9850450630941
 20
-2.336584974436629
 30
0.0
 10
16.8671643755961
 20
-2.430206418065769
 30
0.0
 10
16.66255070850922
 20
-2.511629724920157
 30
0.0
 10
16.40189550888038
 20
-2.548914007574754
 30
0.0
 10
16.13992091240684
 20
-2.490505324792285
 30
0.0
 10
15.87916030004736
 20
-2.343602132485445
 30
0.0
 10
15.61678375118837
 20
-2.107737119829149
 30
0.0
 10
15.35572616652059
 20
-1.791688213949281
 30
0.0
 10
15.09303345594897
 20
-1.401255540006098
 30
0.0
 10
14.8316205994071
 20
-0.9520959062030578
 30
0.0
 10
14.56866264772284
 20
-0.4537694640482067
 30
0.0
 10
14.30689422297689
 20
0.0725539061864557
 30
0.0
 10
14.04368940769797
 20
0.6149714356268267
 30
0.0
 10
13.78162845281911
 20
1.149550510767039
 30
0.0
 10
13.51815522990208
 20
1.663446433485658
 30
0.0
 10
13.25587035483614
 20
2.133763856007545
 30
0.0
 10
12.99211422051811
 20
2.54650514930946
 30
0.0
 10
12.74287134486608
 20
2.872469607714895
 30
0.0
 10
12.58169792576412
 20
3.021031425027271
 30
0.0
 10
12.508
 20
3.088962587899378
 30
0.0
  0
ELLIPSE
  5
B7
330
1F
100
AcDbEntity
  8
0
  6
Continuous
 62
     1
370
    15
100
AcDbEllipse
 10
24.82437580173096
 20
-0.2524169949938547
 30
0.0
 11
1.514389659374011
 21
1.034782677417525
 31
0.0
210
0.0
220
0.0
230
1.0
 40
0.1598839377525307
 41
4.040680907050534
 42
4.161169648492117
  0
ELLIPSE
  5
B8
330
1F
100
AcDbEntity
  8
0
  6
Continuous
 62
     1
370
    15
100
AcDbEllipse
 10
21.71239647303957
 20
0.382264401622445
 30
0.0
 11
2.293416324752133
 21
-1.567091712671265
 31
0.0
210
0.0
220
0.0
230
1.0
 40
0.1598839377525342
 41
0.0254121342931404
 42
0.1922221984092361
  0
ELLIPSE
  5
B9
330
1F
100
AcDbEntity
  8
0
  6
Continuous
 62
     1
370
    15
100
AcDbEllipse
 10
24.82437580173096
 20
-0.1343082777338075
 30
0.0
 11
1.478672500703215
 21
0.7327341898612268
 31
0.0
210
0.0
220
0.0
230
1.0
 40
0.5000948292701722
 41
3.906577347488721
 42
4.064466335562736
  0
LINE
  5
BA
330
1F
100
AcDbEntity
  8
0
  6
Continuous
 62
     4
370
    15
100
AcDbLine
 10
-50.18199999999997
 20
3.174999999999999
 30
0.0
 11
-50.18199999999997
 21
-3.174999999999998
 31
0.0
  0
LINE
  5
BB
330
1F
100
AcDbEntity
  8
0
  6
Continuous
 62
     4
370
    15
100
AcDbLine
 10
-50.99200000000001
 20
-2.364999999999984
 30
0.0
 11
-50.99200000000001
 21
2.364999999999987
 31
0.0
  0
SPLINE
  5
BC
330
1F
100
AcDbEntity
  8
0
  6
Continuous
 62
     4
370
    15
100
AcDbSpline
210
0.0
220
0.0
230
1.0
 70
     8
 71
     3
 72
    10
 73
     6
 74
     0
 42
0.000000001
 43
0.00000001
 40
0.0
 40
0.0
 40
0.0
 40
0.0
 40
0.2572907032268031
 40
0.6855884549552042
 40
1.0
 40
1.0
 40
1.0
 40
1.0
 10
10.61800000000225
 20
-2.972474235546454
 30
0.0
 10
10.66444695310916
 20
-3.004035297002623
 30
0.0
 10
10.78821160693683
 20
-3.088134330077311
 30
0.0
 10
10.96831079547843
 20
-3.164196923123324
 30
0.0
 10
11.10138752867702
 20
-3.166243034695156
 30
0.0
 10
11.15772297711731
 20
-3.167109216259636
 30
0.0
  0
LINE
  5
BD
330
1F
100
AcDbEntity
  8
0
  6
Continuous
 62
     4
370
    15
100
AcDbLine
 10
10.618
 20
-3.174999999999991
 30
0.0
 11
10.618
 21
-2.972474235544794
 31
0.0
  0
LINE
  5
BE
330
1F
100
AcDbEntity
  8
0
  6
Continuous
 62
     4
370
    15
100
AcDbLine
 10
10.77609171824254
 20
-3.070139901293194
 30
0.0
 11
10.618
 21
-3.143580195273667
 31
0.0
  0
LINE
  5
BF
330
1F
100
AcDbEntity
  8
0
  6
Continuous
 62
     4
370
    15
100
AcDbLine
 10
10.618
 20
1.185919112830531
 30
0.0
 11
10.61799999999999
 21
2.452553028469691
 31
0.0
  0
SPLINE
  5
C0
330
1F
100
AcDbEntity
  8
0
  6
Continuous
 62
     1
370
    15
100
AcDbSpline
210
0.0
220
0.0
230
1.0
 70
     8
 71
     3
 72
     9
 73
     5
 74
     0
 42
0.000000001
 43
0.00000001
 40
0.0
 40
0.0
 40
0.0
 40
0.0
 40
0.6922888017683161
 40
1.0
 40
1.0
 40
1.0
 40
1.0
 10
12.37165670755576
 20
3.211374493397839
 30
0.0
 10
12.40297494100706
 20
3.217380803994452
 30
0.0
 10
12.44821362372343
 20
3.22605682270409
 30
0.0
 10
12.49393195691306
 20
3.219845322057504
 30
0.0
 10
12.50799999999999
 20
3.217933973750727
 30
0.0
  0
SPLINE
  5
C1
330
1F
100
AcDbEntity
  8
0
  6
Continuous
 62
     1
370
    15
100
AcDbSpline
210
0.0
220
0.0
230
1.0
 70
     8
 71
     3
 72
    24
 73
    20
 74
     0
 42
0.000000001
 43
0.00000001
 40
0.0
 40
0.0
 40
0.0
 40
0.0
 40
0.0311578740628013
 40
0.1168263270869655
 40
0.1783044964281179
 40
0.2415691818888637
 40
0.3028824736418171
 40
0.3660475703292724
 40
0.4260833865947594
 40
0.4879341582790221
 40
0.5466948441016954
 40
0.6072330344845228
 40
0.6647257441383383
 40
0.7239576404326186
 40
0.7802061880674439
 40
0.8381565472006973
 40
0.8931858928585377
 40
0.9498808516852641
 40
1.0
 40
1.0
 40
1.0
 40
1.0
 10
12.508
 20
3.217933973750726
 30
0.0
 10
12.55446003203505
 20
3.21801143044679
 30
0.0
 10
12.72866174066437
 20
3.218301854026112
 30
0.0
 10
12.99900331433144
 20
3.108150371322747
 30
0.0
 10
13.32145654248608
 20
2.84778046654162
 30
0.0
 10
13.61041895002222
 20
2.520836945789493
 30
0.0
 10
13.90566782440854
 20
2.106662403469349
 30
0.0
 10
14.19971656194863
 20
1.630516130549985
 30
0.0
 10
14.49841552463674
 20
1.102587273164
 30
0.0
 10
14.79403801640231
 20
0.5570760291226617
 30
0.0
 10
15.09438375920464
 20
0.001538237508407
 30
0.0
 10
15.39160086337489
 20
-0.5287317876825453
 30
0.0
 10
15.69367815407767
 20
-1.027104332279558
 30
0.0
 10
15.99263533653365
 20
-1.462743834209584
 30
0.0
 10
16.29654646780468
 20
-1.83083096676902
 30
0.0
 10
16.5974205461513
 20
-2.110213023551327
 30
0.0
 10
16.90345085169432
 20
-2.296146646188008
 30
0.0
 10
17.19933159179907
 20
-2.387497153629999
 30
0.0
 10
17.39825772643911
 20
-2.366505645178449
 30
0.0
 10
17.49159753624997
 20
-2.356656042409782
 30
0.0
  0
SPLINE
  5
C2
330
1F
100
AcDbEntity
  8
0
  6
Continuous
 62
     1
370
    15
100
AcDbSpline
210
0.0
220
0.0
230
1.0
 70
     8
 71
     3
 72
    16
 73
    12
 74
     0
 42
0.000000001
 43
0.00000001
 40
0.0
 40
0.0
 40
0.0
 40
0.0
 40
0.0636651492296954
 40
0.1858031871877728
 40
0.311624940173728
 40
0.4312866449399148
 40
0.5545569977394735
 40
0.6717874856753864
 40
0.7925545636655973
 40
0.8950551511388463
 40
1.0
 40
1.0
 40
1.0
 40
1.0
 10
21.46012713712024
 20
1.462053789145426
 30
0.0
 10
21.51488647806631
 20
1.484445002030967
 30
0.0
 10
21.67469856048794
 20
1.549792507997277
 30
0.0
 10
21.94840642665027
 20
1.569205067486996
 30
0.0
 10
22.2756746384292
 20
1.524417598412911
 30
0.0
 10
22.60951493881825
 20
1.395200824319992
 30
0.0
 10
22.94092340420473
 20
1.200007665346006
 30
0.0
 10
23.27861402914959
 20
0.946301486588364
 30
0.0
 10
23.60218508737778
 20
0.6680046293239099
 30
0.0
 10
23.91815754220755
 20
0.3796710198270264
 30
0.0
 10
24.12133775321236
 20
0.1972031510120616
 30
0.0
 10
24.22412486153469
 20
0.1048942371445376
 30
0.0
  0
SPLINE
  5
C3
330
1F
100
AcDbEntity
  8
0
  6
Continuous
 62
     1
370
    15
100
AcDbSpline
210
0.0
220
0.0
230
1.0
 70
     8
 71
     3
 72
    14
 73
    10
 74
     0
 42
0.000000001
 43
0.00000001
 40
0.0
 40
0.0
 40
0.0
 40
0.0
 40
0.25
 40
0.25
 40
0.5
 40
0.5
 40
0.75
 40
0.75
 40
1.0
 40
1.0
 40
1.0
 40
1.0
 10
24.22412486153469
 20
0.1048942371445374
 30
0.0
 10
24.29190145350618
 20
0.0449897285763524
 30
0.0
 10
24.35794311354873
 20
-0.0131191947937598
 30
0.0
 10
24.48857316442382
 20
-0.12344919826909
 30
0.0
 10
24.5534717806471
 20
-0.1758022331093412
 30
0.0
 10
24.67543083616141
 20
-0.2681432952134155
 30
0.0
 10
24.73399831806735
 20
-0.3092215085806149
 30
0.0
 10
24.84042098380056
 20
-0.3806804436959902
 30
0.0
 10
24.88774328782813
 20
-0.4105781444925634
 30
0.0
 10
24.92670409345844
 20
-0.4391767204931527
 30
0.0
  0
SPLINE
  5
C4
330
1F
100
AcDbEntity
  8
0
  6
Continuous
 62
     1
370
    15
100
AcDbSpline
210
0.0
220
0.0
230
1.0
 70
     8
 71
     3
 72
    14
 73
    10
 74
     0
 42
0.000000001
 43
0.00000001
 40
0.0
 40
0.0
 40
0.0
 40
0.0
 40
0.25
 40
0.25
 40
0.5
 40
0.5
 40
0.75
 40
0.75
 40
1.0
 40
1.0
 40
1.0
 40
1.0
 10
24.17219051410725
 20
-1.000624331022807
 30
0.0
 10
24.2102913903799
 20
-0.947123520458382
 30
0.0
 10
24.2579954686146
 20
-0.8900528688750217
 30
0.0
 10
24.37513760810962
 20
-0.7695880566422189
 30
0.0
 10
24.44325933618719
 20
-0.707715147326751
 30
0.0
 10
24.59211281427564
 20
-0.5908330635279743
 30
0.0
 10
24.67367127443806
 20
-0.5355788879366541
 30
0.0
 10
24.82279262687902
 20
-0.4575481342090292
 30
0.0
 10
24.88624440511451
 20
-0.437855676459133
 30
0.0
 10
24.92670409345688
 20
-0.439176720492332
 30
0.0
  0
LINE
  5
C5
330
1F
100
AcDbEntity
  8
0
  6
Continuous
 62
     4
370
    15
100
AcDbLine
 10
12.0
 20
-1.495007910653536
 30
0.0
 11
12.0
 21
-3.414854999999991
 31
0.0
  0
LINE
  5
C6
330
1F
100
AcDbEntity
  8
0
  6
Continuous
 62
     4
370
    15
100
AcDbLine
 10
12.508
 20
-2.386613100582508
 30
0.0
 11
12.50799999999999
 21
-3.238405653367947
 31
0.0
  0
SPLINE
  5
C7
330
1F
100
AcDbEntity
  8
0
  6
Continuous
 62
     1
370
    15
100
AcDbSpline
210
0.0
220
0.0
230
1.0
 70
     8
 71
     3
 72
    10
 73
     6
 74
     0
 42
0.000000001
 43
0.00000001
 40
0.0
 40
0.0
 40
0.0
 40
0.0
 40
0.4314032242537204
 40
0.9020840595131145
 40
1.0
 40
1.0
 40
1.0
 40
1.0
 10
24.17219051410725
 20
1.044705426597482
 30
0.0
 10
24.07972061387994
 20
1.093513537845147
 30
0.0
 10
23.88636178323113
 20
1.195573551901897
 30
0.0
 10
23.67659080811736
 20
1.27515274842204
 30
0.0
 10
23.56050615878529
 20
1.285654331941505
 30
0.0
 10
23.54051565215513
 20
1.28746277066429
 30
0.0
  0
SPLINE
  5
C8
330
1F
100
AcDbEntity
  8
0
  6
Continuous
 62
     1
370
    15
100
AcDbSpline
210
0.0
220
0.0
230
1.0
 70
     8
 71
     3
 72
    27
 73
    23
 74
     0
 42
0.000000001
 43
0.00000001
 40
0.0
 40
0.0
 40
0.0
 40
0.0
 40
0.0371746968577513
 40
0.0857887271516859
 40
0.1342234994497086
 40
0.1839989217272754
 40
0.23360624759289
 40
0.284586524114766
 40
0.3353983944734394
 40
0.3876166482464234
 40
0.4396573063826257
 40
0.49313861580705
 40
0.5464264876531045
 40
0.6011898677984846
 40
0.6557466022537798
 40
0.7118148213783246
 40
0.7676583748966725
 40
0.8250502471303071
 40
0.882194976573983
 40
0.9409253277372759
 40
0.9993830674420483
 40
1.0
 40
1.0
 40
1.0
 40
1.0
 10
19.9985268798692
 20
-1.746072017675674
 30
0.0
 10
19.93036901511645
 20
-1.795623417590562
 30
0.0
 10
19.77307986532488
 20
-1.909974088520004
 30
0.0
 10
19.53113121926389
 20
-2.006628664177106
 30
0.0
 10
19.26939885577363
 20
-2.043261644387334
 30
0.0
 10
19.00936790592835
 20
-1.998854934387182
 30
0.0
 10
18.74805072146662
 20
-1.875086060052561
 30
0.0
 10
18.48816230110971
 20
-1.674846760612137
 30
0.0
 10
18.22697030680671
 20
-1.401903795398286
 30
0.0
 10
17.96703876354686
 20
-1.067150286034856
 30
0.0
 10
17.70581326393428
 20
-0.6781699147675485
 30
0.0
 10
17.44573464447799
 20
-0.2518692958794451
 30
0.0
 10
17.1843507315352
 20
0.2012478469789674
 30
0.0
 10
16.92408423663208
 20
0.6606757327973207
 30
0.0
 10
16.66242040247238
 20
1.114417387891485
 30
0.0
 10
16.40193159265475
 20
1.541243798241
 30
0.0
 10
16.13990738574999
 20
1.929533285917507
 30
0.0
 10
15.87917772527477
 20
2.259473372628874
 30
0.0
 10
15.61672739469558
 20
2.524846679369402
 30
0.0
 10
15.35594002440272
 20
2.697424113077896
 30
0.0
 10
15.18069116344594
 20
2.782470461497715
 30
0.0
 10
15.09408819487106
 20
2.782080894987185
 30
0.0
 10
15.09318377697278
 20
2.782076826640215
 30
0.0
  0
ELLIPSE
  5
C9
330
1F
100
AcDbEntity
  8
0
  6
Continuous
 62
     1
370
    15
100
AcDbEllipse
 10
24.82437580173096
 20
0.0466447753481339
 30
0.0
 11
1.508745566701776
 21
-0.3241222114748958
 31
0.0
210
0.0
220
0.0
230
1.0
 40
0.6503595706236404
 41
2.152015938715426
 42
2.27250468015701
  0
ELLIPSE
  5
CA
330
1F
100
AcDbEntity
  8
0
  6
Continuous
 62
     1
370
    15
100
AcDbEllipse
 10
21.71239647303957
 20
-0.3116247953720783
 30
0.0
 11
2.260531234408138
 21
1.41333503168195
 31
0.0
210
0.0
220
0.0
230
1.0
 40
0.3261885834061557
 41
5.998598710360384
 42
6.165408774476481
  0
LINE
  5
CB
330
1F
100
AcDbEntity
  8
0
  6
Continuous
 62
     1
370
    15
100
AcDbLine
 10
24.01143871635987
 20
0.8378412307347146
 30
0.0
 11
24.22412486153469
 21
0.6889167886105434
 31
0.0
  0
LINE
  5
CC
330
1F
100
AcDbEntity
  8
0
  6
Continuous
 62
     1
370
    15
100
AcDbLine
 10
24.22412486153469
 20
0.6889167886105432
 30
0.0
 11
24.22412486153469
 21
0.1048942371445376
 31
0.0
  0
SPLINE
  5
CD
330
1F
100
AcDbEntity
  8
0
  6
Continuous
 62
     1
370
    15
100
AcDbSpline
210
0.0
220
0.0
230
1.0
 70
     8
 71
     3
 72
    24
 73
    20
 74
     0
 42
0.000000001
 43
0.00000001
 40
0.0
 40
0.0
 40
0.0
 40
0.0
 40
0.0460741546343652
 40
0.112267019753903
 40
0.1751259312475308
 40
0.2398866521719195
 40
0.3013830803235469
 40
0.3647408655264773
 40
0.4248908127243138
 40
0.4868610718143159
 40
0.5456959234033264
 40
0.6063109652982679
 40
0.6638660359947607
 40
0.72316255458561
 40
0.7794651725388655
 40
0.8374704933908648
 40
0.8925601322649702
 40
0.9493148508791946
 40
1.0
 40
1.0
 40
1.0
 40
1.0
 10
15.48059211918573
 20
2.603411736702958
 30
0.0
 10
15.55068886357339
 20
2.624145018508504
 30
0.0
 10
15.72149075129776
 20
2.674664963507999
 30
0.0
 10
15.99272279410096
 20
2.633601887942323
 30
0.0
 10
16.29651822521873
 20
2.499205713385652
 30
0.0
 10
16.5974449832261
 20
2.270308597846109
 30
0.0
 10
16.90338342326555
 20
1.957177685626286
 30
0.0
 10
17.20635488645664
 20
1.581413616830645
 30
0.0
 10
17.51451601421747
 20
1.151012466190567
 30
0.0
 10
17.81973325569417
 20
0.69590761157088
 30
0.0
 10
18.13026698137071
 20
0.2245045142032927
 30
0.0
 10
18.43796905354078
 20
-0.2310580307294485
 30
0.0
 10
18.75112563355819
 20
-0.6629874846621772
 30
0.0
 10
19.06151810064019
 20
-1.042490775732726
 30
0.0
 10
19.37752733627698
 20
-1.3635132892851
 30
0.0
 10
19.69081747504367
 20
-1.606159191869809
 30
0.0
 10
20.00998632664619
 20
-1.765159710942166
 30
0.0
 10
20.31997479959122
 20
-1.839511401191701
 30
0.0
 10
20.52907496090846
 20
-1.815605321250487
 30
0.0
 10
20.6277187239824
 20
-1.804327540923145
 30
0.0
  0
SPLINE
  5
CE
330
1F
100
AcDbEntity
  8
0
  6
Continuous
 62
     1
370
    15
100
AcDbSpline
210
0.0
220
0.0
230
1.0
 70
     8
 71
     3
 72
    14
 73
    10
 74
     0
 42
0.000000001
 43
0.00000001
 40
0.0
 40
0.0
 40
0.0
 40
0.0
 40
0.25
 40
0.25
 40
0.5
 40
0.5
 40
0.75
 40
0.75
 40
1.0
 40
1.0
 40
1.0
 40
1.0
 10
24.22412486153469
 20
0.9589280285891161
 30
0.0
 10
24.29190145350615
 20
0.9831486090482198
 30
0.0
 10
24.35794311354867
 20
0.9975715043791128
 30
0.0
 10
24.48857316442369
 20
1.005797214814604
 30
0.0
 10
24.55347178064692
 20
0.9991983282898526
 30
0.0
 10
24.67543083616119
 20
0.9650280321123684
 30
0.0
 10
24.73399831806711
 20
0.9371793741573704
 30
0.0
 10
24.84042098380031
 20
0.8630564451388122
 30
0.0
 10
24.88774328782787
 20
0.8174145737972421
 30
0.0
 10
24.92670409345819
 20
0.7658247778759872
 30
0.0
  0
SPLINE
  5
CF
330
1F
100
AcDbEntity
  8
0
  6
Continuous
 62
     1
370
    15
100
AcDbSpline
210
0.0
220
0.0
230
1.0
 70
     8
 71
     3
 72
    14
 73
    10
 74
     0
 42
0.000000001
 43
0.00000001
 40
0.0
 40
0.0
 40
0.0
 40
0.0
 40
0.2500000000000001
 40
0.2500000000000001
 40
0.5
 40
0.5
 40
0.75
 40
0.75
 40
1.0
 40
1.0
 40
1.0
 40
1.0
 10
24.17219051410725
 20
1.044705426597476
 30
0.0
 10
24.21029139037991
 20
0.9582083682106776
 30
0.0
 10
24.2579954686146
 20
0.8784587214839334
 30
0.0
 10
24.37513760810961
 20
0.7392856944826997
 30
0.0
 10
24.44325933618719
 20
0.6819087402721626
 30
0.0
 10
24.59211281427565
 20
0.6092755827356802
 30
0.0
 10
24.67367127443806
 20
0.5947796737864174
 30
0.0
 10
24.82279262687901
 20
0.6344894006112168
 30
0.0
 10
24.88624440511451
 20
0.6902864523724879
 30
0.0
 10
24.92670409345689
 20
0.7658247778762011
 30
0.0
  0
LINE
  5
D0
330
1F
100
AcDbEntity
  8
0
  6
Continuous
 62
     1
370
    15
100
AcDbLine
 10
24.22412486153469
 20
0.6889167886105432
 30
0.0
 11
25.20799999999999
 21
0.0000000000000112
 31
0.0
  0
ARC
  5
D1
330
1F
100
AcDbEntity
  8
0
  6
Continuous
 62
     1
370
    15
100
AcDbCircle
 10
24.39788680589226
 20
0.2092090304917446
 30
0.0
 40
0.8366909857926895
100
AcDbArc
 50
309.200359410657
 51
345.5199216164671
  0
ARC
  5
D2
330
1F
100
AcDbEntity
  8
0
  6
Continuous
 62
     1
370
    15
100
AcDbCircle
 10
24.03233451783122
 20
0.0027390092184448
 30
0.0
 40
1.1756686727708
100
AcDbArc
 50
359.8665152743599
 51
40.47116836542407
  0
ARC
  5
D3
330
1F
100
AcDbEntity
  8
0
  6
Continuous
 62
     1
370
    15
100
AcDbCircle
 10
23.99147458309009
 20
0.0282563159249353
 30
0.0
 40
1.216853528316972
100
AcDbArc
 50
281.0222418930558
 51
358.6694264038505
  0
LINE
  5
D4
330
1F
100
AcDbEntity
  8
0
  6
Continuous
 62
     8
370
    15
100
AcDbLine
 10
24.22412486153469
 20
-1.166149962238871
 30
0.0
 11
24.22412486153469
 21
-1.172536730930152
 31
0.0
  0
LINE
  5
D5
102
{ACAD_REACTORS
102
}
330
1F
100
AcDbEntity
  8
중심선
100
AcDbLine
 10
-53.99200000000001
 20
-0.0000000000000078
 30
0.0
 11
30.22412486153468
 21
-0.0000000000000077
 31
0.0
  0
CIRCLE
  5
D6
330
1F
100
AcDbEntity
  8
외형선
100
AcDbCircle
 10
-0.0000000000000121
 20
-0.0000000000000078
 30
0.0
 40
2.999999999999999
  0
INSERT
  5
D7
330
1F
100
AcDbEntity
  8
0
  6
Continuous
 62
     7
100
AcDbBlockReference
 66
     1
  2
블럭10
 10
-28.42659037425751
 20
-53.50585057186871
 30
0.0
  0
ATTRIB
  5
D8
330
D7
100
AcDbEntity
  8
FORMAT
 62
     2
100
AcDbText
 10
-37.60788566299879
 20
-51.43048365903653
 30
0.0
 40
4.233333333333333
  1
E5078006 [ 3 FLUTE ]
 41
0.75
  7
SLDTEXTSTYLE0
 11
-37.60788566299879
 21
-53.54715032570319
 31
0.0
100
AcDbAttribute
  2
AUTOATTR0
 70
     0
 74
     1
  0
SEQEND
  5
D9
330
D7
100
AcDbEntity
  8
0
  6
Continuous
 62
     7
  0
HATCH
  5
DA
330
1F
100
AcDbEntity
  8
중심선
100
AcDbHatch
 10
0.0
 20
0.0
 30
0.0
210
0.0
220
0.0
230
1.0
  2
SOLID
 70
     1
 71
     0
 91
        1
 92
        0
 93
        4
 72
     1
 10
-22.71168106987666
 20
-37.25867627022478
 11
-26.15795631371394
 21
-37.25867627022478
 72
     1
 10
-26.15795631371394
 20
-37.25867627022478
 11
-28.28618617291797
 21
-39.79500185079737
 72
     1
 10
-28.28618617291797
 20
-39.79500185079737
 11
-24.83987784396754
 21
-39.79496242149488
 72
     1
 10
-24.83987784396753
 20
-39.79496242149488
 11
-22.71168106987666
 21
-37.25867627022478
 97
        0
 75
     0
 76
     1
 98
        1
 10
-26.99381657457607
 20
-1.446097316495141
  0
HATCH
  5
DB
330
1F
100
AcDbEntity
  8
중심선
100
AcDbHatch
 10
0.0
 20
0.0
 30
0.0
210
0.0
220
0.0
230
1.0
  2
SOLID
 70
     1
 71
     0
 91
        1
 92
        0
 93
        4
 72
     1
 10
-17.69891707884071
 20
-37.25867627022478
 11
-21.14519232267799
 21
-37.25867627022478
 72
     1
 10
-21.14519232267799
 20
-37.25867627022478
 11
-25.67633033103538
 21
-42.65867627022479
 72
     1
 10
-25.67633033103538
 20
-42.65867627022479
 11
-22.2300550871981
 21
-42.65867627022479
 72
     1
 10
-22.2300550871981
 20
-42.65867627022479
 11
-17.69891707884071
 21
-37.25867627022478
 97
        0
 75
     0
 76
     1
 98
        1
 10
-26.99381657457607
 20
-1.446097316495141
  0
HATCH
  5
DC
330
1F
100
AcDbEntity
  8
중심선
100
AcDbHatch
 10
0.0
 20
0.0
 30
0.0
210
0.0
220
0.0
230
1.0
  2
SOLID
 70
     1
 71
     0
 91
        1
 92
        0
 93
        4
 72
     1
 10
-12.68615308780481
 20
-37.2586762702248
 11
-16.13242833164193
 21
-37.25867627022478
 72
     1
 10
-16.13242833164193
 20
-37.25867627022478
 11
-23.18086523353118
 21
-45.6586762702248
 72
     1
 10
-23.18086523353118
 20
-45.6586762702248
 11
-19.73458998969389
 21
-45.6586762702248
 72
     1
 10
-19.73458998969389
 20
-45.6586762702248
 11
-12.68615308780481
 21
-37.2586762702248
 97
        0
 75
     0
 76
     1
 98
        1
 10
-26.99381657457607
 20
-1.446097316495141
  0
HATCH
  5
DD
330
1F
100
AcDbEntity
  8
중심선
100
AcDbHatch
 10
0.0
 20
0.0
 30
0.0
210
0.0
220
0.0
230
1.0
  2
SOLID
 70
     1
 71
     0
 91
        1
 92
        0
 93
        6
 72
     3
 10
-7.886262656792614
 20
-41.45867627027605
 11
3.960054785062283
 21
1.540882976769353E-10
 40
0.3939339440162628
 50
17.09539180608436
 51
320.0019657685078
 73
     0
 72
     1
 10
-6.203263001092019
 20
-40.04657027486308
 11
-3.897961127390978
 21
-38.11224356481515
 72
     3
 10
-7.88626265684546
 20
-41.45867627022493
 11
6.600054785286829
 21
-1.278976924368180E-13
 40
0.636358354079598
 50
39.99873849337413
 51
368.4976242363724
 73
     1
 72
     1
 10
-1.460930164944852
 20
-40.4986762701548
 11
-9.206195350009537
 21
-40.49867627015477
 72
     1
 10
-9.206195350009537
 20
-40.49867627015477
 11
-9.206220394455471
 21
-42.41867627015469
 72
     1
 10
-9.206220394455471
 20
-42.41867627015469
 11
-4.764840624983435
 21
-42.41867627015466
 97
        0
 75
     0
 76
     1
 98
        1
 10
-26.99381657457607
 20
-1.446097316495141
  0
DIMENSION
  5
DE
102
{ACAD_REACTORS
102
}
330
1F
100
AcDbEntity
  8
치수문자_일반주서
100
AcDbDimension
  2
_D
 10
12.508
 20
21.11876058865636
 30
0.0
 11
-1.7315
 21
21.11876058865636
 31
0.0
 70
   160
  1
<>
 71
     2
 42
12.69999999999999
  3
SLDDIMSTYLE0
100
AcDbAlignedDimension
 13
25.20799999999999
 23
1.000000000000011
 33
0.0
 14
12.508
 24
3.851774598917539
 34
0.0
100
AcDbRotatedDimension
1001
ACAD
1000
DSTYLE
1002
{
1070
   171
1070
     6
1070
   273
1070
     7
1002
}
  0
DIMENSION
  5
F2
330
1F
100
AcDbEntity
  8
치수문자_일반주서
100
AcDbDimension
  2
_D_1
 10
-50.992
 20
30.36201422519888
 30
0.0
 11
-11.18801414975405
 21
30.36201422519888
 31
0.0
 70
   160
  1
<>
 71
     2
 42
76.19999999999999
  3
SLDDIMSTYLE1
100
AcDbAlignedDimension
 13
25.20799999999999
 23
1.231567302496654
 33
0.0
 14
-50.992
 24
2.364999999999984
 34
0.0
100
AcDbRotatedDimension
1001
ACAD
1000
DSTYLE
1002
{
1070
   171
1070
     6
1070
   273
1070
     7
1002
}
  0
DIMENSION
  5
106
330
1F
100
AcDbEntity
  8
치수문자_일반주서
100
AcDbDimension
  2
_D_2
 10
-63.99199999999993
 20
-3.175000000000047
 30
0.0
 11
-63.99200000000001
 21
22.46649999999995
 31
0.0
 70
   160
  1
%%c<>
 71
     2
 42
6.349999999999998
  3
SLDDIMSTYLE2
100
AcDbAlignedDimension
 13
-50.18199999999998
 23
3.175
 33
0.0
 14
-50.18199999999998
 24
-3.174999999999998
 34
0.0
 50
90.0000000000002
100
AcDbRotatedDimension
1001
ACAD
1000
DSTYLE
1002
{
1070
   171
1070
     6
1070
   273
1070
     7
1002
}
  0
INSERT
  5
121
330
1F
100
AcDbEntity
  8
외형선
100
AcDbBlockReference
  2
SW_DOWELSYMBOL_0
 10
-0.0000000000000121
 20
-0.0000000000000078
 30
0.0
  0
DIMENSION
  5
173
102
{ACAD_XDICTIONARY
360
174
102
}
330
1F
100
AcDbEntity
  8
치수문자_일반주서
100
AcDbDimension
  2
*D6
 10
36.94725197124148
 20
-1.190625000000008
 30
0.0
 11
36.94725197124148
 21
22.23212499999999
 31
0.0
 70
   160
  1
{%%c<>[]}
 71
     5
 42
2.38125
  3
SLDDIMSTYLE0
100
AcDbAlignedDimension
 13
25.20799999999999
 23
1.190624999999992
 33
0.0
 14
25.20799999999999
 24
-1.190625000000008
 34
0.0
 50
90.0
100
AcDbRotatedDimension
1001
ACAD
1000
DSTYLE
1002
{
1070
   283
1070
     1
1070
   170
1070
     1
1070
   171
1070
     6
1070
   273
1070
     7
1002
}
  0
DIMENSION
  5
18E
102
{ACAD_REACTORS
102
}
102
{ACAD_XDICTIONARY
360
18F
102
}
330
1F
100
AcDbEntity
  8
치수문자_일반주서
100
AcDbDimension
  2
*D7
 10
15.9013125930584
 20
2.640073089233963
 30
0.0
 11
18.16182245425394
 21
12.89562182709447
 31
0.0
 70
    34
  1
<>
 71
     5
 42
0.1745329251994331
  3
SLDDIMSTYLE0
100
AcDb2LineAngularDimension
 13
-53.99200000000001
 23
-0.0000000000000078
 33
0.0
 14
30.22412486153468
 24
-0.0000000000000077
 34
0.0
 15
18.02358420275356
 25
2.265859344053121
 35
0.0
 16
15.71652000632148
 26
0.8828174997335364
 36
0.0
1001
ACAD
1000
DSTYLE
1002
{
1070
   171
1070
     6
1070
   273
1070
     7
1002
}
  0
ENDSEC
  0
SECTION
  2
OBJECTS
  0
DICTIONARY
  5
C
330
0
100
AcDbDictionary
281
     1
  3
ACAD_DETAILVIEWSTYLE
350
14C
  3
ACAD_GROUP
350
D
  3
ACAD_IMAGE_VARS
350
145
  3
ACAD_LAYOUT
350
1A
  3
ACAD_MLINESTYLE
350
17
  3
ACAD_PLOTSETTINGS
350
19
  3
ACAD_PLOTSTYLENAME
350
E
  3
ACAD_SCALELIST
350
47
  3
ACAD_SECTIONVIEWSTYLE
350
14D
  3
AcDbVariableDictionary
350
147
  3
APPDATA
350
143
  3
DWGPROPS
350
1A0
  0
DICTIONARY
  5
174
330
173
100
AcDbDictionary
280
     1
281
     1
  0
DICTIONARY
  5
18F
330
18E
100
AcDbDictionary
280
     1
281
     1
  0
DICTIONARY
  5
14C
102
{ACAD_REACTORS
330
C
102
}
330
C
100
AcDbDictionary
281
     1
  0
DICTIONARY
  5
D
102
{ACAD_REACTORS
330
C
102
}
330
C
100
AcDbDictionary
281
     1
  0
RASTERVARIABLES
  5
145
102
{ACAD_REACTORS
330
C
102
}
330
C
100
AcDbRasterVariables
 90
        0
 70
     1
 71
     1
 72
     1
  0
DICTIONARY
  5
1A
102
{ACAD_REACTORS
330
C
102
}
330
C
100
AcDbDictionary
281
     1
  3
Layout1
350
1E
  3
Layout2
350
26
  3
Model
350
22
  0
DICTIONARY
  5
17
102
{ACAD_REACTORS
330
C
102
}
330
C
100
AcDbDictionary
281
     1
  3
Standard
350
18
  0
DICTIONARY
  5
19
102
{ACAD_REACTORS
330
C
102
}
330
C
100
AcDbDictionary
281
     1
  0
ACDBDICTIONARYWDFLT
  5
E
102
{ACAD_REACTORS
330
C
102
}
330
C
100
AcDbDictionary
281
     1
  3
Normal
350
F
100
AcDbDictionaryWithDefault
340
F
  0
DICTIONARY
  5
47
102
{ACAD_REACTORS
330
C
102
}
330
C
100
AcDbDictionary
281
     1
  3
A0
350
48
  3
A1
350
49
  3
A2
350
4A
  3
A3
350
4B
  3
A4
350
4C
  3
A5
350
4D
  3
A6
350
4E
  3
A7
350
4F
  3
A8
350
50
  3
A9
350
51
  3
B0
350
52
  3
B1
350
53
  3
B2
350
54
  3
B3
350
55
  3
B4
350
56
  3
B5
350
57
  3
B6
350
58
  3
B7
350
59
  3
B8
350
5A
  3
B9
350
5B
  3
C0
350
5C
  3
C1
350
5D
  3
C2
350
5E
  3
C3
350
5F
  3
C4
350
60
  3
C5
350
61
  3
C6
350
62
  3
C7
350
63
  3
C8
350
64
  3
C9
350
65
  3
D0
350
66
  3
D1
350
67
  3
D2
350
68
  0
DICTIONARY
  5
14D
102
{ACAD_REACTORS
330
C
102
}
330
C
100
AcDbDictionary
281
     1
  0
DICTIONARY
  5
147
102
{ACAD_REACTORS
330
C
102
}
330
C
100
AcDbDictionary
281
     1
  0
DICTIONARY
  5
143
102
{ACAD_REACTORS
330
C
102
}
330
C
100
AcDbDictionary
281
     1
  0
XRECORD
  5
1A0
102
{ACAD_REACTORS
330
C
102
}
330
C
100
AcDbXrecord
280
     1
  1
DWGPROPS COOKIE
  2

  3

  4

  6

  7

  8
12015048
  9

300
=
301
=
302
=
303
=
304
=
305
=
306
=
307
=
308
=
309
=
 40
0.0
 41
2458340.214775949
 42
2458340.997168021
  1

 90
        0
  0
LAYOUT
  5
1E
102
{ACAD_REACTORS
330
1A
102
}
330
1A
100
AcDbPlotSettings
  1

  2
none_device
  4

  6

 40
0.0
 41
0.0
 42
0.0
 43
0.0
 44
0.0
 45
0.0
 46
0.0
 47
0.0
 48
0.0
 49
0.0
140
0.0
141
0.0
142
1.0
143
1.0
 70
   688
 72
     1
 73
     0
 74
     5
  7

 75
    16
147
1.0
148
0.0
149
0.0
100
AcDbLayout
  1
Layout1
 70
     1
 71
     1
 10
0.0
 20
0.0
 11
420.0
 21
297.0
 12
0.0
 22
0.0
 32
0.0
 14
1.000000000000000E+20
 24
1.000000000000000E+20
 34
1.000000000000000E+20
 15
-1.000000000000000E+20
 25
-1.000000000000000E+20
 35
-1.000000000000000E+20
146
0.0
 13
0.0
 23
0.0
 33
0.0
 16
1.0
 26
0.0
 36
0.0
 17
0.0
 27
1.0
 37
0.0
 76
     0
330
1B
  0
LAYOUT
  5
26
102
{ACAD_REACTORS
330
1A
102
}
330
1A
100
AcDbPlotSettings
  1

  2
none_device
  4

  6

 40
0.0
 41
0.0
 42
0.0
 43
0.0
 44
0.0
 45
0.0
 46
0.0
 47
0.0
 48
0.0
 49
0.0
140
0.0
141
0.0
142
1.0
143
1.0
 70
   688
 72
     1
 73
     0
 74
     5
  7

 75
    16
147
1.0
148
0.0
149
0.0
100
AcDbLayout
  1
Layout2
 70
     1
 71
     2
 10
0.0
 20
0.0
 11
0.0
 21
0.0
 12
0.0
 22
0.0
 32
0.0
 14
0.0
 24
0.0
 34
0.0
 15
0.0
 25
0.0
 35
0.0
146
0.0
 13
0.0
 23
0.0
 33
0.0
 16
1.0
 26
0.0
 36
0.0
 17
0.0
 27
1.0
 37
0.0
 76
     0
330
23
  0
LAYOUT
  5
22
102
{ACAD_REACTORS
330
1A
102
}
330
1A
100
AcDbPlotSettings
  1

  2
none_device
  4
ANSI_A_(11.00_x_8.50_Inches)
  6

 40
6.35
 41
19.05
 42
6.35000508
 43
19.05000254
 44
279.4
 45
215.9
 46
152.0645662462514
 47
98.95016377246489
 48
0.0
 49
0.0
140
0.0
141
0.0
142
0.082661012558327
143
1.0
 70
  1696
 72
     0
 73
     0
 74
     0
  7

 75
     0
147
0.0235690232323232
148
0.0
149
0.0
100
AcDbLayout
  1
Model
 70
     1
 71
     0
 10
0.0
 20
0.0
 11
420.0
 21
297.0
 12
0.0
 22
0.0
 32
0.0
 14
-68.36700000000005
 24
-51.43048365903652
 34
0.0
 15
37.49758530457481
 25
36.669625
 35
0.0
146
0.0
 13
0.0
 23
0.0
 33
0.0
 16
1.0
 26
0.0
 36
0.0
 17
0.0
 27
1.0
 37
0.0
 76
     0
330
1F
331
29
  0
MLINESTYLE
  5
18
102
{ACAD_REACTORS
330
17
102
}
330
17
100
AcDbMlineStyle
  2
Standard
 70
     0
  3

 62
   256
 51
90.0
 52
90.0
 71
     2
 49
0.5
 62
   256
  6
BYLAYER
 49
-0.5
 62
   256
  6
BYLAYER
  0
ACDBPLACEHOLDER
  5
F
102
{ACAD_REACTORS
330
E
102
}
330
E
  0
SCALE
  5
48
102
{ACAD_REACTORS
330
47
102
}
330
47
100
AcDbScale
 70
     0
300
1:1
140
1.0
141
1.0
290
     1
  0
SCALE
  5
49
102
{ACAD_REACTORS
330
47
102
}
330
47
100
AcDbScale
 70
     0
300
1:2
140
1.0
141
2.0
290
     0
  0
SCALE
  5
4A
102
{ACAD_REACTORS
330
47
102
}
330
47
100
AcDbScale
 70
     0
300
1:4
140
1.0
141
4.0
290
     0
  0
SCALE
  5
4B
102
{ACAD_REACTORS
330
47
102
}
330
47
100
AcDbScale
 70
     0
300
1:5
140
1.0
141
5.0
290
     0
  0
SCALE
  5
4C
102
{ACAD_REACTORS
330
47
102
}
330
47
100
AcDbScale
 70
     0
300
1:8
140
1.0
141
8.0
290
     0
  0
SCALE
  5
4D
102
{ACAD_REACTORS
330
47
102
}
330
47
100
AcDbScale
 70
     0
300
1:10
140
1.0
141
10.0
290
     0
  0
SCALE
  5
4E
102
{ACAD_REACTORS
330
47
102
}
330
47
100
AcDbScale
 70
     0
300
1:16
140
1.0
141
16.0
290
     0
  0
SCALE
  5
4F
102
{ACAD_REACTORS
330
47
102
}
330
47
100
AcDbScale
 70
     0
300
1:20
140
1.0
141
20.0
290
     0
  0
SCALE
  5
50
102
{ACAD_REACTORS
330
47
102
}
330
47
100
AcDbScale
 70
     0
300
1:30
140
1.0
141
30.0
290
     0
  0
SCALE
  5
51
102
{ACAD_REACTORS
330
47
102
}
330
47
100
AcDbScale
 70
     0
300
1:40
140
1.0
141
40.0
290
     0
  0
SCALE
  5
52
102
{ACAD_REACTORS
330
47
102
}
330
47
100
AcDbScale
 70
     0
300
1:50
140
1.0
141
50.0
290
     0
  0
SCALE
  5
53
102
{ACAD_REACTORS
330
47
102
}
330
47
100
AcDbScale
 70
     0
300
1:100
140
1.0
141
100.0
290
     0
  0
SCALE
  5
54
102
{ACAD_REACTORS
330
47
102
}
330
47
100
AcDbScale
 70
     0
300
2:1
140
2.0
141
1.0
290
     0
  0
SCALE
  5
55
102
{ACAD_REACTORS
330
47
102
}
330
47
100
AcDbScale
 70
     0
300
4:1
140
4.0
141
1.0
290
     0
  0
SCALE
  5
56
102
{ACAD_REACTORS
330
47
102
}
330
47
100
AcDbScale
 70
     0
300
8:1
140
8.0
141
1.0
290
     0
  0
SCALE
  5
57
102
{ACAD_REACTORS
330
47
102
}
330
47
100
AcDbScale
 70
     0
300
10:1
140
10.0
141
1.0
290
     0
  0
SCALE
  5
58
102
{ACAD_REACTORS
330
47
102
}
330
47
100
AcDbScale
 70
     0
300
100:1
140
100.0
141
1.0
290
     0
  0
SCALE
  5
59
102
{ACAD_REACTORS
330
47
102
}
330
47
100
AcDbScale
 70
     0
300
1/128" = 1'-0"
140
0.0078125
141
12.0
290
     0
  0
SCALE
  5
5A
102
{ACAD_REACTORS
330
47
102
}
330
47
100
AcDbScale
 70
     0
300
1/64" = 1'-0"
140
0.015625
141
12.0
290
     0
  0
SCALE
  5
5B
102
{ACAD_REACTORS
330
47
102
}
330
47
100
AcDbScale
 70
     0
300
1/32" = 1'-0"
140
0.03125
141
12.0
290
     0
  0
SCALE
  5
5C
102
{ACAD_REACTORS
330
47
102
}
330
47
100
AcDbScale
 70
     0
300
1/16" = 1'-0"
140
0.0625
141
12.0
290
     0
  0
SCALE
  5
5D
102
{ACAD_REACTORS
330
47
102
}
330
47
100
AcDbScale
 70
     0
300
3/32" = 1'-0"
140
0.09375
141
12.0
290
     0
  0
SCALE
  5
5E
102
{ACAD_REACTORS
330
47
102
}
330
47
100
AcDbScale
 70
     0
300
1/8" = 1'-0"
140
0.125
141
12.0
290
     0
  0
SCALE
  5
5F
102
{ACAD_REACTORS
330
47
102
}
330
47
100
AcDbScale
 70
     0
300
3/16" = 1'-0"
140
0.1875
141
12.0
290
     0
  0
SCALE
  5
60
102
{ACAD_REACTORS
330
47
102
}
330
47
100
AcDbScale
 70
     0
300
1/4" = 1'-0"
140
0.25
141
12.0
290
     0
  0
SCALE
  5
61
102
{ACAD_REACTORS
330
47
102
}
330
47
100
AcDbScale
 70
     0
300
3/8" = 1'-0"
140
0.375
141
12.0
290
     0
  0
SCALE
  5
62
102
{ACAD_REACTORS
330
47
102
}
330
47
100
AcDbScale
 70
     0
300
1/2" = 1'-0"
140
0.5
141
12.0
290
     0
  0
SCALE
  5
63
102
{ACAD_REACTORS
330
47
102
}
330
47
100
AcDbScale
 70
     0
300
3/4" = 1'-0"
140
0.75
141
12.0
290
     0
  0
SCALE
  5
64
102
{ACAD_REACTORS
330
47
102
}
330
47
100
AcDbScale
 70
     0
300
1" = 1'-0"
140
1.0
141
12.0
290
     0
  0
SCALE
  5
65
102
{ACAD_REACTORS
330
47
102
}
330
47
100
AcDbScale
 70
     0
300
1-1/2" = 1'-0"
140
1.5
141
12.0
290
     0
  0
SCALE
  5
66
102
{ACAD_REACTORS
330
47
102
}
330
47
100
AcDbScale
 70
     0
300
3" = 1'-0"
140
3.0
141
12.0
290
     0
  0
SCALE
  5
67
102
{ACAD_REACTORS
330
47
102
}
330
47
100
AcDbScale
 70
     0
300
6" = 1'-0"
140
6.0
141
12.0
290
     0
  0
SCALE
  5
68
102
{ACAD_REACTORS
330
47
102
}
330
47
100
AcDbScale
 70
     0
300
1'-0" = 1'-0"
140
12.0
141
12.0
290
     0
  0
ENDSEC
  0
EOF
