  0
SECTION
  2
HEADER
  9
$ACADVER
  1
AC1015
  9
$ACADMAINTVER
 70
     6
  9
$DWGCODEPAGE
  3
ANSI_949
  9
$INSBASE
 10
0.0
 20
0.0
 30
0.0
  9
$EXTMIN
 10
-77.60232573005234
 20
-49.97180738881174
 30
0.0
  9
$EXTMAX
 10
48.09379995836831
 20
63.28323325518659
 30
0.0
  9
$LIMMIN
 10
0.0
 20
0.0
  9
$LIMMAX
 10
420.0
 20
297.0
  9
$ORTHOMODE
 70
     1
  9
$REGENMODE
 70
     1
  9
$FILLMODE
 70
     1
  9
$QTEXTMODE
 70
     0
  9
$MIRRTEXT
 70
     1
  9
$LTSCALE
 40
1.0
  9
$ATTMODE
 70
     1
  9
$TEXTSIZE
 40
3.5
  9
$TRACEWID
 40
1.0
  9
$TEXTSTYLE
  7
Standard
  9
$CLAYER
  8
0
  9
$CELTYPE
  6
ByLayer
  9
$CECOLOR
 62
   256
  9
$CELTSCALE
 40
1.0
  9
$DISPSILH
 70
     0
  9
$DIMSCALE
 40
1.0
  9
$DIMASZ
 40
3.302
  9
$DIMEXO
 40
1.0
  9
$DIMDLI
 40
3.75
  9
$DIMRND
 40
0.0
  9
$DIMDLE
 40
0.0
  9
$DIMEXE
 40
1.0
  9
$DIMTP
 40
0.0
  9
$DIMTM
 40
0.0
  9
$DIMTXT
 40
3.5
  9
$DIMCEN
 40
2.5
  9
$DIMTSZ
 40
0.0
  9
$DIMTOL
 70
     0
  9
$DIMLIM
 70
     0
  9
$DIMTIH
 70
     1
  9
$DIMTOH
 70
     1
  9
$DIMSE1
 70
     0
  9
$DIMSE2
 70
     0
  9
$DIMTAD
 70
     1
  9
$DIMZIN
 70
     0
  9
$DIMBLK
  1

  9
$DIMASO
 70
     1
  9
$DIMSHO
 70
     1
  9
$DIMPOST
  1

  9
$DIMAPOST
  1

  9
$DIMALT
 70
     0
  9
$DIMALTD
 70
     3
  9
$DIMALTF
 40
0.0393700787401575
  9
$DIMLFAC
 40
1.0
  9
$DIMTOFL
 70
     1
  9
$DIMTVP
 40
0.0
  9
$DIMTIX
 70
     0
  9
$DIMSOXD
 70
     0
  9
$DIMSAH
 70
     0
  9
$DIMBLK1
  1

  9
$DIMBLK2
  1

  9
$DIMSTYLE
  2
ISO-25
  9
$DIMCLRD
 70
     0
  9
$DIMCLRE
 70
     0
  9
$DIMCLRT
 70
     0
  9
$DIMTFAC
 40
1.0
  9
$DIMGAP
 40
1.524
  9
$DIMJUST
 70
     0
  9
$DIMSD1
 70
     0
  9
$DIMSD2
 70
     0
  9
$DIMTOLJ
 70
     0
  9
$DIMTZIN
 70
     0
  9
$DIMALTZ
 70
     0
  9
$DIMALTTZ
 70
     0
  9
$DIMUPT
 70
     0
  9
$DIMDEC
 70
     2
  9
$DIMTDEC
 70
     2
  9
$DIMALTU
 70
     2
  9
$DIMALTTD
 70
     3
  9
$DIMTXSTY
  7
Standard
  9
$DIMAUNIT
 70
     0
  9
$DIMADEC
 70
     2
  9
$DIMALTRND
 40
0.0
  9
$DIMAZIN
 70
     0
  9
$DIMDSEP
 70
    44
  9
$DIMATFIT
 70
     3
  9
$DIMFRAC
 70
     0
  9
$DIMLDRBLK
  1

  9
$DIMLUNIT
 70
     2
  9
$DIMLWD
 70
    -2
  9
$DIMLWE
 70
    -2
  9
$DIMTMOVE
 70
     0
  9
$LUNITS
 70
     2
  9
$LUPREC
 70
     2
  9
$SKETCHINC
 40
1.0
  9
$FILLETRAD
 40
10.0
  9
$AUNITS
 70
     0
  9
$AUPREC
 70
     2
  9
$MENU
  1
.
  9
$ELEVATION
 40
0.0
  9
$PELEVATION
 40
0.0
  9
$THICKNESS
 40
0.0
  9
$LIMCHECK
 70
     0
  9
$CHAMFERA
 40
0.0
  9
$CHAMFERB
 40
0.0
  9
$CHAMFERC
 40
1.0
  9
$CHAMFERD
 40
0.7853981633974483
  9
$SKPOLY
 70
     0
  9
$TDCREATE
 40
2458333.730994062
  9
$TDUCREATE
 40
2458333.355994062
  9
$TDUPDATE
 40
2458340.476028426
  9
$TDUUPDATE
 40
2458340.101028426
  9
$TDINDWG
 40
0.0036018519
  9
$TDUSRTIMER
 40
2458340.097426678
  9
$USRTIMER
 70
     1
  9
$ANGBASE
 50
0.0
  9
$ANGDIR
 70
     0
  9
$PDMODE
 70
     0
  9
$PDSIZE
 40
-1.0
  9
$PLINEWID
 40
0.0
  9
$SPLFRAME
 70
     0
  9
$SPLINETYPE
 70
     6
  9
$SPLINESEGS
 70
     8
  9
$HANDSEED
  5
173
  9
$SURFTAB1
 70
     6
  9
$SURFTAB2
 70
     6
  9
$SURFTYPE
 70
     6
  9
$SURFU
 70
     6
  9
$SURFV
 70
     6
  9
$UCSBASE
  2

  9
$UCSNAME
  2

  9
$UCSORG
 10
0.0
 20
0.0
 30
0.0
  9
$UCSXDIR
 10
1.0
 20
0.0
 30
0.0
  9
$UCSYDIR
 10
0.0
 20
1.0
 30
0.0
  9
$UCSORTHOREF
  2

  9
$UCSORTHOVIEW
 70
     0
  9
$UCSORGTOP
 10
0.0
 20
0.0
 30
0.0
  9
$UCSORGBOTTOM
 10
0.0
 20
0.0
 30
0.0
  9
$UCSORGLEFT
 10
0.0
 20
0.0
 30
0.0
  9
$UCSORGRIGHT
 10
0.0
 20
0.0
 30
0.0
  9
$UCSORGFRONT
 10
0.0
 20
0.0
 30
0.0
  9
$UCSORGBACK
 10
0.0
 20
0.0
 30
0.0
  9
$PUCSBASE
  2

  9
$PUCSNAME
  2

  9
$PUCSORG
 10
0.0
 20
0.0
 30
0.0
  9
$PUCSXDIR
 10
1.0
 20
0.0
 30
0.0
  9
$PUCSYDIR
 10
0.0
 20
1.0
 30
0.0
  9
$PUCSORTHOREF
  2

  9
$PUCSORTHOVIEW
 70
     0
  9
$PUCSORGTOP
 10
0.0
 20
0.0
 30
0.0
  9
$PUCSORGBOTTOM
 10
0.0
 20
0.0
 30
0.0
  9
$PUCSORGLEFT
 10
0.0
 20
0.0
 30
0.0
  9
$PUCSORGRIGHT
 10
0.0
 20
0.0
 30
0.0
  9
$PUCSORGFRONT
 10
0.0
 20
0.0
 30
0.0
  9
$PUCSORGBACK
 10
0.0
 20
0.0
 30
0.0
  9
$USERI1
 70
     0
  9
$USERI2
 70
     0
  9
$USERI3
 70
     0
  9
$USERI4
 70
     0
  9
$USERI5
 70
     0
  9
$USERR1
 40
0.0
  9
$USERR2
 40
0.0
  9
$USERR3
 40
0.0
  9
$USERR4
 40
0.0
  9
$USERR5
 40
0.0
  9
$WORLDVIEW
 70
     1
  9
$SHADEDGE
 70
     3
  9
$SHADEDIF
 70
    70
  9
$TILEMODE
 70
     1
  9
$MAXACTVP
 70
    64
  9
$PINSBASE
 10
0.0
 20
0.0
 30
0.0
  9
$PLIMCHECK
 70
     0
  9
$PEXTMIN
 10
1.000000000000000E+20
 20
1.000000000000000E+20
 30
1.000000000000000E+20
  9
$PEXTMAX
 10
-1.000000000000000E+20
 20
-1.000000000000000E+20
 30
-1.000000000000000E+20
  9
$PLIMMIN
 10
0.0
 20
0.0
  9
$PLIMMAX
 10
0.0
 20
0.0
  9
$UNITMODE
 70
     0
  9
$VISRETAIN
 70
     1
  9
$PLINEGEN
 70
     0
  9
$PSLTSCALE
 70
     1
  9
$TREEDEPTH
 70
  3020
  9
$CMLSTYLE
  2
Standard
  9
$CMLJUST
 70
     0
  9
$CMLSCALE
 40
20.0
  9
$PROXYGRAPHICS
 70
     1
  9
$MEASUREMENT
 70
     1
  9
$CELWEIGHT
370
    -1
  9
$ENDCAPS
280
     0
  9
$JOINSTYLE
280
     0
  9
$LWDISPLAY
290
     1
  9
$INSUNITS
 70
     4
  9
$HYPERLINKBASE
  1

  9
$STYLESHEET
  1

  9
$XEDIT
290
     1
  9
$CEPSNTYPE
380
     0
  9
$PSTYLEMODE
290
     1
  9
$FINGERPRINTGUID
  2
{1ADF8E6A-2C09-4920-B628-739558F8B751}
  9
$VERSIONGUID
  2
{FAEB1C32-E019-11D5-929B-00C0DF256EC4}
  9
$EXTNAMES
290
     1
  9
$PSVPSCALE
 40
0.0
  9
$OLESTARTUP
290
     0
  0
ENDSEC
  0
SECTION
  2
CLASSES
  0
CLASS
  1
ACDBDICTIONARYWDFLT
  2
AcDbDictionaryWithDefault
  3
ObjectDBX Classes
 90
        0
280
     0
281
     0
  0
CLASS
  1
VISUALSTYLE
  2
AcDbVisualStyle
  3
ObjectDBX Classes
 90
     4095
280
     0
281
     0
  0
CLASS
  1
MATERIAL
  2
AcDbMaterial
  3
ObjectDBX Classes
 90
     1153
280
     0
281
     0
  0
CLASS
  1
SCALE
  2
AcDbScale
  3
ObjectDBX Classes
 90
     1153
280
     0
281
     0
  0
CLASS
  1
SUN
  2
AcDbSun
  3
SCENEOE
 90
     1153
280
     0
281
     0
  0
CLASS
  1
ACDBPLACEHOLDER
  2
AcDbPlaceHolder
  3
ObjectDBX Classes
 90
        0
280
     0
281
     0
  0
CLASS
  1
LAYOUT
  2
AcDbLayout
  3
ObjectDBX Classes
 90
        0
280
     0
281
     0
  0
CLASS
  1
TABLESTYLE
  2
AcDbTableStyle
  3
ObjectDBX Classes
 90
     4095
280
     0
281
     0
  0
CLASS
  1
MLEADERSTYLE
  2
AcDbMLeaderStyle
  3
ACDB_MLEADERSTYLE_CLASS
 90
     4095
280
     0
281
     0
  0
CLASS
  1
RASTERVARIABLES
  2
AcDbRasterVariables
  3
ISM
 90
        0
280
     0
281
     0
  0
CLASS
  1
DIMASSOC
  2
AcDbDimAssoc
  3
"AcDbDimAssoc|Product Desc:     AcDim ARX App For Dimension|Company:          Autodesk, Inc.|WEB Address:      www.autodesk.com"
 90
        0
280
     0
281
     0
  0
ENDSEC
  0
SECTION
  2
TABLES
  0
TABLE
  2
VPORT
  5
8
330
0
100
AcDbSymbolTable
 70
     1
  0
VPORT
  5
29
330
8
100
AcDbSymbolTableRecord
100
AcDbViewportTableRecord
  2
*Active
 70
     0
 10
0.0
 20
0.0
 11
1.0
 21
1.0
 12
-27.07256522170893
 22
-3.864142399919277
 13
0.0
 23
0.0
 14
10.0
 24
10.0
 15
10.0
 25
10.0
 16
0.0
 26
0.0
 36
1.0
 17
0.0
 27
0.0
 37
0.0
 40
177.4794917295677
 41
1.444267515923567
 42
50.0
 43
0.0
 44
0.0
 50
0.0
 51
0.0
 71
    16
 72
  2000
 73
     1
 74
     3
 75
     0
 76
     0
 77
     0
 78
     0
281
     0
 65
     1
110
0.0
120
0.0
130
0.0
111
1.0
121
0.0
131
0.0
112
0.0
122
1.0
132
0.0
 79
     0
146
0.0
  0
ENDTAB
  0
TABLE
  2
LTYPE
  5
5
330
0
100
AcDbSymbolTable
 70
     6
  0
LTYPE
  5
14
330
5
100
AcDbSymbolTableRecord
100
AcDbLinetypeTableRecord
  2
ByBlock
 70
     0
  3

 72
    65
 73
     0
 40
0.0
  0
LTYPE
  5
15
330
5
100
AcDbSymbolTableRecord
100
AcDbLinetypeTableRecord
  2
ByLayer
 70
     0
  3

 72
    65
 73
     0
 40
0.0
  0
LTYPE
  5
16
330
5
100
AcDbSymbolTableRecord
100
AcDbLinetypeTableRecord
  2
Continuous
 70
     0
  3
Solid line
 72
    65
 73
     0
 40
0.0
  0
LTYPE
  5
6A
330
5
100
AcDbSymbolTableRecord
100
AcDbLinetypeTableRecord
  2
HIDDEN
 70
     0
  3
Hidden __ __ __ __ __ __ __ __ __ __ __ __ __ __
 72
    65
 73
     2
 40
1.905
 49
1.27
 74
     0
 49
-0.635
 74
     0
  0
LTYPE
  5
6B
330
5
100
AcDbSymbolTableRecord
100
AcDbLinetypeTableRecord
  2
PHANTOM
 70
     0
  3
Phantom ______  __  __  ______  __  __  ______
 72
    65
 73
     6
 40
12.7
 49
6.35
 74
     0
 49
-1.27
 74
     0
 49
1.27
 74
     0
 49
-1.27
 74
     0
 49
1.27
 74
     0
 49
-1.27
 74
     0
  0
LTYPE
  5
6C
330
5
100
AcDbSymbolTableRecord
100
AcDbLinetypeTableRecord
  2
CENTER
 70
     0
  3
Center ____ _ ____ _ ____ _ ____ _ ____ _ ____
 72
    65
 73
     4
 40
10.16
 49
6.35
 74
     0
 49
-1.27
 74
     0
 49
1.27
 74
     0
 49
-1.27
 74
     0
  0
LTYPE
  5
6D
330
5
100
AcDbSymbolTableRecord
100
AcDbLinetypeTableRecord
  2
CENTERX2
 70
     0
  3
Center (2x) ________  __  ________  __  _____
 72
    65
 73
     4
 40
20.32
 49
12.7
 74
     0
 49
-2.54
 74
     0
 49
2.54
 74
     0
 49
-2.54
 74
     0
  0
LTYPE
  5
6E
330
5
100
AcDbSymbolTableRecord
100
AcDbLinetypeTableRecord
  2
DOT2
 70
     0
  3
Dot (.5x) ........................................
 72
    65
 73
     2
 40
0.635
 49
0.0
 74
     0
 49
-0.635
 74
     0
  0
ENDTAB
  0
TABLE
  2
LAYER
  5
2
330
0
100
AcDbSymbolTable
 70
    17
  0
LAYER
  5
10
330
2
100
AcDbSymbolTableRecord
100
AcDbLayerTableRecord
  2
0
 70
     0
 62
     7
  6
Continuous
370
    -3
390
F
  0
LAYER
  5
6F
330
2
100
AcDbSymbolTableRecord
100
AcDbLayerTableRecord
  2
FORMAT
 70
     0
 62
     2
  6
Continuous
370
    -3
390
F
  0
LAYER
  5
70
330
2
100
AcDbSymbolTableRecord
100
AcDbLayerTableRecord
  2
외형선
 70
     0
 62
   100
  6
Continuous
370
    30
390
F
  0
LAYER
  5
71
330
2
100
AcDbSymbolTableRecord
100
AcDbLayerTableRecord
  2
숨은선
 70
     0
 62
     2
  6
HIDDEN
370
    15
390
F
  0
LAYER
  5
72
330
2
100
AcDbSymbolTableRecord
100
AcDbLayerTableRecord
  2
중심선
 70
     0
 62
     1
  6
CENTERX2
370
    -3
390
F
  0
LAYER
  5
73
330
2
100
AcDbSymbolTableRecord
100
AcDbLayerTableRecord
  2
파단선
 70
     0
 62
     4
  6
Continuous
370
    -3
390
F
  0
LAYER
  5
74
330
2
100
AcDbSymbolTableRecord
100
AcDbLayerTableRecord
  2
해칭선
 70
     0
 62
     4
  6
Continuous
370
    -3
390
F
  0
LAYER
  5
75
330
2
100
AcDbSymbolTableRecord
100
AcDbLayerTableRecord
  2
가는실선
 70
     0
 62
     4
  6
Continuous
370
    -3
390
F
  0
LAYER
  5
76
330
2
100
AcDbSymbolTableRecord
100
AcDbLayerTableRecord
  2
치수_보조선
 70
     0
 62
     4
  6
Continuous
370
    -3
390
F
  0
LAYER
  5
77
330
2
100
AcDbSymbolTableRecord
100
AcDbLayerTableRecord
  2
치수문자_일반주서
 70
     0
 62
     7
  6
Continuous
370
    15
390
F
  0
LAYER
  5
78
330
2
100
AcDbSymbolTableRecord
100
AcDbLayerTableRecord
  2
개별주서
 70
     0
 62
   100
  6
Continuous
370
    30
390
F
  0
LAYER
  5
79
330
2
100
AcDbSymbolTableRecord
100
AcDbLayerTableRecord
  2
중간선
 70
     0
 62
     2
  6
Continuous
370
    15
390
F
  0
LAYER
  5
7A
330
2
100
AcDbSymbolTableRecord
100
AcDbLayerTableRecord
  2
윤곽선
 70
     0
 62
     3
  6
Continuous
370
    40
390
F
  0
LAYER
  5
7B
330
2
100
AcDbSymbolTableRecord
100
AcDbLayerTableRecord
  2
중심마크
 70
     0
 62
   100
  6
Continuous
370
    30
390
F
  0
LAYER
  5
7C
330
2
100
AcDbSymbolTableRecord
100
AcDbLayerTableRecord
  2
가상선
 70
     0
 62
     4
  6
PHANTOM
370
    -3
390
F
  0
LAYER
  5
7D
330
2
100
AcDbSymbolTableRecord
100
AcDbLayerTableRecord
  2
특수지정선
 70
     0
 62
     5
  6
CENTERX2
370
    60
390
F
  0
LAYER
  5
131
330
2
100
AcDbSymbolTableRecord
100
AcDbLayerTableRecord
  2
Defpoints
 70
     0
 62
     7
  6
Continuous
290
     0
370
    -3
390
F
  0
ENDTAB
  0
TABLE
  2
STYLE
  5
3
330
0
100
AcDbSymbolTable
 70
     2
  0
STYLE
  5
11
330
3
100
AcDbSymbolTableRecord
100
AcDbTextStyleTableRecord
  2
Standard
 70
     0
 40
0.0
 41
1.0
 50
0.0
 71
     0
 42
3.5
  3
txt
  4

  0
STYLE
  5
93
330
3
100
AcDbSymbolTableRecord
100
AcDbTextStyleTableRecord
  2
SLDTEXTSTYLE0
 70
     0
 40
0.0
 41
0.75
 50
0.0
 71
     0
 42
3.5
  3
TXT
  4

  0
ENDTAB
  0
TABLE
  2
VIEW
  5
6
330
0
100
AcDbSymbolTable
 70
     0
  0
ENDTAB
  0
TABLE
  2
UCS
  5
7
330
0
100
AcDbSymbolTable
 70
     0
  0
ENDTAB
  0
TABLE
  2
APPID
  5
9
330
0
100
AcDbSymbolTable
 70
     2
  0
APPID
  5
12
330
9
100
AcDbSymbolTableRecord
100
AcDbRegAppTableRecord
  2
ACAD
 70
     0
  0
APPID
  5
15E
330
9
100
AcDbSymbolTableRecord
100
AcDbRegAppTableRecord
  2
PE_DIMMEASUREMENT
 70
     0
  0
ENDTAB
  0
TABLE
  2
DIMSTYLE
  5
A
330
0
100
AcDbSymbolTable
 70
     4
100
AcDbDimStyleTable
  0
DIMSTYLE
105
27
330
A
100
AcDbSymbolTableRecord
100
AcDbDimStyleTableRecord
  2
ISO-25
 70
     0
 41
2.5
 42
0.625
 43
3.75
 44
1.25
 73
     0
 74
     0
 77
     1
 78
     8
140
2.5
141
2.5
143
0.03937007874016
147
0.625
171
     3
172
     1
178
     0
271
     2
272
     2
274
     3
278
    44
283
     0
284
     8
340
11
  0
DIMSTYLE
105
C9
102
{ACAD_REACTORS
330
C8
330
DE
330
14C
330
132
330
15F
102
}
330
A
100
AcDbSymbolTableRecord
100
AcDbDimStyleTableRecord
  2
SLDDIMSTYLE0
 70
     0
 41
3.302
 44
0.0
 45
0.000000001
 73
     0
 74
     0
 77
     1
 78
    12
 79
     3
140
3.5
143
0.0393700787401575
147
0.875
148
0.000000001
170
     1
172
     1
173
     1
178
     0
271
     2
272
     2
276
     2
284
    12
289
     0
340
93
  0
DIMSTYLE
105
DF
330
A
100
AcDbSymbolTableRecord
100
AcDbDimStyleTableRecord
  2
SLDDIMSTYLE1
 70
     0
 41
3.302
 44
0.0
 45
0.000000001
 73
     0
 74
     0
 77
     1
 78
     4
 79
     1
140
3.5
143
0.0393700787401575
147
0.875
148
0.000000001
170
     1
173
     1
178
     0
271
     2
272
     2
276
     2
284
    12
340
93
  0
DIMSTYLE
105
F3
330
A
100
AcDbSymbolTableRecord
100
AcDbDimStyleTableRecord
  2
SLDDIMSTYLE2
 70
     0
 41
3.302
 44
0.0
 45
0.000000001
 73
     0
 74
     0
 77
     1
 78
     8
 79
     2
140
3.5
143
0.0393700787401575
147
0.875
148
0.000000001
170
     1
172
     1
173
     1
178
     0
271
     2
272
     2
276
     2
284
    12
289
     0
340
93
341
F4
343
F4
344
F4
  0
ENDTAB
  0
TABLE
  2
BLOCK_RECORD
  5
1
330
0
100
AcDbSymbolTable
 70
    10
  0
BLOCK_RECORD
  5
1F
330
1
100
AcDbSymbolTableRecord
100
AcDbBlockTableRecord
  2
*Model_Space
340
22
  0
BLOCK_RECORD
  5
1B
330
1
100
AcDbSymbolTableRecord
100
AcDbBlockTableRecord
  2
*Paper_Space
340
1E
  0
BLOCK_RECORD
  5
23
330
1
100
AcDbSymbolTableRecord
100
AcDbBlockTableRecord
  2
*Paper_Space0
340
26
  0
BLOCK_RECORD
  5
7E
330
1
100
AcDbSymbolTableRecord
100
AcDbBlockTableRecord
  2
블럭10
340
0
102
{BLKREFS
331
C0
102
}
  0
BLOCK_RECORD
  5
CA
330
1
100
AcDbSymbolTableRecord
100
AcDbBlockTableRecord
  2
_D
340
0
  0
BLOCK_RECORD
  5
E0
330
1
100
AcDbSymbolTableRecord
100
AcDbBlockTableRecord
  2
_D_1
340
0
  0
BLOCK_RECORD
  5
F4
330
1
100
AcDbSymbolTableRecord
100
AcDbBlockTableRecord
  2
_NONE
340
0
  0
BLOCK_RECORD
  5
F7
330
1
100
AcDbSymbolTableRecord
100
AcDbBlockTableRecord
  2
_D_2
340
0
  0
BLOCK_RECORD
  5
103
330
1
100
AcDbSymbolTableRecord
100
AcDbBlockTableRecord
  2
SW_DOWELSYMBOL_0
340
0
102
{BLKREFS
331
109
102
}
  0
BLOCK_RECORD
  5
135
330
1
100
AcDbSymbolTableRecord
100
AcDbBlockTableRecord
  2
*D7
340
0
  0
BLOCK_RECORD
  5
14F
330
1
100
AcDbSymbolTableRecord
100
AcDbBlockTableRecord
  2
*D8
340
0
  0
BLOCK_RECORD
  5
162
330
1
100
AcDbSymbolTableRecord
100
AcDbBlockTableRecord
  2
*D9
340
0
  0
ENDTAB
  0
ENDSEC
  0
SECTION
  2
BLOCKS
  0
BLOCK
  5
20
330
1F
100
AcDbEntity
  8
0
100
AcDbBlockBegin
  2
*Model_Space
 70
     0
 10
0.0
 20
0.0
 30
0.0
  3
*Model_Space
  1
*Model_Space
  0
ENDBLK
  5
21
330
1F
100
AcDbEntity
  8
0
100
AcDbBlockEnd
  0
BLOCK
  5
1C
330
1B
100
AcDbEntity
 67
     1
  8
0
100
AcDbBlockBegin
  2
*Paper_Space
 70
     0
 10
0.0
 20
0.0
 30
0.0
  3
*Paper_Space
  1
*Paper_Space
  0
ENDBLK
  5
1D
330
1B
100
AcDbEntity
 67
     1
  8
0
100
AcDbBlockEnd
  0
BLOCK
  5
24
330
23
100
AcDbEntity
  8
0
100
AcDbBlockBegin
  2
*Paper_Space0
 70
     0
 10
0.0
 20
0.0
 30
0.0
  3
*Paper_Space0
  1
*Paper_Space0
  0
ENDBLK
  5
25
330
23
100
AcDbEntity
  8
0
100
AcDbBlockEnd
  0
BLOCK
  5
7F
330
7E
100
AcDbEntity
  8
0
100
AcDbBlockBegin
  2
블럭10
 70
     2
 10
0.0
 20
0.0
 30
0.0
  3
블럭10
  1
블럭10
  0
ELLIPSE
  5
81
330
7E
100
AcDbEntity
  8
중심선
100
AcDbEllipse
 10
20.54032771741204
 20
12.0471743016438
 30
0.0
 11
6.600054785286829
 21
-1.261213355974178E-13
 31
0.0
210
0.0
220
0.0
230
1.0
 40
0.636358354079598
 41
0.9219305317359503
 42
6.513795318482858
  0
ELLIPSE
  5
82
330
7E
100
AcDbEntity
  8
중심선
100
AcDbEllipse
 10
20.54032771746488
 20
12.04717430159265
 30
0.0
 11
3.960054785062283
 21
1.540847449632565E-10
 31
0.0
210
0.0
220
0.0
230
1.0
 40
0.3939339440162632
 41
1.131841032648279
 42
5.62031148352944
  0
LINE
  5
83
330
7E
100
AcDbEntity
  8
중심선
100
AcDbLine
 10
2.268634060543552
 20
16.24717430164393
 30
0.0
 11
5.714909304380834
 21
16.24717430164393
 31
0.0
  0
LINE
  5
84
330
7E
100
AcDbEntity
  8
중심선
100
AcDbLine
 10
5.245725140726316
 20
7.84717430164391
 30
0.0
 11
8.692000384563599
 21
7.84717430164391
 31
0.0
  0
LINE
  5
85
330
7E
100
AcDbEntity
  8
중심선
100
AcDbLine
 10
15.74043728645272
 20
16.24717430164393
 30
0.0
 11
8.692000384563599
 21
7.84717430164391
 31
0.0
  0
LINE
  5
86
330
7E
100
AcDbEntity
  8
중심선
100
AcDbLine
 10
0.1404042013395286
 20
13.71084872107135
 30
0.0
 11
3.58671253028996
 21
13.71088815037384
 31
0.0
  0
LINE
  5
87
330
7E
100
AcDbEntity
  8
중심선
100
AcDbLine
 10
2.750260043222114
 20
10.84717430164391
 30
0.0
 11
6.196535287059397
 21
10.84717430164391
 31
0.0
  0
LINE
  5
88
330
7E
100
AcDbEntity
  8
중심선
100
AcDbLine
 10
12.29416204261559
 20
16.24717430164393
 30
0.0
 11
5.245725140726316
 21
7.84717430164391
 31
0.0
  0
LINE
  5
89
330
7E
100
AcDbEntity
  8
중심선
100
AcDbLine
 10
10.72767329541681
 20
16.24717430164393
 30
0.0
 11
6.196535287059397
 21
10.84717430164391
 31
0.0
  0
LINE
  5
8A
330
7E
100
AcDbEntity
  8
중심선
100
AcDbLine
 10
7.28139805157953
 20
16.24717430164393
 30
0.0
 11
2.750260043222114
 21
10.84717430164391
 31
0.0
  0
LINE
  5
8B
330
7E
100
AcDbEntity
  8
중심선
100
AcDbLine
 10
5.714909304380834
 20
16.24717430164393
 30
0.0
 11
3.58671253028996
 21
13.71088815037384
 31
0.0
  0
LINE
  5
8C
330
7E
100
AcDbEntity
  8
중심선
100
AcDbLine
 10
2.268634060543552
 20
16.24717430164393
 30
0.0
 11
0.1404042013395286
 21
13.71084872107135
 31
0.0
  0
LINE
  5
8D
330
7E
100
AcDbEntity
  8
중심선
100
AcDbLine
 10
7.28139805157953
 20
16.24717430164393
 30
0.0
 11
10.72767329541681
 21
16.24717430164393
 31
0.0
  0
LINE
  5
8E
330
7E
100
AcDbEntity
  8
중심선
100
AcDbLine
 10
12.29416204261559
 20
16.24717430164393
 30
0.0
 11
15.74043728645272
 21
16.24717430164393
 31
0.0
  0
LINE
  5
8F
330
7E
100
AcDbEntity
  8
중심선
100
AcDbLine
 10
19.22036997980202
 20
11.08717430171403
 30
0.0
 11
23.66174974927406
 21
11.08717430171406
 31
0.0
  0
LINE
  5
90
330
7E
100
AcDbEntity
  8
중심선
100
AcDbLine
 10
19.22039502424796
 20
13.00717430171391
 30
0.0
 11
19.22036997980202
 21
11.08717430171403
 31
0.0
  0
LINE
  5
91
330
7E
100
AcDbEntity
  8
중심선
100
AcDbLine
 10
19.22039502424796
 20
13.00717430171391
 30
0.0
 11
26.96566020931264
 21
13.00717430171391
 31
0.0
  0
LINE
  5
92
330
7E
100
AcDbEntity
  8
중심선
100
AcDbLine
 10
22.22332737316547
 20
13.45928029700563
 30
0.0
 11
24.52862924686651
 21
15.39360700705356
 31
0.0
  0
ATTDEF
  5
94
330
7E
100
AcDbEntity
  8
FORMAT
 62
     2
100
AcDbText
 10
-9.18129528874128
 20
2.075366912832191
 30
0.0
 40
4.233333333333333
  1
E5077798 [ 3 FLUTE ]
 41
0.75
  7
SLDTEXTSTYLE0
 11
-9.18129528874128
 21
-0.0412997538344756
 31
0.0
100
AcDbAttributeDefinition
  3

  2
AUTOATTR0
 70
     0
 74
     1
  0
ENDBLK
  5
80
330
7E
100
AcDbEntity
  8
0
100
AcDbBlockEnd
  0
BLOCK
  5
CB
330
CA
100
AcDbEntity
  8
0
100
AcDbBlockBegin
  2
_D
 70
     0
 10
0.0
 20
0.0
 30
0.0
  3
_D
  1
_D
  0
LINE
  5
CD
330
CA
100
AcDbEntity
  8
치수문자_일반주서
 62
     0
370
    -2
100
AcDbLine
 10
35.2749081826537
 20
1.64420843527085
 30
0.0
 11
35.2749081826537
 21
44.21247916292938
 31
0.0
  0
LINE
  5
CE
330
CA
100
AcDbEntity
  8
치수문자_일반주서
 62
     0
370
    -2
100
AcDbLine
 10
9.874908182653712
 20
4.824999999999996
 30
0.0
 11
9.874908182653712
 21
44.21247916292938
 31
0.0
  0
LINE
  5
CF
330
CA
100
AcDbEntity
  8
치수문자_일반주서
 62
     0
370
    -2
100
AcDbLine
 10
31.9729081826537
 20
44.21247916292938
 30
0.0
 11
13.17690818265371
 21
44.21247916292938
 31
0.0
  0
SOLID
  5
D0
330
CA
100
AcDbEntity
  8
치수문자_일반주서
 62
     0
100
AcDbTrace
 10
31.9729081826537
 20
43.66214582959604
 30
0.0
 11
31.9729081826537
 21
44.76281249626271
 31
0.0
 12
35.2749081826537
 22
44.21247916292938
 32
0.0
 13
35.2749081826537
 23
44.21247916292938
 33
0.0
  0
SOLID
  5
D1
330
CA
100
AcDbEntity
  8
치수문자_일반주서
 62
     0
100
AcDbTrace
 10
13.17690818265371
 20
44.76281249626271
 30
0.0
 11
13.17690818265371
 21
43.66214582959604
 31
0.0
 12
9.874908182653712
 22
44.21247916292938
 32
0.0
 13
9.874908182653712
 23
44.21247916292938
 33
0.0
  0
MTEXT
  5
D2
330
CA
100
AcDbEntity
  8
치수문자_일반주서
 62
     0
100
AcDbMText
 10
22.5749081826537
 20
48.58747916292938
 30
0.0
 40
3.5
 41
0.0
 71
     2
 72
     1
  1
\A1;25.4 [1]
  7
SLDTEXTSTYLE0
 73
     1
 44
1.0
  0
POINT
  5
D3
330
CA
100
AcDbEntity
  8
Defpoints
 62
     0
100
AcDbPoint
 10
35.2749081826537
 20
1.58170843527085
 30
0.0
  0
POINT
  5
D4
330
CA
100
AcDbEntity
  8
Defpoints
 62
     0
100
AcDbPoint
 10
9.874908182653712
 20
4.762499999999996
 30
0.0
  0
POINT
  5
D5
330
CA
100
AcDbEntity
  8
Defpoints
 62
     0
100
AcDbPoint
 10
9.874908182653712
 20
44.21247916292938
 30
0.0
  0
ENDBLK
  5
CC
330
CA
100
AcDbEntity
  8
0
100
AcDbBlockEnd
  0
BLOCK
  5
E1
330
E0
100
AcDbEntity
  8
0
100
AcDbBlockBegin
  2
_D_1
 70
     0
 10
0.0
 20
0.0
 30
0.0
  3
_D_1
  1
_D_1
  0
LINE
  5
E3
330
E0
100
AcDbEntity
  8
치수문자_일반주서
 62
     0
370
    -2
100
AcDbLine
 10
35.2749081826537
 20
1.654835151814097
 30
0.0
 11
35.2749081826537
 21
58.90823325518659
 31
0.0
  0
LINE
  5
E4
330
E0
100
AcDbEntity
  8
치수문자_일반주서
 62
     0
370
    -2
100
AcDbLine
 10
-53.6250918173463
 20
2.432335151814087
 30
0.0
 11
-53.62509181734629
 21
58.90823325518659
 31
0.0
  0
LINE
  5
E5
330
E0
100
AcDbEntity
  8
치수문자_일반주서
 62
     0
370
    -2
100
AcDbLine
 10
31.9729081826537
 20
58.90823325518659
 30
0.0
 11
-50.3230918173463
 21
58.90823325518659
 31
0.0
  0
SOLID
  5
E6
330
E0
100
AcDbEntity
  8
치수문자_일반주서
 62
     0
100
AcDbTrace
 10
31.9729081826537
 20
58.35789992185325
 30
0.0
 11
31.9729081826537
 21
59.45856658851992
 31
0.0
 12
35.2749081826537
 22
58.90823325518659
 32
0.0
 13
35.2749081826537
 23
58.90823325518659
 33
0.0
  0
SOLID
  5
E7
330
E0
100
AcDbEntity
  8
치수문자_일반주서
 62
     0
100
AcDbTrace
 10
-50.3230918173463
 20
59.45856658851992
 30
0.0
 11
-50.3230918173463
 21
58.35789992185325
 31
0.0
 12
-53.62509181734629
 22
58.90823325518659
 32
0.0
 13
-53.62509181734629
 23
58.90823325518659
 33
0.0
  0
MTEXT
  5
E8
330
E0
100
AcDbEntity
  8
치수문자_일반주서
 62
     0
100
AcDbMText
 10
-12.62429849020569
 20
63.28323325518659
 30
0.0
 40
3.5
 41
0.0
 71
     2
 72
     1
  1
\A1;88.9 [3 1/2]
  7
SLDTEXTSTYLE0
 73
     1
 44
1.0
  0
POINT
  5
E9
330
E0
100
AcDbEntity
  8
Defpoints
 62
     0
100
AcDbPoint
 10
35.2749081826537
 20
1.592335151814097
 30
0.0
  0
POINT
  5
EA
330
E0
100
AcDbEntity
  8
Defpoints
 62
     0
100
AcDbPoint
 10
-53.6250918173463
 20
2.369835151814087
 30
0.0
  0
POINT
  5
EB
330
E0
100
AcDbEntity
  8
Defpoints
 62
     0
100
AcDbPoint
 10
-53.6250918173463
 20
58.90823325518659
 30
0.0
  0
ENDBLK
  5
E2
330
E0
100
AcDbEntity
  8
0
100
AcDbBlockEnd
  0
BLOCK
  5
F5
330
F4
100
AcDbEntity
  8
0
100
AcDbBlockBegin
  2
_NONE
 70
     0
 10
0.0
 20
0.0
 30
0.0
  3
_NONE
  1
_NONE
  0
ENDBLK
  5
F6
330
F4
100
AcDbEntity
  8
0
100
AcDbBlockEnd
  0
BLOCK
  5
F8
330
F7
100
AcDbEntity
  8
0
100
AcDbBlockBegin
  2
_D_2
 70
     0
 10
0.0
 20
0.0
 30
0.0
  3
_D_2
  1
_D_2
  0
LINE
  5
FA
330
F7
100
AcDbEntity
  8
치수문자_일반주서
100
AcDbLine
 10
-77.41797353338907
 20
-8.584531279254564
 30
0.0
 11
-77.41797353338907
 21
-9.295468764819065
 31
0.0
  0
LINE
  5
FB
330
F7
100
AcDbEntity
  8
치수문자_일반주서
100
AcDbLine
 10
-77.41797353338907
 20
-9.295468764819065
 30
0.0
 11
-71.86172354232977
 21
-9.295468764819026
 31
0.0
  0
LINE
  5
FC
330
F7
100
AcDbEntity
  8
치수문자_일반주서
100
AcDbLine
 10
-71.86172354232977
 20
-9.295468764819026
 30
0.0
 11
-71.86172354232977
 21
-8.584531279254525
 31
0.0
  0
LINE
  5
FD
330
F7
100
AcDbEntity
  8
치수문자_일반주서
100
AcDbLine
 10
-77.41797353338916
 20
2.244201582882693
 30
0.0
 11
-77.41797353338916
 21
2.955139068447193
 31
0.0
  0
LINE
  5
FE
330
F7
100
AcDbEntity
  8
치수문자_일반주서
100
AcDbLine
 10
-77.41797353338916
 20
2.955139068447193
 30
0.0
 11
-71.86172354232986
 21
2.955139068447232
 31
0.0
  0
LINE
  5
FF
330
F7
100
AcDbEntity
  8
치수문자_일반주서
100
AcDbLine
 10
-71.86172354232986
 20
2.955139068447232
 30
0.0
 11
-71.86172354232986
 21
2.244201582882732
 31
0.0
  0
MTEXT
  5
100
330
F7
100
AcDbEntity
  8
치수문자_일반주서
100
AcDbMText
 10
-76.37346045690869
 20
-7.695859378643187
 30
0.0
 40
3.5
 41
0.0
 71
     1
 72
     1
  1
0.00
  7
SLDTEXTSTYLE0
 11
-7.044195017643634E-15
 21
1.0
 31
0.0
 73
     1
 44
1.0
  0
MTEXT
  5
101
330
F7
100
AcDbEntity
  8
치수문자_일반주서
100
AcDbMText
 10
-71.13682890654822
 20
-7.102439260549661
 30
0.0
 40
3.5
 41
0.0
 71
     1
 72
     1
  1
%%c
  7
SLDTEXTSTYLE0
 11
-7.044195017643634E-15
 21
1.0
 31
0.0
 73
     1
 44
1.0
  0
MTEXT
  5
102
330
F7
100
AcDbEntity
  8
치수문자_일반주서
100
AcDbMText
 10
-71.13682890654825
 20
-1.82400186217558
 30
0.0
 40
3.5
 41
0.0
 71
     1
 72
     1
  1
0
  7
SLDTEXTSTYLE0
 11
-7.044195017643634E-15
 21
1.0
 31
0.0
 73
     1
 44
1.0
  0
ENDBLK
  5
F9
330
F7
100
AcDbEntity
  8
0
100
AcDbBlockEnd
  0
BLOCK
  5
104
330
103
100
AcDbEntity
  8
0
100
AcDbBlockBegin
  2
SW_DOWELSYMBOL_0
 70
     0
 10
0.0
 20
0.0
 30
0.0
  3
SW_DOWELSYMBOL_0
  1
SW_DOWELSYMBOL_0
  0
CIRCLE
  5
106
330
103
100
AcDbEntity
  8
외형선
 62
     0
100
AcDbCircle
 10
0.0
 20
0.0
 30
0.0
 40
3.000000000000004
  0
HATCH
  5
107
330
103
100
AcDbEntity
  8
0
  6
Continuous
 62
     0
370
    30
100
AcDbHatch
 10
0.0
 20
0.0
 30
0.0
210
0.0
220
0.0
230
1.0
  2
SOLID
 70
     1
 71
     0
 91
        1
 92
        0
 93
        3
 72
     2
 10
-0.0000000000000013
 20
-0.0000000000000039
 40
3.000000000000004
 50
0.0
 51
90.0
 73
     1
 72
     1
 10
-0.0000000000000013
 20
3.0
 11
-0.0000000000000013
 21
-0.000000000000004
 72
     1
 10
-0.0000000000000013
 20
-0.0000000000000039
 11
3.000000000000003
 21
-0.0000000000000039
 97
        0
 75
     0
 76
     1
 98
        1
 10
0.0
 20
0.0
  0
HATCH
  5
108
330
103
100
AcDbEntity
  8
0
  6
Continuous
 62
     0
370
    30
100
AcDbHatch
 10
0.0
 20
0.0
 30
0.0
210
0.0
220
0.0
230
1.0
  2
SOLID
 70
     1
 71
     0
 91
        1
 92
        0
 93
        3
 72
     2
 10
-0.0000000000000013
 20
-0.0000000000000039
 40
3.000000000000004
 50
180.0
 51
270.0000000000008
 73
     1
 72
     1
 10
-0.0000000000000013
 20
-3.000000000000008
 11
-0.0000000000000013
 21
-0.000000000000004
 72
     1
 10
-0.0000000000000013
 20
-0.0000000000000039
 11
-3.000000000000006
 21
-0.0000000000000039
 97
        0
 75
     0
 76
     1
 98
        1
 10
0.0
 20
0.0
  0
ENDBLK
  5
105
330
103
100
AcDbEntity
  8
0
100
AcDbBlockEnd
  0
BLOCK
  5
136
330
135
100
AcDbEntity
  8
0
100
AcDbBlockBegin
  2
*D7
 70
     1
 10
0.0
 20
0.0
 30
0.0
  3
*D7
  1
*D7
  0
LINE
  5
138
330
135
100
AcDbEntity
  8
치수문자_일반주서
 62
     0
370
    -2
100
AcDbLine
 10
36.21098444324146
 20
-1.582664848185903
 30
0.0
 11
47.54346662503497
 21
-1.582664848185904
 31
0.0
  0
LINE
  5
139
330
135
100
AcDbEntity
  8
치수문자_일반주서
 62
     0
370
    -2
100
AcDbLine
 10
36.21098444324146
 20
1.592335151814097
 30
0.0
 11
47.54346662503497
 21
1.592335151814096
 31
0.0
  0
LINE
  5
13A
330
135
100
AcDbEntity
  8
치수문자_일반주서
 62
     0
370
    -2
100
AcDbLine
 10
47.54346662503497
 20
4.894335151814095
 30
0.0
 11
47.54346662503497
 21
32.6963351518141
 31
0.0
  0
LINE
  5
13B
330
135
100
AcDbEntity
  8
치수문자_일반주서
 62
     0
370
    -2
100
AcDbLine
 10
47.54346662503497
 20
-1.582664848185904
 30
0.0
 11
47.54346662503497
 21
1.592335151814096
 31
0.0
  0
LINE
  5
13C
330
135
100
AcDbEntity
  8
치수문자_일반주서
 62
     0
370
    -2
100
AcDbLine
 10
47.54346662503497
 20
-4.884664848185904
 30
0.0
 11
47.54346662503497
 21
-8.186664848185902
 31
0.0
  0
SOLID
  5
13D
330
135
100
AcDbEntity
  8
치수문자_일반주서
 62
     0
100
AcDbTrace
 10
48.09379995836831
 20
-4.884664848185904
 30
0.0
 11
46.99313329170164
 21
-4.884664848185904
 31
0.0
 12
47.54346662503497
 22
-1.582664848185904
 32
0.0
 13
47.54346662503497
 23
-1.582664848185904
 33
0.0
  0
SOLID
  5
13E
330
135
100
AcDbEntity
  8
치수문자_일반주서
 62
     0
100
AcDbTrace
 10
46.99313329170164
 20
4.894335151814095
 30
0.0
 11
48.09379995836831
 21
4.894335151814095
 31
0.0
 12
47.54346662503497
 22
1.592335151814096
 32
0.0
 13
47.54346662503497
 23
1.592335151814096
 33
0.0
  0
MTEXT
  5
13F
330
135
100
AcDbEntity
  8
치수문자_일반주서
 62
     0
100
AcDbMText
 10
44.91846662503497
 20
20.4463351518141
 30
0.0
 40
3.5
 41
0.0
 71
     5
 72
     1
  1
\A1;{%%c3.18 [1/8]}
  7
SLDTEXTSTYLE0
 11
0.0
 21
1.0
 31
0.0
 73
     1
 44
1.0
  0
POINT
  5
140
330
135
100
AcDbEntity
  8
Defpoints
 62
     0
100
AcDbPoint
 10
36.14848444324146
 20
-1.582664848185903
 30
0.0
  0
POINT
  5
141
330
135
100
AcDbEntity
  8
Defpoints
 62
     0
100
AcDbPoint
 10
36.14848444324146
 20
1.592335151814097
 30
0.0
  0
POINT
  5
142
330
135
100
AcDbEntity
  8
Defpoints
 62
     0
100
AcDbPoint
 10
47.54346662503497
 20
1.592335151814096
 30
0.0
  0
ENDBLK
  5
137
330
135
100
AcDbEntity
  8
0
100
AcDbBlockEnd
  0
BLOCK
  5
150
330
14F
100
AcDbEntity
  8
0
100
AcDbBlockBegin
  2
*D8
 70
     1
 10
0.0
 20
0.0
 30
0.0
  3
*D8
  1
*D8
  0
LINE
  5
152
330
14F
100
AcDbEntity
  8
치수문자_일반주서
 62
     0
370
    -2
100
AcDbLine
 10
-52.6875918173463
 20
-4.762500000000003
 30
0.0
 11
-73.22732573005234
 21
-4.7625
 31
0.0
  0
LINE
  5
153
330
14F
100
AcDbEntity
  8
치수문자_일반주서
 62
     0
370
    -2
100
AcDbLine
 10
-52.68759181734631
 20
4.762499999999996
 30
0.0
 11
-73.22732573005234
 21
4.762499999999997
 31
0.0
  0
LINE
  5
154
330
14F
100
AcDbEntity
  8
치수문자_일반주서
 62
     0
370
    -2
100
AcDbLine
 10
-73.22732573005234
 20
8.064499999999995
 30
0.0
 11
-73.22732573005234
 21
37.61649999999999
 31
0.0
  0
LINE
  5
155
330
14F
100
AcDbEntity
  8
치수문자_일반주서
 62
     0
370
    -2
100
AcDbLine
 10
-73.22732573005234
 20
-4.7625
 30
0.0
 11
-73.22732573005234
 21
4.762499999999997
 31
0.0
  0
LINE
  5
156
330
14F
100
AcDbEntity
  8
치수문자_일반주서
 62
     0
370
    -2
100
AcDbLine
 10
-73.22732573005234
 20
-8.064499999999999
 30
0.0
 11
-73.22732573005234
 21
-11.3665
 31
0.0
  0
SOLID
  5
157
330
14F
100
AcDbEntity
  8
치수문자_일반주서
 62
     0
100
AcDbTrace
 10
-72.67699239671902
 20
-8.064499999999999
 30
0.0
 11
-73.77765906338567
 21
-8.064499999999999
 31
0.0
 12
-73.22732573005234
 22
-4.7625
 32
0.0
 13
-73.22732573005234
 23
-4.7625
 33
0.0
  0
SOLID
  5
158
330
14F
100
AcDbEntity
  8
치수문자_일반주서
 62
     0
100
AcDbTrace
 10
-73.77765906338567
 20
8.064499999999995
 30
0.0
 11
-72.67699239671902
 21
8.064499999999995
 31
0.0
 12
-73.22732573005234
 22
4.762499999999997
 32
0.0
 13
-73.22732573005234
 23
4.762499999999997
 33
0.0
  0
MTEXT
  5
159
330
14F
100
AcDbEntity
  8
치수문자_일반주서
 62
     0
100
AcDbMText
 10
-75.85232573005234
 20
24.49149999999999
 30
0.0
 40
3.5
 41
0.0
 71
     5
 72
     1
  1
\A1;{%%c9.53 [3/8]}
  7
SLDTEXTSTYLE0
 11
0.0
 21
1.0
 31
0.0
 73
     1
 44
1.0
  0
POINT
  5
15A
330
14F
100
AcDbEntity
  8
Defpoints
 62
     0
100
AcDbPoint
 10
-52.6250918173463
 20
-4.762500000000003
 30
0.0
  0
POINT
  5
15B
330
14F
100
AcDbEntity
  8
Defpoints
 62
     0
100
AcDbPoint
 10
-52.62509181734631
 20
4.762499999999996
 30
0.0
  0
POINT
  5
15C
330
14F
100
AcDbEntity
  8
Defpoints
 62
     0
100
AcDbPoint
 10
-73.22732573005234
 20
4.762499999999997
 30
0.0
  0
ENDBLK
  5
151
330
14F
100
AcDbEntity
  8
0
100
AcDbBlockEnd
  0
BLOCK
  5
163
330
162
100
AcDbEntity
  8
0
100
AcDbBlockBegin
  2
*D9
 70
     1
 10
0.0
 20
0.0
 30
0.0
  3
*D9
  1
*D9
  0
LINE
  5
165
330
162
100
AcDbEntity
  8
치수문자_일반주서
 62
     0
370
    -2
100
AcDbLine
 10
17.20567174091027
 20
10.42229401546701
 30
0.0
 11
18.87688508678097
 21
15.39919525545396
 31
0.0
  0
LINE
  5
166
330
162
100
AcDbEntity
  8
치수문자_일반주서
 62
     0
370
    -2
100
AcDbLine
 10
16.51654647913031
 20
3.89557235683908
 30
0.0
 11
15.74657435358323
 21
3.990113046181854
 31
0.0
  0
ARC
  5
167
330
162
100
AcDbEntity
  8
치수문자_일반주서
 62
     0
370
    -2
100
AcDbCircle
 10
48.24343728846922
 20
-0.000000000000004
 30
0.0
 40
32.7409087034871
100
AcDbArc
 50
161.4382601201225
 51
167.2191300600612
  0
ARC
  5
168
330
162
100
AcDbEntity
  8
치수문자_일반주서
 62
     0
370
    -2
100
AcDbCircle
 10
48.24343728846922
 20
-0.000000000000004
 30
0.0
 40
32.7409087034871
100
AcDbArc
 50
185.7808699399388
 51
191.5617398798775
  0
ARC
  5
169
330
162
100
AcDbEntity
  8
치수문자_일반주서
 62
     0
370
    -2
100
AcDbCircle
 10
48.24343728846922
 20
-0.000000000000004
 30
0.0
 40
32.7409087034871
100
AcDbArc
 50
173.0
 51
180.0
  0
SOLID
  5
16A
330
162
100
AcDbEntity
  8
치수문자_일반주서
 62
     0
100
AcDbTrace
 10
15.77158691576231
 20
7.337566578273227
 30
0.0
 11
16.85589549037686
 21
7.148510961777776
 31
0.0
 12
15.74657435358323
 22
3.990113046181854
 32
0.0
 13
15.74657435358323
 23
3.990113046181854
 33
0.0
  0
SOLID
  5
16B
330
162
100
AcDbEntity
  8
치수문자_일반주서
 62
     0
100
AcDbTrace
 10
16.21866913005515
 20
-3.270047935043201
 30
0.0
 11
15.11940274328044
 21
-3.325550385605092
 31
0.0
 12
15.50252858498212
 22
-0.000000000000004
 32
0.0
 13
15.50252858498212
 23
-0.000000000000004
 33
0.0
  0
MTEXT
  5
16C
330
162
100
AcDbEntity
  8
치수문자_일반주서
 62
     0
100
AcDbMText
 10
15.55282779385214
 20
13.74635130839584
 30
0.0
 40
3.5
 41
0.0
 71
     5
 72
     1
  1
\A1;7%%d
  7
SLDTEXTSTYLE0
 11
0.3183263515944192
 21
0.9479811885689432
 31
0.0
 73
     1
 44
1.0
  0
POINT
  5
16D
330
162
100
AcDbEntity
  8
Defpoints
 62
     0
100
AcDbPoint
 10
15.52967478320244
 20
1.332983675473308
 30
0.0
  0
POINT
  5
16E
330
162
100
AcDbEntity
  8
Defpoints
 62
     0
100
AcDbPoint
 10
19.89474263314292
 20
3.480782025424761
 30
0.0
  0
POINT
  5
16F
330
162
100
AcDbEntity
  8
Defpoints
 62
     0
100
AcDbPoint
 10
-56.62509181734629
 20
-0.0000000000000035
 30
0.0
  0
POINT
  5
170
330
162
100
AcDbEntity
  8
Defpoints
 62
     0
100
AcDbPoint
 10
38.27490428620234
 20
-0.0000000000000035
 30
0.0
  0
POINT
  5
171
330
162
100
AcDbEntity
  8
Defpoints
 62
     0
100
AcDbPoint
 10
16.57858061360789
 20
3.887955522876259
 30
0.0
  0
ENDBLK
  5
164
330
162
100
AcDbEntity
  8
0
100
AcDbBlockEnd
  0
ENDSEC
  0
SECTION
  2
ENTITIES
  0
LINE
  5
95
330
1F
100
AcDbEntity
  8
0
  6
Continuous
 62
     1
370
    15
100
AcDbLine
 10
23.35444258691698
 20
-3.04631398211662
 30
0.0
 11
26.3721332427176
 21
-2.675788160003342
 31
0.0
  0
LINE
  5
96
330
1F
100
AcDbEntity
  8
0
  6
Continuous
 62
     1
370
    15
100
AcDbLine
 10
9.8749081826537
 20
-4.701392695119686
 30
0.0
 11
13.36536191456645
 21
-4.272818866294872
 31
0.0
  0
LINE
  5
97
102
{ACAD_REACTORS
102
}
330
1F
100
AcDbEntity
  8
0
  6
Continuous
 62
     1
370
    15
100
AcDbLine
 10
19.89474263314292
 20
3.480782025424761
 30
0.0
 11
16.57858061360789
 21
3.887955522876259
 31
0.0
  0
LINE
  5
98
330
1F
100
AcDbEntity
  8
0
  6
Continuous
 62
     1
370
    15
100
AcDbLine
 10
32.74312705424155
 20
1.903198785968443
 30
0.0
 11
30.24782459307489
 21
2.209583402982729
 31
0.0
  0
LINE
  5
99
330
1F
100
AcDbEntity
  8
0
  6
Continuous
 62
     1
370
    15
100
AcDbLine
 10
27.92881380708822
 20
-2.484651820441009
 30
0.0
 11
30.63831927981571
 21
-2.151966380708147
 31
0.0
  0
LINE
  5
9A
330
1F
100
AcDbEntity
  8
0
  6
Continuous
 62
     1
370
    15
100
AcDbLine
 10
14.33397652001192
 20
-4.15388794728111
 30
0.0
 11
17.72261542431849
 21
-3.737815407357327
 31
0.0
  0
LINE
  5
9B
330
1F
100
AcDbEntity
  8
0
  6
Continuous
 62
     1
370
    15
100
AcDbLine
 10
11.18286785013419
 20
4.550465745297576
 30
0.0
 11
9.8749081826537
 21
4.711062998747877
 31
0.0
  0
LINE
  5
9C
330
1F
100
AcDbEntity
  8
0
  6
Continuous
 62
     1
370
    15
100
AcDbLine
 10
24.22124206766255
 20
2.949554692110603
 30
0.0
 11
21.08734437019529
 21
3.334348944808744
 31
0.0
  0
LINE
  5
9D
330
1F
100
AcDbEntity
  8
0
  6
Continuous
 62
     1
370
    15
100
AcDbLine
 10
35.2749081826537
 20
1.592335151814097
 30
0.0
 11
35.00951669641356
 21
1.624921128919462
 31
0.0
  0
LINE
  5
9E
330
1F
100
AcDbEntity
  8
0
  6
Continuous
 62
     1
370
    15
100
AcDbLine
 10
32.59871034599448
 20
-1.911260624449408
 30
0.0
 11
34.60166494308345
 21
-1.665328723737386
 31
0.0
  0
LINE
  5
9F
330
1F
100
AcDbEntity
  8
0
  6
Continuous
 62
     1
370
    15
100
AcDbLine
 10
18.82869023505994
 20
-3.602006497394675
 30
0.0
 11
22.06128180557771
 21
-3.205094160830219
 31
0.0
  0
LINE
  5
A0
330
1F
100
AcDbEntity
  8
0
  6
Continuous
 62
     1
370
    15
100
AcDbLine
 10
15.54603543458785
 20
4.014736129294646
 30
0.0
 11
12.09384935503116
 21
4.438611281228134
 31
0.0
  0
LINE
  5
A1
330
1F
100
AcDbEntity
  8
0
  6
Continuous
 62
     1
370
    15
100
AcDbLine
 10
28.51231556178898
 20
2.422677117332195
 30
0.0
 11
25.63385541507344
 21
2.776107582523173
 31
0.0
  0
SPLINE
  5
A2
330
1F
100
AcDbEntity
  8
0
  6
Continuous
 62
     1
370
    15
100
AcDbSpline
210
0.0
220
0.0
230
1.0
 70
     8
 71
     3
 72
    42
 73
    38
 74
     0
 42
0.000000001
 43
0.00000001
 40
0.0
 40
0.0
 40
0.0
 40
0.0
 40
0.0066978726662609
 40
0.0385124382231234
 40
0.0689779506296039
 40
0.0994432488026507
 40
0.1308182631252144
 40
0.1621929738313659
 40
0.1922388784266449
 40
0.2222845748814362
 40
0.2532272827440259
 40
0.2841696920898338
 40
0.3138042983282293
 40
0.3434387024168847
 40
0.3739575860972168
 40
0.4044761774466565
 40
0.4337088707326091
 40
0.4629413667070061
 40
0.4930460057695282
 40
0.5231503577535522
 40
0.5519916643894744
 40
0.5808327714911325
 40
0.6105338684051229
 40
0.64023469002409
 40
0.6686973121285964
 40
0.6971597317371384
 40
0.7264703043248384
 40
0.7557806220965883
 40
0.783878455853702
 40
0.8119760846283366
 40
0.8409103349397203
 40
0.8698443600477941
 40
0.8975933065633108
 40
0.9253420473791236
 40
0.9539162130983285
 40
0.9824901898565443
 40
1.0
 40
1.0
 40
1.0
 40
1.0
 10
16.05693584606175
 20
3.83301360504678
 30
0.0
 10
16.0717527834681
 20
3.83878747603084
 30
0.0
 10
16.15694944440082
 20
3.871986950052199
 30
0.0
 10
16.31058363042176
 20
3.894845395835847
 30
0.0
 10
16.51794296164354
 20
3.900260549174693
 30
0.0
 10
16.72548519522028
 20
3.866724741025485
 30
0.0
 10
16.93609458340781
 20
3.796771934146758
 30
0.0
 10
17.14687708925819
 20
3.690668881905805
 30
0.0
 10
17.35579627672443
 20
3.551736283867539
 30
0.0
 10
17.56483424212855
 20
3.381562795076636
 30
0.0
 10
17.77700793710477
 20
3.178220397670955
 30
0.0
 10
17.98938830812559
 20
2.946335462232652
 30
0.0
 10
18.19992711093152
 20
2.691276253694391
 30
0.0
 10
18.41060920696173
 20
2.414256449467081
 30
0.0
 10
18.62447626831499
 20
2.113134155003349
 30
0.0
 10
18.83859804520697
 20
1.795061668769879
 30
0.0
 10
19.05090016956803
 20
1.466867978135095
 30
0.0
 10
19.26337355448947
 20
1.129162200844466
 30
0.0
 10
19.47908388304179
 20
0.779987839273356
 30
0.0
 10
19.6951111401653
 20
0.4278534712514255
 30
0.0
 10
19.90934046382167
 20
0.0799529416007749
 30
0.0
 10
20.12376575013579
 20
-0.2637822366138068
 30
0.0
 10
20.34149701388273
 20
-0.6047777280422955
 30
0.0
 10
20.55961313209625
 20
-0.9345543780888479
 30
0.0
 10
20.77595325215895
 20
-1.246697929833813
 30
0.0
 10
20.99252455458221
 20
-1.541924957289835
 30
0.0
 10
21.21248571138244
 20
-1.820901050054929
 30
0.0
 10
21.43290206353001
 20
-2.076543680977017
 30
0.0
 10
21.65156083179794
 20
-2.304228083038294
 30
0.0
 10
21.87049823620775
 20
-2.505199693142004
 30
0.0
 10
22.09292431052763
 20
-2.679301620566752
 30
0.0
 10
22.3158773096896
 20
-2.822008297733008
 30
0.0
 10
22.53709505465055
 20
-2.931072640223176
 30
0.0
 10
22.75864334105303
 20
-3.008534304054497
 30
0.0
 10
22.98384781190128
 20
-3.051834075574556
 30
0.0
 10
23.18300818815124
 20
-3.064432219614132
 30
0.0
 10
23.30691746994848
 20
-3.048676036533204
 30
0.0
 10
23.35399754181651
 20
-3.042689380642245
 30
0.0
  0
SPLINE
  5
A3
330
1F
100
AcDbEntity
  8
0
  6
Continuous
 62
     1
370
    15
100
AcDbSpline
210
0.0
220
0.0
230
1.0
 70
     8
 71
     3
 72
    28
 73
    24
 74
     0
 42
0.000000001
 43
0.00000001
 40
0.0
 40
0.0
 40
0.0
 40
0.0
 40
0.0078551045375417
 40
0.0553429940514882
 40
0.1028310193809309
 40
0.1489201135317997
 40
0.1950091880173259
 40
0.2424309265370916
 40
0.2898528374800329
 40
0.3360442308657502
 40
0.3822359124354189
 40
0.4297501188583108
 40
0.4772645180582237
 40
0.5237788300165727
 40
0.5702935713311246
 40
0.6181212338278017
 40
0.6659495607347582
 40
0.7131262816709367
 40
0.7603035206871386
 40
0.8087895521939493
 40
0.8572763998673246
 40
0.9281241805057435
 40
1.0
 40
1.0
 40
1.0
 40
1.0
 10
29.34058592734967
 20
2.128967561876575
 30
0.0
 10
29.35476491899087
 20
2.133916605090318
 30
0.0
 10
29.45466274292239
 20
2.168784997717008
 30
0.0
 10
29.64221246960329
 20
2.203845620385801
 30
0.0
 10
29.90087541606677
 20
2.230813081170502
 30
0.0
 10
30.15909511468068
 20
2.22353678764066
 30
0.0
 10
30.41917546809781
 20
2.186993621394853
 30
0.0
 10
30.6839161796722
 20
2.119559094505014
 30
0.0
 10
30.95094816718581
 20
2.023083438025217
 30
0.0
 10
31.21781767132907
 20
1.900355505818925
 30
0.0
 10
31.48706047087402
 20
1.753317351499162
 30
0.0
 10
31.76106096144057
 20
1.58221805610697
 30
0.0
 10
32.03800545474696
 20
1.391101068093857
 30
0.0
 10
32.3153810261055
 20
1.185160847376495
 30
0.0
 10
32.59565008814161
 20
0.9663833299620532
 30
0.0
 10
32.8809951117186
 20
0.7365777131477232
 30
0.0
 10
33.17020538804778
 20
0.5008772141420694
 30
0.0
 10
33.46057780111855
 20
0.2655023858809072
 30
0.0
 10
33.75485949130227
 20
0.0325653437097411
 30
0.0
 10
34.05454138060106
 20
-0.194866400910848
 30
0.0
 10
34.40655375229306
 20
-0.4452095785959913
 30
0.0
 10
34.81206748357522
 20
-0.707991423958486
 30
0.0
 10
35.11988886992975
 20
-0.8638962111361697
 30
0.0
 10
35.27490818265394
 20
-0.9424100962333563
 30
0.0
  0
LINE
  5
A4
330
1F
100
AcDbEntity
  8
가는실선
100
AcDbLine
 10
9.874908182653698
 20
0.4881608823217419
 30
0.0
 11
9.8749081826537
 21
-4.762500000000003
 31
0.0
  0
SPLINE
  5
A5
330
1F
100
AcDbEntity
  8
0
  6
Continuous
 62
     1
370
    15
100
AcDbSpline
210
0.0
220
0.0
230
1.0
 70
     8
 71
     3
 72
    14
 73
    10
 74
     0
 42
0.000000001
 43
0.00000001
 40
0.0
 40
0.0
 40
0.0
 40
0.0
 40
0.2080834224878644
 40
0.4202101121880041
 40
0.5465071677941085
 40
0.6728044838867722
 40
0.8027431406222225
 40
0.9326821397013486
 40
1.0
 40
1.0
 40
1.0
 40
1.0
 10
34.65324355664917
 20
0.9541937429791066
 30
0.0
 10
34.51764271800262
 20
1.055441578369465
 30
0.0
 10
34.24380618196729
 20
1.259904594978376
 30
0.0
 10
33.89249691850463
 20
1.481980995342299
 30
0.0
 10
33.59636138863819
 20
1.639351891037549
 30
0.0
 10
33.35419881874436
 20
1.747038965834883
 30
0.0
 10
33.11139980105253
 20
1.829748086550752
 30
0.0
 10
32.90676675948767
 20
1.881942868474842
 30
0.0
 10
32.78446455487221
 20
1.895358104369472
 30
0.0
 10
32.74272647412565
 20
1.899936322732457
 30
0.0
  0
SPLINE
  5
A6
330
1F
100
AcDbEntity
  8
0
  6
Continuous
 62
     1
370
    15
100
AcDbSpline
210
0.0
220
0.0
230
1.0
 70
     8
 71
     3
 72
    43
 73
    39
 74
     0
 42
0.000000001
 43
0.00000001
 40
0.0
 40
0.0
 40
0.0
 40
0.0
 40
0.014360799717109
 40
0.0417580811634849
 40
0.0691555789055554
 40
0.0961106692950657
 40
0.1230659290310911
 40
0.1507850981836197
 40
0.1785044930944523
 40
0.2057922204525212
 40
0.2330801286380276
 40
0.261140682104246
 40
0.2892014691750723
 40
0.3168385269891082
 40
0.3444757756627159
 40
0.3728949909595605
 40
0.4013144466197935
 40
0.4293156921021787
 40
0.4573171370516064
 40
0.4861103888181853
 40
0.5149038868961846
 40
0.5432825949341016
 40
0.571661509813952
 40
0.6008425327188915
 40
0.630023807183504
 40
0.6587918842669457
 40
0.6875601745840482
 40
0.7171412849097938
 40
0.7467226513527622
 40
0.7758908173434542
 40
0.8050592022155197
 40
0.8350514862807852
 40
0.8650440302837206
 40
0.8946219735483186
 40
0.9242001407769218
 40
0.9546136159171542
 40
0.9850273540097437
 40
1.0
 40
1.0
 40
1.0
 40
1.0
 10
27.12140733213344
 20
-2.409307636668828
 30
0.0
 10
27.08321690823934
 20
-2.43146911036829
 30
0.0
 10
26.97216746447213
 20
-2.495909854315305
 30
0.0
 10
26.78967719901834
 20
-2.573829475887469
 30
0.0
 10
26.5749859001744
 20
-2.642795343504888
 30
0.0
 10
26.3627330184066
 20
-2.68152434094992
 30
0.0
 10
26.15084569842664
 20
-2.69217516926043
 30
0.0
 10
25.938233297825
 20
-2.673099018257922
 30
0.0
 10
25.72599079601867
 20
-2.624283142517088
 30
0.0
 10
25.51603559627027
 20
-2.546598304206914
 30
0.0
 10
25.30639973108081
 20
-2.440745403262948
 30
0.0
 10
25.09601833378713
 20
-2.306178244498766
 30
0.0
 10
24.88594839649324
 20
-2.144647023390664
 30
0.0
 10
24.67808847446024
 20
-1.959298099844647
 30
0.0
 10
24.47049257389786
 20
-1.750787996149206
 30
0.0
 10
24.2621355194098
 20
-1.519346438674353
 30
0.0
 10
24.05403918385801
 20
-1.268286309993672
 30
0.0
 10
23.84808506157677
 20
-1.002499054632255
 30
0.0
 10
23.6423459491313
 20
-0.7224642893785431
 30
0.0
 10
23.43583076465709
 20
-0.4291454903067454
 30
0.0
 10
23.2295330530124
 20
-0.1268747362815429
 30
0.0
 10
23.02531747506514
 20
0.1784839117012951
 30
0.0
 10
22.82127338653195
 20
0.486720934031511
 30
0.0
 10
22.61643898463854
 20
0.7962965552305827
 30
0.0
 10
22.41178515714983
 20
1.102544016160484
 30
0.0
 10
22.20916009765079
 20
1.399547403103914
 30
0.0
 10
22.00666774100514
 20
1.687400474574456
 30
0.0
 10
21.80337131436932
 20
1.964230256226761
 30
0.0
 10
21.60022395316513
 20
2.22575664893124
 30
0.0
 10
21.39905801498769
 20
2.466938474490487
 30
0.0
 10
21.1979900446961
 20
2.688147588685027
 30
0.0
 10
20.99610469347497
 20
2.887454458509542
 30
0.0
 10
20.79434048842057
 20
3.061659263999716
 30
0.0
 10
20.59451942489736
 20
3.207242243879161
 30
0.0
 10
20.39475189370609
 20
3.325326920654911
 30
0.0
 10
20.19420463094394
 20
3.412110460675082
 30
0.0
 10
20.02675218355909
 20
3.463676848854599
 30
0.0
 10
19.92712789467754
 20
3.473598853565899
 30
0.0
 10
19.89426254883436
 20
3.476872052501175
 30
0.0
  0
SPLINE
  5
A7
330
1F
100
AcDbEntity
  8
0
  6
Continuous
 62
     1
370
    15
100
AcDbSpline
210
0.0
220
0.0
230
1.0
 70
     8
 71
     3
 72
    28
 73
    24
 74
     0
 42
0.000000001
 43
0.00000001
 40
0.0
 40
0.0
 40
0.0
 40
0.0
 40
0.0249266010637395
 40
0.0711232349817383
 40
0.1173202360371213
 40
0.1648222316194766
 40
0.2123246142251826
 40
0.2591691597614568
 40
0.3060140723948733
 40
0.3541825223647911
 40
0.4023513627140961
 40
0.4498489724291311
 40
0.4973469472238151
 40
0.5461871674137398
 40
0.5950277785344749
 40
0.6431831476379745
 40
0.6913388780613233
 40
0.7408556913371767
 40
0.7903729048761319
 40
0.8419607846033887
 40
0.8935491193932952
 40
0.9467743038157646
 40
1.0
 40
1.0
 40
1.0
 40
1.0
 10
13.83777839826753
 20
-4.102337251194381
 30
0.0
 10
13.8033337035606
 20
-4.122890728271249
 30
0.0
 10
13.70505242930061
 20
-4.181536099779856
 30
0.0
 10
13.5438688225505
 20
-4.239963929518187
 30
0.0
 10
13.35234038718367
 20
-4.280729113354328
 30
0.0
 10
13.15988635893694
 20
-4.283274727960299
 30
0.0
 10
12.96738087266685
 20
-4.249253402985587
 30
0.0
 10
12.77660726078231
 20
-4.178608531948438
 30
0.0
 10
12.58575287059893
 20
-4.072173961056325
 30
0.0
 10
12.39392151070781
 20
-3.929005650352494
 30
0.0
 10
12.20203891034905
 20
-3.750526951694628
 30
0.0
 10
12.01186809991322
 20
-3.539852658801446
 30
0.0
 10
11.82161365457708
 20
-3.297424220002203
 30
0.0
 10
11.63037446217351
 20
-3.023024675963836
 30
0.0
 10
11.43907796828762
 20
-2.719897890830527
 30
0.0
 10
11.24947722538789
 20
-2.393373802522914
 30
0.0
 10
11.05978313011928
 20
-2.04358092679978
 30
0.0
 10
10.86910498676968
 20
-1.671002270323484
 30
0.0
 10
10.67478744745357
 20
-1.273025523937135
 30
0.0
 10
10.47861304547093
 20
-0.8556049486351628
 30
0.0
 10
10.27856407149764
 20
-0.4175918455656906
 30
0.0
 10
10.07722551563588
 20
0.0319266984111558
 30
0.0
 10
9.942347509789407
 20
0.3360823336096266
 30
0.0
 10
9.8749081826537
 20
0.4881608823217666
 30
0.0
  0
ELLIPSE
  5
A8
330
1F
100
AcDbEntity
  8
0
  6
Continuous
 62
     1
370
    15
100
AcDbEllipse
 10
31.85763168362998
 20
-0.2647758017056945
 30
0.0
 11
2.806170743980181
 21
1.764249103368092
 31
0.0
210
0.0
220
0.0
230
1.0
 40
0.3313646369557534
 41
5.63645025140102
 42
5.855060168588405
  0
LINE
  5
A9
330
1F
100
AcDbEntity
  8
0
  6
Continuous
 62
     1
370
    15
100
AcDbLine
 10
34.44938804353409
 20
0.5828705761695809
 30
0.0
 11
35.2749081826537
 21
0.0048351518140963
 31
0.0
  0
LINE
  5
AA
330
1F
100
AcDbEntity
  8
0
  6
Continuous
 62
     1
370
    15
100
AcDbLine
 10
35.2749081826537
 20
0.0048351518140965
 30
0.0
 11
35.2749081826537
 21
-0.9424100962310025
 31
0.0
  0
SPLINE
  5
AB
330
1F
100
AcDbEntity
  8
0
  6
Continuous
 62
     1
370
    15
100
AcDbSpline
210
0.0
220
0.0
230
1.0
 70
     8
 71
     3
 72
    29
 73
    25
 74
     0
 42
0.000000001
 43
0.00000001
 40
0.0
 40
0.0
 40
0.0
 40
0.0
 40
0.0513258208653162
 40
0.1109647332284345
 40
0.1713280709611726
 40
0.216341529017287
 40
0.2613546754735194
 40
0.3076784175206238
 40
0.3540017381217538
 40
0.39893302497141
 40
0.4438639888185568
 40
0.4901362664658073
 40
0.5364081041831631
 40
0.5807276386937644
 40
0.6250468538138437
 40
0.6706895471802324
 40
0.7163318040619602
 40
0.7600410249492261
 40
0.8037499305025639
 40
0.8487641940160093
 40
0.8937780250840054
 40
0.9368834853101553
 40
0.9799886349159855
 40
0.9999999999999999
 40
0.9999999999999999
 40
0.9999999999999999
 40
0.9999999999999999
 10
9.874908182653702
 20
2.323136694706398
 30
0.0
 10
9.94756252409432
 20
2.177441975024385
 30
0.0
 10
10.10463881590856
 20
1.862454792554769
 30
0.0
 10
10.34873947914799
 20
1.349362009919863
 30
0.0
 10
10.58509075824486
 20
0.8428861353141291
 30
0.0
 10
10.80161289486999
 20
0.3758243088951496
 30
0.0
 10
10.99880027624347
 20
-0.0481041622650104
 30
0.0
 10
11.19871837278065
 20
-0.4730214653361657
 30
0.0
 10
11.39942759035017
 20
-0.8907267511534974
 30
0.0
 10
11.59906521809499
 20
-1.293560716709178
 30
0.0
 10
11.79954634761878
 20
-1.682432794232552
 30
0.0
 10
12.00288588805096
 20
-2.057338034904793
 30
0.0
 10
12.2062675617263
 20
-2.409270341214817
 30
0.0
 10
12.40773566347704
 20
-2.732069979309046
 30
0.0
 10
12.60920992202943
 20
-3.027349636081698
 30
0.0
 10
12.81357814396979
 20
-3.295864123991712
 30
0.0
 10
13.01799421700992
 20
-3.530950716966291
 30
0.0
 10
13.22049326441142
 20
-3.728923937620029
 30
0.0
 10
13.42300754795558
 20
-3.891767770798191
 30
0.0
 10
13.62845645261319
 20
-4.019004584740127
 30
0.0
 10
13.8339531165031
 20
-4.107995411305519
 30
0.0
 10
14.03759433826437
 20
-4.155196327697394
 30
0.0
 10
14.20307786991325
 20
-4.16968106353946
 30
0.0
 10
14.30201507018928
 20
-4.154022972035005
 30
0.0
 10
14.33338353920001
 20
-4.149058506123756
 30
0.0
  0
SPLINE
  5
AC
330
1F
100
AcDbEntity
  8
0
  6
Continuous
 62
     1
370
    15
100
AcDbSpline
210
0.0
220
0.0
230
1.0
 70
     8
 71
     3
 72
    41
 73
    37
 74
     0
 42
0.000000001
 43
0.00000001
 40
0.0
 40
0.0
 40
0.0
 40
0.0
 40
0.012540468457209
 40
0.0440754112724659
 40
0.0756101297338794
 40
0.1080845527523132
 40
0.1405586934493789
 40
0.1716894718263608
 40
0.2028200230945849
 40
0.2348775027470782
 40
0.2669347328872997
 40
0.2976789643336322
 40
0.3284229678765629
 40
0.3600814945801212
 40
0.3917398119258079
 40
0.4221178698627037
 40
0.4524957031096007
 40
0.4837760560499615
 40
0.5150562392999447
 40
0.5450919316471173
 40
0.5751274093750888
 40
0.6060538262831912
 40
0.6369800981964993
 40
0.6667016113838027
 40
0.6964229309962651
 40
0.7270240374132114
 40
0.7576249852127455
 40
0.7870661934916665
 40
0.8165072710883656
 40
0.8468174165515927
 40
0.8771273963631075
 40
0.906329801667124
 40
0.9355321541725418
 40
0.9655933892162166
 40
0.9956544747740641
 40
1.0
 40
1.0
 40
1.0
 40
1.0
 10
20.47861945012619
 20
3.270862880339951
 30
0.0
 10
20.50669663400928
 20
3.280965350255468
 30
0.0
 10
20.60537822881912
 20
3.316472039492275
 30
0.0
 10
20.77600444108732
 20
3.342014789146533
 30
0.0
 10
20.9925103816899
 20
3.348974231703995
 30
0.0
 10
21.21248956045791
 20
3.318971439543748
 30
0.0
 10
21.43290108303759
 20
3.255227444414748
 30
0.0
 10
21.65156107749797
 20
3.159183968854572
 30
0.0
 10
21.87049821387026
 20
3.032751523304952
 30
0.0
 10
22.09292413988108
 20
2.874359334943712
 30
0.0
 10
22.3158780012293
 20
2.687705489929903
 30
0.0
 10
22.53709257493525
 20
2.477367147758883
 30
0.0
 10
22.75865272933253
 20
2.244763985155725
 30
0.0
 10
22.98381160720051
 20
1.988363981418694
 30
0.0
 10
23.20957352309685
 20
1.714375288003579
 30
0.0
 10
23.43362032369036
 20
1.42894251593815
 30
0.0
 10
23.65810556515535
 20
1.133034492833119
 30
0.0
 10
23.88630467632493
 20
0.8254642431181164
 30
0.0
 10
24.11518495424793
 20
0.5137986029293937
 30
0.0
 10
24.34239134459078
 20
0.2046825022708756
 30
0.0
 10
24.57016165065749
 20
-0.1014571375804798
 30
0.0
 10
24.80175371843427
 20
-0.4052236618637295
 30
0.0
 10
25.03411181693436
 20
-0.6990773269375734
 30
0.0
 10
25.2648720185596
 20
-0.9770020544246527
 30
0.0
 10
25.49636017339097
 20
-1.239154617898676
 30
0.0
 10
25.73175422407591
 20
-1.485497787197524
 30
0.0
 10
25.9680072238502
 20
-1.709867759776844
 30
0.0
 10
26.20282067591255
 20
-1.907870917651436
 30
0.0
 10
26.43851961699027
 20
-2.08030878529138
 30
0.0
 10
26.67818556223445
 20
-2.2265654984826
 30
0.0
 10
26.91887168019968
 20
-2.342961006192098
 30
0.0
 10
27.15833116389169
 20
-2.427289012553803
 30
0.0
 10
27.39878686140874
 20
-2.481882896192131
 30
0.0
 10
27.6434521927435
 20
-2.502093835852016
 30
0.0
 10
27.82086421304055
 20
-2.50143081296333
 30
0.0
 10
27.91650484112616
 20
-2.484872833708779
 30
0.0
 10
27.92858416985116
 20
-2.482781575229606
 30
0.0
  0
SPLINE
  5
AD
330
1F
100
AcDbEntity
  8
0
  6
Continuous
 62
     1
370
    15
100
AcDbSpline
210
0.0
220
0.0
230
1.0
 70
     8
 71
     3
 72
    11
 73
     7
 74
     0
 42
0.000000001
 43
0.00000001
 40
0.0
 40
0.0
 40
0.0
 40
0.0
 40
0.182836321547562
 40
0.390051414948355
 40
0.6928289760124068
 40
1.0
 40
1.0
 40
1.0
 40
1.0
 10
33.78817077849282
 20
1.534283899761459
 30
0.0
 10
33.87695221595921
 20
1.557495747912929
 30
0.0
 10
34.06635290512104
 20
1.607014432922637
 30
0.0
 10
34.40661874942284
 20
1.65014280756475
 30
0.0
 10
34.81204846089402
 20
1.657415867487118
 30
0.0
 10
35.11988249865995
 20
1.607065138203165
 30
0.0
 10
35.27490818265394
 20
1.581708435274893
 30
0.0
  0
LINE
  5
AE
330
1F
100
AcDbEntity
  8
가는실선
100
AcDbLine
 10
9.8749081826537
 20
4.762499999999996
 30
0.0
 11
9.874908182653702
 21
2.323136694706398
 31
0.0
  0
SPLINE
  5
AF
330
1F
100
AcDbEntity
  8
0
  6
Continuous
 62
     1
370
    15
100
AcDbSpline
210
0.0
220
0.0
230
1.0
 70
     8
 71
     3
 72
    42
 73
    38
 74
     0
 42
0.000000001
 43
0.00000001
 40
0.0
 40
0.0
 40
0.0
 40
0.0
 40
0.0127677383376745
 40
0.0417758904851807
 40
0.0707841503639625
 40
0.09917381167677
 40
0.1275636342372876
 40
0.156764424794428
 40
0.1859653712272455
 40
0.2145853897493158
 40
0.243205570578357
 40
0.2726415277757041
 40
0.302077678881223
 40
0.3309637513600902
 40
0.359849983224302
 40
0.3895580767509521
 40
0.4192663863277655
 40
0.4484494252890822
 40
0.4776326234787114
 40
0.5076448506149235
 40
0.5376573040526519
 40
0.5671642513044479
 40
0.596671372138213
 40
0.6270156302300244
 40
0.6573601278832825
 40
0.6872146308298004
 40
0.7170693213385175
 40
0.7477700908473905
 40
0.7784711103981613
 40
0.8086940302638757
 40
0.8389171504076519
 40
0.8699960250852208
 40
0.9010751584949754
 40
0.9316849843949957
 40
0.9622950216843144
 40
0.9937711374961001
 40
1.0
 40
1.0
 40
1.0
 40
1.0
 10
31.56334156509063
 20
-1.823988735171516
 30
0.0
 10
31.52866703220056
 20
-1.844000054429069
 30
0.0
 10
31.41521236620338
 20
-1.909476856949426
 30
0.0
 10
31.22454387578896
 20
-1.995636044076668
 30
0.0
 10
30.99300465041387
 20
-2.080256446821251
 30
0.0
 10
30.76469510495743
 20
-2.136476944430578
 30
0.0
 10
30.53724578695661
 20
-2.16640815257475
 30
0.0
 10
30.30909081334571
 20
-2.168278365227546
 30
0.0
 10
30.08181027320159
 20
-2.141709351462167
 30
0.0
 10
29.85745846307108
 20
-2.087206298634301
 30
0.0
 10
29.63384513884345
 20
-2.005648166474967
 30
0.0
 10
29.4095344294472
 20
-1.8963518627469
 30
0.0
 10
29.18597261657249
 20
-1.760969534119687
 30
0.0
 10
28.9651533189917
 20
-1.602429899587584
 30
0.0
 10
28.74496163560893
 20
-1.421694528776801
 30
0.0
 10
28.52407612657267
 20
-1.218883626274982
 30
0.0
 10
28.30382172439071
 20
-0.9973875999666902
 30
0.0
 10
28.08615966842513
 20
-0.761935741186257
 30
0.0
 10
27.86903613932347
 20
-0.5133395740173877
 30
0.0
 10
27.65121162356994
 20
-0.2525047697804356
 30
0.0
 10
27.43391147527367
 20
0.0161226116390123
 30
0.0
 10
27.21908878419512
 20
0.2869095021085729
 30
0.0
 10
27.00472021831691
 20
0.5593352121114024
 30
0.0
 10
26.78963755778524
 20
0.8318880361629621
 30
0.0
 10
26.57499633067173
 20
1.099892280264637
 30
0.0
 10
26.36273024498665
 20
1.357802162450632
 30
0.0
 10
26.15084646652536
 20
1.605465676024858
 30
0.0
 10
25.93823308387093
 20
1.84104388399272
 30
0.0
 10
25.72599087310587
 20
2.060435656708898
 30
0.0
 10
25.51603549977598
 20
2.259144605002569
 30
0.0
 10
25.30640004471777
 20
2.437359244586651
 30
0.0
 10
25.09601714067305
 20
2.593304963954463
 30
0.0
 10
24.88595281301617
 20
2.723888900335893
 30
0.0
 10
24.67807227061069
 20
2.827305064209985
 30
0.0
 10
24.47055380153215
 20
2.900736636340502
 30
0.0
 10
24.31820434222902
 20
2.940502645197583
 30
0.0
 10
24.23473506794202
 20
2.946201503992064
 30
0.0
 10
24.2209459436391
 20
2.947142955477934
 30
0.0
  0
SPLINE
  5
B0
330
1F
100
AcDbEntity
  8
0
  6
Continuous
 62
     1
370
    15
100
AcDbSpline
210
0.0
220
0.0
230
1.0
 70
     8
 71
     3
 72
    45
 73
    41
 74
     0
 42
0.000000001
 43
0.00000001
 40
0.0
 40
0.0
 40
0.0
 40
0.0
 40
0.007226143941169
 40
0.0325554607808789
 40
0.058599916729687
 40
0.0846445915105839
 40
0.1103353702222946
 40
0.1360263485358369
 40
0.1624426814665691
 40
0.1888592362459667
 40
0.2149167279457945
 40
0.2409744257299625
 40
0.2677678619448451
 40
0.2945615224190271
 40
0.3209903859602244
 40
0.3474194608268237
 40
0.3745948152085046
 40
0.4017703953826933
 40
0.4285749263539928
 40
0.4553796725769051
 40
0.4829413864064299
 40
0.5105033273742603
 40
0.5376874873585661
 40
0.564871865176924
 40
0.5928240357105734
 40
0.6207764350660264
 40
0.6483438743944873
 40
0.6759115328089876
 40
0.7042579353525547
 40
0.7326045688489385
 40
0.7605586437980535
 40
0.7885129378091938
 40
0.8172570412096442
 40
0.846001377565597
 40
0.8743451628810026
 40
0.9026891660545121
 40
0.9318341424886034
 40
0.9609793522072543
 40
0.9897156497144877
 40
1.0
 40
1.0
 40
1.0
 40
1.0
 10
18.26599645613921
 20
-3.542412505825799
 30
0.0
 10
18.24739774420864
 20
-3.55404402551525
 30
0.0
 10
18.16360621697644
 20
-3.606446729662142
 30
0.0
 10
18.01372621779135
 20
-3.669438251681765
 30
0.0
 10
17.81640428401024
 20
-3.728414278516286
 30
0.0
 10
17.61919640323931
 20
-3.751485281026376
 30
0.0
 10
17.42379192935191
 20
-3.741182386496631
 30
0.0
 10
17.22836494520422
 20
-3.697361134836287
 30
0.0
 10
17.03204652369817
 20
-3.61917150239758
 30
0.0
 10
16.83575775936292
 20
-3.507143186284173
 30
0.0
 10
16.64127209827113
 20
-3.363261281438351
 30
0.0
 10
16.44674045970134
 20
-3.188080784503502
 30
0.0
 10
16.25130145010444
 20
-2.981207628606004
 30
0.0
 10
16.05588019574886
 20
-2.745036315284318
 30
0.0
 10
15.86224509246216
 20
-2.483795189292181
 30
0.0
 10
15.66855074086581
 20
-2.197825133251971
 30
0.0
 10
15.47393115393412
 20
-1.88745790072164
 30
0.0
 10
15.27931610076257
 20
-1.556594754445805
 30
0.0
 10
15.08647275500877
 20
-1.211174665661422
 30
0.0
 10
14.89356112626857
 20
-0.8512484750529195
 30
0.0
 10
14.69970734436523
 20
-0.4778313221359509
 30
0.0
 10
14.50584344327904
 20
-0.0958200382275506
 30
0.0
 10
14.31373777863153
 20
0.2879312273076748
 30
0.0
 10
14.12155818996173
 20
0.6736866596475678
 30
0.0
 10
13.92842178506113
 20
1.059882807870252
 30
0.0
 10
13.73526002975498
 20
1.44128234101685
 30
0.0
 10
13.54384250404057
 20
1.811049261575432
 30
0.0
 10
13.35234766162531
 20
2.169735907028231
 30
0.0
 10
13.15988438572182
 20
2.515437172560421
 30
0.0
 10
12.96738139398461
 20
2.843288660134714
 30
0.0
 10
12.77660711920452
 20
3.147417585744231
 30
0.0
 10
12.58575292046273
 20
3.428587445651694
 30
0.0
 10
12.39392145574836
 20
3.684804499977201
 30
0.0
 10
12.20203907831488
 20
3.912238626822414
 30
0.0
 10
12.01186749214576
 20
4.106868678804505
 30
0.0
 10
11.82161594841415
 20
4.26933494116111
 30
0.0
 10
11.6303656320953
 20
4.398650295245969
 30
0.0
 10
11.43911069693034
 20
4.489408744146197
 30
0.0
 10
11.28978006333942
 20
4.538468536665345
 30
0.0
 10
11.20475987832792
 20
4.544637126680129
 30
0.0
 10
11.18235180943472
 20
4.546262931070068
 30
0.0
  0
LINE
  5
B1
330
1F
100
AcDbEntity
  8
0
  6
Continuous
 62
     1
370
    15
100
AcDbLine
 10
35.2749081826537
 20
1.592335151814097
 30
0.0
 11
35.2749081826537
 21
1.58170843527085
 31
0.0
  0
SPLINE
  5
B2
330
1F
100
AcDbEntity
  8
가는실선
100
AcDbSpline
210
0.0
220
0.0
230
1.0
 70
    24
 71
     3
 72
    22
 73
    18
 74
     0
 42
0.000000001
 43
0.00000001
 40
0.0
 40
0.0
 40
0.0
 40
0.0
 40
0.1250000000000011
 40
0.1250000000000011
 40
0.187500000000001
 40
0.187500000000001
 40
0.2500000000000009
 40
0.2500000000000009
 40
0.5000000000000003
 40
0.5000000000000003
 40
0.6250000000000003
 40
0.6250000000000003
 40
0.7500000000000002
 40
0.7500000000000002
 40
0.8750000000000002
 40
0.8750000000000002
 40
1.0
 40
1.0
 40
1.0
 40
1.0
 10
9.874908182654647
 20
0.4881608823196265
 30
0.0
 10
9.874908182654647
 20
0.4970701428473145
 30
0.0
 10
9.874908182654647
 20
0.5174270496994854
 30
0.0
 10
9.874908182654647
 20
0.5562824133395591
 30
0.0
 10
9.874908182654647
 20
0.570651673450375
 30
0.0
 10
9.874908182654647
 20
0.6011458493109728
 30
0.0
 10
9.874908182654647
 20
0.6166967094131733
 30
0.0
 10
9.874908182654647
 20
0.7056086415375724
 30
0.0
 10
9.874908182654647
 20
0.8145732533225039
 30
0.0
 10
9.874908182654647
 20
1.067696609641491
 30
0.0
 10
9.874908182654647
 20
1.16689843437817
 30
0.0
 10
9.874908182654647
 20
1.390038026652849
 30
0.0
 10
9.874908182654647
 20
1.514034624274385
 30
0.0
 10
9.874908182654647
 20
1.767767191938009
 30
0.0
 10
9.874908182654647
 20
1.89705223372778
 30
0.0
 10
9.874908182654647
 20
2.132822225390987
 30
0.0
 10
9.874908182654647
 20
2.238715180510305
 30
0.0
 10
9.874908182654647
 20
2.323136694704866
 30
0.0
  0
SPLINE
  5
B3
330
1F
100
AcDbEntity
  8
0
  6
Continuous
 62
     1
370
    15
100
AcDbSpline
210
0.0
220
0.0
230
1.0
 70
     8
 71
     3
 72
    16
 73
    12
 74
     0
 42
0.000000001
 43
0.00000001
 40
0.0
 40
0.0
 40
0.0
 40
0.0
 40
0.0724821553337042
 40
0.1730234437390132
 40
0.339619526675913
 40
0.4221582907978589
 40
0.507596385880591
 40
0.6597039475566764
 40
0.7563352629243892
 40
0.8557526474094553
 40
1.0
 40
1.0
 40
1.0
 40
1.0
 10
34.58570282353314
 20
0.8207487259576758
 30
0.0
 10
34.61065196380503
 20
0.8151719826814988
 30
0.0
 10
34.67020850083536
 20
0.8018596394978542
 30
0.0
 10
34.79119010713326
 20
0.8054148464555302
 30
0.0
 10
34.91531828960736
 20
0.8435742558738469
 30
0.0
 10
35.02217131839517
 20
0.9161933305819564
 30
0.0
 10
35.11334333307743
 20
1.006558419515811
 30
0.0
 10
35.18744038299142
 20
1.128232392818667
 30
0.0
 10
35.23723435055351
 20
1.269613797079952
 30
0.0
 10
35.26838678458162
 20
1.414238515109307
 30
0.0
 10
35.27248316308832
 20
1.519433777518774
 30
0.0
 10
35.2749081826537
 20
1.58170843527085
 30
0.0
  0
SPLINE
  5
B4
330
1F
100
AcDbEntity
  8
0
  6
Continuous
 62
     1
370
    15
100
AcDbSpline
210
0.0
220
0.0
230
1.0
 70
     8
 71
     3
 72
    42
 73
    38
 74
     0
 42
0.000000001
 43
0.00000001
 40
0.0
 40
0.0
 40
0.0
 40
0.0
 40
0.0246171250637456
 40
0.0554935304564294
 40
0.0863696422942144
 40
0.1159430280003679
 40
0.1455162005847185
 40
0.1759724991559282
 40
0.2064285064711629
 40
0.2355946442135477
 40
0.2647605715409995
 40
0.294797533613404
 40
0.3248342071251047
 40
0.3535974695416867
 40
0.3823605246886161
 40
0.4119826186421229
 40
0.441604426981075
 40
0.4699696708962151
 40
0.4983347112929658
 40
0.5275469010369611
 40
0.5567588083728574
 40
0.584731416908924
 40
0.6127038263679097
 40
0.6415116122020652
 40
0.67031911915228
 40
0.6979050831605873
 40
0.7254908531844405
 40
0.7539003545351636
 40
0.782309580966781
 40
0.8095155977802746
 40
0.8367214261263652
 40
0.8647394818881781
 40
0.8927572673485074
 40
0.9195908610260207
 40
0.9464242716606434
 40
0.9740585623808047
 40
1.0
 40
1.0
 40
1.0
 40
1.0
 10
11.63473207362774
 20
4.389254948968912
 30
0.0
 10
11.68901390643408
 20
4.405660849361874
 30
0.0
 10
11.81137955775481
 20
4.442644101092713
 30
0.0
 10
12.00290271078297
 20
4.451934490313871
 30
0.0
 10
12.20626326589158
 20
4.425377858650755
 30
0.0
 10
12.40773679151733
 20
4.358538517271516
 30
0.0
 10
12.60920961301705
 20
4.254741287184251
 30
0.0
 10
12.81357821499617
 20
4.111735402113669
 30
0.0
 10
13.01799424622085
 20
3.932590310077044
 30
0.0
 10
13.22049308911315
 20
3.721656992682951
 30
0.0
 10
13.42300823136742
 20
3.480420889998167
 30
0.0
 10
13.62845381121743
 20
3.206458076600136
 30
0.0
 10
13.83396278960055
 20
2.905949521980476
 30
0.0
 10
14.03755993933019
 20
2.585395227707672
 30
0.0
 10
14.2411915445428
 20
2.245674394079625
 30
0.0
 10
14.44779142424867
 20
1.884206325018578
 30
0.0
 10
14.65447378779009
 20
1.509416842924137
 30
0.0
 10
14.85925236339649
 20
1.128943603037123
 30
0.0
 10
15.06408445136816
 20
0.742967185456854
 30
0.0
 10
15.27192398133027
 20
0.3491448264622763
 30
0.0
 10
15.47986910477206
 20
-0.0431313050572102
 30
0.0
 10
15.68592136522097
 20
-0.4262230033911572
 30
0.0
 10
15.89204731718896
 20
-0.8006553518437591
 30
0.0
 10
16.10122135948165
 20
-1.168186173314482
 30
0.0
 10
16.31052877326956
 20
-1.519860704416886
 30
0.0
 10
16.5179573763144
 20
-1.849164109924908
 30
0.0
 10
16.72548120427054
 20
-2.157241830908887
 30
0.0
 10
16.9360956658776
 20
-2.445024252717541
 30
0.0
 10
17.14687681916783
 20
-2.7053145441706
 30
0.0
 10
17.35579632542042
 20
-2.933668292943405
 30
0.0
 10
17.56483431301969
 20
-3.131680077969272
 30
0.0
 10
17.77700759148101
 20
-3.299373666636094
 30
0.0
 10
17.98938959236103
 20
-3.432275580771496
 30
0.0
 10
18.19992253876134
 20
-3.528912364796212
 30
0.0
 10
18.41062651168555
 20
-3.590093292884371
 30
0.0
 10
18.62000223302841
 20
-3.618235213448005
 30
0.0
 10
18.76052171115735
 20
-3.606594082303206
 30
0.0
 10
18.82856142595271
 20
-3.60095743140232
 30
0.0
  0
SPLINE
  5
B5
330
1F
100
AcDbEntity
  8
0
  6
Continuous
 62
     1
370
    15
100
AcDbSpline
210
0.0
220
0.0
230
1.0
 70
     8
 71
     3
 72
    39
 73
    35
 74
     0
 42
0.000000001
 43
0.00000001
 40
0.0
 40
0.0
 40
0.0
 40
0.0
 40
0.0186183939478753
 40
0.0515030258869958
 40
0.0843874436500291
 40
0.1182452797268616
 40
0.152102940305388
 40
0.184677435822961
 40
0.2172517867504272
 40
0.2507876962883445
 40
0.2843234225450285
 40
0.3166337004271731
 40
0.3489439198916163
 40
0.3822044286623787
 40
0.4154647720382508
 40
0.4475681704927476
 40
0.4796715453216269
 40
0.5127146621749089
 40
0.5457577111054868
 40
0.5777298392895726
 40
0.6097019190039684
 40
0.6426046886111875
 40
0.6755075523204196
 40
0.7074411434269712
 40
0.739374720908065
 40
0.7722316567049569
 40
0.8050887119680975
 40
0.8370931827913446
 40
0.8690978532876081
 40
0.9020188570004206
 40
0.9349399942819805
 40
0.9671682045787215
 40
0.9993967123620083
 40
1.0
 40
1.0
 40
1.0
 40
1.0
 10
24.9093347719786
 20
2.704992019371028
 30
0.0
 10
24.9519881213883
 20
2.71895387555201
 30
0.0
 10
25.06997770550412
 20
2.757575780445247
 30
0.0
 10
25.26491649481887
 20
2.785734005760356
 30
0.0
 10
25.49634786230905
 20
2.793228375172457
 30
0.0
 10
25.73175756489174
 20
2.766538315084186
 30
0.0
 10
25.96800637663275
 20
2.70810617359664
 30
0.0
 10
26.20282086267282
 20
2.619429811400007
 30
0.0
 10
26.43851970277723
 20
2.502380789047892
 30
0.0
 10
26.67818500735979
 20
2.355881603206065
 30
0.0
 10
26.91887377504328
 20
2.183414777951154
 30
0.0
 10
27.15832364920065
 20
1.989433870433436
 30
0.0
 10
27.39881529424695
 20
1.775565831702486
 30
0.0
 10
27.64334258881235
 20
1.541103069444719
 30
0.0
 10
27.88915708622189
 20
1.291790374788873
 30
0.0
 10
28.13393456054902
 20
1.033650035762028
 30
0.0
 10
28.37991751115961
 20
0.7679222776550524
 30
0.0
 10
28.63009474257115
 20
0.4946266332537918
 30
0.0
 10
28.8818931965288
 20
0.2205256136665837
 30
0.0
 10
29.13283663820394
 20
-0.0480583675995209
 30
0.0
 10
29.38524329357201
 20
-0.3103854867455035
 30
0.0
 10
29.642099694435
 20
-0.5654960513809071
 30
0.0
 10
29.90090464147344
 20
-0.8072191288070394
 30
0.0
 10
30.15908739469809
 20
-1.030159250160948
 30
0.0
 10
30.41917758661032
 20
-1.23406182420197
 30
0.0
 10
30.68391566987708
 20
-1.417445744404974
 30
0.0
 10
30.95094805948267
 20
-1.576044170275382
 30
0.0
 10
31.21781856859636
 20
-1.706308061543742
 30
0.0
 10
31.4870569387645
 20
-1.808868994985737
 30
0.0
 10
31.76107460474317
 20
-1.88201407545823
 30
0.0
 10
32.03795502697137
 20
-1.925318734847785
 30
0.0
 10
32.31556481196796
 20
-1.933519701781737
 30
0.0
 10
32.50181593362441
 20
-1.927886972560146
 30
0.0
 10
32.59692983660034
 20
-1.911298455576837
 30
0.0
 10
32.59867756440901
 20
-1.910993639860844
 30
0.0
  0
SPLINE
  5
B6
330
1F
100
AcDbEntity
  8
0
  6
Continuous
 62
     1
370
    15
100
AcDbSpline
210
0.0
220
0.0
230
1.0
 70
     8
 71
     3
 72
    33
 73
    29
 74
     0
 42
0.000000001
 43
0.00000001
 40
0.0
 40
0.0
 40
0.0
 40
0.0
 40
0.0610124745688249
 40
0.1232104820119838
 40
0.160242244567402
 40
0.197274083500503
 40
0.2353736057728543
 40
0.2734732284243444
 40
0.3106312186684271
 40
0.3477893818586184
 40
0.3860153906088877
 40
0.4242414872903104
 40
0.4615831535358702
 40
0.4989250193885535
 40
0.537336351253766
 40
0.5757478257720424
 40
0.6133401790071654
 40
0.6509327457594845
 40
0.6895991610179736
 40
0.7282657826802466
 40
0.7661631649005856
 40
0.8040607620407474
 40
0.8430385747234733
 40
0.8820166441709563
 40
0.9202663234551216
 40
0.9585162137904194
 40
0.9978543775497761
 40
1.0
 40
1.0
 40
1.0
 40
1.0
 10
34.65324355664868
 20
-1.653181983340175
 30
0.0
 10
34.51764256229551
 20
-1.653164217178755
 30
0.0
 10
34.2438057118214
 20
-1.653128339641784
 30
0.0
 10
33.89249851692629
 20
-1.570319627117163
 30
0.0
 10
33.59635802391484
 20
-1.461111079030525
 30
0.0
 10
33.3542117510232
 20
-1.345690734556324
 30
0.0
 10
33.11134992260462
 20
-1.205229762364735
 30
0.0
 10
32.86979508081711
 20
-1.04250056044962
 30
0.0
 10
32.63185618681955
 20
-0.8615312145071548
 30
0.0
 10
32.39519888540885
 20
-0.6637645663090608
 30
0.0
 10
32.15779439331103
 20
-0.449804530539531
 30
0.0
 10
31.92156477656219
 20
-0.2241998423231131
 30
0.0
 10
31.68873239019695
 20
0.0076980139437448
 30
0.0
 10
31.45697709464682
 20
0.2446440803341203
 30
0.0
 10
31.22449120417199
 20
0.4853665628758617
 30
0.0
 10
30.99301842831677
 20
0.7248417386025798
 30
0.0
 10
30.76469144967173
 20
0.9575200553879876
 30
0.0
 10
30.53724679985016
 20
1.182669698299103
 30
0.0
 10
30.30909052996304
 20
1.398588439433226
 30
0.0
 10
30.08181037912196
 20
1.60079374266036
 30
0.0
 10
29.85745831960687
 20
1.784689435785688
 30
0.0
 10
29.63384561428335
 20
1.950119688625558
 30
0.0
 10
29.40953261745997
 20
2.095379443152564
 30
0.0
 10
29.18597931446078
 20
2.217069352169744
 30
0.0
 10
28.9651288444161
 20
2.313521471254508
 30
0.0
 10
28.74505413211494
 20
2.381100768581941
 30
0.0
 10
28.59412353018043
 20
2.416841033736543
 30
0.0
 10
28.51624962273906
 20
2.42166428274388
 30
0.0
 10
28.51222183214038
 20
2.421913750603464
 30
0.0
  0
SPLINE
  5
B7
330
1F
100
AcDbEntity
  8
0
  6
Continuous
 62
     1
370
    15
100
AcDbSpline
210
0.0
220
0.0
230
1.0
 70
     8
 71
     3
 72
    44
 73
    40
 74
     0
 42
0.000000001
 43
0.00000001
 40
0.0
 40
0.0
 40
0.0
 40
0.0
 40
0.0095416191304347
 40
0.0359216182652091
 40
0.0619280851688608
 40
0.0879347448366698
 40
0.1146761973302935
 40
0.1414178813550014
 40
0.167786030372294
 40
0.194154377259301
 40
0.2212675326031867
 40
0.2483809229318574
 40
0.2751195123884184
 40
0.3018583043094148
 40
0.3293522182184099
 40
0.3568463698374805
 40
0.3839633453879832
 40
0.4110805275434907
 40
0.4389634138584084
 40
0.4668465398193807
 40
0.494349136589296
 40
0.521851943530874
 40
0.5501312805493948
 40
0.5784108583159907
 40
0.6063056875783046
 40
0.6342007296078926
 40
0.6628833505379119
 40
0.6915662124665477
 40
0.7198593305348762
 40
0.7481526684236411
 40
0.7772448354976111
 40
0.8063372468923374
 40
0.8350342240256796
 40
0.8637314281186106
 40
0.8932388970353994
 40
0.9227466129277627
 40
0.9518525798964473
 40
0.980958779596674
 40
1.0
 40
1.0
 40
1.0
 40
1.0
 10
22.69139983548786
 20
-2.979463747491191
 30
0.0
 10
22.66645887116309
 20
-2.994626539481017
 30
0.0
 10
22.57256287852354
 20
-3.051710354947508
 30
0.0
 10
22.4118308621929
 20
-3.120192800614427
 30
0.0
 10
22.2091479360212
 20
-3.183926960324449
 30
0.0
 10
22.00667110267682
 20
-3.215838909338198
 30
0.0
 10
21.80337040182584
 20
-3.216989273376992
 30
0.0
 10
21.60022419671718
 20
-3.186254178592443
 30
0.0
 10
21.3990579397146
 20
-3.124303802406867
 30
0.0
 10
21.19799010499783
 20
-3.03172091244933
 30
0.0
 10
20.99610452462569
 20
-2.907799357432611
 30
0.0
 10
20.7943410978013
 20
-2.753894586552642
 30
0.0
 10
20.59451719008153
 20
-2.572835586093877
 30
0.0
 10
20.39476033646141
 20
-2.365160797491167
 30
0.0
 10
20.19417212905635
 20
-2.130883749669255
 30
0.0
 10
19.99368286021008
 20
-1.873004263024744
 30
0.0
 10
19.79509629808862
 20
-1.596300969383744
 30
0.0
 10
19.59654928228794
 20
-1.301110974706813
 30
0.0
 10
19.39715677473483
 20
-0.9881763809319385
 30
0.0
 10
19.19784293979296
 20
-0.6617098610979986
 30
0.0
 10
19.00039958411012
 20
-0.327762516354716
 30
0.0
 10
18.80297183081359
 20
0.0136004128758427
 30
0.0
 10
18.60468389167154
 20
0.3610160585043761
 30
0.0
 10
18.40645633311447
 20
0.7096609601296561
 30
0.0
 10
18.21007097308877
 20
1.053082545557106
 30
0.0
 10
18.01368114455749
 20
1.391507453128146
 30
0.0
 10
17.81641650883188
 20
1.72314573510782
 30
0.0
 10
17.6191931771829
 20
2.043252574704537
 30
0.0
 10
17.42379278850992
 20
2.345914333780919
 30
0.0
 10
17.22836470574007
 20
2.631612278873494
 30
0.0
 10
17.03204659636133
 20
2.898381267210999
 30
0.0
 10
16.83575771160765
 20
3.14224354788985
 30
0.0
 10
16.64127221588767
 20
3.358679153951333
 30
0.0
 10
16.44674003113834
 20
3.548384574935278
 30
0.0
 10
16.25130309546849
 20
3.709359022830138
 30
0.0
 10
16.05587409726317
 20
3.839457032696257
 30
0.0
 10
15.86226750591829
 20
3.934437041256215
 30
0.0
 10
15.69240390611835
 20
3.993476191444846
 30
0.0
 10
15.58715636529373
 20
4.005780688527497
 30
0.0
 10
15.54553333300166
 20
4.01064684003466
 30
0.0
  0
ELLIPSE
  5
B8
330
1F
100
AcDbEntity
  8
0
  6
Continuous
 62
     1
370
    15
100
AcDbEllipse
 10
31.85763168362998
 20
0.3355619468210181
 30
0.0
 11
2.848847997980712
 21
-1.949202341131702
 31
0.0
210
0.0
220
0.0
230
1.0
 40
0.162581181818414
 41
6.100697801396928
 42
6.171236198560459
  0
ELLIPSE
  5
B9
330
1F
100
AcDbEntity
  8
0
  6
Continuous
 62
     1
370
    15
100
AcDbEllipse
 10
34.86473452281069
 20
-0.1387681924844718
 30
0.0
 11
2.266547902587028
 21
1.138653682821375
 31
0.0
210
0.0
220
0.0
230
1.0
 40
0.5077049906437803
 41
4.354109382271345
 42
4.638921825055263
  0
SPLINE
  5
BA
330
1F
100
AcDbEntity
  8
0
  6
Continuous
 62
     1
370
    15
100
AcDbSpline
210
0.0
220
0.0
230
1.0
 70
     8
 71
     3
 72
    13
 73
     9
 74
     0
 42
0.000000001
 43
0.00000001
 40
0.0
 40
0.0
 40
0.0
 40
0.0
 40
0.1585992660190375
 40
0.3378348767792375
 40
0.5218945330754837
 40
0.6708979102394567
 40
0.8238880973356
 40
1.0
 40
1.0
 40
1.0
 40
1.0
 10
34.24767646850695
 20
-1.233932337307083
 30
0.0
 10
34.27555502372231
 20
-1.200575366094749
 30
0.0
 10
34.33493958773938
 20
-1.129521139034866
 30
0.0
 10
34.43958771997973
 20
-1.02486383753204
 30
0.0
 10
34.55057674412735
 20
-0.9293628670817273
 30
0.0
 10
34.66129796149261
 20
-0.8497313148819717
 30
0.0
 10
34.77362498116813
 20
-0.7797648287097163
 30
0.0
 10
34.84825971909168
 20
-0.7522264225801407
 30
0.0
 10
34.88819889331613
 20
-0.7374898370320113
 30
0.0
  0
SPLINE
  5
BB
330
1F
100
AcDbEntity
  8
0
  6
Continuous
 62
     1
370
    15
100
AcDbSpline
210
0.0
220
0.0
230
1.0
 70
     8
 71
     3
 72
     8
 73
     4
 74
     0
 42
0.000000001
 43
0.00000001
 40
0.0
 40
0.0
 40
0.0
 40
0.0
 40
1.0
 40
1.0
 40
1.0
 40
1.0
 10
34.24767646850675
 20
-1.233932337306077
 30
0.0
 10
34.38337558144302
 20
-1.373779631981954
 30
0.0
 10
34.51730903584544
 20
-1.513289731896768
 30
0.0
 10
34.65324355664823
 20
-1.653181983339756
 30
0.0
  0
LINE
  5
BC
330
1F
100
AcDbEntity
  8
0
  6
Continuous
 62
     1
370
    15
100
AcDbLine
 10
35.2749081826537
 20
0.0048351518141002
 30
0.0
 11
35.2749081826537
 21
1.58170843527085
 31
0.0
  0
LINE
  5
BD
330
1F
100
AcDbEntity
  8
0
  6
Continuous
 62
     1
370
    15
100
AcDbLine
 10
35.2749081826537
 20
-0.9424100962332272
 30
0.0
 11
35.2749081826537
 21
-1.369980176693693
 31
0.0
  0
LINE
  5
BE
102
{ACAD_REACTORS
102
}
330
1F
100
AcDbEntity
  8
중심선
100
AcDbLine
 10
-56.62509181734629
 20
-0.0000000000000035
 30
0.0
 11
38.27490428620234
 21
-0.0000000000000035
 31
0.0
  0
CIRCLE
  5
BF
330
1F
100
AcDbEntity
  8
외형선
100
AcDbCircle
 10
-0.0000000000000013
 20
-0.0000000000000039
 30
0.0
 40
3.000000000000004
  0
INSERT
  5
C0
330
1F
100
AcDbEntity
  8
0
  6
Continuous
 62
     7
100
AcDbBlockReference
 66
     1
  2
블럭10
 10
-27.09604538669924
 20
-52.04717430164393
 30
0.0
  0
ATTRIB
  5
C1
330
C0
100
AcDbEntity
  8
FORMAT
 62
     2
100
AcDbText
 10
-36.27734067544051
 20
-49.97180738881174
 30
0.0
 40
4.233333333333333
  1
E5077798 [ 3 FLUTE ]
 41
0.75
  7
SLDTEXTSTYLE0
 11
-36.27734067544051
 21
-52.08847405547841
 31
0.0
100
AcDbAttribute
  2
AUTOATTR0
 70
     0
 74
     1
  0
SEQEND
  5
C2
330
C0
100
AcDbEntity
  8
0
  6
Continuous
 62
     7
  0
HATCH
  5
C3
330
1F
100
AcDbEntity
  8
중심선
100
AcDbHatch
 10
0.0
 20
0.0
 30
0.0
210
0.0
220
0.0
230
1.0
  2
SOLID
 70
     1
 71
     0
 91
        1
 92
        0
 93
        4
 72
     1
 10
-21.38113608231838
 20
-35.8
 11
-24.82741132615567
 21
-35.8
 72
     1
 10
-24.82741132615567
 20
-35.8
 11
-26.95564118535969
 21
-38.33632558057259
 72
     1
 10
-26.95564118535969
 20
-38.33632558057259
 11
-23.50933285640926
 21
-38.3362861512701
 72
     1
 10
-23.50933285640926
 20
-38.3362861512701
 11
-21.38113608231838
 21
-35.8
 97
        0
 75
     0
 76
     1
 98
        1
 10
-10.45659425795222
 20
0.0
  0
HATCH
  5
C4
330
1F
100
AcDbEntity
  8
중심선
100
AcDbHatch
 10
0.0
 20
0.0
 30
0.0
210
0.0
220
0.0
230
1.0
  2
SOLID
 70
     1
 71
     0
 91
        1
 92
        0
 93
        4
 72
     1
 10
-16.36837209128243
 20
-35.8
 11
-19.81464733511972
 21
-35.8
 72
     1
 10
-19.81464733511972
 20
-35.8
 11
-24.3457853434771
 21
-41.20000000000002
 72
     1
 10
-24.34578534347711
 20
-41.20000000000002
 11
-20.89951009963983
 21
-41.20000000000002
 72
     1
 10
-20.89951009963983
 20
-41.20000000000002
 11
-16.36837209128244
 21
-35.8
 97
        0
 75
     0
 76
     1
 98
        1
 10
-10.45659425795222
 20
0.0
  0
HATCH
  5
C5
330
1F
100
AcDbEntity
  8
중심선
100
AcDbHatch
 10
0.0
 20
0.0
 30
0.0
210
0.0
220
0.0
230
1.0
  2
SOLID
 70
     1
 71
     0
 91
        1
 92
        0
 93
        4
 72
     1
 10
-11.35560810024654
 20
-35.80000000000003
 11
-14.80188334408366
 21
-35.8
 72
     1
 10
-14.80188334408366
 20
-35.8
 11
-21.85032024597291
 21
-44.20000000000002
 72
     1
 10
-21.85032024597291
 20
-44.20000000000002
 11
-18.40404500213562
 21
-44.20000000000002
 72
     1
 10
-18.40404500213562
 20
-44.20000000000002
 11
-11.35560810024654
 21
-35.80000000000003
 97
        0
 75
     0
 76
     1
 98
        1
 10
-10.45659425795222
 20
0.0
  0
HATCH
  5
C6
330
1F
100
AcDbEntity
  8
중심선
100
AcDbHatch
 10
0.0
 20
0.0
 30
0.0
210
0.0
220
0.0
230
1.0
  2
SOLID
 70
     1
 71
     0
 91
        1
 92
        0
 93
        6
 72
     3
 10
-6.555717669234341
 20
-40.00000000005127
 11
3.960054785062284
 21
1.540882976769353E-10
 40
0.3939339440162627
 50
17.09539180608437
 51
320.0019657685081
 73
     0
 72
     1
 10
-4.872718013533746
 20
-38.5878940046383
 11
-2.567416139832708
 21
-36.65356729459038
 72
     3
 10
-6.555717669287188
 20
-40.00000000000015
 11
6.60005478528683
 21
-1.278976924368180E-13
 40
0.636358354079598
 50
39.99873849337411
 51
368.4976242363725
 73
     1
 72
     1
 10
-0.1303851773865787
 20
-39.03999999993002
 11
-7.875650362451266
 21
-39.03999999992999
 72
     1
 10
-7.875650362451266
 20
-39.03999999992999
 11
-7.8756754068972
 21
-40.95999999992991
 72
     1
 10
-7.875675406897199
 20
-40.95999999992991
 11
-3.434295637425162
 21
-40.95999999992988
 97
        0
 75
     0
 76
     1
 98
        1
 10
-10.45659425795222
 20
0.0
  0
POINT
  5
C7
330
1F
100
AcDbEntity
  8
치수문자_일반주서
100
AcDbPoint
 10
-0.0000000000000013
 20
-0.0000000000000039
 30
0.0
  0
DIMENSION
  5
C8
330
1F
100
AcDbEntity
  8
치수문자_일반주서
100
AcDbDimension
  2
_D
 10
9.874908182653712
 20
44.21247916292938
 30
0.0
 11
22.5749081826537
 21
44.21247916292938
 31
0.0
 70
   160
  1
<>
 71
     2
 42
25.39999999999998
  3
SLDDIMSTYLE0
100
AcDbAlignedDimension
 13
35.2749081826537
 23
1.58170843527085
 33
0.0
 14
9.874908182653712
 24
4.762499999999996
 34
0.0
100
AcDbRotatedDimension
1001
ACAD
1000
DSTYLE
1002
{
1070
   171
1070
     6
1070
   273
1070
     7
1002
}
  0
DIMENSION
  5
DE
330
1F
100
AcDbEntity
  8
치수문자_일반주서
100
AcDbDimension
  2
_D_1
 10
-53.62509181734629
 20
58.90823325518659
 30
0.0
 11
-12.62429849020569
 21
58.90823325518659
 31
0.0
 70
   160
  1
<>
 71
     2
 42
88.9
  3
SLDDIMSTYLE0
100
AcDbAlignedDimension
 13
35.2749081826537
 23
1.592335151814097
 33
0.0
 14
-53.6250918173463
 24
2.369835151814087
 34
0.0
 50
0.0000000000000053
100
AcDbRotatedDimension
1001
ACAD
1000
DSTYLE
1002
{
1070
   171
1070
     6
1070
   273
1070
     7
1002
}
  0
INSERT
  5
109
330
1F
100
AcDbEntity
  8
외형선
100
AcDbBlockReference
  2
SW_DOWELSYMBOL_0
 10
-0.0000000000000013
 20
-0.0000000000000039
 30
0.0
  0
LINE
  5
12E
330
1F
100
AcDbEntity
  8
0
100
AcDbLine
 10
35.2749081826537
 20
1.592335151814097
 30
0.0
 11
37.02206070382922
 21
1.592335151814097
 31
0.0
  0
LINE
  5
12F
330
1F
100
AcDbEntity
  8
0
100
AcDbLine
 10
35.2749081826537
 20
-1.582664848185903
 30
0.0
 11
37.02206070382922
 21
-1.582664848185903
 31
0.0
  0
DIMENSION
  5
132
102
{ACAD_XDICTIONARY
360
133
102
}
330
1F
100
AcDbEntity
  8
치수문자_일반주서
100
AcDbDimension
  2
*D7
 10
47.54346662503497
 20
1.592335151814096
 30
0.0
 11
44.91846662503497
 21
20.4463351518141
 31
0.0
 70
    32
  1
{%%c<>[]}
 71
     5
 42
3.175
  3
SLDDIMSTYLE0
100
AcDbAlignedDimension
 13
36.14848444324146
 23
-1.582664848185903
 33
0.0
 14
36.14848444324146
 24
1.592335151814097
 34
0.0
 50
90.0
100
AcDbRotatedDimension
1001
ACAD
1000
DSTYLE
1002
{
1070
   283
1070
     1
1070
   170
1070
     1
1070
   171
1070
     6
1070
   273
1070
     7
1002
}
  0
LINE
  5
145
102
{ACAD_REACTORS
102
}
330
1F
100
AcDbEntity
  8
가는실선
100
AcDbLine
 10
-52.62509181734631
 20
4.762499999999996
 30
0.0
 11
9.874908182653712
 21
4.762499999999996
 31
0.0
  0
LINE
  5
146
102
{ACAD_REACTORS
102
}
330
1F
100
AcDbEntity
  8
가는실선
100
AcDbLine
 10
-52.6250918173463
 20
-4.762500000000003
 30
0.0
 11
9.87490818265372
 21
-4.762500000000003
 31
0.0
  0
LINE
  5
148
330
1F
100
AcDbEntity
  8
가는실선
100
AcDbLine
 10
-53.62509181734631
 20
3.762499999999996
 30
0.0
 11
-53.62509181734632
 21
-3.762500000000003
 31
0.0
  0
LINE
  5
149
330
1F
100
AcDbEntity
  8
가는실선
100
AcDbLine
 10
-52.62509181734631
 20
4.762499999999996
 30
0.0
 11
-52.62509181734631
 21
-4.762500000000005
 31
0.0
  0
LINE
  5
14A
330
1F
100
AcDbEntity
  8
가는실선
100
AcDbLine
 10
-53.62509181734631
 20
3.762499999999996
 30
0.0
 11
-52.62509181734632
 21
4.762499999999996
 31
0.0
  0
LINE
  5
14B
330
1F
100
AcDbEntity
  8
가는실선
100
AcDbLine
 10
-53.62509181734632
 20
-3.762500000000003
 30
0.0
 11
-52.62509181734631
 21
-4.762500000000003
 31
0.0
  0
DIMENSION
  5
14C
102
{ACAD_REACTORS
102
}
102
{ACAD_XDICTIONARY
360
14D
102
}
330
1F
100
AcDbEntity
  8
치수문자_일반주서
100
AcDbDimension
  2
*D8
 10
-73.22732573005234
 20
4.762499999999997
 30
0.0
 11
-75.85232573005234
 21
24.49149999999999
 31
0.0
 70
    32
  1
{%%c<>[]}
 71
     5
 42
9.524999999999999
  3
SLDDIMSTYLE0
100
AcDbAlignedDimension
 13
-52.6250918173463
 23
-4.762500000000003
 33
0.0
 14
-52.62509181734631
 24
4.762499999999996
 34
0.0
 50
90.0
100
AcDbRotatedDimension
1001
ACAD
1000
DSTYLE
1002
{
1070
   283
1070
     1
1070
   170
1070
     1
1070
   171
1070
     6
1070
   273
1070
     7
1002
}
  0
DIMENSION
  5
15F
102
{ACAD_REACTORS
102
}
102
{ACAD_XDICTIONARY
360
160
102
}
330
1F
100
AcDbEntity
  8
치수문자_일반주서
100
AcDbDimension
  2
*D9
 10
16.57858061360789
 20
3.887955522876259
 30
0.0
 11
15.55282779385214
 21
13.74635130839584
 31
0.0
 70
    34
  1
<>
 71
     5
 42
0.1221730476396033
  3
SLDDIMSTYLE0
100
AcDb2LineAngularDimension
 13
-56.62509181734629
 23
-0.0000000000000035
 33
0.0
 14
38.27490428620234
 24
-0.0000000000000035
 34
0.0
 15
19.89474263314292
 25
3.480782025424761
 35
0.0
 16
15.52967478320244
 26
1.332983675473308
 36
0.0
1001
ACAD
1000
DSTYLE
1002
{
1070
   171
1070
     6
1070
   273
1070
     7
1002
}
  0
ENDSEC
  0
SECTION
  2
OBJECTS
  0
DICTIONARY
  5
C
330
0
100
AcDbDictionary
281
     1
  3
ACAD_GROUP
350
D
  3
ACAD_IMAGE_VARS
350
12D
  3
ACAD_LAYOUT
350
1A
  3
ACAD_MLINESTYLE
350
17
  3
ACAD_PLOTSETTINGS
350
19
  3
ACAD_PLOTSTYLENAME
350
E
  3
ACAD_SCALELIST
350
47
  3
APPDATA
350
12B
  3
DWGPROPS
350
172
  0
DICTIONARY
  5
133
330
132
100
AcDbDictionary
280
     1
281
     1
  0
DICTIONARY
  5
14D
330
14C
100
AcDbDictionary
280
     1
281
     1
  0
DICTIONARY
  5
160
330
15F
100
AcDbDictionary
280
     1
281
     1
  0
DICTIONARY
  5
D
102
{ACAD_REACTORS
330
C
102
}
330
C
100
AcDbDictionary
281
     1
  0
RASTERVARIABLES
  5
12D
102
{ACAD_REACTORS
330
C
102
}
330
C
100
AcDbRasterVariables
 90
        0
 70
     1
 71
     1
 72
     1
  0
DICTIONARY
  5
1A
102
{ACAD_REACTORS
330
C
102
}
330
C
100
AcDbDictionary
281
     1
  3
Layout1
350
1E
  3
Layout2
350
26
  3
Model
350
22
  0
DICTIONARY
  5
17
102
{ACAD_REACTORS
330
C
102
}
330
C
100
AcDbDictionary
281
     1
  3
Standard
350
18
  0
DICTIONARY
  5
19
102
{ACAD_REACTORS
330
C
102
}
330
C
100
AcDbDictionary
281
     1
  0
ACDBDICTIONARYWDFLT
  5
E
102
{ACAD_REACTORS
330
C
102
}
330
C
100
AcDbDictionary
281
     1
  3
Normal
350
F
100
AcDbDictionaryWithDefault
340
F
  0
DICTIONARY
  5
47
102
{ACAD_REACTORS
330
C
102
}
330
C
100
AcDbDictionary
281
     1
  3
A0
350
48
  3
A1
350
49
  3
A2
350
4A
  3
A3
350
4B
  3
A4
350
4C
  3
A5
350
4D
  3
A6
350
4E
  3
A7
350
4F
  3
A8
350
50
  3
A9
350
51
  3
B0
350
52
  3
B1
350
53
  3
B2
350
54
  3
B3
350
55
  3
B4
350
56
  3
B5
350
57
  3
B6
350
58
  3
B7
350
59
  3
B8
350
5A
  3
B9
350
5B
  3
C0
350
5C
  3
C1
350
5D
  3
C2
350
5E
  3
C3
350
5F
  3
C4
350
60
  3
C5
350
61
  3
C6
350
62
  3
C7
350
63
  3
C8
350
64
  3
C9
350
65
  3
D0
350
66
  3
D1
350
67
  3
D2
350
68
  0
DICTIONARY
  5
12B
102
{ACAD_REACTORS
330
C
102
}
330
C
100
AcDbDictionary
281
     1
  0
XRECORD
  5
172
102
{ACAD_REACTORS
330
C
102
}
330
C
100
AcDbXrecord
280
     1
  1
DWGPROPS COOKIE
  2

  3

  4

  6

  7

  8
12015048
  9

300
=
301
=
302
=
303
=
304
=
305
=
306
=
307
=
308
=
309
=
 40
0.0
 41
2458333.355994062
 42
2458340.101028426
  1

 90
        0
  0
LAYOUT
  5
1E
102
{ACAD_REACTORS
330
1A
102
}
330
1A
100
AcDbPlotSettings
  1

  2
none_device
  4

  6

 40
0.0
 41
0.0
 42
0.0
 43
0.0
 44
0.0
 45
0.0
 46
0.0
 47
0.0
 48
0.0
 49
0.0
140
0.0
141
0.0
142
1.0
143
1.0
 70
   688
 72
     1
 73
     0
 74
     5
  7

 75
    16
147
1.0
148
0.0
149
0.0
100
AcDbLayout
  1
Layout1
 70
     1
 71
     1
 10
0.0
 20
0.0
 11
420.0
 21
297.0
 12
0.0
 22
0.0
 32
0.0
 14
1.000000000000000E+20
 24
1.000000000000000E+20
 34
1.000000000000000E+20
 15
-1.000000000000000E+20
 25
-1.000000000000000E+20
 35
-1.000000000000000E+20
146
0.0
 13
0.0
 23
0.0
 33
0.0
 16
1.0
 26
0.0
 36
0.0
 17
0.0
 27
1.0
 37
0.0
 76
     0
330
1B
  0
LAYOUT
  5
26
102
{ACAD_REACTORS
330
1A
102
}
330
1A
100
AcDbPlotSettings
  1

  2
none_device
  4

  6

 40
0.0
 41
0.0
 42
0.0
 43
0.0
 44
0.0
 45
0.0
 46
0.0
 47
0.0
 48
0.0
 49
0.0
140
0.0
141
0.0
142
1.0
143
1.0
 70
   688
 72
     1
 73
     0
 74
     5
  7

 75
    16
147
1.0
148
0.0
149
0.0
100
AcDbLayout
  1
Layout2
 70
     1
 71
     2
 10
0.0
 20
0.0
 11
0.0
 21
0.0
 12
0.0
 22
0.0
 32
0.0
 14
0.0
 24
0.0
 34
0.0
 15
0.0
 25
0.0
 35
0.0
146
0.0
 13
0.0
 23
0.0
 33
0.0
 16
1.0
 26
0.0
 36
0.0
 17
0.0
 27
1.0
 37
0.0
 76
     0
330
23
  0
LAYOUT
  5
22
102
{ACAD_REACTORS
330
1A
102
}
330
1A
100
AcDbPlotSettings
  1

  2
none_device
  4
ANSI_A_(11.00_x_8.50_Inches)
  6

 40
6.35
 41
19.05
 42
6.35000508
 43
19.05000254
 44
279.4
 45
215.9
 46
174.9340741040018
 47
104.8357135932929
 48
0.0
 49
0.0
140
0.0
141
0.0
142
0.0914796403028641
143
1.0
 70
  1696
 72
     0
 73
     0
 74
     0
  7

 75
     0
147
0.0235690232323232
148
0.0
149
0.0
100
AcDbLayout
  1
Model
 70
     1
 71
     0
 10
0.0
 20
0.0
 11
420.0
 21
297.0
 12
0.0
 22
0.0
 32
0.0
 14
-77.60232573005234
 24
-49.97180738881174
 34
0.0
 15
48.09379995836831
 25
63.28323325518659
 35
0.0
146
0.0
 13
0.0
 23
0.0
 33
0.0
 16
1.0
 26
0.0
 36
0.0
 17
0.0
 27
1.0
 37
0.0
 76
     0
330
1F
331
29
  0
MLINESTYLE
  5
18
102
{ACAD_REACTORS
330
17
102
}
330
17
100
AcDbMlineStyle
  2
Standard
 70
     0
  3

 62
   256
 51
90.0
 52
90.0
 71
     2
 49
0.5
 62
   256
  6
BYLAYER
 49
-0.5
 62
   256
  6
BYLAYER
  0
ACDBPLACEHOLDER
  5
F
102
{ACAD_REACTORS
330
E
102
}
330
E
  0
SCALE
  5
48
102
{ACAD_REACTORS
330
47
102
}
330
47
100
AcDbScale
 70
     0
300
1:1
140
1.0
141
1.0
290
     1
  0
SCALE
  5
49
102
{ACAD_REACTORS
330
47
102
}
330
47
100
AcDbScale
 70
     0
300
1:2
140
1.0
141
2.0
290
     0
  0
SCALE
  5
4A
102
{ACAD_REACTORS
330
47
102
}
330
47
100
AcDbScale
 70
     0
300
1:4
140
1.0
141
4.0
290
     0
  0
SCALE
  5
4B
102
{ACAD_REACTORS
330
47
102
}
330
47
100
AcDbScale
 70
     0
300
1:5
140
1.0
141
5.0
290
     0
  0
SCALE
  5
4C
102
{ACAD_REACTORS
330
47
102
}
330
47
100
AcDbScale
 70
     0
300
1:8
140
1.0
141
8.0
290
     0
  0
SCALE
  5
4D
102
{ACAD_REACTORS
330
47
102
}
330
47
100
AcDbScale
 70
     0
300
1:10
140
1.0
141
10.0
290
     0
  0
SCALE
  5
4E
102
{ACAD_REACTORS
330
47
102
}
330
47
100
AcDbScale
 70
     0
300
1:16
140
1.0
141
16.0
290
     0
  0
SCALE
  5
4F
102
{ACAD_REACTORS
330
47
102
}
330
47
100
AcDbScale
 70
     0
300
1:20
140
1.0
141
20.0
290
     0
  0
SCALE
  5
50
102
{ACAD_REACTORS
330
47
102
}
330
47
100
AcDbScale
 70
     0
300
1:30
140
1.0
141
30.0
290
     0
  0
SCALE
  5
51
102
{ACAD_REACTORS
330
47
102
}
330
47
100
AcDbScale
 70
     0
300
1:40
140
1.0
141
40.0
290
     0
  0
SCALE
  5
52
102
{ACAD_REACTORS
330
47
102
}
330
47
100
AcDbScale
 70
     0
300
1:50
140
1.0
141
50.0
290
     0
  0
SCALE
  5
53
102
{ACAD_REACTORS
330
47
102
}
330
47
100
AcDbScale
 70
     0
300
1:100
140
1.0
141
100.0
290
     0
  0
SCALE
  5
54
102
{ACAD_REACTORS
330
47
102
}
330
47
100
AcDbScale
 70
     0
300
2:1
140
2.0
141
1.0
290
     0
  0
SCALE
  5
55
102
{ACAD_REACTORS
330
47
102
}
330
47
100
AcDbScale
 70
     0
300
4:1
140
4.0
141
1.0
290
     0
  0
SCALE
  5
56
102
{ACAD_REACTORS
330
47
102
}
330
47
100
AcDbScale
 70
     0
300
8:1
140
8.0
141
1.0
290
     0
  0
SCALE
  5
57
102
{ACAD_REACTORS
330
47
102
}
330
47
100
AcDbScale
 70
     0
300
10:1
140
10.0
141
1.0
290
     0
  0
SCALE
  5
58
102
{ACAD_REACTORS
330
47
102
}
330
47
100
AcDbScale
 70
     0
300
100:1
140
100.0
141
1.0
290
     0
  0
SCALE
  5
59
102
{ACAD_REACTORS
330
47
102
}
330
47
100
AcDbScale
 70
     0
300
1/128" = 1'-0"
140
0.0078125
141
12.0
290
     0
  0
SCALE
  5
5A
102
{ACAD_REACTORS
330
47
102
}
330
47
100
AcDbScale
 70
     0
300
1/64" = 1'-0"
140
0.015625
141
12.0
290
     0
  0
SCALE
  5
5B
102
{ACAD_REACTORS
330
47
102
}
330
47
100
AcDbScale
 70
     0
300
1/32" = 1'-0"
140
0.03125
141
12.0
290
     0
  0
SCALE
  5
5C
102
{ACAD_REACTORS
330
47
102
}
330
47
100
AcDbScale
 70
     0
300
1/16" = 1'-0"
140
0.0625
141
12.0
290
     0
  0
SCALE
  5
5D
102
{ACAD_REACTORS
330
47
102
}
330
47
100
AcDbScale
 70
     0
300
3/32" = 1'-0"
140
0.09375
141
12.0
290
     0
  0
SCALE
  5
5E
102
{ACAD_REACTORS
330
47
102
}
330
47
100
AcDbScale
 70
     0
300
1/8" = 1'-0"
140
0.125
141
12.0
290
     0
  0
SCALE
  5
5F
102
{ACAD_REACTORS
330
47
102
}
330
47
100
AcDbScale
 70
     0
300
3/16" = 1'-0"
140
0.1875
141
12.0
290
     0
  0
SCALE
  5
60
102
{ACAD_REACTORS
330
47
102
}
330
47
100
AcDbScale
 70
     0
300
1/4" = 1'-0"
140
0.25
141
12.0
290
     0
  0
SCALE
  5
61
102
{ACAD_REACTORS
330
47
102
}
330
47
100
AcDbScale
 70
     0
300
3/8" = 1'-0"
140
0.375
141
12.0
290
     0
  0
SCALE
  5
62
102
{ACAD_REACTORS
330
47
102
}
330
47
100
AcDbScale
 70
     0
300
1/2" = 1'-0"
140
0.5
141
12.0
290
     0
  0
SCALE
  5
63
102
{ACAD_REACTORS
330
47
102
}
330
47
100
AcDbScale
 70
     0
300
3/4" = 1'-0"
140
0.75
141
12.0
290
     0
  0
SCALE
  5
64
102
{ACAD_REACTORS
330
47
102
}
330
47
100
AcDbScale
 70
     0
300
1" = 1'-0"
140
1.0
141
12.0
290
     0
  0
SCALE
  5
65
102
{ACAD_REACTORS
330
47
102
}
330
47
100
AcDbScale
 70
     0
300
1-1/2" = 1'-0"
140
1.5
141
12.0
290
     0
  0
SCALE
  5
66
102
{ACAD_REACTORS
330
47
102
}
330
47
100
AcDbScale
 70
     0
300
3" = 1'-0"
140
3.0
141
12.0
290
     0
  0
SCALE
  5
67
102
{ACAD_REACTORS
330
47
102
}
330
47
100
AcDbScale
 70
     0
300
6" = 1'-0"
140
6.0
141
12.0
290
     0
  0
SCALE
  5
68
102
{ACAD_REACTORS
330
47
102
}
330
47
100
AcDbScale
 70
     0
300
1'-0" = 1'-0"
140
12.0
141
12.0
290
     0
  0
ENDSEC
  0
EOF
