  0
SECTION
  2
HEADER
  9
$ACADVER
  1
AC1015
  9
$ACADMAINTVER
 70
     6
  9
$DWGCODEPAGE
  3
ANSI_949
  9
$INSBASE
 10
0.0
 20
0.0
 30
0.0
  9
$EXTMIN
 10
-84.76273754580625
 20
-49.97180738881174
 30
0.0
  9
$EXTMAX
 10
57.20884167350899
 20
64.79401131756238
 30
0.0
  9
$LIMMIN
 10
0.0
 20
0.0
  9
$LIMMAX
 10
420.0
 20
297.0
  9
$ORTHOMODE
 70
     0
  9
$REGENMODE
 70
     1
  9
$FILLMODE
 70
     1
  9
$QTEXTMODE
 70
     0
  9
$MIRRTEXT
 70
     1
  9
$LTSCALE
 40
1.0
  9
$ATTMODE
 70
     1
  9
$TEXTSIZE
 40
3.5
  9
$TRACEWID
 40
1.0
  9
$TEXTSTYLE
  7
Standard
  9
$CLAYER
  8
0
  9
$CELTYPE
  6
ByLayer
  9
$CECOLOR
 62
   256
  9
$CELTSCALE
 40
1.0
  9
$DISPSILH
 70
     0
  9
$DIMSCALE
 40
1.0
  9
$DIMASZ
 40
3.302
  9
$DIMEXO
 40
1.0
  9
$DIMDLI
 40
3.75
  9
$DIMRND
 40
0.0
  9
$DIMDLE
 40
0.0
  9
$DIMEXE
 40
1.0
  9
$DIMTP
 40
0.0
  9
$DIMTM
 40
0.0
  9
$DIMTXT
 40
3.5
  9
$DIMCEN
 40
2.5
  9
$DIMTSZ
 40
0.0
  9
$DIMTOL
 70
     0
  9
$DIMLIM
 70
     0
  9
$DIMTIH
 70
     1
  9
$DIMTOH
 70
     1
  9
$DIMSE1
 70
     0
  9
$DIMSE2
 70
     0
  9
$DIMTAD
 70
     1
  9
$DIMZIN
 70
     0
  9
$DIMBLK
  1

  9
$DIMASO
 70
     1
  9
$DIMSHO
 70
     1
  9
$DIMPOST
  1

  9
$DIMAPOST
  1

  9
$DIMALT
 70
     0
  9
$DIMALTD
 70
     3
  9
$DIMALTF
 40
0.0393700787401575
  9
$DIMLFAC
 40
1.0
  9
$DIMTOFL
 70
     1
  9
$DIMTVP
 40
0.0
  9
$DIMTIX
 70
     0
  9
$DIMSOXD
 70
     0
  9
$DIMSAH
 70
     0
  9
$DIMBLK1
  1

  9
$DIMBLK2
  1

  9
$DIMSTYLE
  2
ISO-25
  9
$DIMCLRD
 70
     0
  9
$DIMCLRE
 70
     0
  9
$DIMCLRT
 70
     0
  9
$DIMTFAC
 40
1.0
  9
$DIMGAP
 40
1.524
  9
$DIMJUST
 70
     0
  9
$DIMSD1
 70
     0
  9
$DIMSD2
 70
     0
  9
$DIMTOLJ
 70
     0
  9
$DIMTZIN
 70
     0
  9
$DIMALTZ
 70
     0
  9
$DIMALTTZ
 70
     0
  9
$DIMUPT
 70
     0
  9
$DIMDEC
 70
     2
  9
$DIMTDEC
 70
     2
  9
$DIMALTU
 70
     2
  9
$DIMALTTD
 70
     3
  9
$DIMTXSTY
  7
Standard
  9
$DIMAUNIT
 70
     0
  9
$DIMADEC
 70
     2
  9
$DIMALTRND
 40
0.0
  9
$DIMAZIN
 70
     0
  9
$DIMDSEP
 70
    44
  9
$DIMATFIT
 70
     3
  9
$DIMFRAC
 70
     0
  9
$DIMLDRBLK
  1

  9
$DIMLUNIT
 70
     2
  9
$DIMLWD
 70
    -2
  9
$DIMLWE
 70
    -2
  9
$DIMTMOVE
 70
     0
  9
$LUNITS
 70
     2
  9
$LUPREC
 70
     2
  9
$SKETCHINC
 40
1.0
  9
$FILLETRAD
 40
10.0
  9
$AUNITS
 70
     0
  9
$AUPREC
 70
     2
  9
$MENU
  1
.
  9
$ELEVATION
 40
0.0
  9
$PELEVATION
 40
0.0
  9
$THICKNESS
 40
0.0
  9
$LIMCHECK
 70
     0
  9
$CHAMFERA
 40
0.0
  9
$CHAMFERB
 40
0.0
  9
$CHAMFERC
 40
0.81
  9
$CHAMFERD
 40
0.7853981633974483
  9
$SKPOLY
 70
     0
  9
$TDCREATE
 40
2458333.730873195
  9
$TDUCREATE
 40
2458333.355873195
  9
$TDUPDATE
 40
2458340.472397269
  9
$TDUUPDATE
 40
2458340.097397269
  9
$TDINDWG
 40
0.0002364236
  9
$TDUSRTIMER
 40
2458340.092146516
  9
$USRTIMER
 70
     1
  9
$ANGBASE
 50
0.0
  9
$ANGDIR
 70
     0
  9
$PDMODE
 70
     0
  9
$PDSIZE
 40
-1.0
  9
$PLINEWID
 40
0.0
  9
$SPLFRAME
 70
     0
  9
$SPLINETYPE
 70
     6
  9
$SPLINESEGS
 70
     8
  9
$HANDSEED
  5
17B
  9
$SURFTAB1
 70
     6
  9
$SURFTAB2
 70
     6
  9
$SURFTYPE
 70
     6
  9
$SURFU
 70
     6
  9
$SURFV
 70
     6
  9
$UCSBASE
  2

  9
$UCSNAME
  2

  9
$UCSORG
 10
0.0
 20
0.0
 30
0.0
  9
$UCSXDIR
 10
1.0
 20
0.0
 30
0.0
  9
$UCSYDIR
 10
0.0
 20
1.0
 30
0.0
  9
$UCSORTHOREF
  2

  9
$UCSORTHOVIEW
 70
     0
  9
$UCSORGTOP
 10
0.0
 20
0.0
 30
0.0
  9
$UCSORGBOTTOM
 10
0.0
 20
0.0
 30
0.0
  9
$UCSORGLEFT
 10
0.0
 20
0.0
 30
0.0
  9
$UCSORGRIGHT
 10
0.0
 20
0.0
 30
0.0
  9
$UCSORGFRONT
 10
0.0
 20
0.0
 30
0.0
  9
$UCSORGBACK
 10
0.0
 20
0.0
 30
0.0
  9
$PUCSBASE
  2

  9
$PUCSNAME
  2

  9
$PUCSORG
 10
0.0
 20
0.0
 30
0.0
  9
$PUCSXDIR
 10
1.0
 20
0.0
 30
0.0
  9
$PUCSYDIR
 10
0.0
 20
1.0
 30
0.0
  9
$PUCSORTHOREF
  2

  9
$PUCSORTHOVIEW
 70
     0
  9
$PUCSORGTOP
 10
0.0
 20
0.0
 30
0.0
  9
$PUCSORGBOTTOM
 10
0.0
 20
0.0
 30
0.0
  9
$PUCSORGLEFT
 10
0.0
 20
0.0
 30
0.0
  9
$PUCSORGRIGHT
 10
0.0
 20
0.0
 30
0.0
  9
$PUCSORGFRONT
 10
0.0
 20
0.0
 30
0.0
  9
$PUCSORGBACK
 10
0.0
 20
0.0
 30
0.0
  9
$USERI1
 70
     0
  9
$USERI2
 70
     0
  9
$USERI3
 70
     0
  9
$USERI4
 70
     0
  9
$USERI5
 70
     0
  9
$USERR1
 40
0.0
  9
$USERR2
 40
0.0
  9
$USERR3
 40
0.0
  9
$USERR4
 40
0.0
  9
$USERR5
 40
0.0
  9
$WORLDVIEW
 70
     1
  9
$SHADEDGE
 70
     3
  9
$SHADEDIF
 70
    70
  9
$TILEMODE
 70
     1
  9
$MAXACTVP
 70
    64
  9
$PINSBASE
 10
0.0
 20
0.0
 30
0.0
  9
$PLIMCHECK
 70
     0
  9
$PEXTMIN
 10
1.000000000000000E+20
 20
1.000000000000000E+20
 30
1.000000000000000E+20
  9
$PEXTMAX
 10
-1.000000000000000E+20
 20
-1.000000000000000E+20
 30
-1.000000000000000E+20
  9
$PLIMMIN
 10
0.0
 20
0.0
  9
$PLIMMAX
 10
0.0
 20
0.0
  9
$UNITMODE
 70
     0
  9
$VISRETAIN
 70
     1
  9
$PLINEGEN
 70
     0
  9
$PSLTSCALE
 70
     1
  9
$TREEDEPTH
 70
  3020
  9
$CMLSTYLE
  2
Standard
  9
$CMLJUST
 70
     0
  9
$CMLSCALE
 40
20.0
  9
$PROXYGRAPHICS
 70
     1
  9
$MEASUREMENT
 70
     1
  9
$CELWEIGHT
370
    -1
  9
$ENDCAPS
280
     0
  9
$JOINSTYLE
280
     0
  9
$LWDISPLAY
290
     1
  9
$INSUNITS
 70
     4
  9
$HYPERLINKBASE
  1

  9
$STYLESHEET
  1

  9
$XEDIT
290
     1
  9
$CEPSNTYPE
380
     0
  9
$PSTYLEMODE
290
     1
  9
$FINGERPRINTGUID
  2
{E6DBBB64-EFAF-4A78-895A-CCB61130015F}
  9
$VERSIONGUID
  2
{FAEB1C32-E019-11D5-929B-00C0DF256EC4}
  9
$EXTNAMES
290
     1
  9
$PSVPSCALE
 40
0.0
  9
$OLESTARTUP
290
     0
  0
ENDSEC
  0
SECTION
  2
CLASSES
  0
CLASS
  1
ACDBDICTIONARYWDFLT
  2
AcDbDictionaryWithDefault
  3
ObjectDBX Classes
 90
        0
280
     0
281
     0
  0
CLASS
  1
VISUALSTYLE
  2
AcDbVisualStyle
  3
ObjectDBX Classes
 90
     4095
280
     0
281
     0
  0
CLASS
  1
MATERIAL
  2
AcDbMaterial
  3
ObjectDBX Classes
 90
     1153
280
     0
281
     0
  0
CLASS
  1
SCALE
  2
AcDbScale
  3
ObjectDBX Classes
 90
     1153
280
     0
281
     0
  0
CLASS
  1
SUN
  2
AcDbSun
  3
SCENEOE
 90
     1153
280
     0
281
     0
  0
CLASS
  1
ACDBPLACEHOLDER
  2
AcDbPlaceHolder
  3
ObjectDBX Classes
 90
        0
280
     0
281
     0
  0
CLASS
  1
LAYOUT
  2
AcDbLayout
  3
ObjectDBX Classes
 90
        0
280
     0
281
     0
  0
CLASS
  1
TABLESTYLE
  2
AcDbTableStyle
  3
ObjectDBX Classes
 90
     4095
280
     0
281
     0
  0
CLASS
  1
MLEADERSTYLE
  2
AcDbMLeaderStyle
  3
ACDB_MLEADERSTYLE_CLASS
 90
     4095
280
     0
281
     0
  0
CLASS
  1
RASTERVARIABLES
  2
AcDbRasterVariables
  3
ISM
 90
        0
280
     0
281
     0
  0
CLASS
  1
DIMASSOC
  2
AcDbDimAssoc
  3
"AcDbDimAssoc|Product Desc:     AcDim ARX App For Dimension|Company:          Autodesk, Inc.|WEB Address:      www.autodesk.com"
 90
        0
280
     0
281
     0
  0
CLASS
  1
DICTIONARYVAR
  2
AcDbDictionaryVar
  3
ObjectDBX Classes
 90
        0
280
     0
281
     0
  0
ENDSEC
  0
SECTION
  2
TABLES
  0
TABLE
  2
VPORT
  5
8
330
0
100
AcDbSymbolTable
 70
     1
  0
VPORT
  5
29
330
8
100
AcDbSymbolTableRecord
100
AcDbViewportTableRecord
  2
*Active
 70
     0
 10
0.0
 20
0.0
 11
1.0
 21
1.0
 12
-7.43188957285944
 22
9.808752158494329
 13
0.0
 23
0.0
 14
10.0
 24
10.0
 15
10.0
 25
10.0
 16
0.0
 26
0.0
 36
1.0
 17
0.0
 27
0.0
 37
0.0
 40
141.9835933836544
 41
1.444267515923567
 42
50.0
 43
0.0
 44
0.0
 50
0.0
 51
0.0
 71
    16
 72
  2000
 73
     1
 74
     3
 75
     0
 76
     0
 77
     0
 78
     0
281
     0
 65
     1
110
0.0
120
0.0
130
0.0
111
1.0
121
0.0
131
0.0
112
0.0
122
1.0
132
0.0
 79
     0
146
0.0
  0
ENDTAB
  0
TABLE
  2
LTYPE
  5
5
330
0
100
AcDbSymbolTable
 70
     6
  0
LTYPE
  5
14
330
5
100
AcDbSymbolTableRecord
100
AcDbLinetypeTableRecord
  2
ByBlock
 70
     0
  3

 72
    65
 73
     0
 40
0.0
  0
LTYPE
  5
15
330
5
100
AcDbSymbolTableRecord
100
AcDbLinetypeTableRecord
  2
ByLayer
 70
     0
  3

 72
    65
 73
     0
 40
0.0
  0
LTYPE
  5
16
330
5
100
AcDbSymbolTableRecord
100
AcDbLinetypeTableRecord
  2
Continuous
 70
     0
  3
Solid line
 72
    65
 73
     0
 40
0.0
  0
LTYPE
  5
6A
330
5
100
AcDbSymbolTableRecord
100
AcDbLinetypeTableRecord
  2
HIDDEN
 70
     0
  3
Hidden __ __ __ __ __ __ __ __ __ __ __ __ __ __
 72
    65
 73
     2
 40
1.905
 49
1.27
 74
     0
 49
-0.635
 74
     0
  0
LTYPE
  5
6B
330
5
100
AcDbSymbolTableRecord
100
AcDbLinetypeTableRecord
  2
PHANTOM
 70
     0
  3
Phantom ______  __  __  ______  __  __  ______
 72
    65
 73
     6
 40
12.7
 49
6.35
 74
     0
 49
-1.27
 74
     0
 49
1.27
 74
     0
 49
-1.27
 74
     0
 49
1.27
 74
     0
 49
-1.27
 74
     0
  0
LTYPE
  5
6C
330
5
100
AcDbSymbolTableRecord
100
AcDbLinetypeTableRecord
  2
CENTER
 70
     0
  3
Center ____ _ ____ _ ____ _ ____ _ ____ _ ____
 72
    65
 73
     4
 40
10.16
 49
6.35
 74
     0
 49
-1.27
 74
     0
 49
1.27
 74
     0
 49
-1.27
 74
     0
  0
LTYPE
  5
6D
330
5
100
AcDbSymbolTableRecord
100
AcDbLinetypeTableRecord
  2
CENTERX2
 70
     0
  3
Center (2x) ________  __  ________  __  _____
 72
    65
 73
     4
 40
20.32
 49
12.7
 74
     0
 49
-2.54
 74
     0
 49
2.54
 74
     0
 49
-2.54
 74
     0
  0
LTYPE
  5
6E
330
5
100
AcDbSymbolTableRecord
100
AcDbLinetypeTableRecord
  2
DOT2
 70
     0
  3
Dot (.5x) ........................................
 72
    65
 73
     2
 40
0.635
 49
0.0
 74
     0
 49
-0.635
 74
     0
  0
ENDTAB
  0
TABLE
  2
LAYER
  5
2
330
0
100
AcDbSymbolTable
 70
    17
  0
LAYER
  5
10
330
2
100
AcDbSymbolTableRecord
100
AcDbLayerTableRecord
  2
0
 70
     0
 62
     7
  6
Continuous
370
    -3
390
F
  0
LAYER
  5
6F
330
2
100
AcDbSymbolTableRecord
100
AcDbLayerTableRecord
  2
FORMAT
 70
     0
 62
     2
  6
Continuous
370
    -3
390
F
  0
LAYER
  5
70
330
2
100
AcDbSymbolTableRecord
100
AcDbLayerTableRecord
  2
외형선
 70
     0
 62
   100
  6
Continuous
370
    30
390
F
  0
LAYER
  5
71
330
2
100
AcDbSymbolTableRecord
100
AcDbLayerTableRecord
  2
숨은선
 70
     0
 62
     2
  6
HIDDEN
370
    15
390
F
  0
LAYER
  5
72
330
2
100
AcDbSymbolTableRecord
100
AcDbLayerTableRecord
  2
중심선
 70
     0
 62
     1
  6
CENTERX2
370
    -3
390
F
  0
LAYER
  5
73
330
2
100
AcDbSymbolTableRecord
100
AcDbLayerTableRecord
  2
파단선
 70
     0
 62
     4
  6
Continuous
370
    -3
390
F
  0
LAYER
  5
74
330
2
100
AcDbSymbolTableRecord
100
AcDbLayerTableRecord
  2
해칭선
 70
     0
 62
     4
  6
Continuous
370
    -3
390
F
  0
LAYER
  5
75
330
2
100
AcDbSymbolTableRecord
100
AcDbLayerTableRecord
  2
가는실선
 70
     0
 62
     4
  6
Continuous
370
    -3
390
F
  0
LAYER
  5
76
330
2
100
AcDbSymbolTableRecord
100
AcDbLayerTableRecord
  2
치수_보조선
 70
     0
 62
     4
  6
Continuous
370
    -3
390
F
  0
LAYER
  5
77
330
2
100
AcDbSymbolTableRecord
100
AcDbLayerTableRecord
  2
치수문자_일반주서
 70
     0
 62
     7
  6
Continuous
370
    15
390
F
  0
LAYER
  5
78
330
2
100
AcDbSymbolTableRecord
100
AcDbLayerTableRecord
  2
개별주서
 70
     0
 62
   100
  6
Continuous
370
    30
390
F
  0
LAYER
  5
79
330
2
100
AcDbSymbolTableRecord
100
AcDbLayerTableRecord
  2
중간선
 70
     0
 62
     2
  6
Continuous
370
    15
390
F
  0
LAYER
  5
7A
330
2
100
AcDbSymbolTableRecord
100
AcDbLayerTableRecord
  2
윤곽선
 70
     0
 62
     3
  6
Continuous
370
    40
390
F
  0
LAYER
  5
7B
330
2
100
AcDbSymbolTableRecord
100
AcDbLayerTableRecord
  2
중심마크
 70
     0
 62
   100
  6
Continuous
370
    30
390
F
  0
LAYER
  5
7C
330
2
100
AcDbSymbolTableRecord
100
AcDbLayerTableRecord
  2
가상선
 70
     0
 62
     4
  6
PHANTOM
370
    -3
390
F
  0
LAYER
  5
7D
330
2
100
AcDbSymbolTableRecord
100
AcDbLayerTableRecord
  2
특수지정선
 70
     0
 62
     5
  6
CENTERX2
370
    60
390
F
  0
LAYER
  5
135
330
2
100
AcDbSymbolTableRecord
100
AcDbLayerTableRecord
  2
Defpoints
 70
     0
 62
     7
  6
Continuous
290
     0
370
    -3
390
F
  0
ENDTAB
  0
TABLE
  2
STYLE
  5
3
330
0
100
AcDbSymbolTable
 70
     2
  0
STYLE
  5
11
330
3
100
AcDbSymbolTableRecord
100
AcDbTextStyleTableRecord
  2
Standard
 70
     0
 40
0.0
 41
1.0
 50
0.0
 71
     0
 42
3.5
  3
txt
  4

  0
STYLE
  5
93
330
3
100
AcDbSymbolTableRecord
100
AcDbTextStyleTableRecord
  2
SLDTEXTSTYLE0
 70
     0
 40
0.0
 41
0.75
 50
0.0
 71
     0
 42
3.5
  3
TXT
  4

  0
ENDTAB
  0
TABLE
  2
VIEW
  5
6
330
0
100
AcDbSymbolTable
 70
     0
  0
ENDTAB
  0
TABLE
  2
UCS
  5
7
330
0
100
AcDbSymbolTable
 70
     0
  0
ENDTAB
  0
TABLE
  2
APPID
  5
9
330
0
100
AcDbSymbolTable
 70
     2
  0
APPID
  5
12
330
9
100
AcDbSymbolTableRecord
100
AcDbRegAppTableRecord
  2
ACAD
 70
     0
  0
APPID
  5
159
330
9
100
AcDbSymbolTableRecord
100
AcDbRegAppTableRecord
  2
PE_DIMMEASUREMENT
 70
     0
  0
ENDTAB
  0
TABLE
  2
DIMSTYLE
  5
A
330
0
100
AcDbSymbolTable
 70
     4
100
AcDbDimStyleTable
  0
DIMSTYLE
105
27
330
A
100
AcDbSymbolTableRecord
100
AcDbDimStyleTableRecord
  2
ISO-25
 70
     0
 41
2.5
 42
0.625
 43
3.75
 44
1.25
 73
     0
 74
     0
 77
     1
 78
     8
140
2.5
141
2.5
143
0.03937007874016
147
0.625
171
     3
172
     1
178
     0
271
     2
272
     2
274
     3
278
    44
283
     0
284
     8
340
11
  0
DIMSTYLE
105
C5
102
{ACAD_REACTORS
330
C4
102
}
330
A
100
AcDbSymbolTableRecord
100
AcDbDimStyleTableRecord
  2
SLDDIMSTYLE0
 70
     0
 41
3.302
 44
0.0
 45
0.000000001
 73
     0
 74
     0
 77
     1
 78
    12
 79
     3
140
3.5
143
0.0393700787401575
147
0.875
148
0.000000001
170
     1
172
     1
173
     1
178
     0
271
     2
272
     2
276
     2
284
    12
289
     0
340
93
  0
DIMSTYLE
105
DB
102
{ACAD_REACTORS
330
DA
330
148
330
136
330
167
102
}
330
A
100
AcDbSymbolTableRecord
100
AcDbDimStyleTableRecord
  2
SLDDIMSTYLE1
 70
     0
 41
3.302
 44
0.0
 45
0.000000001
 73
     0
 74
     0
 77
     1
 78
     4
 79
     1
140
3.5
143
0.0393700787401575
147
0.875
148
0.000000001
170
     1
173
     1
178
     0
271
     2
272
     2
276
     2
284
    12
340
93
  0
DIMSTYLE
105
EF
330
A
100
AcDbSymbolTableRecord
100
AcDbDimStyleTableRecord
  2
SLDDIMSTYLE2
 70
     0
 41
3.302
 44
0.0
 45
0.000000001
 73
     0
 74
     0
 77
     1
 78
     8
 79
     2
140
3.5
143
0.0393700787401575
147
0.875
148
0.000000001
170
     1
172
     1
173
     1
178
     0
271
     2
272
     2
276
     2
284
    12
289
     0
340
93
341
F0
343
F0
344
F0
  0
ENDTAB
  0
TABLE
  2
BLOCK_RECORD
  5
1
330
0
100
AcDbSymbolTable
 70
    10
  0
BLOCK_RECORD
  5
1F
330
1
100
AcDbSymbolTableRecord
100
AcDbBlockTableRecord
  2
*Model_Space
340
22
  0
BLOCK_RECORD
  5
1B
330
1
100
AcDbSymbolTableRecord
100
AcDbBlockTableRecord
  2
*Paper_Space
340
1E
  0
BLOCK_RECORD
  5
23
330
1
100
AcDbSymbolTableRecord
100
AcDbBlockTableRecord
  2
*Paper_Space0
340
26
  0
BLOCK_RECORD
  5
7E
330
1
100
AcDbSymbolTableRecord
100
AcDbBlockTableRecord
  2
블럭10
340
0
102
{BLKREFS
331
BC
102
}
  0
BLOCK_RECORD
  5
C6
330
1
100
AcDbSymbolTableRecord
100
AcDbBlockTableRecord
  2
_D
340
0
  0
BLOCK_RECORD
  5
DC
330
1
100
AcDbSymbolTableRecord
100
AcDbBlockTableRecord
  2
_D_1
340
0
  0
BLOCK_RECORD
  5
F0
330
1
100
AcDbSymbolTableRecord
100
AcDbBlockTableRecord
  2
_NONE
340
0
  0
BLOCK_RECORD
  5
F3
330
1
100
AcDbSymbolTableRecord
100
AcDbBlockTableRecord
  2
_D_2
340
0
  0
BLOCK_RECORD
  5
FF
330
1
100
AcDbSymbolTableRecord
100
AcDbBlockTableRecord
  2
SW_DOWELSYMBOL_0
340
0
102
{BLKREFS
331
105
102
}
  0
BLOCK_RECORD
  5
139
330
1
100
AcDbSymbolTableRecord
100
AcDbBlockTableRecord
  2
*D7
340
0
  0
BLOCK_RECORD
  5
14B
330
1
100
AcDbSymbolTableRecord
100
AcDbBlockTableRecord
  2
*D8
340
0
  0
BLOCK_RECORD
  5
16A
330
1
100
AcDbSymbolTableRecord
100
AcDbBlockTableRecord
  2
*D9
340
0
  0
ENDTAB
  0
ENDSEC
  0
SECTION
  2
BLOCKS
  0
BLOCK
  5
20
330
1F
100
AcDbEntity
  8
0
100
AcDbBlockBegin
  2
*Model_Space
 70
     0
 10
0.0
 20
0.0
 30
0.0
  3
*Model_Space
  1
*Model_Space
  0
ENDBLK
  5
21
330
1F
100
AcDbEntity
  8
0
100
AcDbBlockEnd
  0
BLOCK
  5
1C
330
1B
100
AcDbEntity
 67
     1
  8
0
100
AcDbBlockBegin
  2
*Paper_Space
 70
     0
 10
0.0
 20
0.0
 30
0.0
  3
*Paper_Space
  1
*Paper_Space
  0
ENDBLK
  5
1D
330
1B
100
AcDbEntity
 67
     1
  8
0
100
AcDbBlockEnd
  0
BLOCK
  5
24
330
23
100
AcDbEntity
  8
0
100
AcDbBlockBegin
  2
*Paper_Space0
 70
     0
 10
0.0
 20
0.0
 30
0.0
  3
*Paper_Space0
  1
*Paper_Space0
  0
ENDBLK
  5
25
330
23
100
AcDbEntity
  8
0
100
AcDbBlockEnd
  0
BLOCK
  5
7F
330
7E
100
AcDbEntity
  8
0
100
AcDbBlockBegin
  2
블럭10
 70
     2
 10
0.0
 20
0.0
 30
0.0
  3
블럭10
  1
블럭10
  0
ELLIPSE
  5
81
330
7E
100
AcDbEntity
  8
중심선
100
AcDbEllipse
 10
20.54032771741204
 20
12.0471743016438
 30
0.0
 11
6.600054785286829
 21
-1.261213355974178E-13
 31
0.0
210
0.0
220
0.0
230
1.0
 40
0.636358354079598
 41
0.9219305317359503
 42
6.513795318482858
  0
ELLIPSE
  5
82
330
7E
100
AcDbEntity
  8
중심선
100
AcDbEllipse
 10
20.54032771746488
 20
12.04717430159265
 30
0.0
 11
3.960054785062283
 21
1.540847449632565E-10
 31
0.0
210
0.0
220
0.0
230
1.0
 40
0.3939339440162632
 41
1.131841032648279
 42
5.62031148352944
  0
LINE
  5
83
330
7E
100
AcDbEntity
  8
중심선
100
AcDbLine
 10
2.268634060543552
 20
16.24717430164393
 30
0.0
 11
5.714909304380834
 21
16.24717430164393
 31
0.0
  0
LINE
  5
84
330
7E
100
AcDbEntity
  8
중심선
100
AcDbLine
 10
5.245725140726316
 20
7.84717430164391
 30
0.0
 11
8.692000384563599
 21
7.84717430164391
 31
0.0
  0
LINE
  5
85
330
7E
100
AcDbEntity
  8
중심선
100
AcDbLine
 10
15.74043728645272
 20
16.24717430164393
 30
0.0
 11
8.692000384563599
 21
7.84717430164391
 31
0.0
  0
LINE
  5
86
330
7E
100
AcDbEntity
  8
중심선
100
AcDbLine
 10
0.1404042013395286
 20
13.71084872107135
 30
0.0
 11
3.58671253028996
 21
13.71088815037384
 31
0.0
  0
LINE
  5
87
330
7E
100
AcDbEntity
  8
중심선
100
AcDbLine
 10
2.750260043222114
 20
10.84717430164391
 30
0.0
 11
6.196535287059397
 21
10.84717430164391
 31
0.0
  0
LINE
  5
88
330
7E
100
AcDbEntity
  8
중심선
100
AcDbLine
 10
12.29416204261559
 20
16.24717430164393
 30
0.0
 11
5.245725140726316
 21
7.84717430164391
 31
0.0
  0
LINE
  5
89
330
7E
100
AcDbEntity
  8
중심선
100
AcDbLine
 10
10.72767329541681
 20
16.24717430164393
 30
0.0
 11
6.196535287059397
 21
10.84717430164391
 31
0.0
  0
LINE
  5
8A
330
7E
100
AcDbEntity
  8
중심선
100
AcDbLine
 10
7.28139805157953
 20
16.24717430164393
 30
0.0
 11
2.750260043222114
 21
10.84717430164391
 31
0.0
  0
LINE
  5
8B
330
7E
100
AcDbEntity
  8
중심선
100
AcDbLine
 10
5.714909304380834
 20
16.24717430164393
 30
0.0
 11
3.58671253028996
 21
13.71088815037384
 31
0.0
  0
LINE
  5
8C
330
7E
100
AcDbEntity
  8
중심선
100
AcDbLine
 10
2.268634060543552
 20
16.24717430164393
 30
0.0
 11
0.1404042013395286
 21
13.71084872107135
 31
0.0
  0
LINE
  5
8D
330
7E
100
AcDbEntity
  8
중심선
100
AcDbLine
 10
7.28139805157953
 20
16.24717430164393
 30
0.0
 11
10.72767329541681
 21
16.24717430164393
 31
0.0
  0
LINE
  5
8E
330
7E
100
AcDbEntity
  8
중심선
100
AcDbLine
 10
12.29416204261559
 20
16.24717430164393
 30
0.0
 11
15.74043728645272
 21
16.24717430164393
 31
0.0
  0
LINE
  5
8F
330
7E
100
AcDbEntity
  8
중심선
100
AcDbLine
 10
19.22036997980202
 20
11.08717430171403
 30
0.0
 11
23.66174974927406
 21
11.08717430171406
 31
0.0
  0
LINE
  5
90
330
7E
100
AcDbEntity
  8
중심선
100
AcDbLine
 10
19.22039502424796
 20
13.00717430171391
 30
0.0
 11
19.22036997980202
 21
11.08717430171403
 31
0.0
  0
LINE
  5
91
330
7E
100
AcDbEntity
  8
중심선
100
AcDbLine
 10
19.22039502424796
 20
13.00717430171391
 30
0.0
 11
26.96566020931264
 21
13.00717430171391
 31
0.0
  0
LINE
  5
92
330
7E
100
AcDbEntity
  8
중심선
100
AcDbLine
 10
22.22332737316547
 20
13.45928029700563
 30
0.0
 11
24.52862924686651
 21
15.39360700705356
 31
0.0
  0
ATTDEF
  5
94
330
7E
100
AcDbEntity
  8
FORMAT
 62
     2
100
AcDbText
 10
-9.18129528874128
 20
2.075366912832191
 30
0.0
 40
4.233333333333333
  1
E5077712 [ 3 FLUTE ]
 41
0.75
  7
SLDTEXTSTYLE0
 11
-9.18129528874128
 21
-0.0412997538344756
 31
0.0
100
AcDbAttributeDefinition
  3

  2
AUTOATTR0
 70
     0
 74
     1
  0
ENDBLK
  5
80
330
7E
100
AcDbEntity
  8
0
100
AcDbBlockEnd
  0
BLOCK
  5
C7
330
C6
100
AcDbEntity
  8
0
100
AcDbBlockBegin
  2
_D
 70
     0
 10
0.0
 20
0.0
 30
0.0
  3
_D
  1
_D
  0
LINE
  5
C9
330
C6
100
AcDbEntity
  8
치수문자_일반주서
 62
     0
370
    -2
100
AcDbLine
 10
41.6249081826537
 20
2.432645076999228
 30
0.0
 11
41.6249081826537
 21
42.75584534129167
 31
0.0
  0
LINE
  5
CA
330
C6
100
AcDbEntity
  8
치수문자_일반주서
 62
     0
370
    -2
100
AcDbLine
 10
9.87490818265369
 20
6.417335151814096
 30
0.0
 11
9.87490818265369
 21
42.75584534129167
 31
0.0
  0
LINE
  5
CB
330
C6
100
AcDbEntity
  8
치수문자_일반주서
 62
     0
370
    -2
100
AcDbLine
 10
38.3229081826537
 20
42.75584534129167
 30
0.0
 11
13.17690818265369
 21
42.75584534129167
 31
0.0
  0
SOLID
  5
CC
330
C6
100
AcDbEntity
  8
치수문자_일반주서
 62
     0
100
AcDbTrace
 10
38.3229081826537
 20
42.20551200795833
 30
0.0
 11
38.3229081826537
 21
43.306178674625
 31
0.0
 12
41.6249081826537
 22
42.75584534129167
 32
0.0
 13
41.6249081826537
 23
42.75584534129167
 33
0.0
  0
SOLID
  5
CD
330
C6
100
AcDbEntity
  8
치수문자_일반주서
 62
     0
100
AcDbTrace
 10
13.17690818265369
 20
43.306178674625
 30
0.0
 11
13.17690818265369
 21
42.20551200795833
 31
0.0
 12
9.87490818265369
 22
42.75584534129167
 32
0.0
 13
9.87490818265369
 23
42.75584534129167
 33
0.0
  0
MTEXT
  5
CE
330
C6
100
AcDbEntity
  8
치수문자_일반주서
 62
     0
100
AcDbMText
 10
25.74990818265369
 20
47.13084534129167
 30
0.0
 40
3.5
 41
0.0
 71
     2
 72
     1
  1
\A1;31.75 [1.25]
  7
SLDTEXTSTYLE0
 73
     1
 44
1.0
  0
POINT
  5
CF
330
C6
100
AcDbEntity
  8
Defpoints
 62
     0
100
AcDbPoint
 10
41.6249081826537
 20
2.370145076999228
 30
0.0
  0
POINT
  5
D0
330
C6
100
AcDbEntity
  8
Defpoints
 62
     0
100
AcDbPoint
 10
9.87490818265369
 20
6.354835151814096
 30
0.0
  0
POINT
  5
D1
330
C6
100
AcDbEntity
  8
Defpoints
 62
     0
100
AcDbPoint
 10
9.87490818265369
 20
42.75584534129167
 30
0.0
  0
ENDBLK
  5
C8
330
C6
100
AcDbEntity
  8
0
100
AcDbBlockEnd
  0
BLOCK
  5
DD
330
DC
100
AcDbEntity
  8
0
100
AcDbBlockBegin
  2
_D_1
 70
     0
 10
0.0
 20
0.0
 30
0.0
  3
_D_1
  1
_D_1
  0
LINE
  5
DF
330
DC
100
AcDbEntity
  8
치수문자_일반주서
 62
     0
370
    -2
100
AcDbLine
 10
41.6249081826537
 20
2.448585151814097
 30
0.0
 11
41.6249081826537
 21
60.41901131756238
 31
0.0
  0
LINE
  5
E0
330
DC
100
AcDbEntity
  8
치수문자_일반주서
 62
     0
370
    -2
100
AcDbLine
 10
-59.9750918173463
 20
5.607335151814096
 30
0.0
 11
-59.9750918173463
 21
60.41901131756238
 31
0.0
  0
LINE
  5
E1
330
DC
100
AcDbEntity
  8
치수문자_일반주서
 62
     0
370
    -2
100
AcDbLine
 10
38.3229081826537
 20
60.41901131756238
 30
0.0
 11
-56.6730918173463
 21
60.41901131756238
 31
0.0
  0
SOLID
  5
E2
330
DC
100
AcDbEntity
  8
치수문자_일반주서
 62
     0
100
AcDbTrace
 10
38.3229081826537
 20
59.86867798422904
 30
0.0
 11
38.3229081826537
 21
60.96934465089571
 31
0.0
 12
41.6249081826537
 22
60.41901131756238
 32
0.0
 13
41.6249081826537
 23
60.41901131756238
 33
0.0
  0
SOLID
  5
E3
330
DC
100
AcDbEntity
  8
치수문자_일반주서
 62
     0
100
AcDbTrace
 10
-56.6730918173463
 20
60.96934465089571
 30
0.0
 11
-56.6730918173463
 21
59.86867798422904
 31
0.0
 12
-59.9750918173463
 22
60.41901131756238
 32
0.0
 13
-59.9750918173463
 23
60.41901131756238
 33
0.0
  0
MTEXT
  5
E4
330
DC
100
AcDbEntity
  8
치수문자_일반주서
 62
     0
100
AcDbMText
 10
-12.62429849020569
 20
64.79401131756238
 30
0.0
 40
3.5
 41
0.0
 71
     2
 72
     1
  1
\A1;101.60 [4.00]
  7
SLDTEXTSTYLE0
 73
     1
 44
1.0
  0
POINT
  5
E5
330
DC
100
AcDbEntity
  8
Defpoints
 62
     0
100
AcDbPoint
 10
41.6249081826537
 20
2.386085151814097
 30
0.0
  0
POINT
  5
E6
330
DC
100
AcDbEntity
  8
Defpoints
 62
     0
100
AcDbPoint
 10
-59.9750918173463
 20
5.544835151814096
 30
0.0
  0
POINT
  5
E7
330
DC
100
AcDbEntity
  8
Defpoints
 62
     0
100
AcDbPoint
 10
-59.9750918173463
 20
60.41901131756238
 30
0.0
  0
ENDBLK
  5
DE
330
DC
100
AcDbEntity
  8
0
100
AcDbBlockEnd
  0
BLOCK
  5
F1
330
F0
100
AcDbEntity
  8
0
100
AcDbBlockBegin
  2
_NONE
 70
     0
 10
0.0
 20
0.0
 30
0.0
  3
_NONE
  1
_NONE
  0
ENDBLK
  5
F2
330
F0
100
AcDbEntity
  8
0
100
AcDbBlockEnd
  0
BLOCK
  5
F4
330
F3
100
AcDbEntity
  8
0
100
AcDbBlockBegin
  2
_D_2
 70
     0
 10
0.0
 20
0.0
 30
0.0
  3
_D_2
  1
_D_2
  0
LINE
  5
F6
330
F3
100
AcDbEntity
  8
치수문자_일반주서
100
AcDbLine
 10
-77.41797353338907
 20
-8.584531279254564
 30
0.0
 11
-77.41797353338907
 21
-9.295468764819065
 31
0.0
  0
LINE
  5
F7
330
F3
100
AcDbEntity
  8
치수문자_일반주서
100
AcDbLine
 10
-77.41797353338907
 20
-9.295468764819065
 30
0.0
 11
-71.86172354232977
 21
-9.295468764819026
 31
0.0
  0
LINE
  5
F8
330
F3
100
AcDbEntity
  8
치수문자_일반주서
100
AcDbLine
 10
-71.86172354232977
 20
-9.295468764819026
 30
0.0
 11
-71.86172354232977
 21
-8.584531279254525
 31
0.0
  0
LINE
  5
F9
330
F3
100
AcDbEntity
  8
치수문자_일반주서
100
AcDbLine
 10
-77.41797353338916
 20
2.244201582882693
 30
0.0
 11
-77.41797353338916
 21
2.955139068447193
 31
0.0
  0
LINE
  5
FA
330
F3
100
AcDbEntity
  8
치수문자_일반주서
100
AcDbLine
 10
-77.41797353338916
 20
2.955139068447193
 30
0.0
 11
-71.86172354232986
 21
2.955139068447232
 31
0.0
  0
LINE
  5
FB
330
F3
100
AcDbEntity
  8
치수문자_일반주서
100
AcDbLine
 10
-71.86172354232986
 20
2.955139068447232
 30
0.0
 11
-71.86172354232986
 21
2.244201582882732
 31
0.0
  0
MTEXT
  5
FC
330
F3
100
AcDbEntity
  8
치수문자_일반주서
100
AcDbMText
 10
-76.37346045690869
 20
-7.695859378643187
 30
0.0
 40
3.5
 41
0.0
 71
     1
 72
     1
  1
0.00
  7
SLDTEXTSTYLE0
 11
-7.044195017643634E-15
 21
1.0
 31
0.0
 73
     1
 44
1.0
  0
MTEXT
  5
FD
330
F3
100
AcDbEntity
  8
치수문자_일반주서
100
AcDbMText
 10
-71.13682890654822
 20
-7.102439260549661
 30
0.0
 40
3.5
 41
0.0
 71
     1
 72
     1
  1
%%c
  7
SLDTEXTSTYLE0
 11
-7.044195017643634E-15
 21
1.0
 31
0.0
 73
     1
 44
1.0
  0
MTEXT
  5
FE
330
F3
100
AcDbEntity
  8
치수문자_일반주서
100
AcDbMText
 10
-71.13682890654825
 20
-1.82400186217558
 30
0.0
 40
3.5
 41
0.0
 71
     1
 72
     1
  1
0
  7
SLDTEXTSTYLE0
 11
-7.044195017643634E-15
 21
1.0
 31
0.0
 73
     1
 44
1.0
  0
ENDBLK
  5
F5
330
F3
100
AcDbEntity
  8
0
100
AcDbBlockEnd
  0
BLOCK
  5
100
330
FF
100
AcDbEntity
  8
0
100
AcDbBlockBegin
  2
SW_DOWELSYMBOL_0
 70
     0
 10
0.0
 20
0.0
 30
0.0
  3
SW_DOWELSYMBOL_0
  1
SW_DOWELSYMBOL_0
  0
CIRCLE
  5
102
330
FF
100
AcDbEntity
  8
외형선
 62
     0
100
AcDbCircle
 10
0.0
 20
0.0
 30
0.0
 40
3.000000000000004
  0
HATCH
  5
103
330
FF
100
AcDbEntity
  8
0
  6
Continuous
 62
     0
370
    30
100
AcDbHatch
 10
0.0
 20
0.0
 30
0.0
210
0.0
220
0.0
230
1.0
  2
SOLID
 70
     1
 71
     0
 91
        1
 92
        0
 93
        3
 72
     2
 10
-0.0000000000000013
 20
-0.0000000000000039
 40
3.000000000000004
 50
0.0
 51
90.0
 73
     1
 72
     1
 10
-0.0000000000000013
 20
3.0
 11
-0.0000000000000013
 21
-0.000000000000004
 72
     1
 10
-0.0000000000000013
 20
-0.0000000000000039
 11
3.000000000000003
 21
-0.0000000000000039
 97
        0
 75
     0
 76
     1
 98
        1
 10
0.0
 20
0.0
  0
HATCH
  5
104
330
FF
100
AcDbEntity
  8
0
  6
Continuous
 62
     0
370
    30
100
AcDbHatch
 10
0.0
 20
0.0
 30
0.0
210
0.0
220
0.0
230
1.0
  2
SOLID
 70
     1
 71
     0
 91
        1
 92
        0
 93
        3
 72
     2
 10
-0.0000000000000013
 20
-0.0000000000000039
 40
3.000000000000004
 50
180.0
 51
270.0000000000008
 73
     1
 72
     1
 10
-0.0000000000000013
 20
-3.000000000000008
 11
-0.0000000000000013
 21
-0.000000000000004
 72
     1
 10
-0.0000000000000013
 20
-0.0000000000000039
 11
-3.000000000000006
 21
-0.0000000000000039
 97
        0
 75
     0
 76
     1
 98
        1
 10
0.0
 20
0.0
  0
ENDBLK
  5
101
330
FF
100
AcDbEntity
  8
0
100
AcDbBlockEnd
  0
BLOCK
  5
13A
330
139
100
AcDbEntity
  8
0
100
AcDbBlockBegin
  2
*D7
 70
     1
 10
0.0
 20
0.0
 30
0.0
  3
*D7
  1
*D7
  0
LINE
  5
13C
330
139
100
AcDbEntity
  8
치수문자_일반주서
 62
     0
370
    -2
100
AcDbLine
 10
41.58128192678127
 20
2.386085151814097
 30
0.0
 11
56.65850834017564
 21
2.386085151814097
 31
0.0
  0
LINE
  5
13D
330
139
100
AcDbEntity
  8
치수문자_일반주서
 62
     0
370
    -2
100
AcDbLine
 10
41.58128192678127
 20
-2.376414848185904
 30
0.0
 11
56.65850834017564
 21
-2.376414848185906
 31
0.0
  0
LINE
  5
13E
330
139
100
AcDbEntity
  8
치수문자_일반주서
 62
     0
370
    -2
100
AcDbLine
 10
56.65850834017564
 20
2.386085151814097
 30
0.0
 11
56.65850834017564
 21
39.99434866177762
 31
0.0
  0
LINE
  5
13F
330
139
100
AcDbEntity
  8
치수문자_일반주서
 62
     0
370
    -2
100
AcDbLine
 10
56.65850834017564
 20
5.688085151814096
 30
0.0
 11
56.65850834017564
 21
8.990085151814096
 31
0.0
  0
LINE
  5
140
330
139
100
AcDbEntity
  8
치수문자_일반주서
 62
     0
370
    -2
100
AcDbLine
 10
56.65850834017564
 20
-5.678414848185906
 30
0.0
 11
56.65850834017564
 21
-8.980414848185905
 31
0.0
  0
SOLID
  5
141
330
139
100
AcDbEntity
  8
치수문자_일반주서
 62
     0
100
AcDbTrace
 10
56.10817500684231
 20
5.688085151814096
 30
0.0
 11
57.20884167350898
 21
5.688085151814096
 31
0.0
 12
56.65850834017564
 22
2.386085151814097
 32
0.0
 13
56.65850834017564
 23
2.386085151814097
 33
0.0
  0
SOLID
  5
142
330
139
100
AcDbEntity
  8
치수문자_일반주서
 62
     0
100
AcDbTrace
 10
57.20884167350898
 20
-5.678414848185906
 30
0.0
 11
56.10817500684231
 21
-5.678414848185906
 31
0.0
 12
56.65850834017564
 22
-2.376414848185906
 32
0.0
 13
56.65850834017564
 23
-2.376414848185906
 33
0.0
  0
MTEXT
  5
143
330
139
100
AcDbEntity
  8
치수문자_일반주서
 62
     0
100
AcDbMText
 10
54.03350834017564
 20
25.99434866177762
 30
0.0
 40
3.5
 41
0.0
 71
     5
 72
     1
  1
\A1;{%%c4.76 [3/16]}
  7
SLDTEXTSTYLE0
 11
0.0
 21
1.0
 31
0.0
 73
     1
 44
1.0
  0
POINT
  5
144
330
139
100
AcDbEntity
  8
Defpoints
 62
     0
100
AcDbPoint
 10
41.51878192678127
 20
2.386085151814097
 30
0.0
  0
POINT
  5
145
330
139
100
AcDbEntity
  8
Defpoints
 62
     0
100
AcDbPoint
 10
41.51878192678127
 20
-2.376414848185904
 30
0.0
  0
POINT
  5
15B
330
139
100
AcDbEntity
  8
Defpoints
 62
     0
100
AcDbPoint
 10
56.65850834017564
 20
-2.376414848185905
 30
0.0
  0
ENDBLK
  5
13B
330
139
100
AcDbEntity
  8
0
100
AcDbBlockEnd
  0
BLOCK
  5
14C
330
14B
100
AcDbEntity
  8
0
100
AcDbBlockBegin
  2
*D8
 70
     1
 10
0.0
 20
0.0
 30
0.0
  3
*D8
  1
*D8
  0
LINE
  5
14E
330
14B
100
AcDbEntity
  8
치수문자_일반주서
 62
     0
370
    -2
100
AcDbLine
 10
-59.22759181734629
 20
6.354835151814096
 30
0.0
 11
-80.38773754580625
 21
6.3548351518141
 31
0.0
  0
LINE
  5
14F
330
14B
100
AcDbEntity
  8
치수문자_일반주서
 62
     0
370
    -2
100
AcDbLine
 10
-59.22759181734629
 20
-6.345164848185904
 30
0.0
 11
-80.38773754580625
 21
-6.345164848185902
 31
0.0
  0
LINE
  5
150
330
14B
100
AcDbEntity
  8
치수문자_일반주서
 62
     0
370
    -2
100
AcDbLine
 10
-80.38773754580625
 20
6.3548351518141
 30
0.0
 11
-80.38773754580625
 21
36.3443351518141
 31
0.0
  0
LINE
  5
151
330
14B
100
AcDbEntity
  8
치수문자_일반주서
 62
     0
370
    -2
100
AcDbLine
 10
-80.38773754580625
 20
3.052835151814101
 30
0.0
 11
-80.38773754580625
 21
-3.043164848185903
 31
0.0
  0
SOLID
  5
152
330
14B
100
AcDbEntity
  8
치수문자_일반주서
 62
     0
100
AcDbTrace
 10
-79.83740421247292
 20
3.052835151814101
 30
0.0
 11
-80.93807087913957
 21
3.052835151814101
 31
0.0
 12
-80.38773754580625
 22
6.3548351518141
 32
0.0
 13
-80.38773754580625
 23
6.3548351518141
 33
0.0
  0
SOLID
  5
153
330
14B
100
AcDbEntity
  8
치수문자_일반주서
 62
     0
100
AcDbTrace
 10
-80.93807087913957
 20
-3.043164848185903
 30
0.0
 11
-79.83740421247292
 21
-3.043164848185903
 31
0.0
 12
-80.38773754580625
 22
-6.345164848185902
 32
0.0
 13
-80.38773754580625
 23
-6.345164848185902
 33
0.0
  0
MTEXT
  5
154
330
14B
100
AcDbEntity
  8
치수문자_일반주서
 62
     0
100
AcDbMText
 10
-83.01273754580625
 20
23.0005851518141
 30
0.0
 40
3.5
 41
0.0
 71
     5
 72
     1
  1
\A1;{%%c12.70 [1/2]}
  7
SLDTEXTSTYLE0
 11
0.0
 21
1.0
 31
0.0
 73
     1
 44
1.0
  0
POINT
  5
155
330
14B
100
AcDbEntity
  8
Defpoints
 62
     0
100
AcDbPoint
 10
-59.16509181734629
 20
6.354835151814096
 30
0.0
  0
POINT
  5
156
330
14B
100
AcDbEntity
  8
Defpoints
 62
     0
100
AcDbPoint
 10
-59.16509181734629
 20
-6.345164848185904
 30
0.0
  0
POINT
  5
157
330
14B
100
AcDbEntity
  8
Defpoints
 62
     0
100
AcDbPoint
 10
-80.38773754580625
 20
-6.345164848185903
 30
0.0
  0
ENDBLK
  5
14D
330
14B
100
AcDbEntity
  8
0
100
AcDbBlockEnd
  0
BLOCK
  5
16B
330
16A
100
AcDbEntity
  8
0
100
AcDbBlockBegin
  2
*D9
 70
     1
 10
0.0
 20
0.0
 30
0.0
  3
*D9
  1
*D9
  0
LINE
  5
16D
330
16A
100
AcDbEntity
  8
치수문자_일반주서
 62
     0
370
    -2
100
AcDbLine
 10
21.16239856924074
 20
11.52583307830488
 30
0.0
 11
22.62029632963544
 21
16.56934714294633
 31
0.0
  0
LINE
  5
16E
330
16A
100
AcDbEntity
  8
치수문자_일반주서
 62
     0
370
    -2
100
AcDbLine
 10
18.61668209095895
 20
5.211140089637593
 30
0.0
 11
19.83989414869847
 21
5.060948534236907
 31
0.0
  0
ARC
  5
16F
330
16A
100
AcDbEntity
  8
치수문자_일반주서
 62
     0
370
    -2
100
AcDbCircle
 10
61.01863311426814
 20
0.0048351518140963
 30
0.0
 40
41.48798410781657
100
AcDbArc
 50
163.8773280832622
 51
168.4386640416311
  0
ARC
  5
170
330
16A
100
AcDbEntity
  8
치수문자_일반주서
 62
     0
370
    -2
100
AcDbCircle
 10
61.01863311426814
 20
0.0048351518140963
 30
0.0
 40
41.48798410781657
100
AcDbArc
 50
184.5613359583689
 51
189.1226719167378
  0
SOLID
  5
171
330
16A
100
AcDbEntity
  8
치수문자_일반주서
 62
     0
100
AcDbTrace
 10
19.8292808879761
 20
8.408478688914323
 30
0.0
 11
20.91554003331593
 21
8.230973251598476
 31
0.0
 12
19.83989414869847
 22
5.060948534236907
 32
0.0
 13
19.83989414869847
 23
5.060948534236907
 33
0.0
  0
SOLID
  5
172
330
16A
100
AcDbEntity
  8
치수문자_일반주서
 62
     0
100
AcDbTrace
 10
20.21194835887451
 20
-3.272648939705779
 30
0.0
 11
19.11215355338574
 21
-3.31644958959863
 31
0.0
 12
19.53064900645157
 22
0.0048351518140963
 32
0.0
 13
19.53064900645157
 23
0.0048351518140963
 33
0.0
  0
MTEXT
  5
173
330
16A
100
AcDbEntity
  8
치수문자_일반주서
 62
     0
100
AcDbMText
 10
19.36959041711737
 20
14.77653899082295
 30
0.0
 40
3.5
 41
0.0
 71
     5
 72
     1
  1
\A1;7%%d
  7
SLDTEXTSTYLE0
 11
0.277694811503752
 21
0.9606693456459905
 31
0.0
 73
     1
 44
1.0
  0
POINT
  5
174
330
16A
100
AcDbEntity
  8
Defpoints
 62
     0
100
AcDbPoint
 10
19.56504759479105
 20
1.693939325582055
 30
0.0
  0
POINT
  5
175
330
16A
100
AcDbEntity
  8
Defpoints
 62
     0
100
AcDbPoint
 10
18.55464795648137
 20
5.218756923600415
 30
0.0
  0
POINT
  5
176
330
16A
100
AcDbEntity
  8
Defpoints
 62
     0
100
AcDbPoint
 10
-63.18476154196276
 20
0.0048351518140963
 30
0.0
  0
POINT
  5
177
330
16A
100
AcDbEntity
  8
Defpoints
 62
     0
100
AcDbPoint
 10
45.3463169635419
 20
0.0048351518140963
 30
0.0
  0
POINT
  5
178
330
16A
100
AcDbEntity
  8
Defpoints
 62
     0
100
AcDbPoint
 10
13.58044178795306
 20
5.829512643843684
 30
0.0
  0
ENDBLK
  5
16C
330
16A
100
AcDbEntity
  8
0
100
AcDbBlockEnd
  0
ENDSEC
  0
SECTION
  2
ENTITIES
  0
LINE
  5
95
330
1F
100
AcDbEntity
  8
0
  6
Continuous
 62
     1
370
    15
100
AcDbLine
 10
30.60662088140474
 20
-3.729290416371808
 30
0.0
 11
34.66998441848133
 21
-3.230372108682984
 31
0.0
  0
LINE
  5
96
330
1F
100
AcDbEntity
  8
0
  6
Continuous
 62
     1
370
    15
100
AcDbLine
 10
10.21315415641497
 20
-6.233293273487678
 30
0.0
 11
15.29646338982262
 21
-5.609141381330037
 31
0.0
  0
LINE
  5
97
330
1F
100
AcDbEntity
  8
0
  6
Continuous
 62
     1
370
    15
100
AcDbLine
 10
25.04438670779449
 20
4.421917200645868
 30
0.0
 11
20.34284378922148
 21
4.999194083469015
 31
0.0
  0
LINE
  5
98
330
1F
100
AcDbEntity
  8
0
  6
Continuous
 62
     1
370
    15
100
AcDbLine
 10
41.6249081826537
 20
2.386085151814097
 30
0.0
 11
41.22205059999114
 21
2.435549843207726
 31
0.0
  0
LINE
  5
99
330
1F
100
AcDbEntity
  8
0
  6
Continuous
 62
     1
370
    15
100
AcDbLine
 10
37.6131710255722
 20
-2.868994233476023
 30
0.0
 11
40.93967816834316
 21
-2.460550514610513
 31
0.0
  0
LINE
  5
9A
330
1F
100
AcDbEntity
  8
0
  6
Continuous
 62
     1
370
    15
100
AcDbLine
 10
16.95654612496211
 20
-5.405308851633442
 30
0.0
 11
21.80447546051474
 21
-4.810057976879301
 31
0.0
  0
LINE
  5
9B
330
1F
100
AcDbEntity
  8
0
  6
Continuous
 62
     1
370
    15
100
AcDbLine
 10
12.03160013158907
 20
6.019686486528464
 30
0.0
 11
9.8749081826537
 21
6.284494960481323
 31
0.0
  0
LINE
  5
9C
330
1F
100
AcDbEntity
  8
0
  6
Continuous
 62
     1
370
    15
100
AcDbLine
 10
31.48101238413677
 20
3.631598943279818
 30
0.0
 11
27.16164406685404
 21
4.161950685495296
 31
0.0
  0
LINE
  5
9D
330
1F
100
AcDbEntity
  8
0
  6
Continuous
 62
     1
370
    15
100
AcDbLine
 10
23.74336987449278
 20
-4.571991677621913
 30
0.0
 11
28.27072991673473
 21
-4.016101762785879
 31
0.0
  0
LINE
  5
9E
102
{ACAD_REACTORS
102
}
330
1F
100
AcDbEntity
  8
0
  6
Continuous
 62
     1
370
    15
100
AcDbLine
 10
18.55464795648137
 20
5.218756923600415
 30
0.0
 11
13.58044178795306
 21
5.829512643843684
 31
0.0
  0
LINE
  5
9F
330
1F
100
AcDbEntity
  8
0
  6
Continuous
 62
     1
370
    15
100
AcDbLine
 10
37.8272470393847
 20
2.852379307748404
 30
0.0
 11
34.08394729084997
 21
3.311998723700195
 31
0.0
  0
LINE
  5
A0
330
1F
100
AcDbEntity
  8
0
  6
Continuous
 62
     1
370
    15
100
AcDbLine
 10
9.8749081826537
 20
-6.240247987902586
 30
0.0
 11
10.21249356773988
 21
-6.227913210471355
 31
0.0
  0
SPLINE
  5
A1
330
1F
100
AcDbEntity
  8
0
  6
Continuous
 62
     1
370
    15
100
AcDbSpline
210
0.0
220
0.0
230
1.0
 70
     8
 71
     3
 72
    40
 73
    36
 74
     0
 42
0.000000001
 43
0.00000001
 40
0.0
 40
0.0
 40
0.0
 40
0.0
 40
0.0296607255341837
 40
0.0622716502481315
 40
0.0948822899532695
 40
0.1261384133661735
 40
0.1573942998953074
 40
0.1895811006213575
 40
0.2217676716451537
 40
0.2526331332907034
 40
0.2834983564188977
 40
0.3152822745676913
 40
0.3470659486668811
 40
0.3775558947023908
 40
0.4080456610352124
 40
0.4394417735905123
 40
0.470837633728799
 40
0.5009739044473025
 40
0.531109988714885
 40
0.5621401943376547
 40
0.5931702233778182
 40
0.6229858927671121
 40
0.6528013689584699
 40
0.6835000637077976
 40
0.7141985748364784
 40
0.7437210823731115
 40
0.773243477652552
 40
0.8036382093080567
 40
0.8340327716129748
 40
0.8632994570210439
 40
0.8925660091833391
 40
0.9226942727500935
 40
0.9528224634334962
 40
0.9818884285508352
 40
1.0
 40
1.0
 40
1.0
 40
1.0
 10
19.42515923591402
 20
4.907003710882223
 30
0.0
 10
19.52510046988596
 20
4.935667260340972
 30
0.0
 10
19.7349235762053
 20
4.995845374484139
 30
0.0
 10
20.05695326286398
 20
5.022955339843859
 30
0.0
 10
20.38624786559041
 20
5.002142490968959
 30
0.0
 10
20.71289725756152
 20
4.929238562399446
 30
0.0
 10
21.03993745356979
 20
4.808314974885678
 30
0.0
 10
21.37222791665127
 20
4.636883290492464
 30
0.0
 10
21.7052277535273
 20
4.418872900484077
 30
0.0
 10
22.0355369696166
 20
4.159928140446261
 30
0.0
 10
22.36644017950151
 20
3.862412970737764
 30
0.0
 10
22.70270626257011
 20
3.523968316234745
 30
0.0
 10
23.03970393155345
 20
3.152653035816748
 30
0.0
 10
23.37415813187406
 20
2.757071788095474
 30
0.0
 10
23.70931150591119
 20
2.33898600514412
 30
0.0
 10
24.04985165290892
 20
1.896244317703047
 30
0.0
 10
24.39132839544047
 20
1.439740630097642
 30
0.0
 10
24.73037683886277
 20
0.9794699215333065
 30
0.0
 10
25.07017086993882
 20
0.5162941058655437
 30
0.0
 10
25.41556341479284
 20
0.0489024469536802
 30
0.0
 10
25.76208992678612
 20
-0.4110932994184291
 30
0.0
 10
26.10623262194516
 20
-0.8541168769649926
 30
0.0
 10
26.45138846916862
 20
-1.280115863689263
 30
0.0
 10
26.80230995552276
 20
-1.689391636624972
 30
0.0
 10
27.15445707986664
 20
-2.071704002267241
 30
0.0
 10
27.5044438922409
 20
-2.419349008773567
 30
0.0
 10
27.85562234123313
 20
-2.733282574461162
 30
0.0
 10
28.21263704670782
 20
-3.012902283882553
 30
0.0
 10
28.57120172617862
 20
-3.250977397657906
 30
0.0
 10
28.92776767713771
 20
-3.443300663711864
 30
0.0
 10
29.28569831612798
 20
-3.591490056783697
 30
0.0
 10
29.64972564481326
 20
-3.69484582622181
 30
0.0
 10
30.01570093143441
 20
-3.748094676747218
 30
0.0
 10
30.33433686251688
 20
-3.758838560268545
 30
0.0
 10
30.53062338335677
 20
-3.733705363196539
 30
0.0
 10
30.60597825784642
 20
-3.724056667489974
 30
0.0
  0
SPLINE
  5
A2
330
1F
100
AcDbEntity
  8
0
  6
Continuous
 62
     1
370
    15
100
AcDbSpline
210
0.0
220
0.0
230
1.0
 70
     8
 71
     3
 72
    12
 73
     8
 74
     0
 42
0.000000001
 43
0.00000001
 40
0.0
 40
0.0
 40
0.0
 40
0.0
 40
0.090723348844822
 40
0.3143771743823049
 40
0.5380363693454185
 40
0.7690144867629702
 40
0.9999999999999999
 40
0.9999999999999999
 40
0.9999999999999999
 40
0.9999999999999999
 10
39.39886371957546
 20
2.296841978089159
 30
0.0
 10
39.46461497407715
 20
2.316558671614251
 30
0.0
 10
39.69245812433045
 20
2.38488152871229
 30
0.0
 10
40.08718881629758
 20
2.447664141466793
 30
0.0
 10
40.58874344155365
 20
2.481871666420917
 30
0.0
 10
41.10077480233995
 20
2.460197501545422
 30
0.0
 10
41.45019519119759
 20
2.400162872227446
 30
0.0
 10
41.62490818265408
 20
2.370145077005431
 30
0.0
  0
LINE
  5
A3
330
1F
100
AcDbEntity
  8
0
 62
     4
100
AcDbLine
 10
9.8749081826537
 20
1.047727620349704
 30
0.0
 11
9.8749081826537
 21
-6.345164848185904
 31
0.0
  0
SPLINE
  5
A4
330
1F
100
AcDbEntity
  8
0
  6
Continuous
 62
     1
370
    15
100
AcDbSpline
210
0.0
220
0.0
230
1.0
 70
     8
 71
     3
 72
    42
 73
    38
 74
     0
 42
0.000000001
 43
0.00000001
 40
0.0
 40
0.0
 40
0.0
 40
0.0
 40
0.0127515866292346
 40
0.041763801817231
 40
0.070776141379645
 40
0.0991657932156648
 40
0.1275555739531028
 40
0.1567563756640191
 40
0.1859573634383234
 40
0.2145798211049613
 40
0.2432024224032683
 40
0.2726409415860844
 40
0.3020796352554777
 40
0.3309673129452235
 40
0.3598551804056723
 40
0.3895649407923608
 40
0.4192748828253974
 40
0.4484571029085129
 40
0.4776395123202763
 40
0.5076507998744797
 40
0.5376623110072413
 40
0.5671693800625672
 40
0.5966766322768566
 40
0.6270209449748793
 40
0.6573654909647281
 40
0.6872210326462962
 40
0.717076785664103
 40
0.7477786027763837
 40
0.7784806410673283
 40
0.8087030162171397
 40
0.8389256199747598
 40
0.8700038311101201
 40
0.9010822768395328
 40
0.9316913028476097
 40
0.9623005586065678
 40
0.9937757625938937
 40
1.0
 40
1.0
 40
1.0
 40
1.0
 10
36.05748179478044
 20
-2.738427796247275
 30
0.0
 10
36.00553562311266
 20
-2.768408649510819
 30
0.0
 10
35.83540231486043
 20
-2.866601482325795
 30
0.0
 10
35.54944929010279
 20
-2.99583410314109
 30
0.0
 10
35.20211563908062
 20
-3.122785225736412
 30
0.0
 10
34.85960830621757
 20
-3.207126518642116
 30
0.0
 10
34.518430100232
 20
-3.252032368099397
 30
0.0
 10
34.17623695355272
 20
-3.25483495717017
 30
0.0
 10
33.8352978470786
 20
-3.214988013755073
 30
0.0
 10
33.49871801483367
 20
-3.133250422849589
 30
0.0
 10
33.16330764422694
 20
-3.010887315547175
 30
0.0
 10
32.82682869463361
 20
-2.846917608384953
 30
0.0
 10
32.49140860488449
 20
-2.643857488911309
 30
0.0
 10
32.1601732795373
 20
-2.406018190844585
 30
0.0
 10
31.82991729197489
 20
-2.134857097230602
 30
0.0
 10
31.49854724188997
 20
-1.830635188883392
 30
0.0
 10
31.16812378821864
 20
-1.498402200132155
 30
0.0
 10
30.84166442960394
 20
-1.145191644537579
 30
0.0
 10
30.51600200290668
 20
-0.7722945361774433
 30
0.0
 10
30.18925584200417
 20
-0.381069189873626
 30
0.0
 10
29.86330783632868
 20
0.0218595292880627
 30
0.0
 10
29.54108695737086
 20
0.4280433931425358
 30
0.0
 10
29.21955010487646
 20
0.8366934264062177
 30
0.0
 10
28.89691875123558
 20
1.24551421811711
 30
0.0
 10
28.57492911237114
 20
1.64750451755958
 30
0.0
 10
28.25653923038845
 20
2.034383848293484
 30
0.0
 10
27.93873705913609
 20
2.405903963440182
 30
0.0
 10
27.61977770289293
 20
2.759258381987529
 30
0.0
 10
27.30138366834437
 20
3.088330019970184
 30
0.0
 10
26.98649005716058
 20
3.386396496852635
 30
0.0
 10
26.67206465190125
 20
3.65370628275356
 30
0.0
 10
26.35646122180361
 20
3.887599349728237
 30
0.0
 10
26.04136371031329
 20
4.083459282171825
 30
0.0
 10
25.72958492914145
 20
4.238571793086047
 30
0.0
 10
25.41831867584194
 20
4.348704661704812
 30
0.0
 10
25.18979443240062
 20
4.408345805696099
 30
0.0
 10
25.06461080986435
 20
4.416891001930052
 30
0.0
 10
25.04394279577123
 20
4.41830182734486
 30
0.0
  0
SPLINE
  5
A5
330
1F
100
AcDbEntity
  8
0
  6
Continuous
 62
     1
370
    15
100
AcDbSpline
210
0.0
220
0.0
230
1.0
 70
     8
 71
     3
 72
    29
 73
    25
 74
     0
 42
0.000000001
 43
0.00000001
 40
0.0
 40
0.0
 40
0.0
 40
0.0
 40
0.0126552581784336
 40
0.0573289136175413
 40
0.1032638870881771
 40
0.1491992455843774
 40
0.1945099495769903
 40
0.2398210147431265
 40
0.2864113794221513
 40
0.3330021308056477
 40
0.3789594621935092
 40
0.4249171625513373
 40
0.4721724836212299
 40
0.5194281964196673
 40
0.5660402625333429
 40
0.6126527012573768
 40
0.6605813618385019
 40
0.7085104219958195
 40
0.7557848413528603
 40
0.8030596297728864
 40
0.8516695018128619
 40
0.900279779539003
 40
0.9499568683999747
 40
1.0
 40
1.0
 40
1.0
 40
1.0
 10
16.1109055985328
 20
-5.316415873400686
 30
0.0
 10
16.0832029888914
 20
-5.333738107256457
 30
0.0
 10
15.95770886678655
 20
-5.412208639771766
 30
0.0
 10
15.73309883574796
 20
-5.506584328495784
 30
0.0
 10
15.4371061949097
 20
-5.595051112258266
 30
0.0
 10
15.1412705445092
 20
-5.629649105745973
 30
0.0
 10
14.84816054879395
 20
-5.614185895575123
 30
0.0
 10
14.55504075045027
 20
-5.548437995849764
 30
0.0
 10
14.26055924427286
 20
-5.431140974540051
 30
0.0
 10
13.96610385294496
 20
-5.263091934838455
 30
0.0
 10
13.67437253368178
 20
-5.047257059189234
 30
0.0
 10
13.3825915787918
 20
-4.784466519455494
 30
0.0
 10
13.08943226470365
 20
-4.474142852061987
 30
0.0
 10
12.79628639865202
 20
-4.119879071060008
 30
0.0
 10
12.50582897951783
 20
-3.728008541819451
 30
0.0
 10
12.21529405657226
 20
-3.299040582863771
 30
0.0
 10
11.92337011148867
 20
-2.83347763363845
 30
0.0
 10
11.63144845829224
 20
-2.337175484098154
 30
0.0
 10
11.34217151888004
 20
-1.819045241253308
 30
0.0
 10
11.05280262020409
 20
-1.279160514745308
 30
0.0
 10
10.76203162753053
 20
-0.7190031886586344
 30
0.0
 10
10.46779507008246
 20
-0.1392222343068189
 30
0.0
 10
10.17192132318529
 20
0.4520726718247379
 30
0.0
 10
9.974154543489044
 20
0.8486906826277604
 30
0.0
 10
9.8749081826537
 20
1.047727620350125
 30
0.0
  0
LINE
  5
A6
330
1F
100
AcDbEntity
  8
0
  6
Continuous
 62
     1
370
    15
100
AcDbLine
 10
41.6249081826537
 20
2.386085151814097
 30
0.0
 11
41.6249081826537
 21
2.370145076999228
 31
0.0
  0
SPLINE
  5
A7
330
1F
100
AcDbEntity
  8
0
  6
Continuous
 62
     1
370
    15
100
AcDbSpline
210
0.0
220
0.0
230
1.0
 70
     8
 71
     3
 72
    30
 73
    26
 74
     0
 42
0.000000001
 43
0.00000001
 40
0.0
 40
0.0
 40
0.0
 40
0.0
 40
0.0582690821014091
 40
0.1025248833328784
 40
0.1467803271423887
 40
0.1923240786904339
 40
0.23786746291166
 40
0.2821287026101085
 40
0.3263895599532961
 40
0.3719773467018055
 40
0.4175647343379518
 40
0.4611366686347748
 40
0.5047082562034064
 40
0.5495812253358736
 40
0.5944537732615409
 40
0.6374223047123996
 40
0.680390521472371
 40
0.7246417001227818
 40
0.7688924630179276
 40
0.8112707351034895
 40
0.8536486692055195
 40
0.8972914869462368
 40
0.9409339417696994
 40
0.9827382661706745
 40
1.0
 40
1.0
 40
1.0
 40
1.0
 10
9.874908182653698
 20
3.697287168990846
 30
0.0
 10
10.00501530372776
 20
3.477870464731232
 30
0.0
 10
10.23393975092739
 20
3.0918051416779
 30
0.0
 10
10.56393484019408
 20
2.499529318404963
 30
0.0
 10
10.86663216056227
 20
1.942884326004063
 30
0.0
 10
11.17381944879603
 20
1.36671239266298
 30
0.0
 10
11.48258734506885
 20
0.7824521985350062
 30
0.0
 10
11.78989667146986
 20
0.2009586259989634
 30
0.0
 10
12.0988540825323
 20
-0.3781025495789637
 30
0.0
 10
12.41252200840055
 20
-0.9547070836623015
 30
0.0
 10
12.72619283680073
 20
-1.514627338482093
 30
0.0
 10
13.0367317526159
 20
-2.047335315097348
 30
0.0
 10
13.34721984266247
 20
-2.55420841344779
 30
0.0
 10
13.66239321773332
 20
-3.037432172560549
 30
0.0
 10
13.97777718901243
 20
-3.485089786187895
 30
0.0
 10
14.29031324256924
 20
-3.889264046237672
 30
0.0
 10
14.60299719529472
 20
-4.252128235188799
 30
0.0
 10
14.92038909478863
 20
-4.574186356247218
 30
0.0
 10
15.23811776835974
 20
-4.847153855337199
 30
0.0
 10
15.55300758562347
 20
-5.066995965859189
 30
0.0
 10
15.86804079207816
 20
-5.236075239521221
 30
0.0
 10
16.18790343138363
 20
-5.35460431926381
 30
0.0
 10
16.50828222491338
 20
-5.415030002266838
 30
0.0
 10
16.76422409299625
 20
-5.429350936716818
 30
0.0
 10
16.91246734068541
 20
-5.405984493300083
 30
0.0
 10
16.95579062245288
 20
-5.399155777471017
 30
0.0
  0
SPLINE
  5
A8
330
1F
100
AcDbEntity
  8
0
  6
Continuous
 62
     1
370
    15
100
AcDbSpline
210
0.0
220
0.0
230
1.0
 70
     8
 71
     3
 72
    39
 73
    35
 74
     0
 42
0.000000001
 43
0.00000001
 40
0.0
 40
0.0
 40
0.0
 40
0.0
 40
0.0033531838070945
 40
0.0363423327160689
 40
0.0703087133264938
 40
0.1042748907709916
 40
0.1369398863270445
 40
0.1696047576768222
 40
0.203234820205302
 40
0.2368646953568746
 40
0.269246638103734
 40
0.3016284334216324
 40
0.3349636639842278
 40
0.3682988139054904
 40
0.4004586709302419
 40
0.4326184458402709
 40
0.4657218585458859
 40
0.4988251528300451
 40
0.530817863345951
 40
0.5628105416267758
 40
0.5957365793249549
 40
0.6286626549908164
 40
0.6605809656338031
 40
0.6924992938439405
 40
0.7253430806558991
 40
0.7581868865608576
 40
0.7901283097899492
 40
0.8220698411664651
 40
0.8549288688965769
 40
0.887788133242171
 40
0.9199037129503752
 40
0.9520195435161423
 40
0.9850476125376608
 40
1.0
 40
1.0
 40
1.0
 40
1.0
 10
26.07209433231519
 20
4.057817062557572
 30
0.0
 10
26.08359581776124
 20
4.062111799023303
 30
0.0
 10
26.20825072332448
 20
4.108658827323759
 30
0.0
 10
26.45153517148343
 20
4.154791304969316
 30
0.0
 10
26.80227011192493
 20
4.189908836464556
 30
0.0
 10
27.15446729902883
 20
4.170637678334703
 30
0.0
 10
27.50444120842701
 20
4.10478137959776
 30
0.0
 10
27.85562305963245
 20
3.993245761506722
 30
0.0
 10
28.2126369462773
 20
3.834838197312028
 30
0.0
 10
28.57120140437158
 20
3.633142469363061
 30
0.0
 10
28.927769000785
 20
3.393653985978137
 30
0.0
 10
29.28569326050044
 20
3.118867407890521
 30
0.0
 10
29.64974514752842
 20
2.807562289154967
 30
0.0
 10
30.01562929659126
 20
2.467249214954699
 30
0.0
 10
30.37974483457667
 20
2.106194233633977
 30
0.0
 10
30.74565289980596
 20
1.726606260665497
 30
0.0
 10
31.11780841739131
 20
1.328104396059619
 30
0.0
 10
31.49212904603177
 20
0.9204860185978805
 30
0.0
 10
31.86503741595226
 20
0.513348464210616
 30
0.0
 10
32.23997774584024
 20
0.1081067177788127
 30
0.0
 10
32.62145917166473
 20
-0.2943427851868335
 30
0.0
 10
33.00563239339606
 20
-0.6842104191391274
 30
0.0
 10
33.38875107846996
 20
-1.052633302039454
 30
0.0
 10
33.77452684018722
 20
-1.398913868972352
 30
0.0
 10
34.16706275693144
 20
-1.721182429607714
 30
0.0
 10
34.56284424780922
 20
-2.01166610185748
 30
0.0
 10
34.95816554678823
 20
-2.26385140414431
 30
0.0
 10
35.35664633665792
 20
-2.478250392190574
 30
0.0
 10
35.76225359032526
 20
-2.652569230454342
 30
0.0
 10
36.17197471363547
 20
-2.782588034645387
 30
0.0
 10
36.58190650790156
 20
-2.866576027811123
 30
0.0
 10
36.99617755900771
 20
-2.902836147072587
 30
0.0
 10
37.33959074827967
 20
-2.902239036058834
 30
0.0
 10
37.54764559408338
 20
-2.872619284696152
 30
0.0
 10
37.6124827568753
 20
-2.863388734772936
 30
0.0
  0
LINE
  5
A9
330
1F
100
AcDbEntity
  8
0
 62
     4
100
AcDbLine
 10
9.8749081826537
 20
6.354835151814096
 30
0.0
 11
9.874908182653698
 21
3.697287168990846
 31
0.0
  0
SPLINE
  5
AA
330
1F
100
AcDbEntity
  8
0
  6
Continuous
 62
     1
370
    15
100
AcDbSpline
210
0.0
220
0.0
230
1.0
 70
     8
 71
     3
 72
    37
 73
    33
 74
     0
 42
0.000000001
 43
0.00000001
 40
0.0
 40
0.0
 40
0.0
 40
0.0
 40
0.0307437979257115
 40
0.0616642635692391
 40
0.0943820343108811
 40
0.1270998423547202
 40
0.1606923701220284
 40
0.1942849111507615
 40
0.2283087409758053
 40
0.2623326754988831
 40
0.2973373185381012
 40
0.3323421002749564
 40
0.3664863426223389
 40
0.4006306647836619
 40
0.4357562035625936
 40
0.4708818820388753
 40
0.5052014559743577
 40
0.5395212053758623
 40
0.5748242321665138
 40
0.6101274103000861
 40
0.6446728813318512
 40
0.6792185092151422
 40
0.7147510143488924
 40
0.7502837458907512
 40
0.7851125027875243
 40
0.819941434460081
 40
0.855763202107042
 40
0.8915851820750639
 40
0.926736667502579
 40
0.9618883838493862
 40
0.998040206799777
 40
0.9999999999999999
 40
0.9999999999999999
 40
0.9999999999999999
 40
0.9999999999999999
 10
41.58306306502895
 20
-2.324538646053917
 30
0.0
 10
41.46967490605482
 20
-2.355327211121124
 30
0.0
 10
41.24224700864583
 20
-2.417081266225523
 30
0.0
 10
40.8967566188438
 20
-2.470985617850027
 30
0.0
 10
40.54602484352028
 20
-2.492909286449043
 30
0.0
 10
40.18791671764052
 20
-2.477114835502916
 30
0.0
 10
39.82890339657622
 20
-2.422280103095695
 30
0.0
 10
39.46754016412977
 20
-2.327677710463859
 30
0.0
 10
39.10702293117495
 20
-2.19386462415652
 30
0.0
 10
38.74383287522193
 20
-2.021012904334044
 30
0.0
 10
38.3796012368257
 20
-1.81031850130514
 30
0.0
 10
38.01738930486422
 20
-1.566228991368863
 30
0.0
 10
37.66048951055932
 20
-1.29484213679568
 30
0.0
 10
37.30548243435808
 20
-0.99826845455165
 30
0.0
 10
36.94944233779261
 20
-0.6773150703584889
 30
0.0
 10
36.59510360475175
 20
-0.3389129483230455
 30
0.0
 10
36.24580410296231
 20
0.0089209042034963
 30
0.0
 10
35.89812898030828
 20
0.3643880765282573
 30
0.0
 10
35.54936938195218
 20
0.7255360666539277
 30
0.0
 10
35.2021365382727
 20
1.084789260755742
 30
0.0
 10
34.85960276199339
 20
1.433799755964265
 30
0.0
 10
34.51843163655264
 20
1.771522505709312
 30
0.0
 10
34.17623652375539
 20
2.095428587792552
 30
0.0
 10
33.83529800763996
 20
2.398740051476449
 30
0.0
 10
33.49871779759611
 20
2.674586095819214
 30
0.0
 10
33.16330836396682
 20
2.922770042074252
 30
0.0
 10
32.82682595162784
 20
3.140678764701622
 30
0.0
 10
32.49141874406524
 20
3.323208953539868
 30
0.0
 10
32.16013623148363
 20
3.46789383822134
 30
0.0
 10
31.8300573075699
 20
3.569256885445433
 30
0.0
 10
31.60366579503557
 20
3.622858832217362
 30
0.0
 10
31.48687820808642
 20
3.630089509455004
 30
0.0
 10
31.48087270262928
 20
3.630461328693195
 30
0.0
  0
SPLINE
  5
AB
330
1F
100
AcDbEntity
  8
0
  6
Continuous
 62
     1
370
    15
100
AcDbSpline
210
0.0
220
0.0
230
1.0
 70
     8
 71
     3
 72
    44
 73
    40
 74
     0
 42
0.000000001
 43
0.00000001
 40
0.0
 40
0.0
 40
0.0
 40
0.0
 40
0.0093512099654693
 40
0.0357366486912603
 40
0.0617484373151779
 40
0.0877604321862388
 40
0.1145073247152457
 40
0.1412544329528224
 40
0.167627451818096
 40
0.1940006829277967
 40
0.2211187867658604
 40
0.248237113548493
 40
0.274980689459244
 40
0.3017244784912884
 40
0.3292234796494521
 40
0.3567227141090683
 40
0.3838449527248504
 40
0.4109674012662903
 40
0.438855676446016
 40
0.4667441906783962
 40
0.4942524992307077
 40
0.5217610216492827
 40
0.5500462329682481
 40
0.5783316874198425
 40
0.6062325323502471
 40
0.6341335976085131
 40
0.66282242281978
 40
0.691511488499916
 40
0.7198104243396092
 40
0.7481095857513076
 40
0.7772077375040275
 40
0.806306130774183
 40
0.8350089196895933
 40
0.863711939046301
 40
0.8932253913038296
 40
0.9227390882165936
 40
0.9518507936652995
 40
0.9809627318289201
 40
1.0
 40
1.0
 40
1.0
 40
1.0
 10
22.74734699364086
 20
-4.472971236595927
 30
0.0
 10
22.71068856377246
 20
-4.495247998100039
 30
0.0
 10
22.57059445460184
 20
-4.580381023964193
 30
0.0
 10
22.33022660526473
 20
-4.682699583642867
 30
0.0
 10
22.02621883292153
 20
-4.77832422061561
 30
0.0
 10
21.72252571762565
 20
-4.826175691938616
 30
0.0
 10
21.41754730629633
 20
-4.827900448793224
 30
0.0
 10
21.112806669093
 20
-4.781795851244194
 30
0.0
 10
20.81108728001833
 20
-4.688856181703198
 30
0.0
 10
20.50950561605419
 20
-4.549970744079873
 30
0.0
 10
20.20665472101758
 20
-4.364095230978488
 30
0.0
 10
19.90400061622563
 20
-4.133242252918701
 30
0.0
 10
19.60429153197008
 20
-3.861641248402669
 30
0.0
 10
19.30466613175099
 20
-3.550124612214669
 30
0.0
 10
19.00376956584836
 20
-3.198718859015109
 30
0.0
 10
18.70303380271516
 20
-2.811902911721311
 30
0.0
 10
18.40516496048052
 20
-2.396842330282657
 30
0.0
 10
18.10735200140265
 20
-1.954052171525771
 30
0.0
 10
17.80826082471913
 20
-1.484651518688753
 30
0.0
 10
17.50927901377697
 20
-0.9949557169189251
 30
0.0
 10
17.21311394645094
 20
-0.4940288102158802
 30
0.0
 10
16.91698025987393
 20
0.0180293394607896
 30
0.0
 10
16.61954726186202
 20
0.5391608733507389
 30
0.0
 10
16.32218382553359
 20
1.062126015152501
 30
0.0
 10
16.02760036905631
 20
1.577266798700196
 30
0.0
 10
15.73303006315883
 20
2.084923362282457
 30
0.0
 10
15.43712484750963
 20
2.582386928923793
 30
0.0
 10
15.14126562226367
 20
3.062543603258435
 30
0.0
 10
14.84816185965736
 20
3.516538353280471
 30
0.0
 10
14.55504038514447
 20
3.945091949054415
 30
0.0
 10
14.26055935490145
 20
4.34524124218982
 30
0.0
 10
13.96610378096691
 20
4.711024646280732
 30
0.0
 10
13.6743727098825
 20
5.035671820177207
 30
0.0
 10
13.38259093720167
 20
5.320224592452964
 30
0.0
 10
13.08943472780584
 20
5.561676070398724
 30
0.0
 10
12.79627726930344
 20
5.756811265842029
 30
0.0
 10
12.50586253193564
 20
5.899268741068352
 30
0.0
 10
12.25109865807035
 20
5.98780979044133
 30
0.0
 10
12.09325505890153
 20
6.00625696401015
 30
0.0
 10
12.03084674202135
 20
6.013550620893857
 30
0.0
  0
ELLIPSE
  5
AC
330
1F
100
AcDbEntity
  8
0
  6
Continuous
 62
     1
370
    15
100
AcDbEllipse
 10
41.00964769288919
 20
-0.2105698646337566
 30
0.0
 11
3.39982185388054
 21
1.707980524232064
 31
0.0
210
0.0
220
0.0
230
1.0
 40
0.5077049906437806
 41
4.582219222082299
 42
4.638921825055263
  0
SPLINE
  5
AD
330
1F
100
AcDbEntity
  8
0
 62
     4
100
AcDbSpline
210
0.0
220
0.0
230
1.0
 70
    24
 71
     3
 72
    24
 73
    20
 74
     0
 42
0.000000001
 43
0.00000001
 40
0.0
 40
0.0
 40
0.0
 40
0.0
 40
0.1249999999999992
 40
0.1249999999999992
 40
0.1874999999999993
 40
0.1874999999999993
 40
0.2499999999999994
 40
0.2499999999999994
 40
0.3749999999999996
 40
0.3749999999999996
 40
0.4999999999999997
 40
0.4999999999999997
 40
0.6249999999999998
 40
0.6249999999999998
 40
0.7499999999999999
 40
0.7499999999999999
 40
0.875
 40
0.875
 40
1.0
 40
1.0
 40
1.0
 40
1.0
 10
9.874908182653696
 20
1.04772762034971
 30
0.0
 10
9.874908182653696
 20
1.050383928425172
 30
0.0
 10
9.874908182653696
 20
1.070714558194225
 30
0.0
 10
9.874908182653696
 20
1.115041634453956
 30
0.0
 10
9.874908182653696
 20
1.132161434025831
 30
0.0
 10
9.874908182653696
 20
1.169498183994062
 30
0.0
 10
9.874908182653696
 20
1.188984162025582
 30
0.0
 10
9.874908182653696
 20
1.25736391425679
 30
0.0
 10
9.874908182653696
 20
1.316188552463249
 30
0.0
 10
9.874908182653696
 20
1.47062786258522
 30
0.0
 10
9.874908182653696
 20
1.566468462634895
 30
0.0
 10
9.874908182653696
 20
1.802740098945095
 30
0.0
 10
9.874908182653696
 20
1.943535237753424
 30
0.0
 10
9.874908182653696
 20
2.265709471486658
 30
0.0
 10
9.874908182653696
 20
2.447232979229641
 30
0.0
 10
9.874908182653694
 20
2.825603834232258
 30
0.0
 10
9.874908182653694
 20
3.021870454138397
 30
0.0
 10
9.874908182653694
 20
3.388259533730486
 30
0.0
 10
9.874908182653694
 20
3.557494051633468
 30
0.0
 10
9.874908182653694
 20
3.697287168990852
 30
0.0
  0
SPLINE
  5
AE
330
1F
100
AcDbEntity
  8
0
  6
Continuous
 62
     1
370
    15
100
AcDbSpline
210
0.0
220
0.0
230
1.0
 70
     8
 71
     3
 72
    42
 73
    38
 74
     0
 42
0.000000001
 43
0.00000001
 40
0.0
 40
0.0
 40
0.0
 40
0.0
 40
0.0239615239956017
 40
0.054582021373527
 40
0.0861170814971942
 40
0.1176518456123284
 40
0.1478485374944378
 40
0.1780450082234512
 40
0.2091430970342087
 40
0.24024089366757
 40
0.2700227731373729
 40
0.2998044150848722
 40
0.3304749703885992
 40
0.3611452706475259
 40
0.3905238009498634
 40
0.419902083842931
 40
0.4501571580245691
 40
0.4804119886187417
 40
0.5093949599543288
 40
0.5383777072618695
 40
0.5682251052451482
 40
0.5980722342829603
 40
0.6266696710794578
 40
0.6552669155704961
 40
0.6847166657596562
 40
0.7141661585676372
 40
0.7423924365547157
 40
0.770618500620603
 40
0.7996852397298141
 40
0.8287517714032026
 40
0.856625256835088
 40
0.8844985268705503
 40
0.9132014372518169
 40
0.9419041272406865
 40
0.969438498065893
 40
0.9969727066080818
 40
1.0
 40
1.0
 40
1.0
 40
1.0
 10
12.79767126962878
 20
5.747278686066826
 30
0.0
 10
12.87737024187068
 20
5.771709786611756
 30
0.0
 10
13.05891674981208
 20
5.827361457697739
 30
0.0
 10
13.34725061570034
 20
5.851215836357164
 30
0.0
 10
13.66238485832453
 20
5.827177454199592
 30
0.0
 10
13.97777932140917
 20
5.745458603233077
 30
0.0
 10
14.29031268855642
 20
5.611297109102552
 30
0.0
 10
14.60299732480447
 20
5.426781494325517
 30
0.0
 10
14.92038915203263
 20
5.189380949046895
 30
0.0
 10
15.2381174150479
 20
4.904319642205834
 30
0.0
 10
15.55300887763289
 20
4.578499756292613
 30
0.0
 10
15.86803589251864
 20
4.214007554197095
 30
0.0
 10
16.18792233016283
 20
3.807715859657882
 30
0.0
 10
16.50821301671754
 20
3.369143693160209
 30
0.0
 10
16.82562769151201
 20
2.907837412875505
 30
0.0
 10
17.14327930211453
 20
2.425099918066328
 30
0.0
 10
17.46591857849458
 20
1.917934274357209
 30
0.0
 10
17.78895839900384
 20
1.398503289693488
 30
0.0
 10
18.10915759754693
 20
0.8775424768988752
 30
0.0
 10
18.42970741825925
 20
0.3554349536004916
 30
0.0
 10
18.75526312197267
 20
-0.1702834266956125
 30
0.0
 10
19.08126269791178
 20
-0.6867280580350618
 30
0.0
 10
19.4045501862248
 20
-1.183625076784963
 30
0.0
 10
19.72821304208866
 20
-1.661656285277483
 30
0.0
 10
20.05692652239622
 20
-2.122301580030153
 30
0.0
 10
20.38625469864003
 20
-2.553975826643262
 30
0.0
 10
20.71289546479158
 20
-2.948626193508751
 30
0.0
 10
21.03993793685833
 20
-3.307827528860148
 30
0.0
 10
21.37222783597081
 20
-3.631770885345403
 30
0.0
 10
21.70522758864403
 20
-3.912171622193001
 30
0.0
 10
22.03553767085436
 20
-4.144370412787996
 30
0.0
 10
22.36643749400118
 20
-4.330632097594206
 30
0.0
 10
22.70271662770696
 20
-4.469600246437512
 30
0.0
 10
23.03966594879935
 20
-4.559293158796828
 30
0.0
 10
23.37429346878994
 20
-4.592536232383662
 30
0.0
 10
23.60724857741075
 20
-4.595062675264773
 30
0.0
 10
23.73083501582465
 20
-4.571900484717967
 30
0.0
 10
23.74307696679774
 20
-4.569606135882106
 30
0.0
  0
SPLINE
  5
AF
330
1F
100
AcDbEntity
  8
0
  6
Continuous
 62
     1
370
    15
100
AcDbSpline
210
0.0
220
0.0
230
1.0
 70
     8
 71
     3
 72
    28
 73
    24
 74
     0
 42
0.000000001
 43
0.00000001
 40
0.0
 40
0.0
 40
0.0
 40
0.0
 40
0.0348974200334642
 40
0.0809970284217296
 40
0.1270966621822268
 40
0.1745329355788472
 40
0.2219692365514828
 40
0.2681022264423029
 40
0.314235372530422
 40
0.3616936583814675
 40
0.4091522859761965
 40
0.4555368100279309
 40
0.5019216963931828
 40
0.5496241285407678
 40
0.5973269830098105
 40
0.6442238598723075
 40
0.6911211901579237
 40
0.739328321501397
 40
0.7875361359203528
 40
0.8397956500401975
 40
0.892056418793509
 40
0.9460273453338853
 40
1.0
 40
1.0
 40
1.0
 40
1.0
 10
32.72527012847779
 20
3.19002885605578
 30
0.0
 10
32.82007750208638
 20
3.218000421500171
 30
0.0
 10
33.04012573279799
 20
3.282922518294919
 30
0.0
 10
33.38881257437988
 20
3.330878940367942
 30
0.0
 10
33.77450982547589
 20
3.343844821565106
 30
0.0
 10
34.16706738729365
 20
3.30828521136067
 30
0.0
 10
34.56284300063799
 20
3.227005616109194
 30
0.0
 10
34.9581660370478
 20
3.102256469333428
 30
0.0
 10
35.35664559489963
 20
2.936855519385374
 30
0.0
 10
35.76225613331503
 20
2.730576440721132
 30
0.0
 10
36.17196540431715
 20
2.488275946136629
 30
0.0
 10
36.58194035344453
 20
2.216557536432264
 30
0.0
 10
36.99604963724612
 20
1.918495517577836
 30
0.0
 10
37.41758412679243
 20
1.595883937857218
 30
0.0
 10
37.84431295412061
 20
1.256146599824015
 30
0.0
 10
38.2722962834134
 20
0.9083398583781676
 30
0.0
 10
38.70549114776972
 20
0.555547495325084
 30
0.0
 10
39.14659194664922
 20
0.2018784940840021
 30
0.0
 10
39.60824339437927
 20
-0.1558908767834462
 30
0.0
 10
40.08702606524481
 20
-0.50672328647617
 30
0.0
 10
40.58878843099279
 20
-0.8444415364801048
 30
0.0
 10
41.10076340407177
 20
-1.155218435116134
 30
0.0
 10
41.45019139173431
 20
-1.329093697323222
 30
0.0
 10
41.62490818265408
 20
-1.416032720257167
 30
0.0
  0
SPLINE
  5
B0
330
1F
100
AcDbEntity
  8
0
  6
Continuous
 62
     1
370
    15
100
AcDbSpline
210
0.0
220
0.0
230
1.0
 70
     8
 71
     3
 72
    18
 73
    14
 74
     0
 42
0.000000001
 43
0.00000001
 40
0.0
 40
0.0
 40
0.0
 40
0.0
 40
0.0877157660949186
 40
0.1759355865116495
 40
0.2692833352958708
 40
0.3626311905077636
 40
0.4584747266646613
 40
0.5543183006580052
 40
0.6513923936414531
 40
0.7484667853410287
 40
0.8483392568033771
 40
0.9482121239868242
 40
1.0
 40
1.0
 40
1.0
 40
1.0
 10
41.58306306504786
 20
0.7204688106614445
 30
0.0
 10
41.46967490656458
 20
0.8125341950862446
 30
0.0
 10
41.24224701014012
 20
0.997194013124772
 30
0.0
 10
40.89675661272263
 20
1.272293731684869
 30
0.0
 10
40.54602486797734
 20
1.542001214418296
 30
0.0
 10
40.18791662547685
 20
1.802943892340118
 30
0.0
 10
39.82890375074866
 20
2.045139757017111
 30
0.0
 10
39.46753883634369
 20
2.265254342225878
 30
0.0
 10
39.10702795710271
 20
2.456594666050464
 30
0.0
 10
38.74381389776455
 20
2.618150655167566
 30
0.0
 10
38.37967433592983
 20
2.7421761097878
 30
0.0
 10
38.07279034587017
 20
2.820479413797708
 30
0.0
 10
37.88930247579139
 20
2.840613380918144
 30
0.0
 10
37.82664653157489
 20
2.847488564112615
 30
0.0
  0
SPLINE
  5
B1
330
1F
100
AcDbEntity
  8
0
  6
Continuous
 62
     1
370
    15
100
AcDbSpline
210
0.0
220
0.0
230
1.0
 70
     8
 71
     3
 72
    43
 73
    39
 74
     0
 42
0.000000001
 43
0.00000001
 40
0.0
 40
0.0
 40
0.0
 40
0.0
 40
0.0145760813462675
 40
0.0419675020929898
 40
0.0693591334292427
 40
0.0963093468665843
 40
0.1232597510744298
 40
0.1509738864572422
 40
0.1786882214951894
 40
0.2059695707856517
 40
0.2332511264374424
 40
0.2613050278632472
 40
0.2893591410540853
 40
0.3169895151007264
 40
0.3446200965405328
 40
0.3730323583071974
 40
0.4014448533198986
 40
0.4294398038687257
 40
0.4574349571921664
 40
0.4862216763126913
 40
0.5150086374650458
 40
0.5433816814858887
 40
0.571754939413641
 40
0.6009301069578116
 40
0.6301055153107632
 40
0.65886776417766
 40
0.6876302411000647
 40
0.7172053230161185
 40
0.7467806434495482
 40
0.7759423186784821
 40
0.8051042285943543
 40
0.8350897733281584
 40
0.8650755645804648
 40
0.8946469791823999
 40
0.9242186294408586
 40
0.9546253471924759
 40
0.9850323229146054
 40
1.0
 40
1.0
 40
1.0
 40
1.0
 10
29.39718152742653
 20
-3.614955092210256
 30
0.0
 10
29.33902676239564
 20
-3.648711402253217
 30
0.0
 10
29.17158736869498
 20
-3.745902682867359
 30
0.0
 10
28.8969771293022
 20
-3.863209191689132
 30
0.0
 10
28.57491375122173
 20
-3.966628364160015
 30
0.0
 10
28.25654331492521
 20
-4.024717468011002
 30
0.0
 10
27.93873592785676
 20
-4.040674598844602
 30
0.0
 10
27.61977801827332
 20
-4.012052632868116
 30
0.0
 10
27.30138355377348
 20
-3.938822678499691
 30
0.0
 10
26.98649020310006
 20
-3.822267312592975
 30
0.0
 10
26.67206417552235
 20
-3.663468107691836
 30
0.0
 10
26.35646303466562
 20
-3.461628797617688
 30
0.0
 10
26.04135699952378
 20
-3.219334804244351
 30
0.0
 10
25.72960955040451
 20
-2.941290820844853
 30
0.0
 10
25.4182256423391
 20
-2.628527824196938
 30
0.0
 10
25.10567555739853
 20
-2.281387678375894
 30
0.0
 10
24.79354433575215
 20
-1.904800815419124
 30
0.0
 10
24.48463391837805
 20
-1.506114904091856
 30
0.0
 10
24.17603076440139
 20
-1.086065486963794
 30
0.0
 10
23.86625346202272
 20
-0.6460987014086186
 30
0.0
 10
23.55680089962265
 20
-0.192700081687524
 30
0.0
 10
23.25048682088025
 20
0.265346810526985
 30
0.0
 10
22.94443208535841
 20
0.7277177316391649
 30
0.0
 10
22.63716315983564
 20
1.192077035685361
 30
0.0
 10
22.33015791068645
 20
1.651439559370468
 30
0.0
 10
22.02623711182338
 20
2.09695896457066
 30
0.0
 10
21.72252066504834
 20
2.528752449028525
 30
0.0
 10
21.41754867784618
 20
2.943985336338231
 30
0.0
 10
21.1128063030344
 20
3.336263695593318
 30
0.0
 10
20.81108739318227
 20
3.698041216889526
 30
0.0
 10
20.50950552530255
 20
4.029850837590632
 30
0.0
 10
20.20665497525534
 20
4.328796116016798
 30
0.0
 10
19.90399969862904
 20
4.590094505358171
 30
0.0
 10
19.60429489715245
 20
4.808465585474259
 30
0.0
 10
19.30465341866555
 20
4.985586904680071
 30
0.0
 10
19.00381850702636
 20
5.115756761318357
 30
0.0
 10
18.75264374015926
 20
5.193102656536278
 30
0.0
 10
18.60321851573197
 20
5.207983202309086
 30
0.0
 10
18.55392781334076
 20
5.212891828385556
 30
0.0
  0
ELLIPSE
  5
B2
330
1F
100
AcDbEntity
  8
0
  6
Continuous
 62
     1
370
    15
100
AcDbEllipse
 10
38.00254485370848
 20
-0.3747823456189162
 30
0.0
 11
3.95114330961814
 21
2.484097254675777
 31
0.0
210
0.0
220
0.0
230
1.0
 40
0.331364636955753
 41
5.433467849929385
 42
5.598130462521417
  0
LINE
  5
B3
330
1F
100
AcDbEntity
  8
0
  6
Continuous
 62
     1
370
    15
100
AcDbLine
 10
41.22932837064611
 20
0.281823118145394
 30
0.0
 11
41.6249081826537
 21
0.0048351518140969
 31
0.0
  0
LINE
  5
B4
330
1F
100
AcDbEntity
  8
0
  6
Continuous
 62
     1
370
    15
100
AcDbLine
 10
41.6249081826537
 20
0.0048351518140964
 30
0.0
 11
41.6249081826537
 21
-1.416032720253554
 31
0.0
  0
SPLINE
  5
B5
330
1F
100
AcDbEntity
  8
0
  6
Continuous
 62
     1
370
    15
100
AcDbSpline
210
0.0
220
0.0
230
1.0
 70
     8
 71
     3
 72
    10
 73
     6
 74
     0
 42
0.000000001
 43
0.00000001
 40
0.0
 40
0.0
 40
0.0
 40
0.0
 40
0.2785309123483896
 40
0.7147031324818125
 40
1.0
 40
1.0
 40
1.0
 40
1.0
 10
40.73082670946933
 20
-1.262362084237219
 30
0.0
 10
40.75930946432883
 20
-1.244684810944178
 30
0.0
 10
40.83239547818692
 20
-1.199325383906969
 30
0.0
 10
40.93590811193583
 20
-1.144349043758274
 30
0.0
 10
41.00771214528405
 20
-1.117511136728574
 30
0.0
 10
41.03610624579375
 20
-1.106898387080159
 30
0.0
  0
SPLINE
  5
B6
330
1F
100
AcDbEntity
  8
0
  6
Continuous
 62
     1
370
    15
100
AcDbSpline
210
0.0
220
0.0
230
1.0
 70
     8
 71
     3
 72
    10
 73
     6
 74
     0
 42
0.000000001
 43
0.00000001
 40
0.0
 40
0.0
 40
0.0
 40
0.0
 40
0.5000000000000013
 40
0.5000000000000013
 40
1.0
 40
1.0
 40
1.0
 40
1.0
 10
40.7308267094751
 20
-1.262362084239678
 30
0.0
 10
40.85016982631321
 20
-1.430392076646525
 30
0.0
 10
40.98552865042804
 20
-1.605504293598608
 30
0.0
 10
41.27134259017733
 20
-1.960603360452121
 30
0.0
 10
41.42267327868792
 20
-2.141173900406877
 30
0.0
 10
41.58306306504338
 20
-2.32453864605448
 30
0.0
  0
SPLINE
  5
B7
330
1F
100
AcDbEntity
  8
0
  6
Continuous
 62
     1
370
    15
100
AcDbSpline
210
0.0
220
0.0
230
1.0
 70
     8
 71
     3
 72
    15
 73
    11
 74
     0
 42
0.000000001
 43
0.00000001
 40
0.0
 40
0.0
 40
0.0
 40
0.0
 40
0.1108363748163312
 40
0.2200302125089146
 40
0.3331584426233354
 40
0.4313750669829697
 40
0.532355714361338
 40
0.7351796747431544
 40
0.8663168715632906
 40
1.0
 40
1.0
 40
1.0
 40
1.0
 10
40.95190274002971
 20
1.226976113536011
 30
0.0
 10
40.99671296833351
 20
1.240903057994918
 30
0.0
 10
41.0856693607868
 20
1.268550556877583
 30
0.0
 10
41.21202389534752
 20
1.345564001335436
 30
0.0
 10
41.32195649800084
 20
1.443659083202321
 30
0.0
 10
41.41393443862606
 20
1.560474402552231
 30
0.0
 10
41.51162442216679
 20
1.730650765697765
 30
0.0
 10
41.58103444193393
 20
1.939106107056111
 30
0.0
 10
41.61904349745011
 20
2.1711698178106
 30
0.0
 10
41.6229407982859
 20
2.303396257426147
 30
0.0
 10
41.6249081826537
 20
2.370145076999228
 30
0.0
  0
LINE
  5
B8
330
1F
100
AcDbEntity
  8
0
  6
Continuous
 62
     1
370
    15
100
AcDbLine
 10
41.6249081826537
 20
0.0048351518141014
 30
0.0
 11
41.6249081826537
 21
2.370145076999228
 31
0.0
  0
LINE
  5
B9
330
1F
100
AcDbEntity
  8
0
  6
Continuous
 62
     1
370
    15
100
AcDbLine
 10
41.6249081826537
 20
-1.41603272025697
 30
0.0
 11
41.6249081826537
 21
-2.057387840947588
 31
0.0
  0
CIRCLE
  5
BB
330
1F
100
AcDbEntity
  8
외형선
100
AcDbCircle
 10
-0.0000000000000013
 20
-0.0000000000000039
 30
0.0
 40
3.000000000000004
  0
INSERT
  5
BC
330
1F
100
AcDbEntity
  8
0
  6
Continuous
 62
     7
100
AcDbBlockReference
 66
     1
  2
블럭10
 10
-16.63945112874702
 20
-52.04717430164393
 30
0.0
  0
ATTRIB
  5
BD
330
BC
100
AcDbEntity
  8
FORMAT
 62
     2
100
AcDbText
 10
-25.8207464174883
 20
-49.97180738881174
 30
0.0
 40
4.233333333333333
  1
E5077712 [ 3 FLUTE ]
 41
0.75
  7
SLDTEXTSTYLE0
 11
-25.8207464174883
 21
-52.08847405547841
 31
0.0
100
AcDbAttribute
  2
AUTOATTR0
 70
     0
 74
     1
  0
SEQEND
  5
BE
330
BC
100
AcDbEntity
  8
0
  6
Continuous
 62
     7
  0
HATCH
  5
BF
330
1F
100
AcDbEntity
  8
중심선
100
AcDbHatch
 10
0.0
 20
0.0
 30
0.0
210
0.0
220
0.0
230
1.0
  2
SOLID
 70
     1
 71
     0
 91
        1
 92
        0
 93
        4
 72
     1
 10
-10.92454182436617
 20
-35.8
 11
-14.37081706820345
 21
-35.8
 72
     1
 10
-14.37081706820345
 20
-35.8
 11
-16.49904692740747
 21
-38.33632558057259
 72
     1
 10
-16.49904692740747
 20
-38.33632558057259
 11
-13.05273859845704
 21
-38.3362861512701
 72
     1
 10
-13.05273859845704
 20
-38.3362861512701
 11
-10.92454182436617
 21
-35.8
 97
        0
 75
     0
 76
     1
 98
        1
 10
0.0
 20
0.0
  0
HATCH
  5
C0
330
1F
100
AcDbEntity
  8
중심선
100
AcDbHatch
 10
0.0
 20
0.0
 30
0.0
210
0.0
220
0.0
230
1.0
  2
SOLID
 70
     1
 71
     0
 91
        1
 92
        0
 93
        4
 72
     1
 10
-5.911777833330217
 20
-35.8
 11
-9.358053077167499
 21
-35.8
 72
     1
 10
-9.358053077167499
 20
-35.8
 11
-13.88919108552489
 21
-41.20000000000002
 72
     1
 10
-13.88919108552489
 20
-41.20000000000002
 11
-10.44291584168761
 21
-41.20000000000002
 72
     1
 10
-10.44291584168761
 20
-41.20000000000002
 11
-5.911777833330217
 21
-35.8
 97
        0
 75
     0
 76
     1
 98
        1
 10
0.0
 20
0.0
  0
HATCH
  5
C1
330
1F
100
AcDbEntity
  8
중심선
100
AcDbHatch
 10
0.0
 20
0.0
 30
0.0
210
0.0
220
0.0
230
1.0
  2
SOLID
 70
     1
 71
     0
 91
        1
 92
        0
 93
        4
 72
     1
 10
-0.8990138422943217
 20
-35.80000000000003
 11
-4.345289086131437
 21
-35.8
 72
     1
 10
-4.345289086131437
 20
-35.8
 11
-11.39372598802069
 21
-44.20000000000002
 72
     1
 10
-11.39372598802069
 20
-44.20000000000002
 11
-7.947450744183405
 21
-44.20000000000002
 72
     1
 10
-7.947450744183405
 20
-44.20000000000002
 11
-0.8990138422943215
 21
-35.80000000000003
 97
        0
 75
     0
 76
     1
 98
        1
 10
0.0
 20
0.0
  0
HATCH
  5
C2
330
1F
100
AcDbEntity
  8
중심선
100
AcDbHatch
 10
0.0
 20
0.0
 30
0.0
210
0.0
220
0.0
230
1.0
  2
SOLID
 70
     1
 71
     0
 91
        1
 92
        0
 93
        6
 72
     3
 10
3.900876588717877
 20
-40.00000000005127
 11
3.960054785062284
 21
1.540850780301639E-10
 40
0.3939339440162633
 50
17.09539180608433
 51
320.0019657685079
 73
     0
 72
     1
 10
5.583876244418473
 20
-38.5878940046383
 11
7.889178118119511
 21
-36.65356729459038
 72
     3
 10
3.900876588665031
 20
-40.00000000000015
 11
6.600054785286829
 21
-1.249000902703301E-13
 40
0.6363583540795982
 50
39.99873849337408
 51
368.4976242363725
 73
     1
 72
     1
 10
10.32620908056564
 20
-39.03999999993002
 11
2.580943895500953
 21
-39.03999999992999
 72
     1
 10
2.580943895500953
 20
-39.03999999992999
 11
2.58091885105502
 21
-40.95999999992991
 72
     1
 10
2.58091885105502
 20
-40.95999999992991
 11
7.022298620527057
 21
-40.95999999992988
 97
        0
 75
     0
 76
     1
 98
        1
 10
0.0
 20
0.0
  0
POINT
  5
C3
330
1F
100
AcDbEntity
  8
치수문자_일반주서
100
AcDbPoint
 10
-0.0000000000000013
 20
-0.0000000000000039
 30
0.0
  0
DIMENSION
  5
C4
330
1F
100
AcDbEntity
  8
치수문자_일반주서
100
AcDbDimension
  2
_D
 10
9.87490818265369
 20
42.75584534129167
 30
0.0
 11
25.74990818265369
 21
42.75584534129167
 31
0.0
 70
   160
  1
<>
 71
     2
 42
31.75000000000001
  3
SLDDIMSTYLE0
100
AcDbAlignedDimension
 13
41.6249081826537
 23
2.370145076999228
 33
0.0
 14
9.87490818265369
 24
6.354835151814096
 34
0.0
100
AcDbRotatedDimension
  0
DIMENSION
  5
DA
330
1F
100
AcDbEntity
  8
치수문자_일반주서
100
AcDbDimension
  2
_D_1
 10
-59.9750918173463
 20
60.41901131756238
 30
0.0
 11
-12.62429849020569
 21
60.41901131756238
 31
0.0
 70
   160
  1
<>
 71
     2
 42
101.6
  3
SLDDIMSTYLE1
100
AcDbAlignedDimension
 13
41.6249081826537
 23
2.386085151814097
 33
0.0
 14
-59.9750918173463
 24
5.544835151814096
 34
0.0
 50
0.0000000000000053
100
AcDbRotatedDimension
  0
INSERT
  5
105
330
1F
100
AcDbEntity
  8
외형선
100
AcDbBlockReference
  2
SW_DOWELSYMBOL_0
 10
-0.0000000000000013
 20
-0.0000000000000039
 30
0.0
  0
LINE
  5
12D
102
{ACAD_REACTORS
102
}
330
1F
100
AcDbEntity
  8
0
  6
CENTER
 62
     1
100
AcDbLine
 10
-63.18476154196276
 20
0.0048351518140963
 30
0.0
 11
45.3463169635419
 21
0.0048351518140963
 31
0.0
  0
LINE
  5
12E
330
1F
100
AcDbEntity
  8
0
 62
     4
100
AcDbLine
 10
-59.16509181734629
 20
6.354835151814096
 30
0.0
 11
9.87490818265369
 21
6.354835151814096
 31
0.0
  0
LINE
  5
12F
330
1F
100
AcDbEntity
  8
0
 62
     4
100
AcDbLine
 10
-59.16509181734629
 20
-6.345164848185904
 30
0.0
 11
9.874908182653698
 21
-6.345164848185904
 31
0.0
  0
LINE
  5
130
330
1F
100
AcDbEntity
  8
0
 62
     4
100
AcDbLine
 10
-59.9750918173463
 20
5.544835151814096
 30
0.0
 11
-59.9750918173463
 21
-5.535164848185904
 31
0.0
  0
LINE
  5
132
330
1F
100
AcDbEntity
  8
0
 62
     4
100
AcDbLine
 10
-59.9750918173463
 20
5.544835151814096
 30
0.0
 11
-59.16509181734629
 21
6.354835151814097
 31
0.0
  0
LINE
  5
133
102
{ACAD_REACTORS
102
}
330
1F
100
AcDbEntity
  8
0
 62
     4
100
AcDbLine
 10
-59.9750918173463
 20
-5.535164848185904
 30
0.0
 11
-59.16509181734629
 21
-6.345164848185904
 31
0.0
  0
LINE
  5
134
102
{ACAD_REACTORS
102
}
330
1F
100
AcDbEntity
  8
0
 62
     4
100
AcDbLine
 10
-59.16509181734629
 20
6.354835151814096
 30
0.0
 11
-59.16509181734629
 21
-6.345164848185904
 31
0.0
  0
DIMENSION
  5
136
102
{ACAD_XDICTIONARY
360
137
102
}
330
1F
100
AcDbEntity
  8
치수문자_일반주서
100
AcDbDimension
  2
*D7
 10
56.65850834017564
 20
-2.376414848185906
 30
0.0
 11
56.65850834017564
 21
25.99434866177762
 31
0.0
 70
   160
  1
{%%c<>[]}
 71
     5
 42
4.762500000000001
  3
SLDDIMSTYLE1
100
AcDbAlignedDimension
 13
41.51878192678127
 23
2.386085151814097
 33
0.0
 14
41.51878192678127
 24
-2.376414848185904
 34
0.0
 50
90.0
100
AcDbRotatedDimension
1001
ACAD
1000
DSTYLE
1002
{
1070
   283
1070
     1
1070
   170
1070
     1
1070
   171
1070
     6
1070
   273
1070
     7
1002
}
  0
DIMENSION
  5
148
102
{ACAD_REACTORS
102
}
102
{ACAD_XDICTIONARY
360
149
102
}
330
1F
100
AcDbEntity
  8
치수문자_일반주서
100
AcDbDimension
  2
*D8
 10
-80.38773754580625
 20
-6.345164848185902
 30
0.0
 11
-80.38773754580625
 21
23.0005851518141
 31
0.0
 70
   160
  1
{%%c<>[]}
 71
     5
 42
12.7
  3
SLDDIMSTYLE1
100
AcDbAlignedDimension
 13
-59.16509181734629
 23
6.354835151814096
 33
0.0
 14
-59.16509181734629
 24
-6.345164848185904
 34
0.0
 50
90.0
100
AcDbRotatedDimension
1001
ACAD
1000
DSTYLE
1002
{
1070
   283
1070
     1
1070
   170
1070
     1
1070
   171
1070
     6
1070
   273
1070
     7
1002
}
  0
LINE
  5
15C
330
1F
100
AcDbEntity
  8
0
 62
     4
100
AcDbLine
 10
8.8749081826537
 20
5.487756034734437
 30
0.0
 11
8.8749081826537
 21
2.910977984497504
 31
0.0
  0
LINE
  5
15E
330
1F
100
AcDbEntity
  8
0
 62
     4
100
AcDbLine
 10
9.874908182653694
 20
3.697287168990852
 30
0.0
 11
8.8749081826537
 21
5.487756034734437
 31
0.0
  0
LINE
  5
15F
330
1F
100
AcDbEntity
  8
0
 62
     4
100
AcDbLine
 10
9.8749081826537
 20
1.047727620349704
 30
0.0
 11
8.8749081826537
 21
2.910977984497505
 31
0.0
  0
DIMENSION
  5
167
102
{ACAD_REACTORS
102
}
102
{ACAD_XDICTIONARY
360
168
102
}
330
1F
100
AcDbEntity
  8
치수문자_일반주서
100
AcDbDimension
  2
*D9
 10
13.58044178795306
 20
5.829512643843684
 30
0.0
 11
19.36959041711737
 21
14.77653899082295
 31
0.0
 70
    34
  1
<>
 71
     5
 42
0.1221730476396033
  3
SLDDIMSTYLE1
100
AcDb2LineAngularDimension
 13
-63.18476154196276
 23
0.0048351518140963
 33
0.0
 14
45.3463169635419
 24
0.0048351518140963
 34
0.0
 15
18.55464795648137
 25
5.218756923600415
 35
0.0
 16
19.56504759479105
 26
1.693939325582055
 36
0.0
1001
ACAD
1000
DSTYLE
1002
{
1070
   171
1070
     6
1070
   273
1070
     7
1002
}
  0
ENDSEC
  0
SECTION
  2
OBJECTS
  0
DICTIONARY
  5
C
330
0
100
AcDbDictionary
281
     1
  3
ACAD_DETAILVIEWSTYLE
350
165
  3
ACAD_GROUP
350
D
  3
ACAD_IMAGE_VARS
350
129
  3
ACAD_LAYOUT
350
1A
  3
ACAD_MLINESTYLE
350
17
  3
ACAD_PLOTSETTINGS
350
19
  3
ACAD_PLOTSTYLENAME
350
E
  3
ACAD_SCALELIST
350
47
  3
ACAD_SECTIONVIEWSTYLE
350
166
  3
AcDbVariableDictionary
350
160
  3
APPDATA
350
127
  3
DWGPROPS
350
17A
  0
DICTIONARY
  5
137
330
136
100
AcDbDictionary
280
     1
281
     1
  0
DICTIONARY
  5
149
330
148
100
AcDbDictionary
280
     1
281
     1
  0
DICTIONARY
  5
168
330
167
100
AcDbDictionary
280
     1
281
     1
  0
DICTIONARY
  5
165
102
{ACAD_REACTORS
330
C
102
}
330
C
100
AcDbDictionary
281
     1
  0
DICTIONARY
  5
D
102
{ACAD_REACTORS
330
C
102
}
330
C
100
AcDbDictionary
281
     1
  0
RASTERVARIABLES
  5
129
102
{ACAD_REACTORS
330
C
102
}
330
C
100
AcDbRasterVariables
 90
        0
 70
     1
 71
     1
 72
     1
  0
DICTIONARY
  5
1A
102
{ACAD_REACTORS
330
C
102
}
330
C
100
AcDbDictionary
281
     1
  3
Layout1
350
1E
  3
Layout2
350
26
  3
Model
350
22
  0
DICTIONARY
  5
17
102
{ACAD_REACTORS
330
C
102
}
330
C
100
AcDbDictionary
281
     1
  3
Standard
350
18
  0
DICTIONARY
  5
19
102
{ACAD_REACTORS
330
C
102
}
330
C
100
AcDbDictionary
281
     1
  0
ACDBDICTIONARYWDFLT
  5
E
102
{ACAD_REACTORS
330
C
102
}
330
C
100
AcDbDictionary
281
     1
  3
Normal
350
F
100
AcDbDictionaryWithDefault
340
F
  0
DICTIONARY
  5
47
102
{ACAD_REACTORS
330
C
102
}
330
C
100
AcDbDictionary
281
     1
  3
A0
350
48
  3
A1
350
49
  3
A2
350
4A
  3
A3
350
4B
  3
A4
350
4C
  3
A5
350
4D
  3
A6
350
4E
  3
A7
350
4F
  3
A8
350
50
  3
A9
350
51
  3
B0
350
52
  3
B1
350
53
  3
B2
350
54
  3
B3
350
55
  3
B4
350
56
  3
B5
350
57
  3
B6
350
58
  3
B7
350
59
  3
B8
350
5A
  3
B9
350
5B
  3
C0
350
5C
  3
C1
350
5D
  3
C2
350
5E
  3
C3
350
5F
  3
C4
350
60
  3
C5
350
61
  3
C6
350
62
  3
C7
350
63
  3
C8
350
64
  3
C9
350
65
  3
D0
350
66
  3
D1
350
67
  3
D2
350
68
  0
DICTIONARY
  5
166
102
{ACAD_REACTORS
330
C
102
}
330
C
100
AcDbDictionary
281
     1
  0
DICTIONARY
  5
160
102
{ACAD_REACTORS
330
C
102
}
330
C
100
AcDbDictionary
281
     1
  0
DICTIONARY
  5
127
102
{ACAD_REACTORS
330
C
102
}
330
C
100
AcDbDictionary
281
     1
  0
XRECORD
  5
17A
102
{ACAD_REACTORS
330
C
102
}
330
C
100
AcDbXrecord
280
     1
  1
DWGPROPS COOKIE
  2

  3

  4

  6

  7

  8
12015048
  9

300
=
301
=
302
=
303
=
304
=
305
=
306
=
307
=
308
=
309
=
 40
0.0
 41
2458333.355873195
 42
2458340.097397269
  1

 90
        0
  0
LAYOUT
  5
1E
102
{ACAD_REACTORS
330
1A
102
}
330
1A
100
AcDbPlotSettings
  1

  2
none_device
  4

  6

 40
0.0
 41
0.0
 42
0.0
 43
0.0
 44
0.0
 45
0.0
 46
0.0
 47
0.0
 48
0.0
 49
0.0
140
0.0
141
0.0
142
1.0
143
1.0
 70
   688
 72
     1
 73
     0
 74
     5
  7

 75
    16
147
1.0
148
0.0
149
0.0
100
AcDbLayout
  1
Layout1
 70
     1
 71
     1
 10
0.0
 20
0.0
 11
420.0
 21
297.0
 12
0.0
 22
0.0
 32
0.0
 14
1.000000000000000E+20
 24
1.000000000000000E+20
 34
1.000000000000000E+20
 15
-1.000000000000000E+20
 25
-1.000000000000000E+20
 35
-1.000000000000000E+20
146
0.0
 13
0.0
 23
0.0
 33
0.0
 16
1.0
 26
0.0
 36
0.0
 17
0.0
 27
1.0
 37
0.0
 76
     0
330
1B
  0
LAYOUT
  5
26
102
{ACAD_REACTORS
330
1A
102
}
330
1A
100
AcDbPlotSettings
  1

  2
none_device
  4

  6

 40
0.0
 41
0.0
 42
0.0
 43
0.0
 44
0.0
 45
0.0
 46
0.0
 47
0.0
 48
0.0
 49
0.0
140
0.0
141
0.0
142
1.0
143
1.0
 70
   688
 72
     1
 73
     0
 74
     5
  7

 75
    16
147
1.0
148
0.0
149
0.0
100
AcDbLayout
  1
Layout2
 70
     1
 71
     2
 10
0.0
 20
0.0
 11
0.0
 21
0.0
 12
0.0
 22
0.0
 32
0.0
 14
0.0
 24
0.0
 34
0.0
 15
0.0
 25
0.0
 35
0.0
146
0.0
 13
0.0
 23
0.0
 33
0.0
 16
1.0
 26
0.0
 36
0.0
 17
0.0
 27
1.0
 37
0.0
 76
     0
330
23
  0
LAYOUT
  5
22
102
{ACAD_REACTORS
330
1A
102
}
330
1A
100
AcDbPlotSettings
  1

  2
none_device
  4
ANSI_A_(11.00_x_8.50_Inches)
  6

 40
6.35
 41
19.05
 42
6.35000508
 43
19.05000254
 44
279.4
 45
215.9
 46
165.8244426715242
 47
104.0287157159248
 48
0.0
 49
0.0
140
0.0
141
0.0
142
0.0868470351025255
143
1.0
 70
  1696
 72
     0
 73
     0
 74
     0
  7

 75
     0
147
0.0235690232323232
148
0.0
149
0.0
100
AcDbLayout
  1
Model
 70
     1
 71
     0
 10
0.0
 20
0.0
 11
420.0
 21
297.0
 12
0.0
 22
0.0
 32
0.0
 14
-84.76273754580625
 24
-49.97180738881174
 34
0.0
 15
57.20884167350899
 25
64.79401131756238
 35
0.0
146
0.0
 13
0.0
 23
0.0
 33
0.0
 16
1.0
 26
0.0
 36
0.0
 17
0.0
 27
1.0
 37
0.0
 76
     0
330
1F
331
29
  0
MLINESTYLE
  5
18
102
{ACAD_REACTORS
330
17
102
}
330
17
100
AcDbMlineStyle
  2
Standard
 70
     0
  3

 62
   256
 51
90.0
 52
90.0
 71
     2
 49
0.5
 62
   256
  6
BYLAYER
 49
-0.5
 62
   256
  6
BYLAYER
  0
ACDBPLACEHOLDER
  5
F
102
{ACAD_REACTORS
330
E
102
}
330
E
  0
SCALE
  5
48
102
{ACAD_REACTORS
330
47
102
}
330
47
100
AcDbScale
 70
     0
300
1:1
140
1.0
141
1.0
290
     1
  0
SCALE
  5
49
102
{ACAD_REACTORS
330
47
102
}
330
47
100
AcDbScale
 70
     0
300
1:2
140
1.0
141
2.0
290
     0
  0
SCALE
  5
4A
102
{ACAD_REACTORS
330
47
102
}
330
47
100
AcDbScale
 70
     0
300
1:4
140
1.0
141
4.0
290
     0
  0
SCALE
  5
4B
102
{ACAD_REACTORS
330
47
102
}
330
47
100
AcDbScale
 70
     0
300
1:5
140
1.0
141
5.0
290
     0
  0
SCALE
  5
4C
102
{ACAD_REACTORS
330
47
102
}
330
47
100
AcDbScale
 70
     0
300
1:8
140
1.0
141
8.0
290
     0
  0
SCALE
  5
4D
102
{ACAD_REACTORS
330
47
102
}
330
47
100
AcDbScale
 70
     0
300
1:10
140
1.0
141
10.0
290
     0
  0
SCALE
  5
4E
102
{ACAD_REACTORS
330
47
102
}
330
47
100
AcDbScale
 70
     0
300
1:16
140
1.0
141
16.0
290
     0
  0
SCALE
  5
4F
102
{ACAD_REACTORS
330
47
102
}
330
47
100
AcDbScale
 70
     0
300
1:20
140
1.0
141
20.0
290
     0
  0
SCALE
  5
50
102
{ACAD_REACTORS
330
47
102
}
330
47
100
AcDbScale
 70
     0
300
1:30
140
1.0
141
30.0
290
     0
  0
SCALE
  5
51
102
{ACAD_REACTORS
330
47
102
}
330
47
100
AcDbScale
 70
     0
300
1:40
140
1.0
141
40.0
290
     0
  0
SCALE
  5
52
102
{ACAD_REACTORS
330
47
102
}
330
47
100
AcDbScale
 70
     0
300
1:50
140
1.0
141
50.0
290
     0
  0
SCALE
  5
53
102
{ACAD_REACTORS
330
47
102
}
330
47
100
AcDbScale
 70
     0
300
1:100
140
1.0
141
100.0
290
     0
  0
SCALE
  5
54
102
{ACAD_REACTORS
330
47
102
}
330
47
100
AcDbScale
 70
     0
300
2:1
140
2.0
141
1.0
290
     0
  0
SCALE
  5
55
102
{ACAD_REACTORS
330
47
102
}
330
47
100
AcDbScale
 70
     0
300
4:1
140
4.0
141
1.0
290
     0
  0
SCALE
  5
56
102
{ACAD_REACTORS
330
47
102
}
330
47
100
AcDbScale
 70
     0
300
8:1
140
8.0
141
1.0
290
     0
  0
SCALE
  5
57
102
{ACAD_REACTORS
330
47
102
}
330
47
100
AcDbScale
 70
     0
300
10:1
140
10.0
141
1.0
290
     0
  0
SCALE
  5
58
102
{ACAD_REACTORS
330
47
102
}
330
47
100
AcDbScale
 70
     0
300
100:1
140
100.0
141
1.0
290
     0
  0
SCALE
  5
59
102
{ACAD_REACTORS
330
47
102
}
330
47
100
AcDbScale
 70
     0
300
1/128" = 1'-0"
140
0.0078125
141
12.0
290
     0
  0
SCALE
  5
5A
102
{ACAD_REACTORS
330
47
102
}
330
47
100
AcDbScale
 70
     0
300
1/64" = 1'-0"
140
0.015625
141
12.0
290
     0
  0
SCALE
  5
5B
102
{ACAD_REACTORS
330
47
102
}
330
47
100
AcDbScale
 70
     0
300
1/32" = 1'-0"
140
0.03125
141
12.0
290
     0
  0
SCALE
  5
5C
102
{ACAD_REACTORS
330
47
102
}
330
47
100
AcDbScale
 70
     0
300
1/16" = 1'-0"
140
0.0625
141
12.0
290
     0
  0
SCALE
  5
5D
102
{ACAD_REACTORS
330
47
102
}
330
47
100
AcDbScale
 70
     0
300
3/32" = 1'-0"
140
0.09375
141
12.0
290
     0
  0
SCALE
  5
5E
102
{ACAD_REACTORS
330
47
102
}
330
47
100
AcDbScale
 70
     0
300
1/8" = 1'-0"
140
0.125
141
12.0
290
     0
  0
SCALE
  5
5F
102
{ACAD_REACTORS
330
47
102
}
330
47
100
AcDbScale
 70
     0
300
3/16" = 1'-0"
140
0.1875
141
12.0
290
     0
  0
SCALE
  5
60
102
{ACAD_REACTORS
330
47
102
}
330
47
100
AcDbScale
 70
     0
300
1/4" = 1'-0"
140
0.25
141
12.0
290
     0
  0
SCALE
  5
61
102
{ACAD_REACTORS
330
47
102
}
330
47
100
AcDbScale
 70
     0
300
3/8" = 1'-0"
140
0.375
141
12.0
290
     0
  0
SCALE
  5
62
102
{ACAD_REACTORS
330
47
102
}
330
47
100
AcDbScale
 70
     0
300
1/2" = 1'-0"
140
0.5
141
12.0
290
     0
  0
SCALE
  5
63
102
{ACAD_REACTORS
330
47
102
}
330
47
100
AcDbScale
 70
     0
300
3/4" = 1'-0"
140
0.75
141
12.0
290
     0
  0
SCALE
  5
64
102
{ACAD_REACTORS
330
47
102
}
330
47
100
AcDbScale
 70
     0
300
1" = 1'-0"
140
1.0
141
12.0
290
     0
  0
SCALE
  5
65
102
{ACAD_REACTORS
330
47
102
}
330
47
100
AcDbScale
 70
     0
300
1-1/2" = 1'-0"
140
1.5
141
12.0
290
     0
  0
SCALE
  5
66
102
{ACAD_REACTORS
330
47
102
}
330
47
100
AcDbScale
 70
     0
300
3" = 1'-0"
140
3.0
141
12.0
290
     0
  0
SCALE
  5
67
102
{ACAD_REACTORS
330
47
102
}
330
47
100
AcDbScale
 70
     0
300
6" = 1'-0"
140
6.0
141
12.0
290
     0
  0
SCALE
  5
68
102
{ACAD_REACTORS
330
47
102
}
330
47
100
AcDbScale
 70
     0
300
1'-0" = 1'-0"
140
12.0
141
12.0
290
     0
  0
ENDSEC
  0
EOF
