  0
SECTION
  2
HEADER
  9
$ACADVER
  1
AC1015
  9
$ACADMAINTVER
 70
     6
  9
$DWGCODEPAGE
  3
ANSI_949
  9
$INSBASE
 10
0.0
 20
0.0
 30
0.0
  9
$EXTMIN
 10
-56.14693601753627
 20
-49.97180738881174
 30
0.0
  9
$EXTMAX
 10
68.47486622687705
 20
59.34048407395949
 30
0.0
  9
$LIMMIN
 10
0.0
 20
0.0
  9
$LIMMAX
 10
420.0
 20
297.0
  9
$ORTHOMODE
 70
     0
  9
$REGENMODE
 70
     1
  9
$FILLMODE
 70
     1
  9
$QTEXTMODE
 70
     0
  9
$MIRRTEXT
 70
     1
  9
$LTSCALE
 40
1.0
  9
$ATTMODE
 70
     1
  9
$TEXTSIZE
 40
3.5
  9
$TRACEWID
 40
1.0
  9
$TEXTSTYLE
  7
Standard
  9
$CLAYER
  8
0
  9
$CELTYPE
  6
ByLayer
  9
$CECOLOR
 62
   256
  9
$CELTSCALE
 40
1.0
  9
$DISPSILH
 70
     0
  9
$DIMSCALE
 40
1.0
  9
$DIMASZ
 40
3.302
  9
$DIMEXO
 40
1.0
  9
$DIMDLI
 40
3.75
  9
$DIMRND
 40
0.0
  9
$DIMDLE
 40
0.0
  9
$DIMEXE
 40
1.0
  9
$DIMTP
 40
0.0
  9
$DIMTM
 40
0.0
  9
$DIMTXT
 40
3.5
  9
$DIMCEN
 40
2.5
  9
$DIMTSZ
 40
0.0
  9
$DIMTOL
 70
     0
  9
$DIMLIM
 70
     0
  9
$DIMTIH
 70
     1
  9
$DIMTOH
 70
     1
  9
$DIMSE1
 70
     0
  9
$DIMSE2
 70
     0
  9
$DIMTAD
 70
     1
  9
$DIMZIN
 70
     0
  9
$DIMBLK
  1

  9
$DIMASO
 70
     1
  9
$DIMSHO
 70
     1
  9
$DIMPOST
  1

  9
$DIMAPOST
  1

  9
$DIMALT
 70
     0
  9
$DIMALTD
 70
     3
  9
$DIMALTF
 40
0.0393700787401575
  9
$DIMLFAC
 40
1.0
  9
$DIMTOFL
 70
     1
  9
$DIMTVP
 40
0.0
  9
$DIMTIX
 70
     0
  9
$DIMSOXD
 70
     0
  9
$DIMSAH
 70
     0
  9
$DIMBLK1
  1

  9
$DIMBLK2
  1

  9
$DIMSTYLE
  2
ISO-25
  9
$DIMCLRD
 70
     0
  9
$DIMCLRE
 70
     0
  9
$DIMCLRT
 70
     0
  9
$DIMTFAC
 40
1.0
  9
$DIMGAP
 40
1.524
  9
$DIMJUST
 70
     0
  9
$DIMSD1
 70
     0
  9
$DIMSD2
 70
     0
  9
$DIMTOLJ
 70
     0
  9
$DIMTZIN
 70
     0
  9
$DIMALTZ
 70
     0
  9
$DIMALTTZ
 70
     0
  9
$DIMUPT
 70
     0
  9
$DIMDEC
 70
     2
  9
$DIMTDEC
 70
     2
  9
$DIMALTU
 70
     2
  9
$DIMALTTD
 70
     3
  9
$DIMTXSTY
  7
Standard
  9
$DIMAUNIT
 70
     0
  9
$DIMADEC
 70
     2
  9
$DIMALTRND
 40
0.0
  9
$DIMAZIN
 70
     0
  9
$DIMDSEP
 70
    44
  9
$DIMATFIT
 70
     3
  9
$DIMFRAC
 70
     0
  9
$DIMLDRBLK
  1

  9
$DIMLUNIT
 70
     2
  9
$DIMLWD
 70
    -2
  9
$DIMLWE
 70
    -2
  9
$DIMTMOVE
 70
     0
  9
$LUNITS
 70
     2
  9
$LUPREC
 70
     2
  9
$SKETCHINC
 40
1.0
  9
$FILLETRAD
 40
10.0
  9
$AUNITS
 70
     0
  9
$AUPREC
 70
     2
  9
$MENU
  1
.
  9
$ELEVATION
 40
0.0
  9
$PELEVATION
 40
0.0
  9
$THICKNESS
 40
0.0
  9
$LIMCHECK
 70
     0
  9
$CHAMFERA
 40
0.0
  9
$CHAMFERB
 40
0.0
  9
$CHAMFERC
 40
0.0
  9
$CHAMFERD
 40
0.0
  9
$SKPOLY
 70
     0
  9
$TDCREATE
 40
2458333.724483796
  9
$TDUCREATE
 40
2458333.349483796
  9
$TDUPDATE
 40
2458340.465988681
  9
$TDUUPDATE
 40
2458340.090988681
  9
$TDINDWG
 40
0.0007458912
  9
$TDUSRTIMER
 40
2458340.089093275
  9
$USRTIMER
 70
     1
  9
$ANGBASE
 50
0.0
  9
$ANGDIR
 70
     0
  9
$PDMODE
 70
     0
  9
$PDSIZE
 40
-1.0
  9
$PLINEWID
 40
0.0
  9
$SPLFRAME
 70
     0
  9
$SPLINETYPE
 70
     6
  9
$SPLINESEGS
 70
     8
  9
$HANDSEED
  5
190
  9
$SURFTAB1
 70
     6
  9
$SURFTAB2
 70
     6
  9
$SURFTYPE
 70
     6
  9
$SURFU
 70
     6
  9
$SURFV
 70
     6
  9
$UCSBASE
  2

  9
$UCSNAME
  2

  9
$UCSORG
 10
0.0
 20
0.0
 30
0.0
  9
$UCSXDIR
 10
1.0
 20
0.0
 30
0.0
  9
$UCSYDIR
 10
0.0
 20
1.0
 30
0.0
  9
$UCSORTHOREF
  2

  9
$UCSORTHOVIEW
 70
     0
  9
$UCSORGTOP
 10
0.0
 20
0.0
 30
0.0
  9
$UCSORGBOTTOM
 10
0.0
 20
0.0
 30
0.0
  9
$UCSORGLEFT
 10
0.0
 20
0.0
 30
0.0
  9
$UCSORGRIGHT
 10
0.0
 20
0.0
 30
0.0
  9
$UCSORGFRONT
 10
0.0
 20
0.0
 30
0.0
  9
$UCSORGBACK
 10
0.0
 20
0.0
 30
0.0
  9
$PUCSBASE
  2

  9
$PUCSNAME
  2

  9
$PUCSORG
 10
0.0
 20
0.0
 30
0.0
  9
$PUCSXDIR
 10
1.0
 20
0.0
 30
0.0
  9
$PUCSYDIR
 10
0.0
 20
1.0
 30
0.0
  9
$PUCSORTHOREF
  2

  9
$PUCSORTHOVIEW
 70
     0
  9
$PUCSORGTOP
 10
0.0
 20
0.0
 30
0.0
  9
$PUCSORGBOTTOM
 10
0.0
 20
0.0
 30
0.0
  9
$PUCSORGLEFT
 10
0.0
 20
0.0
 30
0.0
  9
$PUCSORGRIGHT
 10
0.0
 20
0.0
 30
0.0
  9
$PUCSORGFRONT
 10
0.0
 20
0.0
 30
0.0
  9
$PUCSORGBACK
 10
0.0
 20
0.0
 30
0.0
  9
$USERI1
 70
     0
  9
$USERI2
 70
     0
  9
$USERI3
 70
     0
  9
$USERI4
 70
     0
  9
$USERI5
 70
     0
  9
$USERR1
 40
0.0
  9
$USERR2
 40
0.0
  9
$USERR3
 40
0.0
  9
$USERR4
 40
0.0
  9
$USERR5
 40
0.0
  9
$WORLDVIEW
 70
     1
  9
$SHADEDGE
 70
     3
  9
$SHADEDIF
 70
    70
  9
$TILEMODE
 70
     1
  9
$MAXACTVP
 70
    64
  9
$PINSBASE
 10
0.0
 20
0.0
 30
0.0
  9
$PLIMCHECK
 70
     0
  9
$PEXTMIN
 10
1.000000000000000E+20
 20
1.000000000000000E+20
 30
1.000000000000000E+20
  9
$PEXTMAX
 10
-1.000000000000000E+20
 20
-1.000000000000000E+20
 30
-1.000000000000000E+20
  9
$PLIMMIN
 10
0.0
 20
0.0
  9
$PLIMMAX
 10
0.0
 20
0.0
  9
$UNITMODE
 70
     0
  9
$VISRETAIN
 70
     1
  9
$PLINEGEN
 70
     0
  9
$PSLTSCALE
 70
     1
  9
$TREEDEPTH
 70
  3020
  9
$CMLSTYLE
  2
Standard
  9
$CMLJUST
 70
     0
  9
$CMLSCALE
 40
20.0
  9
$PROXYGRAPHICS
 70
     1
  9
$MEASUREMENT
 70
     1
  9
$CELWEIGHT
370
    -1
  9
$ENDCAPS
280
     0
  9
$JOINSTYLE
280
     0
  9
$LWDISPLAY
290
     1
  9
$INSUNITS
 70
     4
  9
$HYPERLINKBASE
  1

  9
$STYLESHEET
  1

  9
$XEDIT
290
     1
  9
$CEPSNTYPE
380
     0
  9
$PSTYLEMODE
290
     1
  9
$FINGERPRINTGUID
  2
{E93DCE89-014A-4A3B-821E-9C59FB9895D9}
  9
$VERSIONGUID
  2
{FAEB1C32-E019-11D5-929B-00C0DF256EC4}
  9
$EXTNAMES
290
     1
  9
$PSVPSCALE
 40
0.0
  9
$OLESTARTUP
290
     0
  0
ENDSEC
  0
SECTION
  2
CLASSES
  0
CLASS
  1
ACDBDICTIONARYWDFLT
  2
AcDbDictionaryWithDefault
  3
ObjectDBX Classes
 90
        0
280
     0
281
     0
  0
CLASS
  1
VISUALSTYLE
  2
AcDbVisualStyle
  3
ObjectDBX Classes
 90
     4095
280
     0
281
     0
  0
CLASS
  1
MATERIAL
  2
AcDbMaterial
  3
ObjectDBX Classes
 90
     1153
280
     0
281
     0
  0
CLASS
  1
SCALE
  2
AcDbScale
  3
ObjectDBX Classes
 90
     1153
280
     0
281
     0
  0
CLASS
  1
SUN
  2
AcDbSun
  3
SCENEOE
 90
     1153
280
     0
281
     0
  0
CLASS
  1
ACDBPLACEHOLDER
  2
AcDbPlaceHolder
  3
ObjectDBX Classes
 90
        0
280
     0
281
     0
  0
CLASS
  1
LAYOUT
  2
AcDbLayout
  3
ObjectDBX Classes
 90
        0
280
     0
281
     0
  0
CLASS
  1
TABLESTYLE
  2
AcDbTableStyle
  3
ObjectDBX Classes
 90
     4095
280
     0
281
     0
  0
CLASS
  1
MLEADERSTYLE
  2
AcDbMLeaderStyle
  3
ACDB_MLEADERSTYLE_CLASS
 90
     4095
280
     0
281
     0
  0
CLASS
  1
RASTERVARIABLES
  2
AcDbRasterVariables
  3
ISM
 90
        0
280
     0
281
     0
  0
CLASS
  1
DIMASSOC
  2
AcDbDimAssoc
  3
"AcDbDimAssoc|Product Desc:     AcDim ARX App For Dimension|Company:          Autodesk, Inc.|WEB Address:      www.autodesk.com"
 90
        0
280
     0
281
     0
  0
CLASS
  1
DICTIONARYVAR
  2
AcDbDictionaryVar
  3
ObjectDBX Classes
 90
        0
280
     0
281
     0
  0
ENDSEC
  0
SECTION
  2
TABLES
  0
TABLE
  2
VPORT
  5
8
330
0
100
AcDbSymbolTable
 70
     1
  0
VPORT
  5
29
330
8
100
AcDbSymbolTableRecord
100
AcDbViewportTableRecord
  2
*Active
 70
     0
 10
0.0
 20
0.0
 11
1.0
 21
1.0
 12
7.070946956303374
 22
11.6577498712098
 13
0.0
 23
0.0
 14
10.0
 24
10.0
 15
10.0
 25
10.0
 16
0.0
 26
0.0
 36
1.0
 17
0.0
 27
0.0
 37
0.0
 40
177.4794917295684
 41
1.444267515923567
 42
50.0
 43
0.0
 44
0.0
 50
0.0
 51
0.0
 71
    16
 72
  2000
 73
     1
 74
     3
 75
     0
 76
     0
 77
     0
 78
     0
281
     0
 65
     1
110
0.0
120
0.0
130
0.0
111
1.0
121
0.0
131
0.0
112
0.0
122
1.0
132
0.0
 79
     0
146
0.0
  0
ENDTAB
  0
TABLE
  2
LTYPE
  5
5
330
0
100
AcDbSymbolTable
 70
     6
  0
LTYPE
  5
14
330
5
100
AcDbSymbolTableRecord
100
AcDbLinetypeTableRecord
  2
ByBlock
 70
     0
  3

 72
    65
 73
     0
 40
0.0
  0
LTYPE
  5
15
330
5
100
AcDbSymbolTableRecord
100
AcDbLinetypeTableRecord
  2
ByLayer
 70
     0
  3

 72
    65
 73
     0
 40
0.0
  0
LTYPE
  5
16
330
5
100
AcDbSymbolTableRecord
100
AcDbLinetypeTableRecord
  2
Continuous
 70
     0
  3
Solid line
 72
    65
 73
     0
 40
0.0
  0
LTYPE
  5
6A
330
5
100
AcDbSymbolTableRecord
100
AcDbLinetypeTableRecord
  2
HIDDEN
 70
     0
  3
Hidden __ __ __ __ __ __ __ __ __ __ __ __ __ __
 72
    65
 73
     2
 40
1.905
 49
1.27
 74
     0
 49
-0.635
 74
     0
  0
LTYPE
  5
6B
330
5
100
AcDbSymbolTableRecord
100
AcDbLinetypeTableRecord
  2
PHANTOM
 70
     0
  3
Phantom ______  __  __  ______  __  __  ______
 72
    65
 73
     6
 40
12.7
 49
6.35
 74
     0
 49
-1.27
 74
     0
 49
1.27
 74
     0
 49
-1.27
 74
     0
 49
1.27
 74
     0
 49
-1.27
 74
     0
  0
LTYPE
  5
6C
330
5
100
AcDbSymbolTableRecord
100
AcDbLinetypeTableRecord
  2
CENTER
 70
     0
  3
Center ____ _ ____ _ ____ _ ____ _ ____ _ ____
 72
    65
 73
     4
 40
10.16
 49
6.35
 74
     0
 49
-1.27
 74
     0
 49
1.27
 74
     0
 49
-1.27
 74
     0
  0
LTYPE
  5
6D
330
5
100
AcDbSymbolTableRecord
100
AcDbLinetypeTableRecord
  2
CENTERX2
 70
     0
  3
Center (2x) ________  __  ________  __  _____
 72
    65
 73
     4
 40
20.32
 49
12.7
 74
     0
 49
-2.54
 74
     0
 49
2.54
 74
     0
 49
-2.54
 74
     0
  0
LTYPE
  5
6E
330
5
100
AcDbSymbolTableRecord
100
AcDbLinetypeTableRecord
  2
DOT2
 70
     0
  3
Dot (.5x) ........................................
 72
    65
 73
     2
 40
0.635
 49
0.0
 74
     0
 49
-0.635
 74
     0
  0
ENDTAB
  0
TABLE
  2
LAYER
  5
2
330
0
100
AcDbSymbolTable
 70
    17
  0
LAYER
  5
10
330
2
100
AcDbSymbolTableRecord
100
AcDbLayerTableRecord
  2
0
 70
     0
 62
     7
  6
Continuous
370
    -3
390
F
  0
LAYER
  5
6F
330
2
100
AcDbSymbolTableRecord
100
AcDbLayerTableRecord
  2
FORMAT
 70
     0
 62
     2
  6
Continuous
370
    -3
390
F
  0
LAYER
  5
70
330
2
100
AcDbSymbolTableRecord
100
AcDbLayerTableRecord
  2
외형선
 70
     0
 62
   100
  6
Continuous
370
    30
390
F
  0
LAYER
  5
71
330
2
100
AcDbSymbolTableRecord
100
AcDbLayerTableRecord
  2
숨은선
 70
     0
 62
     2
  6
HIDDEN
370
    15
390
F
  0
LAYER
  5
72
330
2
100
AcDbSymbolTableRecord
100
AcDbLayerTableRecord
  2
중심선
 70
     0
 62
     1
  6
CENTERX2
370
    -3
390
F
  0
LAYER
  5
73
330
2
100
AcDbSymbolTableRecord
100
AcDbLayerTableRecord
  2
파단선
 70
     0
 62
     4
  6
Continuous
370
    -3
390
F
  0
LAYER
  5
74
330
2
100
AcDbSymbolTableRecord
100
AcDbLayerTableRecord
  2
해칭선
 70
     0
 62
     4
  6
Continuous
370
    -3
390
F
  0
LAYER
  5
75
330
2
100
AcDbSymbolTableRecord
100
AcDbLayerTableRecord
  2
가는실선
 70
     0
 62
     4
  6
Continuous
370
    -3
390
F
  0
LAYER
  5
76
330
2
100
AcDbSymbolTableRecord
100
AcDbLayerTableRecord
  2
치수_보조선
 70
     0
 62
     4
  6
Continuous
370
    -3
390
F
  0
LAYER
  5
77
330
2
100
AcDbSymbolTableRecord
100
AcDbLayerTableRecord
  2
치수문자_일반주서
 70
     0
 62
     7
  6
Continuous
370
    15
390
F
  0
LAYER
  5
78
330
2
100
AcDbSymbolTableRecord
100
AcDbLayerTableRecord
  2
개별주서
 70
     0
 62
   100
  6
Continuous
370
    30
390
F
  0
LAYER
  5
79
330
2
100
AcDbSymbolTableRecord
100
AcDbLayerTableRecord
  2
중간선
 70
     0
 62
     2
  6
Continuous
370
    15
390
F
  0
LAYER
  5
7A
330
2
100
AcDbSymbolTableRecord
100
AcDbLayerTableRecord
  2
윤곽선
 70
     0
 62
     3
  6
Continuous
370
    40
390
F
  0
LAYER
  5
7B
330
2
100
AcDbSymbolTableRecord
100
AcDbLayerTableRecord
  2
중심마크
 70
     0
 62
   100
  6
Continuous
370
    30
390
F
  0
LAYER
  5
7C
330
2
100
AcDbSymbolTableRecord
100
AcDbLayerTableRecord
  2
가상선
 70
     0
 62
     4
  6
PHANTOM
370
    -3
390
F
  0
LAYER
  5
7D
330
2
100
AcDbSymbolTableRecord
100
AcDbLayerTableRecord
  2
특수지정선
 70
     0
 62
     5
  6
CENTERX2
370
    60
390
F
  0
LAYER
  5
14B
330
2
100
AcDbSymbolTableRecord
100
AcDbLayerTableRecord
  2
Defpoints
 70
     0
 62
     7
  6
Continuous
290
     0
370
    -3
390
F
  0
ENDTAB
  0
TABLE
  2
STYLE
  5
3
330
0
100
AcDbSymbolTable
 70
     2
  0
STYLE
  5
11
330
3
100
AcDbSymbolTableRecord
100
AcDbTextStyleTableRecord
  2
Standard
 70
     0
 40
0.0
 41
1.0
 50
0.0
 71
     0
 42
3.5
  3
txt
  4

  0
STYLE
  5
93
330
3
100
AcDbSymbolTableRecord
100
AcDbTextStyleTableRecord
  2
SLDTEXTSTYLE0
 70
     0
 40
0.0
 41
0.75
 50
0.0
 71
     0
 42
3.5
  3
TXT
  4

  0
ENDTAB
  0
TABLE
  2
VIEW
  5
6
330
0
100
AcDbSymbolTable
 70
     0
  0
ENDTAB
  0
TABLE
  2
UCS
  5
7
330
0
100
AcDbSymbolTable
 70
     0
  0
ENDTAB
  0
TABLE
  2
APPID
  5
9
330
0
100
AcDbSymbolTable
 70
     2
  0
APPID
  5
12
330
9
100
AcDbSymbolTableRecord
100
AcDbRegAppTableRecord
  2
ACAD
 70
     0
  0
APPID
  5
15E
330
9
100
AcDbSymbolTableRecord
100
AcDbRegAppTableRecord
  2
PE_DIMMEASUREMENT
 70
     0
  0
ENDTAB
  0
TABLE
  2
DIMSTYLE
  5
A
330
0
100
AcDbSymbolTable
 70
     4
100
AcDbDimStyleTable
  0
DIMSTYLE
105
27
330
A
100
AcDbSymbolTableRecord
100
AcDbDimStyleTableRecord
  2
ISO-25
 70
     0
 41
2.5
 42
0.625
 43
3.75
 44
1.25
 73
     0
 74
     0
 77
     1
 78
     8
140
2.5
141
2.5
143
0.03937007874016
147
0.625
171
     3
172
     1
178
     0
271
     2
272
     2
274
     3
278
    44
283
     0
284
     8
340
11
  0
DIMSTYLE
105
E6
102
{ACAD_REACTORS
330
E5
330
14C
330
169
330
17C
102
}
330
A
100
AcDbSymbolTableRecord
100
AcDbDimStyleTableRecord
  2
SLDDIMSTYLE0
 70
     0
 41
3.302
 44
0.0
 45
0.000000001
 73
     0
 74
     0
 77
     1
 78
    12
 79
     3
140
3.5
143
0.0393700787401575
147
0.875
148
0.000000001
170
     1
172
     1
173
     1
178
     0
271
     2
272
     2
276
     2
284
    12
289
     0
340
93
  0
DIMSTYLE
105
FC
102
{ACAD_REACTORS
330
FB
102
}
330
A
100
AcDbSymbolTableRecord
100
AcDbDimStyleTableRecord
  2
SLDDIMSTYLE1
 70
     0
 41
3.302
 44
0.0
 45
0.000000001
 73
     0
 74
     0
 77
     1
 78
     4
 79
     1
140
3.5
143
0.0393700787401575
147
0.875
148
0.000000001
170
     1
173
     1
178
     0
271
     2
272
     2
276
     2
284
    12
340
93
  0
DIMSTYLE
105
110
330
A
100
AcDbSymbolTableRecord
100
AcDbDimStyleTableRecord
  2
SLDDIMSTYLE2
 70
     0
 41
3.302
 44
0.0
 45
0.000000001
 73
     0
 74
     0
 77
     1
 78
     8
 79
     2
140
3.5
143
0.0393700787401575
147
0.875
148
0.000000001
170
     1
172
     1
173
     1
178
     0
271
     2
272
     2
276
     2
284
    12
289
     0
340
93
341
111
343
111
344
111
  0
ENDTAB
  0
TABLE
  2
BLOCK_RECORD
  5
1
330
0
100
AcDbSymbolTable
 70
    10
  0
BLOCK_RECORD
  5
1F
330
1
100
AcDbSymbolTableRecord
100
AcDbBlockTableRecord
  2
*Model_Space
340
22
  0
BLOCK_RECORD
  5
1B
330
1
100
AcDbSymbolTableRecord
100
AcDbBlockTableRecord
  2
*Paper_Space
340
1E
  0
BLOCK_RECORD
  5
23
330
1
100
AcDbSymbolTableRecord
100
AcDbBlockTableRecord
  2
*Paper_Space0
340
26
  0
BLOCK_RECORD
  5
7E
330
1
100
AcDbSymbolTableRecord
100
AcDbBlockTableRecord
  2
블럭10
340
0
102
{BLKREFS
331
DD
102
}
  0
BLOCK_RECORD
  5
E7
330
1
100
AcDbSymbolTableRecord
100
AcDbBlockTableRecord
  2
_D
340
0
  0
BLOCK_RECORD
  5
FD
330
1
100
AcDbSymbolTableRecord
100
AcDbBlockTableRecord
  2
_D_1
340
0
  0
BLOCK_RECORD
  5
111
330
1
100
AcDbSymbolTableRecord
100
AcDbBlockTableRecord
  2
_NONE
340
0
  0
BLOCK_RECORD
  5
114
330
1
100
AcDbSymbolTableRecord
100
AcDbBlockTableRecord
  2
_D_2
340
0
  0
BLOCK_RECORD
  5
120
330
1
100
AcDbSymbolTableRecord
100
AcDbBlockTableRecord
  2
SW_DOWELSYMBOL_0
340
0
102
{BLKREFS
331
126
102
}
  0
BLOCK_RECORD
  5
14F
330
1
100
AcDbSymbolTableRecord
100
AcDbBlockTableRecord
  2
*D7
340
0
  0
BLOCK_RECORD
  5
16C
330
1
100
AcDbSymbolTableRecord
100
AcDbBlockTableRecord
  2
*D8
340
0
  0
BLOCK_RECORD
  5
17F
330
1
100
AcDbSymbolTableRecord
100
AcDbBlockTableRecord
  2
*D9
340
0
  0
ENDTAB
  0
ENDSEC
  0
SECTION
  2
BLOCKS
  0
BLOCK
  5
20
330
1F
100
AcDbEntity
  8
0
100
AcDbBlockBegin
  2
*Model_Space
 70
     0
 10
0.0
 20
0.0
 30
0.0
  3
*Model_Space
  1
*Model_Space
  0
ENDBLK
  5
21
330
1F
100
AcDbEntity
  8
0
100
AcDbBlockEnd
  0
BLOCK
  5
1C
330
1B
100
AcDbEntity
 67
     1
  8
0
100
AcDbBlockBegin
  2
*Paper_Space
 70
     0
 10
0.0
 20
0.0
 30
0.0
  3
*Paper_Space
  1
*Paper_Space
  0
ENDBLK
  5
1D
330
1B
100
AcDbEntity
 67
     1
  8
0
100
AcDbBlockEnd
  0
BLOCK
  5
24
330
23
100
AcDbEntity
  8
0
100
AcDbBlockBegin
  2
*Paper_Space0
 70
     0
 10
0.0
 20
0.0
 30
0.0
  3
*Paper_Space0
  1
*Paper_Space0
  0
ENDBLK
  5
25
330
23
100
AcDbEntity
  8
0
100
AcDbBlockEnd
  0
BLOCK
  5
7F
330
7E
100
AcDbEntity
  8
0
100
AcDbBlockBegin
  2
블럭10
 70
     2
 10
0.0
 20
0.0
 30
0.0
  3
블럭10
  1
블럭10
  0
ELLIPSE
  5
81
330
7E
100
AcDbEntity
  8
중심선
100
AcDbEllipse
 10
20.54032771741204
 20
12.0471743016438
 30
0.0
 11
6.600054785286829
 21
-1.261213355974178E-13
 31
0.0
210
0.0
220
0.0
230
1.0
 40
0.636358354079598
 41
0.9219305317359503
 42
6.513795318482858
  0
ELLIPSE
  5
82
330
7E
100
AcDbEntity
  8
중심선
100
AcDbEllipse
 10
20.54032771746488
 20
12.04717430159265
 30
0.0
 11
3.960054785062283
 21
1.540847449632565E-10
 31
0.0
210
0.0
220
0.0
230
1.0
 40
0.3939339440162632
 41
1.131841032648279
 42
5.62031148352944
  0
LINE
  5
83
330
7E
100
AcDbEntity
  8
중심선
100
AcDbLine
 10
2.268634060543552
 20
16.24717430164393
 30
0.0
 11
5.714909304380834
 21
16.24717430164393
 31
0.0
  0
LINE
  5
84
330
7E
100
AcDbEntity
  8
중심선
100
AcDbLine
 10
5.245725140726316
 20
7.84717430164391
 30
0.0
 11
8.692000384563599
 21
7.84717430164391
 31
0.0
  0
LINE
  5
85
330
7E
100
AcDbEntity
  8
중심선
100
AcDbLine
 10
15.74043728645272
 20
16.24717430164393
 30
0.0
 11
8.692000384563599
 21
7.84717430164391
 31
0.0
  0
LINE
  5
86
330
7E
100
AcDbEntity
  8
중심선
100
AcDbLine
 10
0.1404042013395286
 20
13.71084872107135
 30
0.0
 11
3.58671253028996
 21
13.71088815037384
 31
0.0
  0
LINE
  5
87
330
7E
100
AcDbEntity
  8
중심선
100
AcDbLine
 10
2.750260043222114
 20
10.84717430164391
 30
0.0
 11
6.196535287059397
 21
10.84717430164391
 31
0.0
  0
LINE
  5
88
330
7E
100
AcDbEntity
  8
중심선
100
AcDbLine
 10
12.29416204261559
 20
16.24717430164393
 30
0.0
 11
5.245725140726316
 21
7.84717430164391
 31
0.0
  0
LINE
  5
89
330
7E
100
AcDbEntity
  8
중심선
100
AcDbLine
 10
10.72767329541681
 20
16.24717430164393
 30
0.0
 11
6.196535287059397
 21
10.84717430164391
 31
0.0
  0
LINE
  5
8A
330
7E
100
AcDbEntity
  8
중심선
100
AcDbLine
 10
7.28139805157953
 20
16.24717430164393
 30
0.0
 11
2.750260043222114
 21
10.84717430164391
 31
0.0
  0
LINE
  5
8B
330
7E
100
AcDbEntity
  8
중심선
100
AcDbLine
 10
5.714909304380834
 20
16.24717430164393
 30
0.0
 11
3.58671253028996
 21
13.71088815037384
 31
0.0
  0
LINE
  5
8C
330
7E
100
AcDbEntity
  8
중심선
100
AcDbLine
 10
2.268634060543552
 20
16.24717430164393
 30
0.0
 11
0.1404042013395286
 21
13.71084872107135
 31
0.0
  0
LINE
  5
8D
330
7E
100
AcDbEntity
  8
중심선
100
AcDbLine
 10
7.28139805157953
 20
16.24717430164393
 30
0.0
 11
10.72767329541681
 21
16.24717430164393
 31
0.0
  0
LINE
  5
8E
330
7E
100
AcDbEntity
  8
중심선
100
AcDbLine
 10
12.29416204261559
 20
16.24717430164393
 30
0.0
 11
15.74043728645272
 21
16.24717430164393
 31
0.0
  0
LINE
  5
8F
330
7E
100
AcDbEntity
  8
중심선
100
AcDbLine
 10
19.22036997980202
 20
11.08717430171403
 30
0.0
 11
23.66174974927406
 21
11.08717430171406
 31
0.0
  0
LINE
  5
90
330
7E
100
AcDbEntity
  8
중심선
100
AcDbLine
 10
19.22039502424796
 20
13.00717430171391
 30
0.0
 11
19.22036997980202
 21
11.08717430171403
 31
0.0
  0
LINE
  5
91
330
7E
100
AcDbEntity
  8
중심선
100
AcDbLine
 10
19.22039502424796
 20
13.00717430171391
 30
0.0
 11
26.96566020931264
 21
13.00717430171391
 31
0.0
  0
LINE
  5
92
330
7E
100
AcDbEntity
  8
중심선
100
AcDbLine
 10
22.22332737316547
 20
13.45928029700563
 30
0.0
 11
24.52862924686651
 21
15.39360700705356
 31
0.0
  0
ATTDEF
  5
94
330
7E
100
AcDbEntity
  8
FORMAT
 62
     2
100
AcDbText
 10
-9.18129528874128
 20
2.075366912832191
 30
0.0
 40
4.233333333333333
  1
E5077598 [ 3 FLUTE ]
 41
0.75
  7
SLDTEXTSTYLE0
 11
-9.18129528874128
 21
-0.0412997538344756
 31
0.0
100
AcDbAttributeDefinition
  3

  2
AUTOATTR0
 70
     0
 74
     1
  0
ENDBLK
  5
80
330
7E
100
AcDbEntity
  8
0
100
AcDbBlockEnd
  0
BLOCK
  5
E8
330
E7
100
AcDbEntity
  8
0
100
AcDbBlockBegin
  2
_D
 70
     0
 10
0.0
 20
0.0
 30
0.0
  3
_D
  1
_D
  0
LINE
  5
EA
330
E7
100
AcDbEntity
  8
치수문자_일반주서
 62
     0
370
    -2
100
AcDbLine
 10
47.9749081826537
 20
1.644208435270851
 30
0.0
 11
47.9749081826537
 21
38.14449785143732
 31
0.0
  0
LINE
  5
EB
330
E7
100
AcDbEntity
  8
치수문자_일반주서
 62
     0
370
    -2
100
AcDbLine
 10
9.874908182653714
 20
4.988153232151803
 30
0.0
 11
9.874908182653712
 21
38.14449785143732
 31
0.0
  0
LINE
  5
EC
330
E7
100
AcDbEntity
  8
치수문자_일반주서
 62
     0
370
    -2
100
AcDbLine
 10
44.6729081826537
 20
38.14449785143732
 30
0.0
 11
13.17690818265371
 21
38.14449785143732
 31
0.0
  0
SOLID
  5
ED
330
E7
100
AcDbEntity
  8
치수문자_일반주서
 62
     0
100
AcDbTrace
 10
44.6729081826537
 20
37.59416451810399
 30
0.0
 11
44.6729081826537
 21
38.69483118477066
 31
0.0
 12
47.9749081826537
 22
38.14449785143732
 32
0.0
 13
47.9749081826537
 23
38.14449785143732
 33
0.0
  0
SOLID
  5
EE
330
E7
100
AcDbEntity
  8
치수문자_일반주서
 62
     0
100
AcDbTrace
 10
13.17690818265371
 20
38.69483118477066
 30
0.0
 11
13.17690818265371
 21
37.59416451810399
 31
0.0
 12
9.874908182653712
 22
38.14449785143732
 32
0.0
 13
9.874908182653712
 23
38.14449785143732
 33
0.0
  0
MTEXT
  5
EF
330
E7
100
AcDbEntity
  8
치수문자_일반주서
 62
     0
100
AcDbMText
 10
34.24808698755432
 20
42.51949785143732
 30
0.0
 40
3.5
 41
0.0
 71
     2
 72
     1
  1
\A1;38.1 [1 1/2]
  7
SLDTEXTSTYLE0
 73
     1
 44
1.0
  0
POINT
  5
F0
330
E7
100
AcDbEntity
  8
Defpoints
 62
     0
100
AcDbPoint
 10
47.9749081826537
 20
1.581708435270851
 30
0.0
  0
POINT
  5
F1
330
E7
100
AcDbEntity
  8
Defpoints
 62
     0
100
AcDbPoint
 10
9.874908182653714
 20
4.925653232151803
 30
0.0
  0
POINT
  5
F2
330
E7
100
AcDbEntity
  8
Defpoints
 62
     0
100
AcDbPoint
 10
9.874908182653714
 20
38.14449785143732
 30
0.0
  0
ENDBLK
  5
E9
330
E7
100
AcDbEntity
  8
0
100
AcDbBlockEnd
  0
BLOCK
  5
FE
330
FD
100
AcDbEntity
  8
0
100
AcDbBlockBegin
  2
_D_1
 70
     0
 10
0.0
 20
0.0
 30
0.0
  3
_D_1
  1
_D_1
  0
LINE
  5
100
330
FD
100
AcDbEntity
  8
치수문자_일반주서
 62
     0
370
    -2
100
AcDbLine
 10
47.9749081826537
 20
1.644208435270851
 30
0.0
 11
47.9749081826537
 21
54.9654840739595
 31
0.0
  0
LINE
  5
101
330
FD
100
AcDbEntity
  8
치수문자_일반주서
 62
     0
370
    -2
100
AcDbLine
 10
-40.92509181734631
 20
4.019835151814066
 30
0.0
 11
-40.92509181734631
 21
54.9654840739595
 31
0.0
  0
LINE
  5
102
330
FD
100
AcDbEntity
  8
치수문자_일반주서
 62
     0
370
    -2
100
AcDbLine
 10
44.6729081826537
 20
54.9654840739595
 30
0.0
 11
-37.62309181734631
 21
54.9654840739595
 31
0.0
  0
SOLID
  5
103
330
FD
100
AcDbEntity
  8
치수문자_일반주서
 62
     0
100
AcDbTrace
 10
44.6729081826537
 20
54.41515074062617
 30
0.0
 11
44.6729081826537
 21
55.51581740729284
 31
0.0
 12
47.9749081826537
 22
54.9654840739595
 32
0.0
 13
47.9749081826537
 23
54.9654840739595
 33
0.0
  0
SOLID
  5
104
330
FD
100
AcDbEntity
  8
치수문자_일반주서
 62
     0
100
AcDbTrace
 10
-37.62309181734631
 20
55.51581740729284
 30
0.0
 11
-37.62309181734631
 21
54.41515074062617
 31
0.0
 12
-40.92509181734631
 22
54.9654840739595
 32
0.0
 13
-40.92509181734631
 23
54.9654840739595
 33
0.0
  0
MTEXT
  5
105
330
FD
100
AcDbEntity
  8
치수문자_일반주서
 62
     0
100
AcDbMText
 10
6.909167064317742
 20
59.3404840739595
 30
0.0
 40
3.5
 41
0.0
 71
     2
 72
     1
  1
\A1;88.90 [3 1/2]
  7
SLDTEXTSTYLE0
 73
     1
 44
1.0
  0
POINT
  5
106
330
FD
100
AcDbEntity
  8
Defpoints
 62
     0
100
AcDbPoint
 10
47.9749081826537
 20
1.581708435270851
 30
0.0
  0
POINT
  5
107
330
FD
100
AcDbEntity
  8
Defpoints
 62
     0
100
AcDbPoint
 10
-40.92509181734631
 20
3.957335151814066
 30
0.0
  0
POINT
  5
108
330
FD
100
AcDbEntity
  8
Defpoints
 62
     0
100
AcDbPoint
 10
-40.92509181734631
 20
54.9654840739595
 30
0.0
  0
ENDBLK
  5
FF
330
FD
100
AcDbEntity
  8
0
100
AcDbBlockEnd
  0
BLOCK
  5
112
330
111
100
AcDbEntity
  8
0
100
AcDbBlockBegin
  2
_NONE
 70
     0
 10
0.0
 20
0.0
 30
0.0
  3
_NONE
  1
_NONE
  0
ENDBLK
  5
113
330
111
100
AcDbEntity
  8
0
100
AcDbBlockEnd
  0
BLOCK
  5
115
330
114
100
AcDbEntity
  8
0
100
AcDbBlockBegin
  2
_D_2
 70
     0
 10
0.0
 20
0.0
 30
0.0
  3
_D_2
  1
_D_2
  0
LINE
  5
117
330
114
100
AcDbEntity
  8
치수문자_일반주서
100
AcDbLine
 10
-64.71797353338903
 20
-10.17203127925463
 30
0.0
 11
-64.71797353338903
 21
-10.88296876481913
 31
0.0
  0
LINE
  5
118
330
114
100
AcDbEntity
  8
치수문자_일반주서
100
AcDbLine
 10
-64.71797353338903
 20
-10.88296876481913
 30
0.0
 11
-59.16172354232972
 21
-10.88296876481909
 31
0.0
  0
LINE
  5
119
330
114
100
AcDbEntity
  8
치수문자_일반주서
100
AcDbLine
 10
-59.16172354232972
 20
-10.88296876481909
 30
0.0
 11
-59.16172354232972
 21
-10.17203127925459
 31
0.0
  0
LINE
  5
11A
330
114
100
AcDbEntity
  8
치수문자_일반주서
100
AcDbLine
 10
-64.71797353338911
 20
0.6567015828826319
 30
0.0
 11
-64.71797353338911
 21
1.367639068447132
 31
0.0
  0
LINE
  5
11B
330
114
100
AcDbEntity
  8
치수문자_일반주서
100
AcDbLine
 10
-64.71797353338911
 20
1.367639068447132
 30
0.0
 11
-59.1617235423298
 21
1.367639068447171
 31
0.0
  0
LINE
  5
11C
330
114
100
AcDbEntity
  8
치수문자_일반주서
100
AcDbLine
 10
-59.1617235423298
 20
1.367639068447171
 30
0.0
 11
-59.1617235423298
 21
0.6567015828826709
 31
0.0
  0
MTEXT
  5
11D
330
114
100
AcDbEntity
  8
치수문자_일반주서
100
AcDbMText
 10
-63.67346045690864
 20
-9.283359378643247
 30
0.0
 40
3.5
 41
0.0
 71
     1
 72
     1
  1
0.00
  7
SLDTEXTSTYLE0
 11
-7.044195017643634E-15
 21
1.0
 31
0.0
 73
     1
 44
1.0
  0
MTEXT
  5
11E
330
114
100
AcDbEntity
  8
치수문자_일반주서
100
AcDbMText
 10
-58.43682890654816
 20
-8.689939260549721
 30
0.0
 40
3.5
 41
0.0
 71
     1
 72
     1
  1
%%c
  7
SLDTEXTSTYLE0
 11
-7.044195017643634E-15
 21
1.0
 31
0.0
 73
     1
 44
1.0
  0
MTEXT
  5
11F
330
114
100
AcDbEntity
  8
치수문자_일반주서
100
AcDbMText
 10
-58.43682890654819
 20
-3.411501862175641
 30
0.0
 40
3.5
 41
0.0
 71
     1
 72
     1
  1
0
  7
SLDTEXTSTYLE0
 11
-7.044195017643634E-15
 21
1.0
 31
0.0
 73
     1
 44
1.0
  0
ENDBLK
  5
116
330
114
100
AcDbEntity
  8
0
100
AcDbBlockEnd
  0
BLOCK
  5
121
330
120
100
AcDbEntity
  8
0
100
AcDbBlockBegin
  2
SW_DOWELSYMBOL_0
 70
     0
 10
0.0
 20
0.0
 30
0.0
  3
SW_DOWELSYMBOL_0
  1
SW_DOWELSYMBOL_0
  0
CIRCLE
  5
123
330
120
100
AcDbEntity
  8
외형선
 62
     0
100
AcDbCircle
 10
0.0
 20
0.0
 30
0.0
 40
3.000000000000004
  0
HATCH
  5
124
330
120
100
AcDbEntity
  8
0
  6
Continuous
 62
     0
370
    30
100
AcDbHatch
 10
0.0
 20
0.0
 30
0.0
210
0.0
220
0.0
230
1.0
  2
SOLID
 70
     1
 71
     0
 91
        1
 92
        0
 93
        3
 72
     2
 10
-0.0000000000000013
 20
-0.0000000000000039
 40
3.000000000000004
 50
0.0
 51
90.0
 73
     1
 72
     1
 10
-0.0000000000000013
 20
3.0
 11
-0.0000000000000013
 21
-0.000000000000004
 72
     1
 10
-0.0000000000000013
 20
-0.0000000000000039
 11
3.000000000000003
 21
-0.0000000000000039
 97
        0
 75
     0
 76
     1
 98
        1
 10
0.0
 20
0.0
  0
HATCH
  5
125
330
120
100
AcDbEntity
  8
0
  6
Continuous
 62
     0
370
    30
100
AcDbHatch
 10
0.0
 20
0.0
 30
0.0
210
0.0
220
0.0
230
1.0
  2
SOLID
 70
     1
 71
     0
 91
        1
 92
        0
 93
        3
 72
     2
 10
-0.0000000000000013
 20
-0.0000000000000039
 40
3.000000000000004
 50
180.0
 51
270.0000000000008
 73
     1
 72
     1
 10
-0.0000000000000013
 20
-3.000000000000008
 11
-0.0000000000000013
 21
-0.000000000000004
 72
     1
 10
-0.0000000000000013
 20
-0.0000000000000039
 11
-3.000000000000006
 21
-0.0000000000000039
 97
        0
 75
     0
 76
     1
 98
        1
 10
0.0
 20
0.0
  0
ENDBLK
  5
122
330
120
100
AcDbEntity
  8
0
100
AcDbBlockEnd
  0
BLOCK
  5
150
330
14F
100
AcDbEntity
  8
0
100
AcDbBlockBegin
  2
*D7
 70
     1
 10
0.0
 20
0.0
 30
0.0
  3
*D7
  1
*D7
  0
LINE
  5
152
330
14F
100
AcDbEntity
  8
치수문자_일반주서
 62
     0
370
    -2
100
AcDbLine
 10
-40.1775918173463
 20
-4.757664848185908
 30
0.0
 11
-51.77193601753627
 21
-4.757664848185907
 31
0.0
  0
LINE
  5
153
330
14F
100
AcDbEntity
  8
치수문자_일반주서
 62
     0
370
    -2
100
AcDbLine
 10
-40.1775918173463
 20
4.767335151814087
 30
0.0
 11
-51.77193601753627
 21
4.767335151814088
 31
0.0
  0
LINE
  5
154
330
14F
100
AcDbEntity
  8
치수문자_일반주서
 62
     0
370
    -2
100
AcDbLine
 10
-51.77193601753627
 20
8.069335151814087
 30
0.0
 11
-51.77193601753627
 21
37.62133515181408
 31
0.0
  0
LINE
  5
155
330
14F
100
AcDbEntity
  8
치수문자_일반주서
 62
     0
370
    -2
100
AcDbLine
 10
-51.77193601753627
 20
-4.757664848185907
 30
0.0
 11
-51.77193601753627
 21
4.767335151814088
 31
0.0
  0
LINE
  5
156
330
14F
100
AcDbEntity
  8
치수문자_일반주서
 62
     0
370
    -2
100
AcDbLine
 10
-51.77193601753627
 20
-8.059664848185907
 30
0.0
 11
-51.77193601753627
 21
-11.36166484818591
 31
0.0
  0
SOLID
  5
157
330
14F
100
AcDbEntity
  8
치수문자_일반주서
 62
     0
100
AcDbTrace
 10
-51.22160268420294
 20
-8.059664848185907
 30
0.0
 11
-52.3222693508696
 21
-8.059664848185907
 31
0.0
 12
-51.77193601753627
 22
-4.757664848185907
 32
0.0
 13
-51.77193601753627
 23
-4.757664848185907
 33
0.0
  0
SOLID
  5
158
330
14F
100
AcDbEntity
  8
치수문자_일반주서
 62
     0
100
AcDbTrace
 10
-52.3222693508696
 20
8.069335151814087
 30
0.0
 11
-51.22160268420294
 21
8.069335151814087
 31
0.0
 12
-51.77193601753627
 22
4.767335151814088
 32
0.0
 13
-51.77193601753627
 23
4.767335151814088
 33
0.0
  0
MTEXT
  5
159
330
14F
100
AcDbEntity
  8
치수문자_일반주서
 62
     0
100
AcDbMText
 10
-54.39693601753627
 20
24.49633515181408
 30
0.0
 40
3.5
 41
0.0
 71
     5
 72
     1
  1
\A1;{%%c9.53 [3/8]}
  7
SLDTEXTSTYLE0
 11
0.0
 21
1.0
 31
0.0
 73
     1
 44
1.0
  0
POINT
  5
15A
330
14F
100
AcDbEntity
  8
Defpoints
 62
     0
100
AcDbPoint
 10
-40.1150918173463
 20
-4.757664848185908
 30
0.0
  0
POINT
  5
15B
330
14F
100
AcDbEntity
  8
Defpoints
 62
     0
100
AcDbPoint
 10
-40.1150918173463
 20
4.767335151814087
 30
0.0
  0
POINT
  5
15C
330
14F
100
AcDbEntity
  8
Defpoints
 62
     0
100
AcDbPoint
 10
-51.77193601753627
 20
4.767335151814088
 30
0.0
  0
ENDBLK
  5
151
330
14F
100
AcDbEntity
  8
0
100
AcDbBlockEnd
  0
BLOCK
  5
16D
330
16C
100
AcDbEntity
  8
0
100
AcDbBlockBegin
  2
*D8
 70
     1
 10
0.0
 20
0.0
 30
0.0
  3
*D8
  1
*D8
  0
LINE
  5
16F
330
16C
100
AcDbEntity
  8
치수문자_일반주서
 62
     0
370
    -2
100
AcDbLine
 10
48.0374081826537
 20
1.592335151814097
 30
0.0
 11
67.92453289354373
 21
1.592335151814098
 31
0.0
  0
LINE
  5
170
330
16C
100
AcDbEntity
  8
치수문자_일반주서
 62
     0
370
    -2
100
AcDbLine
 10
48.03740818265369
 20
-1.582664848185911
 30
0.0
 11
67.92453289354373
 21
-1.58266484818591
 31
0.0
  0
LINE
  5
171
330
16C
100
AcDbEntity
  8
치수문자_일반주서
 62
     0
370
    -2
100
AcDbLine
 10
67.92453289354373
 20
1.592335151814098
 30
0.0
 11
67.92453289354373
 21
32.8413638467442
 31
0.0
  0
LINE
  5
172
330
16C
100
AcDbEntity
  8
치수문자_일반주서
 62
     0
370
    -2
100
AcDbLine
 10
67.92453289354373
 20
1.592335151814098
 30
0.0
 11
67.92453289354373
 21
-1.58266484818591
 31
0.0
  0
LINE
  5
173
330
16C
100
AcDbEntity
  8
치수문자_일반주서
 62
     0
370
    -2
100
AcDbLine
 10
67.92453289354373
 20
4.894335151814097
 30
0.0
 11
67.92453289354373
 21
8.196335151814097
 31
0.0
  0
LINE
  5
174
330
16C
100
AcDbEntity
  8
치수문자_일반주서
 62
     0
370
    -2
100
AcDbLine
 10
67.92453289354373
 20
-4.88466484818591
 30
0.0
 11
67.92453289354373
 21
-8.18666484818591
 31
0.0
  0
SOLID
  5
175
330
16C
100
AcDbEntity
  8
치수문자_일반주서
 62
     0
100
AcDbTrace
 10
67.3741995602104
 20
4.894335151814097
 30
0.0
 11
68.47486622687705
 21
4.894335151814097
 31
0.0
 12
67.92453289354373
 22
1.592335151814098
 32
0.0
 13
67.92453289354373
 23
1.592335151814098
 33
0.0
  0
SOLID
  5
176
330
16C
100
AcDbEntity
  8
치수문자_일반주서
 62
     0
100
AcDbTrace
 10
68.47486622687705
 20
-4.88466484818591
 30
0.0
 11
67.3741995602104
 21
-4.88466484818591
 31
0.0
 12
67.92453289354373
 22
-1.58266484818591
 32
0.0
 13
67.92453289354373
 23
-1.58266484818591
 33
0.0
  0
MTEXT
  5
177
330
16C
100
AcDbEntity
  8
치수문자_일반주서
 62
     0
100
AcDbMText
 10
65.29953289354373
 20
20.5913638467442
 30
0.0
 40
3.5
 41
0.0
 71
     5
 72
     1
  1
\A1;{%%c3.18 [1/8]}
  7
SLDTEXTSTYLE0
 11
0.0
 21
1.0
 31
0.0
 73
     1
 44
1.0
  0
POINT
  5
178
330
16C
100
AcDbEntity
  8
Defpoints
 62
     0
100
AcDbPoint
 10
47.9749081826537
 20
1.592335151814097
 30
0.0
  0
POINT
  5
179
330
16C
100
AcDbEntity
  8
Defpoints
 62
     0
100
AcDbPoint
 10
47.97490818265369
 20
-1.582664848185911
 30
0.0
  0
POINT
  5
17B
330
16C
100
AcDbEntity
  8
Defpoints
 62
     0
100
AcDbPoint
 10
67.92453289354373
 20
-1.582664848185912
 30
0.0
  0
ENDBLK
  5
16E
330
16C
100
AcDbEntity
  8
0
100
AcDbBlockEnd
  0
BLOCK
  5
180
330
17F
100
AcDbEntity
  8
0
100
AcDbBlockBegin
  2
*D9
 70
     1
 10
0.0
 20
0.0
 30
0.0
  3
*D9
  1
*D9
  0
LINE
  5
182
330
17F
100
AcDbEntity
  8
치수문자_일반주서
 62
     0
370
    -2
100
AcDbLine
 10
20.99212807742711
 20
10.5612266698688
 30
0.0
 11
22.18793320763607
 21
15.6732272655814
 31
0.0
  0
LINE
  5
183
330
17F
100
AcDbEntity
  8
치수문자_일반주서
 62
     0
370
    -2
100
AcDbLine
 10
19.49126862759279
 20
4.084330708840524
 30
0.0
 11
19.9502510513921
 21
4.044174950000432
 31
0.0
  0
ARC
  5
184
330
17F
100
AcDbEntity
  8
치수문자_일반주서
 62
     0
370
    -2
100
AcDbCircle
 10
66.12011621328745
 20
0.004835151814091
 30
0.0
 40
46.34622654621204
100
AcDbArc
 50
166.8340406503942
 51
170.9170203251971
  0
ARC
  5
185
330
17F
100
AcDbEntity
  8
치수문자_일반주서
 62
     0
370
    -2
100
AcDbCircle
 10
66.12011621328745
 20
0.004835151814091
 30
0.0
 40
46.34622654621204
100
AcDbArc
 50
184.0829796748029
 51
188.1659593496058
  0
ARC
  5
186
330
17F
100
AcDbEntity
  8
치수문자_일반주서
 62
     0
370
    -2
100
AcDbCircle
 10
66.12011621328745
 20
0.004835151814091
 30
0.0
 40
46.34622654621204
100
AcDbArc
 50
175.0
 51
180.0
  0
SOLID
  5
187
330
17F
100
AcDbEntity
  8
치수문자_일반주서
 62
     0
100
AcDbTrace
 10
19.80885426400346
 20
7.388734371851679
 30
0.0
 11
20.90121930824649
 21
7.253805793607389
 31
0.0
 12
19.9502510513921
 22
4.044174950000432
 32
0.0
 13
19.9502510513921
 23
4.044174950000432
 33
0.0
  0
SOLID
  5
188
330
17F
100
AcDbEntity
  8
치수문자_일반주서
 62
     0
100
AcDbTrace
 10
20.44150144248694
 20
-3.275464422174485
 30
0.0
 11
19.34153337657651
 21
-3.314673669659925
 31
0.0
 12
19.77388966707541
 22
0.004835151814091
 32
0.0
 13
19.77388966707541
 23
0.004835151814091
 33
0.0
  0
MTEXT
  5
189
330
17F
100
AcDbEntity
  8
치수문자_일반주서
 62
     0
100
AcDbMText
 10
19.0340303446753
 20
13.71512953282958
 30
0.0
 40
3.5
 41
0.0
 71
     5
 72
     1
  1
\A1;5%%d
  7
SLDTEXTSTYLE0
 11
0.2277724057540884
 21
0.9737143991833513
 31
0.0
 73
     1
 44
1.0
  0
POINT
  5
18A
330
17F
100
AcDbEntity
  8
Defpoints
 62
     0
100
AcDbPoint
 10
19.79349643440609
 20
1.352802115715191
 30
0.0
  0
POINT
  5
18B
330
17F
100
AcDbEntity
  8
Defpoints
 62
     0
100
AcDbPoint
 10
19.42900645896206
 20
4.089777942762252
 30
0.0
  0
POINT
  5
18C
330
17F
100
AcDbEntity
  8
Defpoints
 62
     0
100
AcDbPoint
 10
-43.92509181734629
 20
0.0048351518140892
 30
0.0
  0
POINT
  5
18D
330
17F
100
AcDbEntity
  8
Defpoints
 62
     0
100
AcDbPoint
 10
50.97490428620234
 20
0.0048351518140892
 30
0.0
  0
POINT
  5
18E
330
17F
100
AcDbEntity
  8
Defpoints
 62
     0
100
AcDbPoint
 10
15.97655410078241
 20
4.391828385466314
 30
0.0
  0
ENDBLK
  5
181
330
17F
100
AcDbEntity
  8
0
100
AcDbBlockEnd
  0
ENDSEC
  0
SECTION
  2
ENTITIES
  0
LINE
  5
95
330
1F
100
AcDbEntity
  8
0
  6
Continuous
 62
     1
370
    15
100
AcDbLine
 10
36.17545124435691
 20
-2.614983566049182
 30
0.0
 11
38.99593952524454
 21
-2.368222815863791
 31
0.0
  0
LINE
  5
96
330
1F
100
AcDbEntity
  8
0
  6
Continuous
 62
     1
370
    15
100
AcDbLine
 10
22.67294019693849
 20
-3.796300211831845
 30
0.0
 11
25.98275127194591
 21
-3.506729264356144
 31
0.0
  0
LINE
  5
97
330
1F
100
AcDbEntity
  8
0
  6
Continuous
 62
     1
370
    15
100
AcDbLine
 10
9.874908182653714
 20
-4.915982928523611
 30
0.0
 11
12.861293270059
 21
-4.654708088452773
 31
0.0
  0
LINE
  5
98
102
{ACAD_REACTORS
102
}
330
1F
100
AcDbEntity
  8
0
  6
Continuous
 62
     1
370
    15
100
AcDbLine
 10
19.42900645896206
 20
4.089777942762252
 30
0.0
 11
15.97655410078241
 21
4.391828385466314
 31
0.0
  0
LINE
  5
99
330
1F
100
AcDbEntity
  8
0
  6
Continuous
 62
     1
370
    15
100
AcDbLine
 10
32.5101191014611
 20
2.945328880237941
 30
0.0
 11
29.40108525599071
 21
3.21733409623501
 31
0.0
  0
LINE
  5
9A
330
1F
100
AcDbEntity
  8
0
  6
Continuous
 62
     1
370
    15
100
AcDbLine
 10
45.40512233026629
 20
1.8171622815873
 30
0.0
 11
43.03846959898615
 21
2.024217566076977
 31
0.0
  0
LINE
  5
9B
330
1F
100
AcDbEntity
  8
0
  6
Continuous
 62
     1
370
    15
100
AcDbLine
 10
40.73563516148394
 20
-2.216019169707324
 30
0.0
 11
43.28157859780824
 21
-1.993277981050712
 31
0.0
  0
LINE
  5
9C
330
1F
100
AcDbEntity
  8
0
  6
Continuous
 62
     1
370
    15
100
AcDbLine
 10
27.15492600827021
 20
-3.404177263256279
 30
0.0
 11
30.33727131111565
 21
-3.12575812583233
 31
0.0
  0
LINE
  5
9D
330
1F
100
AcDbEntity
  8
0
  6
Continuous
 62
     1
370
    15
100
AcDbLine
 10
13.74581059423515
 20
-4.577322849895075
 30
0.0
 11
17.24288491740814
 21
-4.271368491109845
 31
0.0
  0
LINE
  5
9E
330
1F
100
AcDbEntity
  8
0
  6
Continuous
 62
     1
370
    15
100
AcDbLine
 10
10.67080941484842
 20
4.856020897048452
 30
0.0
 11
9.874908182653714
 21
4.925653232151803
 31
0.0
  0
LINE
  5
9F
330
1F
100
AcDbEntity
  8
0
  6
Continuous
 62
     1
370
    15
100
AcDbLine
 10
23.79981643637112
 20
3.707381619312959
 30
0.0
 11
20.43929047441248
 21
4.00138954446889
 31
0.0
  0
LINE
  5
A0
330
1F
100
AcDbEntity
  8
0
  6
Continuous
 62
     1
370
    15
100
AcDbLine
 10
36.84047349403451
 20
2.566471961838078
 30
0.0
 11
33.90984249006042
 21
2.822868951663409
 31
0.0
  0
LINE
  5
A1
102
{ACAD_REACTORS
102
}
330
1F
100
AcDbEntity
  8
0
  6
Continuous
 62
     1
370
    15
100
AcDbLine
 10
47.9749081826537
 20
1.592335151814097
 30
0.0
 11
47.71559688871585
 21
1.615021950357898
 31
0.0
  0
LINE
  5
A2
330
1F
100
AcDbEntity
  8
0
  6
Continuous
 62
     4
370
    15
100
AcDbLine
 10
9.366908182653706
 20
-4.941814848185905
 30
0.0
 11
9.874908182653716
 21
-4.915982928523611
 31
0.0
  0
LINE
  5
A3
330
1F
100
AcDbEntity
  8
0
  6
Continuous
 62
     1
370
    15
100
AcDbLine
 10
45.36405382015157
 20
-1.811085007022043
 30
0.0
 11
46.76577720287441
 21
-1.688450101634584
 31
0.0
  0
LINE
  5
A4
330
1F
100
AcDbEntity
  8
0
  6
Continuous
 62
     1
370
    15
100
AcDbLine
 10
31.65187739983987
 20
-3.010744996066804
 30
0.0
 11
34.67817019278381
 21
-2.745978684174003
 31
0.0
  0
LINE
  5
A5
330
1F
100
AcDbEntity
  8
0
  6
Continuous
 62
     1
370
    15
100
AcDbLine
 10
18.2048720168936
 20
-4.187205525446682
 30
0.0
 11
21.61684446411073
 21
-3.888696616052378
 31
0.0
  0
LINE
  5
A6
330
1F
100
AcDbEntity
  8
0
  6
Continuous
 62
     1
370
    15
100
AcDbLine
 10
15.05285107741806
 20
4.472641928475316
 30
0.0
 11
11.52144379864946
 21
4.781600031660502
 31
0.0
  0
LINE
  5
A7
330
1F
100
AcDbEntity
  8
0
  6
Continuous
 62
     1
370
    15
100
AcDbLine
 10
28.15994771959506
 20
3.325919560546124
 30
0.0
 11
24.91235859111171
 21
3.610046793078452
 31
0.0
  0
LINE
  5
A8
330
1F
100
AcDbEntity
  8
0
  6
Continuous
 62
     1
370
    15
100
AcDbLine
 10
41.14130115977063
 20
2.190198297307506
 30
0.0
 11
38.44981850080514
 21
2.425672518043598
 31
0.0
  0
LINE
  5
A9
330
1F
100
AcDbEntity
  8
0
  6
Continuous
 62
     4
370
    15
100
AcDbLine
 10
9.874908182653714
 20
4.925653232151803
 30
0.0
 11
9.366908182653704
 21
4.951485151814096
 31
0.0
  0
LINE
  5
AA
102
{ACAD_REACTORS
102
}
330
1F
100
AcDbEntity
  8
0
  6
Continuous
 62
     4
370
    15
100
AcDbLine
 10
-40.1150918173463
 20
4.767335151814087
 30
0.0
 11
-40.92509181734631
 21
3.957335151814065
 31
0.0
  0
LINE
  5
AB
102
{ACAD_REACTORS
102
}
330
1F
100
AcDbEntity
  8
0
  6
Continuous
 62
     4
370
    15
100
AcDbLine
 10
-40.92509181734631
 20
-3.947664848185887
 30
0.0
 11
-40.1150918173463
 21
-4.757664848185908
 31
0.0
  0
LINE
  5
AC
330
1F
100
AcDbEntity
  8
0
  6
Continuous
 62
     4
370
    15
100
AcDbLine
 10
9.366908182653704
 20
4.767335151814094
 30
0.0
 11
-40.1150918173463
 21
4.767335151814088
 31
0.0
  0
LINE
  5
AD
330
1F
100
AcDbEntity
  8
0
  6
Continuous
 62
     4
370
    15
100
AcDbLine
 10
9.263875228066604
 20
-4.757664848185902
 30
0.0
 11
9.366908182653706
 21
-4.757664848185902
 31
0.0
  0
LINE
  5
AE
330
1F
100
AcDbEntity
  8
0
  6
Continuous
 62
     4
370
    15
100
AcDbLine
 10
-40.1150918173463
 20
-4.757664848185907
 30
0.0
 11
8.984908182653697
 21
-4.757664848185902
 31
0.0
  0
SPLINE
  5
AF
330
1F
100
AcDbEntity
  8
0
  6
Continuous
 62
     1
370
    15
100
AcDbSpline
210
0.0
220
0.0
230
1.0
 70
     8
 71
     3
 72
    11
 73
     7
 74
     0
 42
0.000000001
 43
0.00000001
 40
0.0
 40
0.0
 40
0.0
 40
0.0
 40
0.1325028720429907
 40
0.5149100522603574
 40
0.908417905137059
 40
1.0
 40
1.0
 40
1.0
 40
1.0
 10
46.72620173735102
 20
1.348220057148334
 30
0.0
 10
46.6671561536285
 20
1.381939726813731
 30
0.0
 10
46.43770328116218
 20
1.512975353452662
 30
0.0
 10
46.03560537535317
 20
1.686793778405063
 30
0.0
 10
45.65434587324447
 20
1.804333348356551
 30
0.0
 10
45.44396409167862
 20
1.806692053321276
 30
0.0
 10
45.40424526351784
 20
1.807137362779532
 30
0.0
  0
SPLINE
  5
B0
330
1F
100
AcDbEntity
  8
0
  6
Continuous
 62
     1
370
    15
100
AcDbSpline
210
0.0
220
0.0
230
1.0
 70
     8
 71
     3
 72
    25
 73
    21
 74
     0
 42
0.000000001
 43
0.00000001
 40
0.0
 40
0.0
 40
0.0
 40
0.0
 40
0.0092075665922024
 40
0.0667238288673373
 40
0.1258879622127606
 40
0.1837485058724705
 40
0.2432649589780511
 40
0.3015048429293615
 40
0.3614097135182856
 40
0.4200658319582393
 40
0.4803974758214937
 40
0.5394965855576189
 40
0.6002825164469245
 40
0.6598550694992704
 40
0.7211269169999186
 40
0.7811947434505607
 40
0.8429750004157844
 40
0.903561636919753
 40
0.9658746555140502
 40
0.9999999999999999
 40
0.9999999999999999
 40
0.9999999999999999
 40
0.9999999999999999
 10
39.83364284230777
 20
-2.098602734559361
 30
0.0
 10
39.80935357823609
 20
-2.113430992303134
 30
0.0
 10
39.63333826702397
 20
-2.22088589064013
 30
0.0
 10
39.30537311674348
 20
-2.326937592571762
 30
0.0
 10
38.85320292969159
 20
-2.396207514154015
 30
0.0
 10
38.40046670746752
 20
-2.339144010425706
 30
0.0
 10
37.95393038409996
 20
-2.169804579553522
 30
0.0
 10
37.50630577710685
 20
-1.889112043716141
 30
0.0
 10
37.06468749349281
 20
-1.514194632735024
 30
0.0
 10
36.62183060972897
 20
-1.055480561898415
 30
0.0
 10
36.18470582659209
 20
-0.5402479075737069
 30
0.0
 10
35.74623364337853
 20
0.0164286307322057
 30
0.0
 10
35.31326920813545
 20
0.581448280404779
 30
0.0
 10
34.87884792127421
 20
1.138038941071042
 30
0.0
 10
34.44970376958131
 20
1.653172291771733
 30
0.0
 10
34.01903726737591
 20
2.110867509469286
 30
0.0
 10
33.59342875061891
 20
2.485549047506463
 30
0.0
 10
33.16634795633394
 20
2.758403673074156
 30
0.0
 10
32.80561920033946
 20
2.912721813719954
 30
0.0
 10
32.58641281597584
 20
2.926051416188451
 30
0.0
 10
32.50884520552498
 20
2.93076818305974
 30
0.0
  0
SPLINE
  5
B1
330
1F
100
AcDbEntity
  8
0
  6
Continuous
 62
     1
370
    15
100
AcDbSpline
210
0.0
220
0.0
230
1.0
 70
     8
 71
     3
 72
    26
 73
    22
 74
     0
 42
0.000000001
 43
0.00000001
 40
0.0
 40
0.0
 40
0.0
 40
0.0
 40
0.0020927652160594
 40
0.0560546916559485
 40
0.1090466688079488
 40
0.1635456247835811
 40
0.2170667757368458
 40
0.2721098541613668
 40
0.3261672558175321
 40
0.3817617629700032
 40
0.4363628488474934
 40
0.4925164897725499
 40
0.5476670568354898
 40
0.6043857906186678
 40
0.660091384140136
 40
0.7173809335634441
 40
0.7736475052061358
 40
0.8315140301707187
 40
0.8883467334858385
 40
0.9467955427306382
 40
1.0
 40
1.0
 40
1.0
 40
1.0
 10
26.56605057083435
 20
-3.317461770520867
 30
0.0
 10
26.56072675278752
 20
-3.321100197731211
 30
0.0
 10
26.41812834912628
 20
-3.418555427693647
 30
0.0
 10
26.14344188897935
 20
-3.495208698359625
 30
0.0
 10
25.73848284726393
 20
-3.528835990631131
 30
0.0
 10
25.33780553157941
 20
-3.415842779068943
 30
0.0
 10
24.93490237358441
 20
-3.1747256251829
 30
0.0
 10
24.53589868404981
 20
-2.811642270588647
 30
0.0
 10
24.13471521243292
 20
-2.33467288836134
 30
0.0
 10
23.73735487643474
 20
-1.766647296400144
 30
0.0
 10
23.33778191147041
 20
-1.119326156201026
 30
0.0
 10
22.94197022501632
 20
-0.4248612635984985
 30
0.0
 10
22.5439278044253
 20
0.3019184269300524
 30
0.0
 10
22.14958659378946
 20
1.024407564533849
 30
0.0
 10
21.75298969660111
 20
1.726752767961102
 30
0.0
 10
21.36005224427613
 20
2.373234072930255
 30
0.0
 10
20.96482394282671
 20
2.94896145375886
 30
0.0
 10
20.57320135574675
 20
3.425180804218027
 30
0.0
 10
20.17932042239512
 20
3.786526353181595
 30
0.0
 10
19.79829253967645
 20
4.02285437191477
 30
0.0
 10
19.54790936651822
 20
4.06501795771596
 30
0.0
 10
19.42859802657122
 20
4.085109539172719
 30
0.0
  0
SPLINE
  5
B2
330
1F
100
AcDbEntity
  8
0
  6
Continuous
 62
     1
370
    15
100
AcDbSpline
210
0.0
220
0.0
230
1.0
 70
     8
 71
     3
 72
    17
 73
    13
 74
     0
 42
0.000000001
 43
0.00000001
 40
0.0
 40
0.0
 40
0.0
 40
0.0
 40
0.0235170797185601
 40
0.1342711919939581
 40
0.2430084123368725
 40
0.3548400599784948
 40
0.4646298221540045
 40
0.5775442875881954
 40
0.6883911067022169
 40
0.8023930478621826
 40
0.9001461305562243
 40
1.0
 40
1.0
 40
1.0
 40
1.0
 10
13.29543464649747
 20
-4.504994756968175
 30
0.0
 10
13.26785141651121
 20
-4.523688023437615
 30
0.0
 10
13.11036446602159
 20
-4.630417566439999
 30
0.0
 10
12.82754183058938
 20
-4.675401262697108
 30
0.0
 10
12.44353863743273
 20
-4.62653347959797
 30
0.0
 10
12.06302790198888
 20
-4.409834595133345
 30
0.0
 10
11.67994471484366
 20
-4.043700456148522
 30
0.0
 10
11.3001478732645
 20
-3.539705503530033
 30
0.0
 10
10.91783095365754
 20
-2.907196247426769
 30
0.0
 10
10.55468070711627
 20
-2.204809195032937
 30
0.0
 10
10.20587374805929
 20
-1.461442341180405
 30
0.0
 10
9.986009174652173
 20
-0.9580707970476914
 30
0.0
 10
9.8749081826537
 20
-0.7037093188417815
 30
0.0
  0
SPLINE
  5
B3
330
1F
100
AcDbEntity
  8
0
  6
Continuous
 62
     4
370
    15
100
AcDbSpline
210
0.0
220
0.0
230
1.0
 70
     8
 71
     3
 72
     8
 73
     4
 74
     0
 42
0.000000001
 43
0.00000001
 40
0.0
 40
0.0
 40
0.0
 40
0.0
 40
1.0
 40
1.0
 40
1.0
 40
1.0
 10
9.874908182653714
 20
-0.7037093188418113
 30
0.0
 10
9.704471855700412
 20
-0.3073287051918114
 30
0.0
 10
9.536563142755584
 20
0.0922829270008376
 30
0.0
 10
9.366908182653717
 20
0.4933093157930582
 30
0.0
  0
SPLINE
  5
B4
330
1F
100
AcDbEntity
  8
0
  6
Continuous
 62
     4
370
    15
100
AcDbSpline
210
0.0
220
0.0
230
1.0
 70
     8
 71
     3
 72
     8
 73
     4
 74
     0
 42
0.000000001
 43
0.00000001
 40
0.0
 40
0.0
 40
0.0
 40
0.0
 40
1.0
 40
1.0
 40
1.0
 40
1.0
 10
9.366908182653704
 20
0.5350434046678909
 30
0.0
 10
9.239172212639497
 20
0.8285927996121679
 30
0.0
 10
9.112464521846812
 20
1.11702236826057
 30
0.0
 10
8.984908182653697
 20
1.399532494799797
 30
0.0
  0
SPLINE
  5
B5
330
1F
100
AcDbEntity
  8
0
  6
Continuous
 62
     4
370
    15
100
AcDbSpline
210
0.0
220
0.0
230
1.0
 70
     8
 71
     3
 72
     8
 73
     4
 74
     0
 42
0.000000001
 43
0.00000001
 40
0.0
 40
0.0
 40
0.0
 40
0.0
 40
1.0
 40
1.0
 40
1.0
 40
1.0
 10
8.984908182694708
 20
2.89661998977726
 30
0.0
 10
9.11250497677261
 20
2.673571327013213
 30
0.0
 10
9.239499592989162
 20
2.436405809312421
 30
0.0
 10
9.366908182653704
 20
2.186802532910284
 30
0.0
  0
SPLINE
  5
B6
330
1F
100
AcDbEntity
  8
0
  6
Continuous
 62
     4
370
    15
100
AcDbSpline
210
0.0
220
0.0
230
1.0
 70
    24
 71
     3
 72
     9
 73
     5
 74
     0
 42
0.000000001
 43
0.00000001
 40
0.0
 40
0.0
 40
0.0
 40
0.0
 40
0.5
 40
1.0
 40
1.0
 40
1.0
 40
1.0
 10
9.366908182653704
 20
2.186802532910289
 30
0.0
 10
9.366908182653704
 20
2.212372614343659
 30
0.0
 10
9.366908182653704
 20
2.261413236261911
 30
0.0
 10
9.366908182653704
 20
2.305732133965486
 30
0.0
 10
9.366908182653704
 20
2.326616553786952
 30
0.0
  0
SPLINE
  5
B7
330
1F
100
AcDbEntity
  8
0
  6
Continuous
 62
     4
370
    15
100
AcDbSpline
210
0.0
220
0.0
230
1.0
 70
     8
 71
     3
 72
     8
 73
     4
 74
     0
 42
0.000000001
 43
0.00000001
 40
0.0
 40
0.0
 40
0.0
 40
0.0
 40
1.0
 40
1.0
 40
1.0
 40
1.0
 10
9.366908182654091
 20
2.326616553786225
 30
0.0
 10
9.536068431261869
 20
1.975927218820063
 30
0.0
 10
9.705013246815573
 20
1.605566057296469
 30
0.0
 10
9.874908182653723
 20
1.223378020702188
 30
0.0
  0
SPLINE
  5
B8
330
1F
100
AcDbEntity
  8
0
  6
Continuous
 62
     1
370
    15
100
AcDbSpline
210
0.0
220
0.0
230
1.0
 70
     8
 71
     3
 72
    18
 73
    14
 74
     0
 42
0.000000001
 43
0.00000001
 40
0.0
 40
0.0
 40
0.0
 40
0.0
 40
0.0515877191669689
 40
0.1191539749271273
 40
0.1875601978154061
 40
0.28860308079615
 40
0.3925785169122668
 40
0.4935030560109186
 40
0.597408946279452
 40
0.6973703553758667
 40
0.8002851355153857
 40
0.8992856580756158
 40
1.0
 40
1.0
 40
1.0
 40
1.0
 10
9.874908182653705
 20
1.223378020702219
 30
0.0
 10
9.93951709715535
 20
1.076272516248325
 30
0.0
 10
10.08874658632275
 20
0.7364977428645699
 30
0.0
 10
10.32474768213379
 20
0.1920877294127931
 30
0.0
 10
10.62399119987084
 20
-0.4941920637223652
 30
0.0
 10
10.97129394087181
 20
-1.271777321541625
 30
0.0
 10
11.36216853449095
 20
-2.091713306998655
 30
0.0
 10
11.7591149914867
 20
-2.840142345633636
 30
0.0
 10
12.15338092181587
 20
-3.475091912950327
 30
0.0
 10
12.55259016338075
 20
-3.988119470348179
 30
0.0
 10
12.94805254715684
 20
-4.347802235476754
 30
0.0
 10
13.3466872339685
 20
-4.56542304485631
 30
0.0
 10
13.61195378402185
 20
-4.572684990426731
 30
0.0
 10
13.74572522908739
 20
-4.576347121791381
 30
0.0
  0
SPLINE
  5
B9
330
1F
100
AcDbEntity
  8
0
  6
Continuous
 62
     1
370
    15
100
AcDbSpline
210
0.0
220
0.0
230
1.0
 70
     8
 71
     3
 72
    25
 73
    21
 74
     0
 42
0.000000001
 43
0.00000001
 40
0.0
 40
0.0
 40
0.0
 40
0.0
 40
0.0436907188974111
 40
0.1028179969994175
 40
0.1636929536590808
 40
0.2222374746778918
 40
0.282512349043148
 40
0.3404804244319272
 40
0.4001615063598811
 40
0.4575643188234931
 40
0.5166635334630164
 40
0.5735049733492873
 40
0.6320259096868341
 40
0.6883159513611031
 40
0.7462688473785261
 40
0.8020192648957655
 40
0.8594165018378392
 40
0.9146333184605471
 40
0.9714805470862969
 40
1.0
 40
1.0
 40
1.0
 40
1.0
 10
19.92745206106181
 20
3.915629090308192
 30
0.0
 10
20.02621564231479
 20
3.950398630760009
 30
0.0
 10
20.25863739817472
 20
4.032222290247968
 30
0.0
 10
20.63197954334469
 20
3.9890546146422
 30
0.0
 10
21.04186976968727
 20
3.814994635011064
 30
0.0
 10
21.45740872020574
 20
3.494299355193745
 30
0.0
 10
21.86926911238959
 20
3.054009228411084
 30
0.0
 10
22.28675496141022
 20
2.501023797463231
 30
0.0
 10
22.70067450370227
 20
1.869620429031314
 30
0.0
 10
23.12026709985891
 20
1.171167800934222
 30
0.0
 10
23.5363236929159
 20
0.4477401466821792
 30
0.0
 10
23.95817418170931
 20
-0.2879387079126458
 30
0.0
 10
24.37650551935858
 20
-0.9920943718149497
 30
0.0
 10
24.80069423171198
 20
-1.652703560145247
 30
0.0
 10
25.22146659136241
 20
-2.231027215792519
 30
0.0
 10
25.64821305702482
 20
-2.717044930038351
 30
0.0
 10
26.07150798504303
 20
-3.08506273024697
 30
0.0
 10
26.50106870648594
 20
-3.320939990819541
 30
0.0
 10
26.85983881764682
 20
-3.425148611270651
 30
0.0
 10
27.07995347645092
 20
-3.397123652299707
 30
0.0
 10
27.15348977344846
 20
-3.387761024124791
 30
0.0
  0
SPLINE
  5
BA
330
1F
100
AcDbEntity
  8
0
  6
Continuous
 62
     1
370
    15
100
AcDbSpline
210
0.0
220
0.0
230
1.0
 70
     8
 71
     3
 72
    23
 73
    19
 74
     0
 42
0.000000001
 43
0.00000001
 40
0.0
 40
0.0
 40
0.0
 40
0.0
 40
0.0514440434621806
 40
0.1175868331431982
 40
0.1813756381076489
 40
0.2470373818611263
 40
0.3104074744890538
 40
0.3756362069325153
 40
0.4386242039977317
 40
0.5034563411449164
 40
0.566121748595976
 40
0.630618973414647
 40
0.6930130070898989
 40
0.7572265217934833
 40
0.8194266241667832
 40
0.883436126870451
 40
0.9455209016409345
 40
1.0
 40
1.0
 40
1.0
 40
1.0
 10
33.20050923512576
 20
2.721924373687453
 30
0.0
 10
33.32023624314856
 20
2.759803934390374
 30
0.0
 10
33.59389901861572
 20
2.846386117363347
 30
0.0
 10
34.02111140235305
 20
2.828153473598215
 30
0.0
 10
34.48560726516969
 20
2.694270845511265
 30
0.0
 10
34.94813522945697
 20
2.438923834293683
 30
0.0
 10
35.41847455740302
 20
2.075070041396857
 30
0.0
 10
35.88698044701206
 20
1.627044669582808
 30
0.0
 10
36.36361512366204
 20
1.108753924240409
 30
0.0
 10
36.83873397035534
 20
0.5559030278630476
 30
0.0
 10
37.32234003839574
 20
-0.0148477891439626
 30
0.0
 10
37.80478007650381
 20
-0.564267863264997
 30
0.0
 10
38.29606284809219
 20
-1.075636937849465
 30
0.0
 10
38.78663135268012
 20
-1.513658298081482
 30
0.0
 10
39.28647987936029
 20
-1.865952139552383
 30
0.0
 10
39.78627883251649
 20
-2.104502911011316
 30
0.0
 10
40.27012158334697
 20
-2.231425573761533
 30
0.0
 10
40.58689360346178
 20
-2.215550958719968
 30
0.0
 10
40.73494508440437
 20
-2.208131552594877
 30
0.0
  0
SPLINE
  5
BB
330
1F
100
AcDbEntity
  8
0
  6
Continuous
 62
     1
370
    15
100
AcDbSpline
210
0.0
220
0.0
230
1.0
 70
     8
 71
     3
 72
    10
 73
     6
 74
     0
 42
0.000000001
 43
0.00000001
 40
0.0
 40
0.0
 40
0.0
 40
0.0
 40
0.28449185869493
 40
0.7070952028305866
 40
1.0
 40
1.0
 40
1.0
 40
1.0
 10
46.50350980421765
 20
1.467618311783159
 30
0.0
 10
46.64104911951623
 20
1.510334337094429
 30
0.0
 10
46.98289858576936
 20
1.616503619829434
 30
0.0
 10
47.47413975478403
 20
1.644658200816915
 30
0.0
 10
47.82945440157098
 20
1.599992897527757
 30
0.0
 10
47.97490818265393
 20
1.581708435276134
 30
0.0
  0
SPLINE
  5
BC
330
1F
100
AcDbEntity
  8
0
  6
Continuous
 62
     1
370
    15
100
AcDbSpline
210
0.0
220
0.0
230
1.0
 70
     8
 71
     3
 72
    20
 73
    16
 74
     0
 42
0.000000001
 43
0.00000001
 40
0.0
 40
0.0
 40
0.0
 40
0.0
 40
0.2500000000000001
 40
0.2500000000000001
 40
0.375
 40
0.375
 40
0.5
 40
0.5
 40
0.625
 40
0.625
 40
0.75
 40
0.75
 40
0.8750000000000001
 40
0.8750000000000001
 40
1.0
 40
1.0
 40
1.0
 40
1.0
 10
46.726201737351
 20
1.348220057148339
 30
0.0
 10
46.78923776110716
 20
1.184759276435579
 30
0.0
 10
46.88422210180226
 20
1.03933404500987
 30
0.0
 10
47.06785566624421
 20
0.8850414494934087
 30
0.0
 10
47.13570509912026
 20
0.8445103109709358
 30
0.0
 10
47.27871022864517
 20
0.7922862562384834
 30
0.0
 10
47.35615647258173
 20
0.780074533768331
 30
0.0
 10
47.50970012155695
 20
0.7921436996516971
 30
0.0
 10
47.58721410053473
 20
0.8166855079990198
 30
0.0
 10
47.72724711962579
 20
0.9044728854282931
 30
0.0
 10
47.78986524187287
 20
0.9680387100423443
 30
0.0
 10
47.88785753702113
 20
1.122675750328904
 30
0.0
 10
47.92222726866316
 20
1.21130138251447
 30
0.0
 10
47.96539449622559
 20
1.393672434644269
 30
0.0
 10
47.97468410243486
 20
1.488258598234948
 30
0.0
 10
47.9749081826537
 20
1.581708435270851
 30
0.0
  0
SPLINE
  5
BD
330
1F
100
AcDbEntity
  8
0
  6
Continuous
 62
     1
370
    15
100
AcDbSpline
210
0.0
220
0.0
230
1.0
 70
     8
 71
     3
 72
    25
 73
    21
 74
     0
 42
0.000000001
 43
0.00000001
 40
0.0
 40
0.0
 40
0.0
 40
0.0
 40
0.032607583000363
 40
0.0930153473707901
 40
0.1511142351644252
 40
0.2109303204669616
 40
0.2684581287946584
 40
0.3276861411607976
 40
0.384650448820953
 40
0.4432985270134529
 40
0.4997015932461779
 40
0.5577718542625469
 40
0.6136179139027643
 40
0.6711145036664988
 40
0.7264125020145895
 40
0.7833449934274146
 40
0.8380979759848535
 40
0.8944692484342821
 40
0.9486831179034731
 40
1.0
 40
1.0
 40
1.0
 40
1.0
 10
15.52739090065201
 20
4.315328301929843
 30
0.0
 10
15.60050569454843
 20
4.343504811838538
 30
0.0
 10
15.80907061492733
 20
4.423880221963984
 30
0.0
 10
16.15087371042656
 20
4.382946536937466
 30
0.0
 10
16.55634886231609
 20
4.205566868957308
 30
0.0
 10
16.95814099657589
 20
3.876427686970608
 30
0.0
 10
17.36514408964032
 20
3.411120990456734
 30
0.0
 10
17.76841158699352
 20
2.835344584435424
 30
0.0
 10
18.17692794221379
 20
2.159562297089071
 30
0.0
 10
18.58174511044545
 20
1.423477106629445
 30
0.0
 10
18.99190139547364
 20
0.6390051767988066
 30
0.0
 10
19.39831754351611
 20
-0.1481934869342055
 30
0.0
 10
19.81015105230449
 20
-0.9258971825827534
 30
0.0
 10
20.2183118440157
 20
-1.649283335103918
 30
0.0
 10
20.63191250978904
 20
-2.30770209777956
 30
0.0
 10
21.04189024717863
 20
-2.863353108631081
 30
0.0
 10
21.45739207763332
 20
-3.30970585314956
 30
0.0
 10
21.86931575642606
 20
-3.617665634256341
 30
0.0
 10
22.27530838624088
 20
-3.795142262663634
 30
0.0
 10
22.5425192774775
 20
-3.792205689526802
 30
0.0
 10
22.67245704061339
 20
-3.790777709765501
 30
0.0
  0
SPLINE
  5
BE
330
1F
100
AcDbEntity
  8
0
  6
Continuous
 62
     1
370
    15
100
AcDbSpline
210
0.0
220
0.0
230
1.0
 70
     8
 71
     3
 72
    24
 73
    20
 74
     0
 42
0.000000001
 43
0.00000001
 40
0.0
 40
0.0
 40
0.0
 40
0.0
 40
0.047104084599002
 40
0.1110639721111996
 40
0.1726402973095682
 40
0.2360323597434753
 40
0.297072104112753
 40
0.3599103822893755
 40
0.4204421034041226
 40
0.4827565715622169
 40
0.542797790943101
 40
0.6046055182789761
 40
0.6641910894080267
 40
0.7255284999167136
 40
0.7846829464532494
 40
0.8455742597883307
 40
0.9043404141074647
 40
0.9648301750948839
 40
1.0
 40
1.0
 40
1.0
 40
1.0
 10
28.76579524971796
 20
3.120084643385435
 30
0.0
 10
28.87401768196511
 20
3.15651718217613
 30
0.0
 10
29.12918903916752
 20
3.242419339210634
 30
0.0
 10
29.53022565916454
 20
3.219567588450221
 30
0.0
 10
29.97231729676158
 20
3.076648217168212
 30
0.0
 10
30.41155722580084
 20
2.806285819996452
 30
0.0
 10
30.8575143601431
 20
2.42123218788096
 30
0.0
 10
31.30067071102241
 20
1.945812071135859
 30
0.0
 10
31.75075413733382
 20
1.392179067958951
 30
0.0
 10
32.19814649136199
 20
0.7964279562817856
 30
0.0
 10
32.65266233121255
 20
0.1730262411794132
 30
0.0
 10
33.10467140750319
 20
-0.4376840385834058
 30
0.0
 10
33.56401884754713
 20
-1.021047170130051
 30
0.0
 10
34.02103311508087
 20
-1.539693744915024
 30
0.0
 10
34.48563711571921
 20
-1.980795089305464
 30
0.0
 10
34.94809492326927
 20
-2.318293682148317
 30
0.0
 10
35.41860274839652
 20
-2.537635834382554
 30
0.0
 10
35.82528944930141
 20
-2.636605735128795
 30
0.0
 10
36.08039436659516
 20
-2.61021549963243
 30
0.0
 10
36.17418523125284
 20
-2.600512970053694
 30
0.0
  0
SPLINE
  5
BF
330
1F
100
AcDbEntity
  8
0
  6
Continuous
 62
     1
370
    15
100
AcDbSpline
210
0.0
220
0.0
230
1.0
 70
     8
 71
     3
 72
    18
 73
    14
 74
     0
 42
0.000000001
 43
0.00000001
 40
0.0
 40
0.0
 40
0.0
 40
0.0
 40
0.0558934120676582
 40
0.1526858834088308
 40
0.2471574495735021
 40
0.344329809884822
 40
0.4394683752034103
 40
0.5373068681131303
 40
0.6334777370364556
 40
0.7323527024175491
 40
0.8300292922203208
 40
0.9304197495277386
 40
0.9999999999999999
 40
0.9999999999999999
 40
0.9999999999999999
 40
0.9999999999999999
 10
42.06541956227942
 20
1.894485714825514
 30
0.0
 10
42.16879832924644
 20
1.930020727445301
 30
0.0
 10
42.4512015280522
 20
2.027092897368088
 30
0.0
 10
42.91515716052243
 20
2.049376714900696
 30
0.0
 10
43.46179914641617
 20
1.97054836571548
 30
0.0
 10
44.01208848056412
 20
1.770010527290991
 30
0.0
 10
44.57533478939703
 20
1.465252335995026
 30
0.0
 10
45.14355819942229
 20
1.079644930181447
 30
0.0
 10
45.72611791506316
 20
0.6350391540152097
 30
0.0
 10
46.31568803097556
 20
0.1677184535740281
 30
0.0
 10
46.92132817022208
 20
-0.2925829053290467
 30
0.0
 10
47.47403044985889
 20
-0.6711427630062433
 30
0.0
 10
47.82942265273506
 20
-0.8636174705286077
 30
0.0
 10
47.97490818265393
 20
-0.9424100962340971
 30
0.0
  0
LINE
  5
C0
330
1F
100
AcDbEntity
  8
0
  6
Continuous
 62
     4
370
    15
100
AcDbLine
 10
9.874908182653714
 20
-0.7037093188418113
 30
0.0
 11
9.874908182653714
 21
-4.915982928523611
 31
0.0
  0
ELLIPSE
  5
C1
330
1F
100
AcDbEntity
  8
0
  6
Continuous
 62
     1
370
    15
100
AcDbEllipse
 10
47.68713818975807
 20
-0.0184405056241443
 30
0.0
 11
2.290761629625621
 21
0.349845986705742
 31
0.0
210
0.0
220
0.0
230
1.0
 40
0.6816498191526185
 41
1.897461902268645
 42
2.096899894741989
  0
LINE
  5
C2
330
1F
100
AcDbEntity
  8
0
  6
Continuous
 62
     1
370
    15
100
AcDbLine
 10
46.33056792808261
 20
1.156214593446451
 30
0.0
 11
47.9749081826537
 21
0.0048351518140963
 31
0.0
  0
LINE
  5
C3
330
1F
100
AcDbEntity
  8
0
  6
Continuous
 62
     1
370
    15
100
AcDbLine
 10
47.9749081826537
 20
0.0048351518140973
 30
0.0
 11
47.9749081826537
 21
-0.942410096230931
 31
0.0
  0
LINE
  5
C4
330
1F
100
AcDbEntity
  8
0
  6
Continuous
 62
     4
370
    15
100
AcDbLine
 10
9.874908182653714
 20
4.925653232151803
 30
0.0
 11
9.874908182653714
 21
1.223378020702188
 31
0.0
  0
SPLINE
  5
C5
330
1F
100
AcDbEntity
  8
0
  6
Continuous
 62
     1
370
    15
100
AcDbSpline
210
0.0
220
0.0
230
1.0
 70
     8
 71
     3
 72
    24
 73
    20
 74
     0
 42
0.000000001
 43
0.00000001
 40
0.0
 40
0.0
 40
0.0
 40
0.0
 40
0.0304197940627506
 40
0.0929806292870349
 40
0.1538470479537108
 40
0.2164692514155102
 40
0.2774823580001985
 40
0.3402519823741646
 40
0.4014733226356172
 40
0.4644537792301385
 40
0.5259478447847645
 40
0.5892062694325586
 40
0.6510210702287399
 40
0.7146068974775873
 40
0.7767917098907192
 40
0.8407561878885752
 40
0.9033486909900743
 40
0.9677306152615381
 40
1.0
 40
1.0
 40
1.0
 40
1.0
 10
44.27559717868748
 20
-1.669597663235302
 30
0.0
 10
44.19418542099933
 20
-1.714113256277048
 30
0.0
 10
43.9453436160353
 20
-1.850178866897843
 30
0.0
 10
43.53876027448825
 20
-1.970087069061875
 30
0.0
 10
43.05098807526596
 20
-2.020999749883709
 30
0.0
 10
42.57208757333141
 20
-1.951656870067642
 30
0.0
 10
42.09289776932627
 20
-1.769618149969412
 30
0.0
 10
41.62174223844717
 20
-1.485142772357164
 30
0.0
 10
41.15014114086525
 20
-1.10834206337119
 30
0.0
 10
40.68605110938271
 20
-0.66434418450926
 30
0.0
 10
40.22131492572402
 20
-0.1685734871449957
 30
0.0
 10
39.76362740235679
 20
0.3459872431756708
 30
0.0
 10
39.30511743837751
 20
0.8614759539325082
 30
0.0
 10
38.8532683376182
 20
1.344061655438973
 30
0.0
 10
38.40045668356641
 20
1.776507867523284
 30
0.0
 10
37.95390268616494
 20
2.132351937517395
 30
0.0
 10
37.50642454571323
 20
2.391558567342205
 30
0.0
 10
37.13583715199743
 20
2.536575870421113
 30
0.0
 10
36.9134754684054
 20
2.54837289761806
 30
0.0
 10
36.83923462477455
 20
2.552311621400365
 30
0.0
  0
SPLINE
  5
C6
330
1F
100
AcDbEntity
  8
0
  6
Continuous
 62
     1
370
    15
100
AcDbSpline
210
0.0
220
0.0
230
1.0
 70
     8
 71
     3
 72
    25
 73
    21
 74
     0
 42
0.000000001
 43
0.00000001
 40
0.0
 40
0.0
 40
0.0
 40
0.0
 40
0.0440106361360861
 40
0.0992276923358866
 40
0.1534241815756771
 40
0.2091629717477679
 40
0.2638793076884918
 40
0.3201523998342529
 40
0.3754008467593891
 40
0.432220954788224
 40
0.4880107349589068
 40
0.5453873434320015
 40
0.6017281778730402
 40
0.659671329305766
 40
0.7165729701368857
 40
0.7750927722892269
 40
0.8325626285219049
 40
0.891666697610843
 40
0.9497123682692481
 40
1.0
 40
1.0
 40
1.0
 40
1.0
 10
30.98720495037311
 20
-2.910254902072854
 30
0.0
 10
30.87454775981931
 20
-2.967277699134809
 30
0.0
 10
30.62054749931106
 20
-3.095842997429963
 30
0.0
 10
30.23168880687103
 20
-3.150014699610915
 30
0.0
 10
29.81606584599172
 20
-3.094089784316914
 30
0.0
 10
29.40492328181617
 20
-2.910207218640152
 30
0.0
 10
28.9918195718686
 20
-2.605740912474932
 30
0.0
 10
28.58300848091962
 20
-2.194469957243508
 30
0.0
 10
28.17221067250963
 20
-1.685580547957796
 30
0.0
 10
27.76559401451201
 20
-1.105051042520352
 30
0.0
 10
27.35695945764306
 20
-0.4661614661522358
 30
0.0
 10
26.95242185856458
 20
0.1978546179972733
 30
0.0
 10
26.54581535221717
 20
0.8714024476926185
 30
0.0
 10
26.14323280654281
 20
1.51907546227863
 30
0.0
 10
25.73853940605078
 20
2.125372187380308
 30
0.0
 10
25.33779370174534
 20
2.657730463909857
 30
0.0
 10
24.93489390260122
 20
3.104134334614809
 30
0.0
 10
24.53594596535345
 20
3.435675789534006
 30
0.0
 10
24.15589231227267
 20
3.648930344401209
 30
0.0
 10
23.91216177252393
 20
3.682661632555915
 30
0.0
 10
23.79902360213572
 20
3.698319482534811
 30
0.0
  0
SPLINE
  5
C7
330
1F
100
AcDbEntity
  8
0
  6
Continuous
 62
     1
370
    15
100
AcDbSpline
210
0.0
220
0.0
230
1.0
 70
     8
 71
     3
 72
    26
 73
    22
 74
     0
 42
0.000000001
 43
0.00000001
 40
0.0
 40
0.0
 40
0.0
 40
0.0
 40
0.0353405392391635
 40
0.087179318253091
 40
0.1404925437494245
 40
0.1928461066336792
 40
0.2466888601511617
 40
0.2995606467932265
 40
0.3539364907367123
 40
0.4073298064266025
 40
0.4622421561609683
 40
0.5161596960393214
 40
0.5716113237887688
 40
0.6260553933913228
 40
0.6820486625498208
 40
0.7370222641716557
 40
0.7935602961976377
 40
0.8490660248612798
 40
0.9061514903582478
 40
0.9621916287377728
 40
1.0
 40
1.0
 40
1.0
 40
1.0
 10
17.7113630335685
 20
-4.107450880485059
 30
0.0
 10
17.62358710919949
 20
-4.154767099785047
 30
0.0
 10
17.40705828959831
 20
-4.271488458023843
 30
0.0
 10
17.06099556815065
 20
-4.292682557076794
 30
0.0
 10
16.67502725123002
 20
-4.189024947789115
 30
0.0
 10
16.286749559022
 20
-3.931941077808734
 30
0.0
 10
15.90184983615445
 20
-3.539434648493503
 30
0.0
 10
15.51451881215008
 20
-3.015835606388798
 30
0.0
 10
15.13057456524788
 20
-2.385734390966036
 30
0.0
 10
14.74417155110924
 20
-1.660180376166564
 30
0.0
 10
14.36112515851277
 20
-0.8734367966342569
 30
0.0
 10
13.97561618833331
 20
-0.0401072209214978
 30
0.0
 10
13.59343113779708
 20
0.7998964269784279
 30
0.0
 10
13.20877293751786
 20
1.630499917311913
 30
0.0
 10
12.82742399284611
 20
2.411391880871258
 30
0.0
 10
12.44357003933111
 20
3.12729871849477
 30
0.0
 10
12.06302317747207
 20
3.742432237727171
 30
0.0
 10
11.67993273884372
 20
4.246205851113985
 30
0.0
 10
11.30020205354573
 20
4.605222676317185
 30
0.0
 10
10.96204877439919
 20
4.813803725418591
 30
0.0
 10
10.75330374514397
 20
4.830845212217428
 30
0.0
 10
10.66920747557769
 20
4.837710647398128
 30
0.0
  0
LINE
  5
C8
330
1F
100
AcDbEntity
  8
0
  6
Continuous
 62
     1
370
    15
100
AcDbLine
 10
47.9749081826537
 20
1.592335151814097
 30
0.0
 11
47.9749081826537
 21
1.581708435270851
 31
0.0
  0
LINE
  5
C9
330
1F
100
AcDbEntity
  8
0
  6
Continuous
 62
     4
370
    15
100
AcDbLine
 10
9.366908182653704
 20
0.4933093157930878
 30
0.0
 11
9.366908182653706
 21
-4.941814848185905
 31
0.0
  0
SPLINE
  5
CA
330
1F
100
AcDbEntity
  8
0
  6
Continuous
 62
     1
370
    15
100
AcDbSpline
210
0.0
220
0.0
230
1.0
 70
     8
 71
     3
 72
    26
 73
    22
 74
     0
 42
0.000000001
 43
0.00000001
 40
0.0
 40
0.0
 40
0.0
 40
0.0
 40
0.0410407460460144
 40
0.0984841780112328
 40
0.1576245118857493
 40
0.2145197571240203
 40
0.2730959787640443
 40
0.3294443141936547
 40
0.3874577603511863
 40
0.4432595828146043
 40
0.5007104174958554
 40
0.5559691719587941
 40
0.6128608615892357
 40
0.6675824888350846
 40
0.723921444212368
 40
0.7781070390773519
 40
0.8338941683615655
 40
0.8875471492342305
 40
0.9427858156632538
 40
0.9959132508665077
 40
1.0
 40
1.0
 40
1.0
 40
1.0
 10
11.0900943584131
 20
4.70361475617689
 30
0.0
 10
11.18212277484224
 20
4.736909431016586
 30
0.0
 10
11.40296045005256
 20
4.816805607369286
 30
0.0
 10
11.75917031230142
 20
4.753918676606517
 30
0.0
 10
12.15336442009919
 20
4.544319508124222
 30
0.0
 10
12.55260234768855
 20
4.171302756169625
 30
0.0
 10
12.94801997269605
 20
3.664985420221594
 30
0.0
 10
13.34839772056769
 20
3.031697725674001
 30
0.0
 10
13.74496536768152
 20
2.308795990219538
 30
0.0
 10
14.14657597703058
 20
1.507136733943064
 30
0.0
 10
14.54433595709956
 20
0.6726038616397519
 30
0.0
 10
14.94718471340004
 20
-0.1827205949853224
 30
0.0
 10
15.34624844009102
 20
-1.010430427499152
 30
0.0
 10
15.75040169045804
 20
-1.799101323716997
 30
0.0
 10
16.15079958339501
 20
-2.50443775725125
 30
0.0
 10
16.55636548978528
 20
-3.117598493190154
 30
0.0
 10
16.95815036408281
 20
-3.60327964174592
 30
0.0
 10
17.36509245250216
 20
-3.961581520944876
 30
0.0
 10
17.7686128023032
 20
-4.152081978918718
 30
0.0
 10
18.04969441389427
 20
-4.222126739641116
 30
0.0
 10
18.19408788655979
 20
-4.184516904227423
 30
0.0
 10
18.20440176075267
 20
-4.181830473160207
 30
0.0
  0
SPLINE
  5
CB
330
1F
100
AcDbEntity
  8
0
  6
Continuous
 62
     1
370
    15
100
AcDbSpline
210
0.0
220
0.0
230
1.0
 70
     8
 71
     3
 72
    25
 73
    21
 74
     0
 42
0.000000001
 43
0.00000001
 40
0.0
 40
0.0
 40
0.0
 40
0.0
 40
0.0065769572871611
 40
0.0670050947977634
 40
0.1292183294218068
 40
0.1890671729437189
 40
0.2506838998726977
 40
0.3099599154614361
 40
0.3709862008632416
 40
0.4297065152672916
 40
0.4901604175666305
 40
0.5483351639441445
 40
0.608226761383629
 40
0.665870886257033
 40
0.7252153714814304
 40
0.7823482943654865
 40
0.8411659292735476
 40
0.8978009914776953
 40
0.9561048036923119
 40
0.9999999999999999
 40
0.9999999999999999
 40
0.9999999999999999
 40
0.9999999999999999
 10
24.33769549944575
 20
3.523297723780742
 30
0.0
 10
24.35262069979779
 20
3.530992867645432
 30
0.0
 10
24.50467649411108
 20
3.609389886452667
 30
0.0
 10
24.80090373989435
 20
3.629685075368094
 30
0.0
 10
25.22141425261461
 20
3.570443360952341
 30
0.0
 10
25.64821999557417
 20
3.357736290616388
 30
0.0
 10
26.07153422251713
 20
3.024102290197219
 30
0.0
 10
26.50096093498246
 20
2.572466804243269
 30
0.0
 10
26.92706267924099
 20
2.032900424659414
 30
0.0
 10
27.35933827919227
 20
1.41639283533403
 30
0.0
 10
27.78838314185569
 20
0.7615855136365194
 30
0.0
 10
28.22375180403837
 20
0.0817711905626479
 30
0.0
 10
28.65594363024187
 20
-0.5810165400564685
 30
0.0
 10
29.09456702708011
 20
-1.213588596782861
 30
0.0
 10
29.5301524255057
 20
-1.77728172644549
 30
0.0
 10
29.97234250222845
 20
-2.260853213401063
 30
0.0
 10
30.41153062368951
 20
-2.636558071225011
 30
0.0
 10
30.85759365558304
 20
-2.892446013423128
 30
0.0
 10
31.26862580481195
 20
-3.023117474087074
 30
0.0
 10
31.53606864803223
 20
-3.006945069991266
 30
0.0
 10
31.65093723897045
 20
-2.999998908156459
 30
0.0
  0
SPLINE
  5
CC
330
1F
100
AcDbEntity
  8
0
  6
Continuous
 62
     1
370
    15
100
AcDbSpline
210
0.0
220
0.0
230
1.0
 70
     8
 71
     3
 72
    23
 73
    19
 74
     0
 42
0.000000001
 43
0.00000001
 40
0.0
 40
0.0
 40
0.0
 40
0.0
 40
0.0258854825124599
 40
0.0927607185994804
 40
0.1615861126769092
 40
0.2282534891203264
 40
0.2968602188502951
 40
0.363403984746175
 40
0.4318773686134277
 40
0.4984042183625972
 40
0.566852538658545
 40
0.6334978240117242
 40
0.7020594464207923
 40
0.7689770874111227
 40
0.8378077989731763
 40
0.905197899685884
 40
0.9745004571575729
 40
1.0
 40
1.0
 40
1.0
 40
1.0
 10
37.62658109607445
 20
2.307820625555853
 30
0.0
 10
37.68796924587468
 20
2.332624353498465
 30
0.0
 10
37.90795389890253
 20
2.421508600751542
 30
0.0
 10
38.29626870401434
 20
2.449228740568042
 30
0.0
 10
38.78657108525102
 20
2.388343581773038
 30
0.0
 10
39.28651961754176
 20
2.197839647482851
 30
0.0
 10
39.7861792021794
 20
1.902557953710935
 30
0.0
 10
40.29567535044811
 20
1.51153727739833
 30
0.0
 10
40.80558208160826
 20
1.054734616582398
 30
0.0
 10
41.32590444619412
 20
0.5499624171644172
 30
0.0
 10
41.84744176114295
 20
0.0348398795401667
 30
0.0
 10
42.38012950347989
 20
-0.4695612285468015
 30
0.0
 10
42.91498762637576
 20
-0.925687172083026
 30
0.0
 10
43.4618639736757
 20
-1.313270870294505
 30
0.0
 10
44.01200062747525
 20
-1.605797433410398
 30
0.0
 10
44.57561801711788
 20
-1.780444749862287
 30
0.0
 10
45.02452120168684
 20
-1.844270159698712
 30
0.0
 10
45.29113194983643
 20
-1.807221757356464
 30
0.0
 10
45.36284399178663
 20
-1.797256605533462
 30
0.0
  0
SPLINE
  5
CD
330
1F
100
AcDbEntity
  8
0
  6
Continuous
 62
     1
370
    15
100
AcDbSpline
210
0.0
220
0.0
230
1.0
 70
     8
 71
     3
 72
    20
 73
    16
 74
     0
 42
0.000000001
 43
0.00000001
 40
0.0
 40
0.0
 40
0.0
 40
0.0
 40
0.0300623492324549
 40
0.1168231720240117
 40
0.2061025236070955
 40
0.2927738718908163
 40
0.3819586739139907
 40
0.4685969827983574
 40
0.5577406986980941
 40
0.6444700192706941
 40
0.7337011795389509
 40
0.8206395175590052
 40
0.9100807397272478
 40
0.997315792515508
 40
1.0
 40
1.0
 40
1.0
 40
1.0
 10
46.72620173735099
 20
-1.564466463226828
 30
0.0
 10
46.66715994981894
 20
-1.548925124434556
 30
0.0
 10
46.43772182946024
 20
-1.488531025451337
 30
0.0
 10
46.03534653563596
 20
-1.316601318043703
 30
0.0
 10
45.52766045105921
 20
-1.0049561759666
 30
0.0
 10
45.02044898735382
 20
-0.611548853067186
 30
0.0
 10
44.52316784808225
 20
-0.1689994245004232
 30
0.0
 10
44.02623076321764
 20
0.3038310741600922
 30
0.0
 10
43.53860618162992
 20
0.7702472359399887
 30
0.0
 10
43.05102457067274
 20
1.210984076180717
 30
0.0
 10
42.57209968785482
 20
1.591589290835184
 30
0.0
 10
42.0928153060656
 20
1.900853815872542
 30
0.0
 10
41.622067714809
 20
2.098392804243151
 30
0.0
 10
41.30354654548829
 20
2.193873390010095
 30
0.0
 10
41.14585986338739
 20
2.18865721553262
 30
0.0
 10
41.14115270975851
 20
2.188501505904556
 30
0.0
  0
SPLINE
  5
CE
330
1F
100
AcDbEntity
  8
0
  6
Continuous
 62
     1
370
    15
100
AcDbSpline
210
0.0
220
0.0
230
1.0
 70
     8
 71
     3
 72
    26
 73
    22
 74
     0
 42
0.000000001
 43
0.00000001
 40
0.0
 40
0.0
 40
0.0
 40
0.0
 40
0.0112929620854131
 40
0.0666542533259849
 40
0.1235947136643345
 40
0.1794162667778984
 40
0.2368291964497864
 40
0.293132884254397
 40
0.3510409139379129
 40
0.4078453955603707
 40
0.4662678401094782
 40
0.52358937725
 40
0.5825430167492912
 40
0.6403985342443743
 40
0.6999009003001398
 40
0.7583034947813544
 40
0.8183680857715783
 40
0.8773308714476998
 40
0.9379712307568037
 40
0.9975074237232778
 40
1.0
 40
1.0
 40
1.0
 40
1.0
 10
35.39893413515732
 20
-2.511381253710393
 30
0.0
 10
35.36959760671141
 20
-2.529517736843277
 30
0.0
 10
35.19644512608239
 20
-2.636564385192802
 30
0.0
 10
34.87905642373672
 20
-2.728851569228552
 30
0.0
 10
34.44965027745609
 20
-2.771246857028085
 30
0.0
 10
34.01904550005305
 20
-2.682922306630892
 30
0.0
 10
33.59345131278621
 20
-2.479415100092205
 30
0.0
 10
33.16625088199533
 20
-2.161755906003679
 30
0.0
 10
32.74396743608106
 20
-1.747628608151049
 30
0.0
 10
32.31999615727064
 20
-1.246988316374556
 30
0.0
 10
31.9007847987753
 20
-0.6872095856569616
 30
0.0
 10
31.4798126163061
 20
-0.0826122979413824
 30
0.0
 10
31.06347306792934
 20
0.533502821896913
 30
0.0
 10
30.64530208243468
 20
1.145046497346684
 30
0.0
 10
30.23163016740898
 20
1.718011858683127
 30
0.0
 10
29.81607813068383
 20
2.237458917548365
 30
0.0
 10
29.40493465222887
 20
2.672925472762266
 30
0.0
 10
28.99176265070834
 20
3.017339901768274
 30
0.0
 10
28.58323033268477
 20
3.232041230253137
 30
0.0
 10
28.30473863432551
 20
3.332762179432665
 30
0.0
 10
28.16532638860808
 20
3.323727974754356
 30
0.0
 10
28.15972421947592
 20
3.323364942494729
 30
0.0
  0
SPLINE
  5
CF
330
1F
100
AcDbEntity
  8
0
  6
Continuous
 62
     1
370
    15
100
AcDbSpline
210
0.0
220
0.0
230
1.0
 70
     8
 71
     3
 72
    27
 73
    23
 74
     0
 42
0.000000001
 43
0.00000001
 40
0.0
 40
0.0
 40
0.0
 40
0.0
 40
0.0006977340015285
 40
0.052673093809569
 40
0.1061263425101578
 40
0.1586251154595337
 40
0.2126167034805113
 40
0.2656436980233227
 40
0.320178578612634
 40
0.3737381629922005
 40
0.4288208521891105
 40
0.4829170414923306
 40
0.538551667751798
 40
0.5931890821645261
 40
0.6493804400126664
 40
0.7045626141906756
 40
0.7613143307876222
 40
0.8170444903490987
 40
0.8743598874194479
 40
0.9306416941109421
 40
0.988524563820499
 40
1.0
 40
1.0
 40
1.0
 40
1.0
 10
22.1529498965857
 20
-3.713577926528914
 30
0.0
 10
22.15119012693529
 20
-3.714835861415525
 30
0.0
 10
22.01834220541148
 20
-3.809799446597856
 30
0.0
 10
21.75320183220714
 20
-3.881242058870655
 30
0.0
 10
21.35999653855465
 20
-3.908172194753336
 30
0.0
 10
20.96483696786142
 20
-3.778107372339003
 30
0.0
 10
20.57320660370572
 20
-3.516134088215507
 30
0.0
 10
20.17928694761734
 20
-3.120745271968412
 30
0.0
 10
19.78892844053441
 20
-2.611640130192571
 30
0.0
 10
19.39624398755881
 20
-1.997774848870595
 30
0.0
 10
19.0070896831479
 20
-1.308618356608729
 30
0.0
 10
18.61557781266405
 20
-0.5575696792409813
 30
0.0
 10
18.22757097839004
 20
0.2188354727231697
 30
0.0
 10
17.83717778945144
 20
1.004954501588257
 30
0.0
 10
17.45025409873671
 20
1.76209328667234
 30
0.0
 10
17.06093522135029
 20
2.474481109576066
 30
0.0
 10
16.67504106630263
 20
3.106852963293491
 30
0.0
 10
16.28675387652663
 20
3.644470781424713
 30
0.0
 10
15.90181752662789
 20
4.064225870995816
 30
0.0
 10
15.51464232412503
 20
4.340157881176761
 30
0.0
 10
15.23210827804665
 20
4.47110850946012
 30
0.0
 10
15.07740878722751
 20
4.462248529469655
 30
0.0
 10
15.05181352345714
 20
4.460782632434992
 30
0.0
  0
ELLIPSE
  5
D0
330
1F
100
AcDbEntity
  8
0
  6
Continuous
 62
     1
370
    15
100
AcDbEllipse
 10
47.68713818975807
 20
-0.1568619061293714
 30
0.0
 11
2.260215327214276
 21
1.453475306622803
 31
0.0
210
0.0
220
0.0
230
1.0
 40
0.3045036634136788
 41
3.889187007856577
 42
4.088625000329918
  0
ELLIPSE
  5
D1
330
1F
100
AcDbEntity
  8
0
  6
Continuous
 62
     1
370
    15
100
AcDbEllipse
 10
47.68713818975807
 20
-0.0959142073339372
 30
0.0
 11
2.229875587610699
 21
1.127411490021694
 31
0.0
210
0.0
220
0.0
230
1.0
 40
0.5111641208528658
 41
3.82964957186804
 42
4.584755499614552
  0
LINE
  5
D2
330
1F
100
AcDbEntity
  8
0
  6
Continuous
 62
     4
370
    15
100
AcDbLine
 10
9.366908182653704
 20
4.951485151814096
 30
0.0
 11
9.366908182654091
 21
2.326616553786225
 31
0.0
  0
LINE
  5
D3
330
1F
100
AcDbEntity
  8
0
  6
Continuous
 62
     4
370
    15
100
AcDbLine
 10
-40.1150918173463
 20
4.767335151814087
 30
0.0
 11
-40.1150918173463
 21
-4.757664848185907
 31
0.0
  0
LINE
  5
D4
330
1F
100
AcDbEntity
  8
0
  6
Continuous
 62
     4
370
    15
100
AcDbLine
 10
-40.92509181734631
 20
-3.947664848185886
 30
0.0
 11
-40.92509181734631
 21
3.957335151814065
 31
0.0
  0
LINE
  5
D5
330
1F
100
AcDbEntity
  8
0
  6
Continuous
 62
     4
370
    15
100
AcDbLine
 10
8.984908182653697
 20
1.399532494799347
 30
0.0
 11
8.984908182653697
 21
2.896619989848952
 31
0.0
  0
LINE
  5
D6
330
1F
100
AcDbEntity
  8
0
  6
Continuous
 62
     4
370
    15
100
AcDbLine
 10
8.98490818269471
 20
-4.718135237813709
 30
0.0
 11
9.263875228066613
 21
-4.750400653371006
 31
0.0
  0
LINE
  5
D7
330
1F
100
AcDbEntity
  8
0
  6
Continuous
 62
     4
370
    15
100
AcDbLine
 10
8.984908182653697
 20
-4.757664848185902
 30
0.0
 11
8.9849081826537
 21
-4.71813523780211
 31
0.0
  0
SPLINE
  5
D8
330
1F
100
AcDbEntity
  8
0
  6
Continuous
 62
     1
370
    15
100
AcDbSpline
210
0.0
220
0.0
230
1.0
 70
     8
 71
     3
 72
    12
 73
     8
 74
     0
 42
0.000000001
 43
0.00000001
 40
0.0
 40
0.0
 40
0.0
 40
0.0
 40
0.2037220630890698
 40
0.4693428168649736
 40
0.7363731935451484
 40
0.9210023503863758
 40
0.9999999999999999
 40
0.9999999999999999
 40
0.9999999999999999
 40
0.9999999999999999
 10
46.72620173735101
 20
-1.564466463226835
 30
0.0
 10
46.76077431249069
 20
-1.497652531448294
 30
0.0
 10
46.84042395650221
 20
-1.343723995327715
 30
0.0
 10
47.03871501855321
 20
-1.095546056790111
 30
0.0
 10
47.27992783604019
 20
-0.8865128919158475
 30
0.0
 10
47.47839171247789
 20
-0.760529455867062
 30
0.0
 10
47.56741275915824
 20
-0.736112105931802
 30
0.0
 10
47.59408854963821
 20
-0.7287952731687829
 30
0.0
  0
LINE
  5
D9
330
1F
100
AcDbEntity
  8
0
  6
Continuous
 62
     1
370
    15
100
AcDbLine
 10
47.9749081826537
 20
0.0048351518141021
 30
0.0
 11
47.9749081826537
 21
1.581708435270851
 31
0.0
  0
LINE
  5
DA
330
1F
100
AcDbEntity
  8
0
  6
Continuous
 62
     1
370
    15
100
AcDbLine
 10
47.9749081826537
 20
-0.9424100962339688
 30
0.0
 11
47.9749081826537
 21
-1.369980176693691
 31
0.0
  0
LINE
  5
DB
102
{ACAD_REACTORS
102
}
330
1F
100
AcDbEntity
  8
중심선
100
AcDbLine
 10
-43.92509181734629
 20
0.0048351518140892
 30
0.0
 11
50.97490428620234
 21
0.0048351518140892
 31
0.0
  0
CIRCLE
  5
DC
330
1F
100
AcDbEntity
  8
외형선
100
AcDbCircle
 10
-0.0000000000000013
 20
-0.0000000000000039
 30
0.0
 40
3.000000000000004
  0
INSERT
  5
DD
330
1F
100
AcDbEntity
  8
0
  6
Continuous
 62
     7
100
AcDbBlockReference
 66
     1
  2
블럭10
 10
-16.63945112874702
 20
-52.04717430164393
 30
0.0
  0
ATTRIB
  5
DE
330
DD
100
AcDbEntity
  8
FORMAT
 62
     2
100
AcDbText
 10
-25.8207464174883
 20
-49.97180738881174
 30
0.0
 40
4.233333333333333
  1
E5077598 [ 3 FLUTE ]
 41
0.75
  7
SLDTEXTSTYLE0
 11
-25.8207464174883
 21
-52.08847405547841
 31
0.0
100
AcDbAttribute
  2
AUTOATTR0
 70
     0
 74
     1
  0
SEQEND
  5
DF
330
DD
100
AcDbEntity
  8
0
  6
Continuous
 62
     7
  0
HATCH
  5
E0
330
1F
100
AcDbEntity
  8
중심선
100
AcDbHatch
 10
0.0
 20
0.0
 30
0.0
210
0.0
220
0.0
230
1.0
  2
SOLID
 70
     1
 71
     0
 91
        1
 92
        0
 93
        4
 72
     1
 10
-10.92454182436617
 20
-35.8
 11
-14.37081706820345
 21
-35.8
 72
     1
 10
-14.37081706820345
 20
-35.8
 11
-16.49904692740747
 21
-38.33632558057259
 72
     1
 10
-16.49904692740747
 20
-38.33632558057259
 11
-13.05273859845704
 21
-38.3362861512701
 72
     1
 10
-13.05273859845704
 20
-38.3362861512701
 11
-10.92454182436617
 21
-35.8
 97
        0
 75
     0
 76
     1
 98
        1
 10
0.0
 20
0.0
  0
HATCH
  5
E1
330
1F
100
AcDbEntity
  8
중심선
100
AcDbHatch
 10
0.0
 20
0.0
 30
0.0
210
0.0
220
0.0
230
1.0
  2
SOLID
 70
     1
 71
     0
 91
        1
 92
        0
 93
        4
 72
     1
 10
-5.911777833330217
 20
-35.8
 11
-9.358053077167499
 21
-35.8
 72
     1
 10
-9.358053077167499
 20
-35.8
 11
-13.88919108552489
 21
-41.20000000000002
 72
     1
 10
-13.88919108552489
 20
-41.20000000000002
 11
-10.44291584168761
 21
-41.20000000000002
 72
     1
 10
-10.44291584168761
 20
-41.20000000000002
 11
-5.911777833330217
 21
-35.8
 97
        0
 75
     0
 76
     1
 98
        1
 10
0.0
 20
0.0
  0
HATCH
  5
E2
330
1F
100
AcDbEntity
  8
중심선
100
AcDbHatch
 10
0.0
 20
0.0
 30
0.0
210
0.0
220
0.0
230
1.0
  2
SOLID
 70
     1
 71
     0
 91
        1
 92
        0
 93
        4
 72
     1
 10
-0.8990138422943217
 20
-35.80000000000003
 11
-4.345289086131437
 21
-35.8
 72
     1
 10
-4.345289086131437
 20
-35.8
 11
-11.39372598802069
 21
-44.20000000000002
 72
     1
 10
-11.39372598802069
 20
-44.20000000000002
 11
-7.947450744183405
 21
-44.20000000000002
 72
     1
 10
-7.947450744183405
 20
-44.20000000000002
 11
-0.8990138422943215
 21
-35.80000000000003
 97
        0
 75
     0
 76
     1
 98
        1
 10
0.0
 20
0.0
  0
HATCH
  5
E3
330
1F
100
AcDbEntity
  8
중심선
100
AcDbHatch
 10
0.0
 20
0.0
 30
0.0
210
0.0
220
0.0
230
1.0
  2
SOLID
 70
     1
 71
     0
 91
        1
 92
        0
 93
        6
 72
     3
 10
3.900876588717877
 20
-40.00000000005127
 11
3.960054785062284
 21
1.540850780301639E-10
 40
0.3939339440162633
 50
17.09539180608433
 51
320.0019657685079
 73
     0
 72
     1
 10
5.583876244418473
 20
-38.5878940046383
 11
7.889178118119511
 21
-36.65356729459038
 72
     3
 10
3.900876588665031
 20
-40.00000000000015
 11
6.600054785286829
 21
-1.249000902703301E-13
 40
0.6363583540795982
 50
39.99873849337408
 51
368.4976242363725
 73
     1
 72
     1
 10
10.32620908056564
 20
-39.03999999993002
 11
2.580943895500953
 21
-39.03999999992999
 72
     1
 10
2.580943895500953
 20
-39.03999999992999
 11
2.58091885105502
 21
-40.95999999992991
 72
     1
 10
2.58091885105502
 20
-40.95999999992991
 11
7.022298620527057
 21
-40.95999999992988
 97
        0
 75
     0
 76
     1
 98
        1
 10
0.0
 20
0.0
  0
POINT
  5
E4
330
1F
100
AcDbEntity
  8
치수문자_일반주서
100
AcDbPoint
 10
-0.0000000000000013
 20
-0.0000000000000039
 30
0.0
  0
DIMENSION
  5
E5
330
1F
100
AcDbEntity
  8
치수문자_일반주서
100
AcDbDimension
  2
_D
 10
9.874908182653712
 20
38.14449785143732
 30
0.0
 11
34.24808698755432
 21
38.14449785143732
 31
0.0
 70
   160
  1
<>
 71
     2
 42
38.09999999999999
  3
SLDDIMSTYLE0
100
AcDbAlignedDimension
 13
47.9749081826537
 23
1.581708435270851
 33
0.0
 14
9.874908182653714
 24
4.925653232151803
 34
0.0
100
AcDbRotatedDimension
1001
ACAD
1000
DSTYLE
1002
{
1070
   171
1070
     6
1070
   273
1070
     7
1002
}
  0
DIMENSION
  5
FB
330
1F
100
AcDbEntity
  8
치수문자_일반주서
100
AcDbDimension
  2
_D_1
 10
-40.92509181734631
 20
54.9654840739595
 30
0.0
 11
6.909167064317742
 21
54.9654840739595
 31
0.0
 70
   160
  1
<>
 71
     2
 42
88.9
  3
SLDDIMSTYLE1
100
AcDbAlignedDimension
 13
47.9749081826537
 23
1.581708435270851
 33
0.0
 14
-40.92509181734631
 24
3.957335151814066
 34
0.0
 50
0.0000000000000046
100
AcDbRotatedDimension
1001
ACAD
1000
DSTYLE
1002
{
1070
   171
1070
     6
1070
   273
1070
     7
1002
}
  0
INSERT
  5
126
330
1F
100
AcDbEntity
  8
외형선
100
AcDbBlockReference
  2
SW_DOWELSYMBOL_0
 10
-0.0000000000000013
 20
-0.0000000000000039
 30
0.0
  0
DIMENSION
  5
14C
102
{ACAD_REACTORS
102
}
102
{ACAD_XDICTIONARY
360
14D
102
}
330
1F
100
AcDbEntity
  8
치수문자_일반주서
100
AcDbDimension
  2
*D7
 10
-51.77193601753627
 20
4.767335151814088
 30
0.0
 11
-54.39693601753627
 21
24.49633515181408
 31
0.0
 70
    32
  1
{%%c<>[]}
 71
     5
 42
9.524999999999995
  3
SLDDIMSTYLE0
100
AcDbAlignedDimension
 13
-40.1150918173463
 23
-4.757664848185908
 33
0.0
 14
-40.1150918173463
 24
4.767335151814087
 34
0.0
 50
90.0
100
AcDbRotatedDimension
1001
ACAD
1000
DSTYLE
1002
{
1070
   171
1070
     6
1070
   273
1070
     7
1070
   283
1070
     1
1070
   170
1070
     1
1002
}
  0
DIMENSION
  5
169
102
{ACAD_REACTORS
102
}
102
{ACAD_XDICTIONARY
360
16A
102
}
330
1F
100
AcDbEntity
  8
치수문자_일반주서
100
AcDbDimension
  2
*D8
 10
67.92453289354373
 20
-1.58266484818591
 30
0.0
 11
67.92453289354373
 21
20.5913638467442
 31
0.0
 70
   160
  1
{%%c<>[]}
 71
     5
 42
3.175000000000008
  3
SLDDIMSTYLE0
100
AcDbAlignedDimension
 13
47.9749081826537
 23
1.592335151814097
 33
0.0
 14
47.97490818265369
 24
-1.582664848185911
 34
0.0
 50
90.0
100
AcDbRotatedDimension
1001
ACAD
1000
DSTYLE
1002
{
1070
   171
1070
     6
1070
   273
1070
     7
1070
   283
1070
     1
1070
   170
1070
     1
1002
}
  0
DIMENSION
  5
17C
102
{ACAD_REACTORS
102
}
102
{ACAD_XDICTIONARY
360
17D
102
}
330
1F
100
AcDbEntity
  8
치수문자_일반주서
100
AcDbDimension
  2
*D9
 10
15.97655410078241
 20
4.391828385466314
 30
0.0
 11
19.0340303446753
 21
13.71512953282958
 31
0.0
 70
    34
  1
<>
 71
     5
 42
0.0872664625997165
  3
SLDDIMSTYLE0
100
AcDb2LineAngularDimension
 13
-43.92509181734629
 23
0.0048351518140892
 33
0.0
 14
50.97490428620234
 24
0.0048351518140892
 34
0.0
 15
19.42900645896206
 25
4.089777942762252
 35
0.0
 16
19.79349643440609
 26
1.352802115715191
 36
0.0
1001
ACAD
1000
DSTYLE
1002
{
1070
   171
1070
     6
1070
   273
1070
     7
1002
}
  0
ENDSEC
  0
SECTION
  2
OBJECTS
  0
DICTIONARY
  5
C
330
0
100
AcDbDictionary
281
     1
  3
ACAD_DETAILVIEWSTYLE
350
165
  3
ACAD_GROUP
350
D
  3
ACAD_IMAGE_VARS
350
14A
  3
ACAD_LAYOUT
350
1A
  3
ACAD_MLINESTYLE
350
17
  3
ACAD_PLOTSETTINGS
350
19
  3
ACAD_PLOTSTYLENAME
350
E
  3
ACAD_SCALELIST
350
47
  3
ACAD_SECTIONVIEWSTYLE
350
166
  3
AcDbVariableDictionary
350
160
  3
APPDATA
350
148
  3
DWGPROPS
350
18F
  0
DICTIONARY
  5
14D
330
14C
100
AcDbDictionary
280
     1
281
     1
  0
DICTIONARY
  5
16A
330
169
100
AcDbDictionary
280
     1
281
     1
  0
DICTIONARY
  5
17D
330
17C
100
AcDbDictionary
280
     1
281
     1
  0
DICTIONARY
  5
165
102
{ACAD_REACTORS
330
C
102
}
330
C
100
AcDbDictionary
281
     1
  0
DICTIONARY
  5
D
102
{ACAD_REACTORS
330
C
102
}
330
C
100
AcDbDictionary
281
     1
  0
RASTERVARIABLES
  5
14A
102
{ACAD_REACTORS
330
C
102
}
330
C
100
AcDbRasterVariables
 90
        0
 70
     1
 71
     1
 72
     1
  0
DICTIONARY
  5
1A
102
{ACAD_REACTORS
330
C
102
}
330
C
100
AcDbDictionary
281
     1
  3
Layout1
350
1E
  3
Layout2
350
26
  3
Model
350
22
  0
DICTIONARY
  5
17
102
{ACAD_REACTORS
330
C
102
}
330
C
100
AcDbDictionary
281
     1
  3
Standard
350
18
  0
DICTIONARY
  5
19
102
{ACAD_REACTORS
330
C
102
}
330
C
100
AcDbDictionary
281
     1
  0
ACDBDICTIONARYWDFLT
  5
E
102
{ACAD_REACTORS
330
C
102
}
330
C
100
AcDbDictionary
281
     1
  3
Normal
350
F
100
AcDbDictionaryWithDefault
340
F
  0
DICTIONARY
  5
47
102
{ACAD_REACTORS
330
C
102
}
330
C
100
AcDbDictionary
281
     1
  3
A0
350
48
  3
A1
350
49
  3
A2
350
4A
  3
A3
350
4B
  3
A4
350
4C
  3
A5
350
4D
  3
A6
350
4E
  3
A7
350
4F
  3
A8
350
50
  3
A9
350
51
  3
B0
350
52
  3
B1
350
53
  3
B2
350
54
  3
B3
350
55
  3
B4
350
56
  3
B5
350
57
  3
B6
350
58
  3
B7
350
59
  3
B8
350
5A
  3
B9
350
5B
  3
C0
350
5C
  3
C1
350
5D
  3
C2
350
5E
  3
C3
350
5F
  3
C4
350
60
  3
C5
350
61
  3
C6
350
62
  3
C7
350
63
  3
C8
350
64
  3
C9
350
65
  3
D0
350
66
  3
D1
350
67
  3
D2
350
68
  0
DICTIONARY
  5
166
102
{ACAD_REACTORS
330
C
102
}
330
C
100
AcDbDictionary
281
     1
  0
DICTIONARY
  5
160
102
{ACAD_REACTORS
330
C
102
}
330
C
100
AcDbDictionary
281
     1
  0
DICTIONARY
  5
148
102
{ACAD_REACTORS
330
C
102
}
330
C
100
AcDbDictionary
281
     1
  0
XRECORD
  5
18F
102
{ACAD_REACTORS
330
C
102
}
330
C
100
AcDbXrecord
280
     1
  1
DWGPROPS COOKIE
  2

  3

  4

  6

  7

  8
12015048
  9

300
=
301
=
302
=
303
=
304
=
305
=
306
=
307
=
308
=
309
=
 40
0.0
 41
2458333.349483796
 42
2458340.090988681
  1

 90
        0
  0
LAYOUT
  5
1E
102
{ACAD_REACTORS
330
1A
102
}
330
1A
100
AcDbPlotSettings
  1

  2
none_device
  4

  6

 40
0.0
 41
0.0
 42
0.0
 43
0.0
 44
0.0
 45
0.0
 46
0.0
 47
0.0
 48
0.0
 49
0.0
140
0.0
141
0.0
142
1.0
143
1.0
 70
   688
 72
     1
 73
     0
 74
     5
  7

 75
    16
147
1.0
148
0.0
149
0.0
100
AcDbLayout
  1
Layout1
 70
     1
 71
     1
 10
0.0
 20
0.0
 11
420.0
 21
297.0
 12
0.0
 22
0.0
 32
0.0
 14
1.000000000000000E+20
 24
1.000000000000000E+20
 34
1.000000000000000E+20
 15
-1.000000000000000E+20
 25
-1.000000000000000E+20
 35
-1.000000000000000E+20
146
0.0
 13
0.0
 23
0.0
 33
0.0
 16
1.0
 26
0.0
 36
0.0
 17
0.0
 27
1.0
 37
0.0
 76
     0
330
1B
  0
LAYOUT
  5
26
102
{ACAD_REACTORS
330
1A
102
}
330
1A
100
AcDbPlotSettings
  1

  2
none_device
  4

  6

 40
0.0
 41
0.0
 42
0.0
 43
0.0
 44
0.0
 45
0.0
 46
0.0
 47
0.0
 48
0.0
 49
0.0
140
0.0
141
0.0
142
1.0
143
1.0
 70
   688
 72
     1
 73
     0
 74
     5
  7

 75
    16
147
1.0
148
0.0
149
0.0
100
AcDbLayout
  1
Layout2
 70
     1
 71
     2
 10
0.0
 20
0.0
 11
0.0
 21
0.0
 12
0.0
 22
0.0
 32
0.0
 14
0.0
 24
0.0
 34
0.0
 15
0.0
 25
0.0
 35
0.0
146
0.0
 13
0.0
 23
0.0
 33
0.0
 16
1.0
 26
0.0
 36
0.0
 17
0.0
 27
1.0
 37
0.0
 76
     0
330
23
  0
LAYOUT
  5
22
102
{ACAD_REACTORS
330
1A
102
}
330
1A
100
AcDbPlotSettings
  1

  2
none_device
  4
ANSI_A_(11.00_x_8.50_Inches)
  6

 40
6.35
 41
19.05
 42
6.35000508
 43
19.05000254
 44
279.4
 45
215.9
 46
145.4245717351038
 47
104.8357135932929
 48
0.0
 49
0.0
140
0.0
141
0.0
142
0.0914796403028642
143
1.0
 70
  1696
 72
     0
 73
     0
 74
     0
  7

 75
     0
147
0.0235690232323232
148
0.0
149
0.0
100
AcDbLayout
  1
Model
 70
     1
 71
     0
 10
0.0
 20
0.0
 11
420.0
 21
297.0
 12
0.0
 22
0.0
 32
0.0
 14
-56.14693601753627
 24
-49.97180738881174
 34
0.0
 15
68.47486622687705
 25
59.34048407395949
 35
0.0
146
0.0
 13
0.0
 23
0.0
 33
0.0
 16
1.0
 26
0.0
 36
0.0
 17
0.0
 27
1.0
 37
0.0
 76
     0
330
1F
331
29
  0
MLINESTYLE
  5
18
102
{ACAD_REACTORS
330
17
102
}
330
17
100
AcDbMlineStyle
  2
Standard
 70
     0
  3

 62
   256
 51
90.0
 52
90.0
 71
     2
 49
0.5
 62
   256
  6
BYLAYER
 49
-0.5
 62
   256
  6
BYLAYER
  0
ACDBPLACEHOLDER
  5
F
102
{ACAD_REACTORS
330
E
102
}
330
E
  0
SCALE
  5
48
102
{ACAD_REACTORS
330
47
102
}
330
47
100
AcDbScale
 70
     0
300
1:1
140
1.0
141
1.0
290
     1
  0
SCALE
  5
49
102
{ACAD_REACTORS
330
47
102
}
330
47
100
AcDbScale
 70
     0
300
1:2
140
1.0
141
2.0
290
     0
  0
SCALE
  5
4A
102
{ACAD_REACTORS
330
47
102
}
330
47
100
AcDbScale
 70
     0
300
1:4
140
1.0
141
4.0
290
     0
  0
SCALE
  5
4B
102
{ACAD_REACTORS
330
47
102
}
330
47
100
AcDbScale
 70
     0
300
1:5
140
1.0
141
5.0
290
     0
  0
SCALE
  5
4C
102
{ACAD_REACTORS
330
47
102
}
330
47
100
AcDbScale
 70
     0
300
1:8
140
1.0
141
8.0
290
     0
  0
SCALE
  5
4D
102
{ACAD_REACTORS
330
47
102
}
330
47
100
AcDbScale
 70
     0
300
1:10
140
1.0
141
10.0
290
     0
  0
SCALE
  5
4E
102
{ACAD_REACTORS
330
47
102
}
330
47
100
AcDbScale
 70
     0
300
1:16
140
1.0
141
16.0
290
     0
  0
SCALE
  5
4F
102
{ACAD_REACTORS
330
47
102
}
330
47
100
AcDbScale
 70
     0
300
1:20
140
1.0
141
20.0
290
     0
  0
SCALE
  5
50
102
{ACAD_REACTORS
330
47
102
}
330
47
100
AcDbScale
 70
     0
300
1:30
140
1.0
141
30.0
290
     0
  0
SCALE
  5
51
102
{ACAD_REACTORS
330
47
102
}
330
47
100
AcDbScale
 70
     0
300
1:40
140
1.0
141
40.0
290
     0
  0
SCALE
  5
52
102
{ACAD_REACTORS
330
47
102
}
330
47
100
AcDbScale
 70
     0
300
1:50
140
1.0
141
50.0
290
     0
  0
SCALE
  5
53
102
{ACAD_REACTORS
330
47
102
}
330
47
100
AcDbScale
 70
     0
300
1:100
140
1.0
141
100.0
290
     0
  0
SCALE
  5
54
102
{ACAD_REACTORS
330
47
102
}
330
47
100
AcDbScale
 70
     0
300
2:1
140
2.0
141
1.0
290
     0
  0
SCALE
  5
55
102
{ACAD_REACTORS
330
47
102
}
330
47
100
AcDbScale
 70
     0
300
4:1
140
4.0
141
1.0
290
     0
  0
SCALE
  5
56
102
{ACAD_REACTORS
330
47
102
}
330
47
100
AcDbScale
 70
     0
300
8:1
140
8.0
141
1.0
290
     0
  0
SCALE
  5
57
102
{ACAD_REACTORS
330
47
102
}
330
47
100
AcDbScale
 70
     0
300
10:1
140
10.0
141
1.0
290
     0
  0
SCALE
  5
58
102
{ACAD_REACTORS
330
47
102
}
330
47
100
AcDbScale
 70
     0
300
100:1
140
100.0
141
1.0
290
     0
  0
SCALE
  5
59
102
{ACAD_REACTORS
330
47
102
}
330
47
100
AcDbScale
 70
     0
300
1/128" = 1'-0"
140
0.0078125
141
12.0
290
     0
  0
SCALE
  5
5A
102
{ACAD_REACTORS
330
47
102
}
330
47
100
AcDbScale
 70
     0
300
1/64" = 1'-0"
140
0.015625
141
12.0
290
     0
  0
SCALE
  5
5B
102
{ACAD_REACTORS
330
47
102
}
330
47
100
AcDbScale
 70
     0
300
1/32" = 1'-0"
140
0.03125
141
12.0
290
     0
  0
SCALE
  5
5C
102
{ACAD_REACTORS
330
47
102
}
330
47
100
AcDbScale
 70
     0
300
1/16" = 1'-0"
140
0.0625
141
12.0
290
     0
  0
SCALE
  5
5D
102
{ACAD_REACTORS
330
47
102
}
330
47
100
AcDbScale
 70
     0
300
3/32" = 1'-0"
140
0.09375
141
12.0
290
     0
  0
SCALE
  5
5E
102
{ACAD_REACTORS
330
47
102
}
330
47
100
AcDbScale
 70
     0
300
1/8" = 1'-0"
140
0.125
141
12.0
290
     0
  0
SCALE
  5
5F
102
{ACAD_REACTORS
330
47
102
}
330
47
100
AcDbScale
 70
     0
300
3/16" = 1'-0"
140
0.1875
141
12.0
290
     0
  0
SCALE
  5
60
102
{ACAD_REACTORS
330
47
102
}
330
47
100
AcDbScale
 70
     0
300
1/4" = 1'-0"
140
0.25
141
12.0
290
     0
  0
SCALE
  5
61
102
{ACAD_REACTORS
330
47
102
}
330
47
100
AcDbScale
 70
     0
300
3/8" = 1'-0"
140
0.375
141
12.0
290
     0
  0
SCALE
  5
62
102
{ACAD_REACTORS
330
47
102
}
330
47
100
AcDbScale
 70
     0
300
1/2" = 1'-0"
140
0.5
141
12.0
290
     0
  0
SCALE
  5
63
102
{ACAD_REACTORS
330
47
102
}
330
47
100
AcDbScale
 70
     0
300
3/4" = 1'-0"
140
0.75
141
12.0
290
     0
  0
SCALE
  5
64
102
{ACAD_REACTORS
330
47
102
}
330
47
100
AcDbScale
 70
     0
300
1" = 1'-0"
140
1.0
141
12.0
290
     0
  0
SCALE
  5
65
102
{ACAD_REACTORS
330
47
102
}
330
47
100
AcDbScale
 70
     0
300
1-1/2" = 1'-0"
140
1.5
141
12.0
290
     0
  0
SCALE
  5
66
102
{ACAD_REACTORS
330
47
102
}
330
47
100
AcDbScale
 70
     0
300
3" = 1'-0"
140
3.0
141
12.0
290
     0
  0
SCALE
  5
67
102
{ACAD_REACTORS
330
47
102
}
330
47
100
AcDbScale
 70
     0
300
6" = 1'-0"
140
6.0
141
12.0
290
     0
  0
SCALE
  5
68
102
{ACAD_REACTORS
330
47
102
}
330
47
100
AcDbScale
 70
     0
300
1'-0" = 1'-0"
140
12.0
141
12.0
290
     0
  0
ENDSEC
  0
EOF
