  0
SECTION
  2
HEADER
  9
$ACADVER
  1
AC1015
  9
$ACADMAINTVER
 70
     6
  9
$DWGCODEPAGE
  3
ANSI_949
  9
$INSBASE
 10
0.0
 20
0.0
 30
0.0
  9
$EXTMIN
 10
-86.32284751407897
 20
-49.97180738881174
 30
0.0
  9
$EXTMAX
 10
59.5270916245438
 20
80.18751644782087
 30
0.0
  9
$LIMMIN
 10
0.0
 20
0.0
  9
$LIMMAX
 10
420.0
 20
297.0
  9
$ORTHOMODE
 70
     1
  9
$REGENMODE
 70
     1
  9
$FILLMODE
 70
     1
  9
$QTEXTMODE
 70
     0
  9
$MIRRTEXT
 70
     1
  9
$LTSCALE
 40
1.0
  9
$ATTMODE
 70
     1
  9
$TEXTSIZE
 40
3.5
  9
$TRACEWID
 40
1.0
  9
$TEXTSTYLE
  7
Standard
  9
$CLAYER
  8
0
  9
$CELTYPE
  6
ByLayer
  9
$CECOLOR
 62
   256
  9
$CELTSCALE
 40
1.0
  9
$DISPSILH
 70
     0
  9
$DIMSCALE
 40
1.0
  9
$DIMASZ
 40
3.302
  9
$DIMEXO
 40
1.0
  9
$DIMDLI
 40
3.75
  9
$DIMRND
 40
0.0
  9
$DIMDLE
 40
0.0
  9
$DIMEXE
 40
1.0
  9
$DIMTP
 40
0.0
  9
$DIMTM
 40
0.0
  9
$DIMTXT
 40
3.5
  9
$DIMCEN
 40
2.5
  9
$DIMTSZ
 40
0.0
  9
$DIMTOL
 70
     0
  9
$DIMLIM
 70
     0
  9
$DIMTIH
 70
     1
  9
$DIMTOH
 70
     1
  9
$DIMSE1
 70
     0
  9
$DIMSE2
 70
     0
  9
$DIMTAD
 70
     1
  9
$DIMZIN
 70
     0
  9
$DIMBLK
  1

  9
$DIMASO
 70
     1
  9
$DIMSHO
 70
     1
  9
$DIMPOST
  1

  9
$DIMAPOST
  1

  9
$DIMALT
 70
     0
  9
$DIMALTD
 70
     3
  9
$DIMALTF
 40
0.0393700787401575
  9
$DIMLFAC
 40
1.0
  9
$DIMTOFL
 70
     1
  9
$DIMTVP
 40
0.0
  9
$DIMTIX
 70
     0
  9
$DIMSOXD
 70
     0
  9
$DIMSAH
 70
     0
  9
$DIMBLK1
  1

  9
$DIMBLK2
  1

  9
$DIMSTYLE
  2
ISO-25
  9
$DIMCLRD
 70
     0
  9
$DIMCLRE
 70
     0
  9
$DIMCLRT
 70
     0
  9
$DIMTFAC
 40
1.0
  9
$DIMGAP
 40
1.524
  9
$DIMJUST
 70
     0
  9
$DIMSD1
 70
     0
  9
$DIMSD2
 70
     0
  9
$DIMTOLJ
 70
     0
  9
$DIMTZIN
 70
     0
  9
$DIMALTZ
 70
     0
  9
$DIMALTTZ
 70
     0
  9
$DIMUPT
 70
     0
  9
$DIMDEC
 70
     2
  9
$DIMTDEC
 70
     2
  9
$DIMALTU
 70
     2
  9
$DIMALTTD
 70
     3
  9
$DIMTXSTY
  7
Standard
  9
$DIMAUNIT
 70
     0
  9
$DIMADEC
 70
     2
  9
$DIMALTRND
 40
0.0
  9
$DIMAZIN
 70
     0
  9
$DIMDSEP
 70
    44
  9
$DIMATFIT
 70
     3
  9
$DIMFRAC
 70
     0
  9
$DIMLDRBLK
  1

  9
$DIMLUNIT
 70
     2
  9
$DIMLWD
 70
    -2
  9
$DIMLWE
 70
    -2
  9
$DIMTMOVE
 70
     0
  9
$LUNITS
 70
     2
  9
$LUPREC
 70
     2
  9
$SKETCHINC
 40
1.0
  9
$FILLETRAD
 40
10.0
  9
$AUNITS
 70
     0
  9
$AUPREC
 70
     2
  9
$MENU
  1
.
  9
$ELEVATION
 40
0.0
  9
$PELEVATION
 40
0.0
  9
$THICKNESS
 40
0.0
  9
$LIMCHECK
 70
     0
  9
$CHAMFERA
 40
0.0
  9
$CHAMFERB
 40
0.0
  9
$CHAMFERC
 40
0.0
  9
$CHAMFERD
 40
0.0
  9
$SKPOLY
 70
     0
  9
$TDCREATE
 40
2458333.724328056
  9
$TDUCREATE
 40
2458333.349328056
  9
$TDUPDATE
 40
2458340.464075312
  9
$TDUUPDATE
 40
2458340.089075312
  9
$TDINDWG
 40
0.0029111806
  9
$TDUSRTIMER
 40
2458340.086164236
  9
$USRTIMER
 70
     1
  9
$ANGBASE
 50
0.0
  9
$ANGDIR
 70
     0
  9
$PDMODE
 70
     0
  9
$PDSIZE
 40
-1.0
  9
$PLINEWID
 40
0.0
  9
$SPLFRAME
 70
     0
  9
$SPLINETYPE
 70
     6
  9
$SPLINESEGS
 70
     8
  9
$HANDSEED
  5
179
  9
$SURFTAB1
 70
     6
  9
$SURFTAB2
 70
     6
  9
$SURFTYPE
 70
     6
  9
$SURFU
 70
     6
  9
$SURFV
 70
     6
  9
$UCSBASE
  2

  9
$UCSNAME
  2

  9
$UCSORG
 10
0.0
 20
0.0
 30
0.0
  9
$UCSXDIR
 10
1.0
 20
0.0
 30
0.0
  9
$UCSYDIR
 10
0.0
 20
1.0
 30
0.0
  9
$UCSORTHOREF
  2

  9
$UCSORTHOVIEW
 70
     0
  9
$UCSORGTOP
 10
0.0
 20
0.0
 30
0.0
  9
$UCSORGBOTTOM
 10
0.0
 20
0.0
 30
0.0
  9
$UCSORGLEFT
 10
0.0
 20
0.0
 30
0.0
  9
$UCSORGRIGHT
 10
0.0
 20
0.0
 30
0.0
  9
$UCSORGFRONT
 10
0.0
 20
0.0
 30
0.0
  9
$UCSORGBACK
 10
0.0
 20
0.0
 30
0.0
  9
$PUCSBASE
  2

  9
$PUCSNAME
  2

  9
$PUCSORG
 10
0.0
 20
0.0
 30
0.0
  9
$PUCSXDIR
 10
1.0
 20
0.0
 30
0.0
  9
$PUCSYDIR
 10
0.0
 20
1.0
 30
0.0
  9
$PUCSORTHOREF
  2

  9
$PUCSORTHOVIEW
 70
     0
  9
$PUCSORGTOP
 10
0.0
 20
0.0
 30
0.0
  9
$PUCSORGBOTTOM
 10
0.0
 20
0.0
 30
0.0
  9
$PUCSORGLEFT
 10
0.0
 20
0.0
 30
0.0
  9
$PUCSORGRIGHT
 10
0.0
 20
0.0
 30
0.0
  9
$PUCSORGFRONT
 10
0.0
 20
0.0
 30
0.0
  9
$PUCSORGBACK
 10
0.0
 20
0.0
 30
0.0
  9
$USERI1
 70
     0
  9
$USERI2
 70
     0
  9
$USERI3
 70
     0
  9
$USERI4
 70
     0
  9
$USERI5
 70
     0
  9
$USERR1
 40
0.0
  9
$USERR2
 40
0.0
  9
$USERR3
 40
0.0
  9
$USERR4
 40
0.0
  9
$USERR5
 40
0.0
  9
$WORLDVIEW
 70
     1
  9
$SHADEDGE
 70
     3
  9
$SHADEDIF
 70
    70
  9
$TILEMODE
 70
     1
  9
$MAXACTVP
 70
    64
  9
$PINSBASE
 10
0.0
 20
0.0
 30
0.0
  9
$PLIMCHECK
 70
     0
  9
$PEXTMIN
 10
1.000000000000000E+20
 20
1.000000000000000E+20
 30
1.000000000000000E+20
  9
$PEXTMAX
 10
-1.000000000000000E+20
 20
-1.000000000000000E+20
 30
-1.000000000000000E+20
  9
$PLIMMIN
 10
0.0
 20
0.0
  9
$PLIMMAX
 10
0.0
 20
0.0
  9
$UNITMODE
 70
     0
  9
$VISRETAIN
 70
     1
  9
$PLINEGEN
 70
     0
  9
$PSLTSCALE
 70
     1
  9
$TREEDEPTH
 70
  3020
  9
$CMLSTYLE
  2
Standard
  9
$CMLJUST
 70
     0
  9
$CMLSCALE
 40
20.0
  9
$PROXYGRAPHICS
 70
     1
  9
$MEASUREMENT
 70
     1
  9
$CELWEIGHT
370
    -1
  9
$ENDCAPS
280
     0
  9
$JOINSTYLE
280
     0
  9
$LWDISPLAY
290
     1
  9
$INSUNITS
 70
     4
  9
$HYPERLINKBASE
  1

  9
$STYLESHEET
  1

  9
$XEDIT
290
     1
  9
$CEPSNTYPE
380
     0
  9
$PSTYLEMODE
290
     1
  9
$FINGERPRINTGUID
  2
{C927BAA2-E6C9-41B6-8167-C3D9CF7B5EC5}
  9
$VERSIONGUID
  2
{FAEB1C32-E019-11D5-929B-00C0DF256EC4}
  9
$EXTNAMES
290
     1
  9
$PSVPSCALE
 40
0.0
  9
$OLESTARTUP
290
     0
  0
ENDSEC
  0
SECTION
  2
CLASSES
  0
CLASS
  1
ACDBDICTIONARYWDFLT
  2
AcDbDictionaryWithDefault
  3
ObjectDBX Classes
 90
        0
280
     0
281
     0
  0
CLASS
  1
VISUALSTYLE
  2
AcDbVisualStyle
  3
ObjectDBX Classes
 90
     4095
280
     0
281
     0
  0
CLASS
  1
MATERIAL
  2
AcDbMaterial
  3
ObjectDBX Classes
 90
     1153
280
     0
281
     0
  0
CLASS
  1
SCALE
  2
AcDbScale
  3
ObjectDBX Classes
 90
     1153
280
     0
281
     0
  0
CLASS
  1
SUN
  2
AcDbSun
  3
SCENEOE
 90
     1153
280
     0
281
     0
  0
CLASS
  1
ACDBPLACEHOLDER
  2
AcDbPlaceHolder
  3
ObjectDBX Classes
 90
        0
280
     0
281
     0
  0
CLASS
  1
LAYOUT
  2
AcDbLayout
  3
ObjectDBX Classes
 90
        0
280
     0
281
     0
  0
CLASS
  1
TABLESTYLE
  2
AcDbTableStyle
  3
ObjectDBX Classes
 90
     4095
280
     0
281
     0
  0
CLASS
  1
MLEADERSTYLE
  2
AcDbMLeaderStyle
  3
ACDB_MLEADERSTYLE_CLASS
 90
     4095
280
     0
281
     0
  0
CLASS
  1
RASTERVARIABLES
  2
AcDbRasterVariables
  3
ISM
 90
        0
280
     0
281
     0
  0
CLASS
  1
DIMASSOC
  2
AcDbDimAssoc
  3
"AcDbDimAssoc|Product Desc:     AcDim ARX App For Dimension|Company:          Autodesk, Inc.|WEB Address:      www.autodesk.com"
 90
        0
280
     0
281
     0
  0
ENDSEC
  0
SECTION
  2
TABLES
  0
TABLE
  2
VPORT
  5
8
330
0
100
AcDbSymbolTable
 70
     1
  0
VPORT
  5
29
330
8
100
AcDbSymbolTableRecord
100
AcDbViewportTableRecord
  2
*Active
 70
     0
 10
0.0
 20
0.0
 11
1.0
 21
1.0
 12
14.62268810967024
 22
23.90807360767359
 13
0.0
 23
0.0
 14
10.0
 24
10.0
 15
10.0
 25
10.0
 16
0.0
 26
0.0
 36
1.0
 17
0.0
 27
0.0
 37
0.0
 40
181.7229282490958
 41
1.444267515923567
 42
50.0
 43
0.0
 44
0.0
 50
0.0
 51
0.0
 71
    16
 72
  2000
 73
     1
 74
     3
 75
     0
 76
     0
 77
     0
 78
     0
281
     0
 65
     1
110
0.0
120
0.0
130
0.0
111
1.0
121
0.0
131
0.0
112
0.0
122
1.0
132
0.0
 79
     0
146
0.0
  0
ENDTAB
  0
TABLE
  2
LTYPE
  5
5
330
0
100
AcDbSymbolTable
 70
     6
  0
LTYPE
  5
14
330
5
100
AcDbSymbolTableRecord
100
AcDbLinetypeTableRecord
  2
ByBlock
 70
     0
  3

 72
    65
 73
     0
 40
0.0
  0
LTYPE
  5
15
330
5
100
AcDbSymbolTableRecord
100
AcDbLinetypeTableRecord
  2
ByLayer
 70
     0
  3

 72
    65
 73
     0
 40
0.0
  0
LTYPE
  5
16
330
5
100
AcDbSymbolTableRecord
100
AcDbLinetypeTableRecord
  2
Continuous
 70
     0
  3
Solid line
 72
    65
 73
     0
 40
0.0
  0
LTYPE
  5
6A
330
5
100
AcDbSymbolTableRecord
100
AcDbLinetypeTableRecord
  2
HIDDEN
 70
     0
  3
Hidden __ __ __ __ __ __ __ __ __ __ __ __ __ __
 72
    65
 73
     2
 40
1.905
 49
1.27
 74
     0
 49
-0.635
 74
     0
  0
LTYPE
  5
6B
330
5
100
AcDbSymbolTableRecord
100
AcDbLinetypeTableRecord
  2
PHANTOM
 70
     0
  3
Phantom ______  __  __  ______  __  __  ______
 72
    65
 73
     6
 40
12.7
 49
6.35
 74
     0
 49
-1.27
 74
     0
 49
1.27
 74
     0
 49
-1.27
 74
     0
 49
1.27
 74
     0
 49
-1.27
 74
     0
  0
LTYPE
  5
6C
330
5
100
AcDbSymbolTableRecord
100
AcDbLinetypeTableRecord
  2
CENTER
 70
     0
  3
Center ____ _ ____ _ ____ _ ____ _ ____ _ ____
 72
    65
 73
     4
 40
10.16
 49
6.35
 74
     0
 49
-1.27
 74
     0
 49
1.27
 74
     0
 49
-1.27
 74
     0
  0
LTYPE
  5
6D
330
5
100
AcDbSymbolTableRecord
100
AcDbLinetypeTableRecord
  2
CENTERX2
 70
     0
  3
Center (2x) ________  __  ________  __  _____
 72
    65
 73
     4
 40
20.32
 49
12.7
 74
     0
 49
-2.54
 74
     0
 49
2.54
 74
     0
 49
-2.54
 74
     0
  0
LTYPE
  5
6E
330
5
100
AcDbSymbolTableRecord
100
AcDbLinetypeTableRecord
  2
DOT2
 70
     0
  3
Dot (.5x) ........................................
 72
    65
 73
     2
 40
0.635
 49
0.0
 74
     0
 49
-0.635
 74
     0
  0
ENDTAB
  0
TABLE
  2
LAYER
  5
2
330
0
100
AcDbSymbolTable
 70
    17
  0
LAYER
  5
10
330
2
100
AcDbSymbolTableRecord
100
AcDbLayerTableRecord
  2
0
 70
     0
 62
     7
  6
Continuous
370
    -3
390
F
  0
LAYER
  5
6F
330
2
100
AcDbSymbolTableRecord
100
AcDbLayerTableRecord
  2
FORMAT
 70
     0
 62
     2
  6
Continuous
370
    -3
390
F
  0
LAYER
  5
70
330
2
100
AcDbSymbolTableRecord
100
AcDbLayerTableRecord
  2
외형선
 70
     0
 62
   100
  6
Continuous
370
    30
390
F
  0
LAYER
  5
71
330
2
100
AcDbSymbolTableRecord
100
AcDbLayerTableRecord
  2
숨은선
 70
     0
 62
     2
  6
HIDDEN
370
    15
390
F
  0
LAYER
  5
72
330
2
100
AcDbSymbolTableRecord
100
AcDbLayerTableRecord
  2
중심선
 70
     0
 62
     1
  6
CENTERX2
370
    -3
390
F
  0
LAYER
  5
73
330
2
100
AcDbSymbolTableRecord
100
AcDbLayerTableRecord
  2
파단선
 70
     0
 62
     4
  6
Continuous
370
    -3
390
F
  0
LAYER
  5
74
330
2
100
AcDbSymbolTableRecord
100
AcDbLayerTableRecord
  2
해칭선
 70
     0
 62
     4
  6
Continuous
370
    -3
390
F
  0
LAYER
  5
75
330
2
100
AcDbSymbolTableRecord
100
AcDbLayerTableRecord
  2
가는실선
 70
     0
 62
     4
  6
Continuous
370
    -3
390
F
  0
LAYER
  5
76
330
2
100
AcDbSymbolTableRecord
100
AcDbLayerTableRecord
  2
치수_보조선
 70
     0
 62
     4
  6
Continuous
370
    -3
390
F
  0
LAYER
  5
77
330
2
100
AcDbSymbolTableRecord
100
AcDbLayerTableRecord
  2
치수문자_일반주서
 70
     0
 62
     7
  6
Continuous
370
    15
390
F
  0
LAYER
  5
78
330
2
100
AcDbSymbolTableRecord
100
AcDbLayerTableRecord
  2
개별주서
 70
     0
 62
   100
  6
Continuous
370
    30
390
F
  0
LAYER
  5
79
330
2
100
AcDbSymbolTableRecord
100
AcDbLayerTableRecord
  2
중간선
 70
     0
 62
     2
  6
Continuous
370
    15
390
F
  0
LAYER
  5
7A
330
2
100
AcDbSymbolTableRecord
100
AcDbLayerTableRecord
  2
윤곽선
 70
     0
 62
     3
  6
Continuous
370
    40
390
F
  0
LAYER
  5
7B
330
2
100
AcDbSymbolTableRecord
100
AcDbLayerTableRecord
  2
중심마크
 70
     0
 62
   100
  6
Continuous
370
    30
390
F
  0
LAYER
  5
7C
330
2
100
AcDbSymbolTableRecord
100
AcDbLayerTableRecord
  2
가상선
 70
     0
 62
     4
  6
PHANTOM
370
    -3
390
F
  0
LAYER
  5
7D
330
2
100
AcDbSymbolTableRecord
100
AcDbLayerTableRecord
  2
특수지정선
 70
     0
 62
     5
  6
CENTERX2
370
    60
390
F
  0
LAYER
  5
13D
330
2
100
AcDbSymbolTableRecord
100
AcDbLayerTableRecord
  2
Defpoints
 70
     0
 62
     7
  6
Continuous
290
     0
370
    -3
390
F
  0
ENDTAB
  0
TABLE
  2
STYLE
  5
3
330
0
100
AcDbSymbolTable
 70
     2
  0
STYLE
  5
11
330
3
100
AcDbSymbolTableRecord
100
AcDbTextStyleTableRecord
  2
Standard
 70
     0
 40
0.0
 41
1.0
 50
0.0
 71
     0
 42
3.5
  3
txt
  4

  0
STYLE
  5
93
330
3
100
AcDbSymbolTableRecord
100
AcDbTextStyleTableRecord
  2
SLDTEXTSTYLE0
 70
     0
 40
0.0
 41
0.75
 50
0.0
 71
     0
 42
3.5
  3
TXT
  4

  0
ENDTAB
  0
TABLE
  2
VIEW
  5
6
330
0
100
AcDbSymbolTable
 70
     0
  0
ENDTAB
  0
TABLE
  2
UCS
  5
7
330
0
100
AcDbSymbolTable
 70
     0
  0
ENDTAB
  0
TABLE
  2
APPID
  5
9
330
0
100
AcDbSymbolTable
 70
     2
  0
APPID
  5
12
330
9
100
AcDbSymbolTableRecord
100
AcDbRegAppTableRecord
  2
ACAD
 70
     0
  0
APPID
  5
163
330
9
100
AcDbSymbolTableRecord
100
AcDbRegAppTableRecord
  2
PE_DIMMEASUREMENT
 70
     0
  0
ENDTAB
  0
TABLE
  2
DIMSTYLE
  5
A
330
0
100
AcDbSymbolTable
 70
     4
100
AcDbDimStyleTable
  0
DIMSTYLE
105
27
330
A
100
AcDbSymbolTableRecord
100
AcDbDimStyleTableRecord
  2
ISO-25
 70
     0
 41
2.5
 42
0.625
 43
3.75
 44
1.25
 73
     0
 74
     0
 77
     1
 78
     8
140
2.5
141
2.5
143
0.03937007874016
147
0.625
171
     3
172
     1
178
     0
271
     2
272
     2
274
     3
278
    44
283
     0
284
     8
340
11
  0
DIMSTYLE
105
D8
102
{ACAD_REACTORS
330
D7
330
151
330
13E
330
165
102
}
330
A
100
AcDbSymbolTableRecord
100
AcDbDimStyleTableRecord
  2
SLDDIMSTYLE0
 70
     0
 41
3.302
 44
0.0
 45
0.000000001
 73
     0
 74
     0
 77
     1
 78
    12
 79
     3
140
3.5
143
0.0393700787401575
147
0.875
148
0.000000001
170
     1
172
     1
173
     1
178
     0
271
     2
272
     2
276
     2
284
    12
289
     0
340
93
  0
DIMSTYLE
105
EE
102
{ACAD_REACTORS
330
ED
102
}
330
A
100
AcDbSymbolTableRecord
100
AcDbDimStyleTableRecord
  2
SLDDIMSTYLE1
 70
     0
 41
3.302
 44
0.0
 45
0.000000001
 73
     0
 74
     0
 77
     1
 78
     4
 79
     1
140
3.5
143
0.0393700787401575
147
0.875
148
0.000000001
170
     1
173
     1
178
     0
271
     2
272
     2
276
     2
284
    12
340
93
  0
DIMSTYLE
105
102
330
A
100
AcDbSymbolTableRecord
100
AcDbDimStyleTableRecord
  2
SLDDIMSTYLE2
 70
     0
 41
3.302
 44
0.0
 45
0.000000001
 73
     0
 74
     0
 77
     1
 78
     8
 79
     2
140
3.5
143
0.0393700787401575
147
0.875
148
0.000000001
170
     1
172
     1
173
     1
178
     0
271
     2
272
     2
276
     2
284
    12
289
     0
340
93
341
103
343
103
344
103
  0
ENDTAB
  0
TABLE
  2
BLOCK_RECORD
  5
1
330
0
100
AcDbSymbolTable
 70
    10
  0
BLOCK_RECORD
  5
1F
330
1
100
AcDbSymbolTableRecord
100
AcDbBlockTableRecord
  2
*Model_Space
340
22
  0
BLOCK_RECORD
  5
1B
330
1
100
AcDbSymbolTableRecord
100
AcDbBlockTableRecord
  2
*Paper_Space
340
1E
  0
BLOCK_RECORD
  5
23
330
1
100
AcDbSymbolTableRecord
100
AcDbBlockTableRecord
  2
*Paper_Space0
340
26
  0
BLOCK_RECORD
  5
7E
330
1
100
AcDbSymbolTableRecord
100
AcDbBlockTableRecord
  2
블럭10
340
0
102
{BLKREFS
331
CF
102
}
  0
BLOCK_RECORD
  5
D9
330
1
100
AcDbSymbolTableRecord
100
AcDbBlockTableRecord
  2
_D
340
0
  0
BLOCK_RECORD
  5
EF
330
1
100
AcDbSymbolTableRecord
100
AcDbBlockTableRecord
  2
_D_1
340
0
  0
BLOCK_RECORD
  5
103
330
1
100
AcDbSymbolTableRecord
100
AcDbBlockTableRecord
  2
_NONE
340
0
  0
BLOCK_RECORD
  5
106
330
1
100
AcDbSymbolTableRecord
100
AcDbBlockTableRecord
  2
_D_2
340
0
  0
BLOCK_RECORD
  5
112
330
1
100
AcDbSymbolTableRecord
100
AcDbBlockTableRecord
  2
SW_DOWELSYMBOL_0
340
0
102
{BLKREFS
331
118
102
}
  0
BLOCK_RECORD
  5
141
330
1
100
AcDbSymbolTableRecord
100
AcDbBlockTableRecord
  2
*D7
340
0
  0
BLOCK_RECORD
  5
154
330
1
100
AcDbSymbolTableRecord
100
AcDbBlockTableRecord
  2
*D8
340
0
  0
BLOCK_RECORD
  5
168
330
1
100
AcDbSymbolTableRecord
100
AcDbBlockTableRecord
  2
*D9
340
0
  0
ENDTAB
  0
ENDSEC
  0
SECTION
  2
BLOCKS
  0
BLOCK
  5
20
330
1F
100
AcDbEntity
  8
0
100
AcDbBlockBegin
  2
*Model_Space
 70
     0
 10
0.0
 20
0.0
 30
0.0
  3
*Model_Space
  1
*Model_Space
  0
ENDBLK
  5
21
330
1F
100
AcDbEntity
  8
0
100
AcDbBlockEnd
  0
BLOCK
  5
1C
330
1B
100
AcDbEntity
 67
     1
  8
0
100
AcDbBlockBegin
  2
*Paper_Space
 70
     0
 10
0.0
 20
0.0
 30
0.0
  3
*Paper_Space
  1
*Paper_Space
  0
ENDBLK
  5
1D
330
1B
100
AcDbEntity
 67
     1
  8
0
100
AcDbBlockEnd
  0
BLOCK
  5
24
330
23
100
AcDbEntity
  8
0
100
AcDbBlockBegin
  2
*Paper_Space0
 70
     0
 10
0.0
 20
0.0
 30
0.0
  3
*Paper_Space0
  1
*Paper_Space0
  0
ENDBLK
  5
25
330
23
100
AcDbEntity
  8
0
100
AcDbBlockEnd
  0
BLOCK
  5
7F
330
7E
100
AcDbEntity
  8
0
100
AcDbBlockBegin
  2
블럭10
 70
     2
 10
0.0
 20
0.0
 30
0.0
  3
블럭10
  1
블럭10
  0
ELLIPSE
  5
81
330
7E
100
AcDbEntity
  8
중심선
100
AcDbEllipse
 10
20.54032771741204
 20
12.0471743016438
 30
0.0
 11
6.600054785286829
 21
-1.261213355974178E-13
 31
0.0
210
0.0
220
0.0
230
1.0
 40
0.636358354079598
 41
0.9219305317359503
 42
6.513795318482858
  0
ELLIPSE
  5
82
330
7E
100
AcDbEntity
  8
중심선
100
AcDbEllipse
 10
20.54032771746488
 20
12.04717430159265
 30
0.0
 11
3.960054785062283
 21
1.540847449632565E-10
 31
0.0
210
0.0
220
0.0
230
1.0
 40
0.3939339440162632
 41
1.131841032648279
 42
5.62031148352944
  0
LINE
  5
83
330
7E
100
AcDbEntity
  8
중심선
100
AcDbLine
 10
2.268634060543552
 20
16.24717430164393
 30
0.0
 11
5.714909304380834
 21
16.24717430164393
 31
0.0
  0
LINE
  5
84
330
7E
100
AcDbEntity
  8
중심선
100
AcDbLine
 10
5.245725140726316
 20
7.84717430164391
 30
0.0
 11
8.692000384563599
 21
7.84717430164391
 31
0.0
  0
LINE
  5
85
330
7E
100
AcDbEntity
  8
중심선
100
AcDbLine
 10
15.74043728645272
 20
16.24717430164393
 30
0.0
 11
8.692000384563599
 21
7.84717430164391
 31
0.0
  0
LINE
  5
86
330
7E
100
AcDbEntity
  8
중심선
100
AcDbLine
 10
0.1404042013395286
 20
13.71084872107135
 30
0.0
 11
3.58671253028996
 21
13.71088815037384
 31
0.0
  0
LINE
  5
87
330
7E
100
AcDbEntity
  8
중심선
100
AcDbLine
 10
2.750260043222114
 20
10.84717430164391
 30
0.0
 11
6.196535287059397
 21
10.84717430164391
 31
0.0
  0
LINE
  5
88
330
7E
100
AcDbEntity
  8
중심선
100
AcDbLine
 10
12.29416204261559
 20
16.24717430164393
 30
0.0
 11
5.245725140726316
 21
7.84717430164391
 31
0.0
  0
LINE
  5
89
330
7E
100
AcDbEntity
  8
중심선
100
AcDbLine
 10
10.72767329541681
 20
16.24717430164393
 30
0.0
 11
6.196535287059397
 21
10.84717430164391
 31
0.0
  0
LINE
  5
8A
330
7E
100
AcDbEntity
  8
중심선
100
AcDbLine
 10
7.28139805157953
 20
16.24717430164393
 30
0.0
 11
2.750260043222114
 21
10.84717430164391
 31
0.0
  0
LINE
  5
8B
330
7E
100
AcDbEntity
  8
중심선
100
AcDbLine
 10
5.714909304380834
 20
16.24717430164393
 30
0.0
 11
3.58671253028996
 21
13.71088815037384
 31
0.0
  0
LINE
  5
8C
330
7E
100
AcDbEntity
  8
중심선
100
AcDbLine
 10
2.268634060543552
 20
16.24717430164393
 30
0.0
 11
0.1404042013395286
 21
13.71084872107135
 31
0.0
  0
LINE
  5
8D
330
7E
100
AcDbEntity
  8
중심선
100
AcDbLine
 10
7.28139805157953
 20
16.24717430164393
 30
0.0
 11
10.72767329541681
 21
16.24717430164393
 31
0.0
  0
LINE
  5
8E
330
7E
100
AcDbEntity
  8
중심선
100
AcDbLine
 10
12.29416204261559
 20
16.24717430164393
 30
0.0
 11
15.74043728645272
 21
16.24717430164393
 31
0.0
  0
LINE
  5
8F
330
7E
100
AcDbEntity
  8
중심선
100
AcDbLine
 10
19.22036997980202
 20
11.08717430171403
 30
0.0
 11
23.66174974927406
 21
11.08717430171406
 31
0.0
  0
LINE
  5
90
330
7E
100
AcDbEntity
  8
중심선
100
AcDbLine
 10
19.22039502424796
 20
13.00717430171391
 30
0.0
 11
19.22036997980202
 21
11.08717430171403
 31
0.0
  0
LINE
  5
91
330
7E
100
AcDbEntity
  8
중심선
100
AcDbLine
 10
19.22039502424796
 20
13.00717430171391
 30
0.0
 11
26.96566020931264
 21
13.00717430171391
 31
0.0
  0
LINE
  5
92
330
7E
100
AcDbEntity
  8
중심선
100
AcDbLine
 10
22.22332737316547
 20
13.45928029700563
 30
0.0
 11
24.52862924686651
 21
15.39360700705356
 31
0.0
  0
ATTDEF
  5
94
330
7E
100
AcDbEntity
  8
FORMAT
 62
     2
100
AcDbText
 10
-9.18129528874128
 20
2.075366912832191
 30
0.0
 40
4.233333333333333
  1
E5077516 [ 3 FLUTE ]
 41
0.75
  7
SLDTEXTSTYLE0
 11
-9.18129528874128
 21
-0.0412997538344756
 31
0.0
100
AcDbAttributeDefinition
  3

  2
AUTOATTR0
 70
     0
 74
     1
  0
ENDBLK
  5
80
330
7E
100
AcDbEntity
  8
0
100
AcDbBlockEnd
  0
BLOCK
  5
DA
330
D9
100
AcDbEntity
  8
0
100
AcDbBlockBegin
  2
_D
 70
     0
 10
0.0
 20
0.0
 30
0.0
  3
_D
  1
_D
  0
LINE
  5
DC
330
D9
100
AcDbEntity
  8
치수문자_일반주서
 62
     0
370
    -2
100
AcDbLine
 10
41.6249081826537
 20
3.221081718727604
 30
0.0
 11
41.6249081826537
 21
58.73982095945037
 31
0.0
  0
LINE
  5
DD
330
D9
100
AcDbEntity
  8
치수문자_일반주서
 62
     0
370
    -2
100
AcDbLine
 10
9.874908182653714
 20
6.020100218762184
 30
0.0
 11
9.874908182653716
 21
58.73982095945037
 31
0.0
  0
LINE
  5
DE
330
D9
100
AcDbEntity
  8
치수문자_일반주서
 62
     0
370
    -2
100
AcDbLine
 10
38.3229081826537
 20
58.73982095945037
 30
0.0
 11
13.17690818265372
 21
58.73982095945037
 31
0.0
  0
SOLID
  5
DF
330
D9
100
AcDbEntity
  8
치수문자_일반주서
 62
     0
100
AcDbTrace
 10
38.3229081826537
 20
58.18948762611704
 30
0.0
 11
38.3229081826537
 21
59.2901542927837
 31
0.0
 12
41.6249081826537
 22
58.73982095945037
 32
0.0
 13
41.6249081826537
 23
58.73982095945037
 33
0.0
  0
SOLID
  5
E0
330
D9
100
AcDbEntity
  8
치수문자_일반주서
 62
     0
100
AcDbTrace
 10
13.17690818265372
 20
59.2901542927837
 30
0.0
 11
13.17690818265372
 21
58.18948762611704
 31
0.0
 12
9.874908182653716
 22
58.73982095945037
 32
0.0
 13
9.874908182653716
 23
58.73982095945037
 33
0.0
  0
MTEXT
  5
E1
330
D9
100
AcDbEntity
  8
치수문자_일반주서
 62
     0
100
AcDbMText
 10
27.60040766839552
 20
63.11482095945037
 30
0.0
 40
3.5
 41
0.0
 71
     2
 72
     1
  1
\A1;31.75 [1 1/4]
  7
SLDTEXTSTYLE0
 73
     1
 44
1.0
  0
POINT
  5
E2
330
D9
100
AcDbEntity
  8
Defpoints
 62
     0
100
AcDbPoint
 10
41.6249081826537
 20
3.158581718727604
 30
0.0
  0
POINT
  5
E3
330
D9
100
AcDbEntity
  8
Defpoints
 62
     0
100
AcDbPoint
 10
9.874908182653714
 20
5.957600218762184
 30
0.0
  0
POINT
  5
E4
330
D9
100
AcDbEntity
  8
Defpoints
 62
     0
100
AcDbPoint
 10
9.874908182653714
 20
58.73982095945037
 30
0.0
  0
ENDBLK
  5
DB
330
D9
100
AcDbEntity
  8
0
100
AcDbBlockEnd
  0
BLOCK
  5
F0
330
EF
100
AcDbEntity
  8
0
100
AcDbBlockBegin
  2
_D_1
 70
     0
 10
0.0
 20
0.0
 30
0.0
  3
_D_1
  1
_D_1
  0
LINE
  5
F2
330
EF
100
AcDbEntity
  8
치수문자_일반주서
 62
     0
370
    -2
100
AcDbLine
 10
41.6249081826537
 20
3.221081718727604
 30
0.0
 11
41.6249081826537
 21
75.81251644782087
 31
0.0
  0
LINE
  5
F3
330
EF
100
AcDbEntity
  8
치수문자_일반주서
 62
     0
370
    -2
100
AcDbLine
 10
-59.9750918173463
 20
5.607335151814103
 30
0.0
 11
-59.9750918173463
 21
75.81251644782087
 31
0.0
  0
LINE
  5
F4
330
EF
100
AcDbEntity
  8
치수문자_일반주서
 62
     0
370
    -2
100
AcDbLine
 10
38.3229081826537
 20
75.81251644782087
 30
0.0
 11
-56.6730918173463
 21
75.81251644782087
 31
0.0
  0
SOLID
  5
F5
330
EF
100
AcDbEntity
  8
치수문자_일반주서
 62
     0
100
AcDbTrace
 10
38.3229081826537
 20
75.26218311448754
 30
0.0
 11
38.3229081826537
 21
76.3628497811542
 31
0.0
 12
41.6249081826537
 22
75.81251644782087
 32
0.0
 13
41.6249081826537
 23
75.81251644782087
 33
0.0
  0
SOLID
  5
F6
330
EF
100
AcDbEntity
  8
치수문자_일반주서
 62
     0
100
AcDbTrace
 10
-56.6730918173463
 20
76.3628497811542
 30
0.0
 11
-56.6730918173463
 21
75.26218311448754
 31
0.0
 12
-59.9750918173463
 22
75.81251644782087
 32
0.0
 13
-59.9750918173463
 23
75.81251644782087
 33
0.0
  0
MTEXT
  5
F7
330
EF
100
AcDbEntity
  8
치수문자_일반주서
 62
     0
100
AcDbMText
 10
-3.721407797071919
 20
80.18751644782087
 30
0.0
 40
3.5
 41
0.0
 71
     2
 72
     1
  1
\A1;101.60 [4]
  7
SLDTEXTSTYLE0
 73
     1
 44
1.0
  0
POINT
  5
F8
330
EF
100
AcDbEntity
  8
Defpoints
 62
     0
100
AcDbPoint
 10
41.6249081826537
 20
3.158581718727604
 30
0.0
  0
POINT
  5
F9
330
EF
100
AcDbEntity
  8
Defpoints
 62
     0
100
AcDbPoint
 10
-59.9750918173463
 20
5.544835151814103
 30
0.0
  0
POINT
  5
FA
330
EF
100
AcDbEntity
  8
Defpoints
 62
     0
100
AcDbPoint
 10
-59.9750918173463
 20
75.81251644782087
 30
0.0
  0
ENDBLK
  5
F1
330
EF
100
AcDbEntity
  8
0
100
AcDbBlockEnd
  0
BLOCK
  5
104
330
103
100
AcDbEntity
  8
0
100
AcDbBlockBegin
  2
_NONE
 70
     0
 10
0.0
 20
0.0
 30
0.0
  3
_NONE
  1
_NONE
  0
ENDBLK
  5
105
330
103
100
AcDbEntity
  8
0
100
AcDbBlockEnd
  0
BLOCK
  5
107
330
106
100
AcDbEntity
  8
0
100
AcDbBlockBegin
  2
_D_2
 70
     0
 10
0.0
 20
0.0
 30
0.0
  3
_D_2
  1
_D_2
  0
LINE
  5
109
330
106
100
AcDbEntity
  8
치수문자_일반주서
100
AcDbLine
 10
-83.76797353338904
 20
-11.75953127925462
 30
0.0
 11
-83.76797353338904
 21
-12.47046876481912
 31
0.0
  0
LINE
  5
10A
330
106
100
AcDbEntity
  8
치수문자_일반주서
100
AcDbLine
 10
-83.76797353338904
 20
-12.47046876481912
 30
0.0
 11
-78.21172354232974
 21
-12.47046876481908
 31
0.0
  0
LINE
  5
10B
330
106
100
AcDbEntity
  8
치수문자_일반주서
100
AcDbLine
 10
-78.21172354232974
 20
-12.47046876481908
 30
0.0
 11
-78.21172354232974
 21
-11.75953127925458
 31
0.0
  0
LINE
  5
10C
330
106
100
AcDbEntity
  8
치수문자_일반주서
100
AcDbLine
 10
-83.76797353338912
 20
-0.9307984171173598
 30
0.0
 11
-83.76797353338912
 21
-0.2198609315528597
 31
0.0
  0
LINE
  5
10D
330
106
100
AcDbEntity
  8
치수문자_일반주서
100
AcDbLine
 10
-83.76797353338912
 20
-0.2198609315528597
 30
0.0
 11
-78.21172354232982
 21
-0.2198609315528205
 31
0.0
  0
LINE
  5
10E
330
106
100
AcDbEntity
  8
치수문자_일반주서
100
AcDbLine
 10
-78.21172354232982
 20
-0.2198609315528205
 30
0.0
 11
-78.21172354232982
 21
-0.9307984171173207
 31
0.0
  0
MTEXT
  5
10F
330
106
100
AcDbEntity
  8
치수문자_일반주서
100
AcDbMText
 10
-82.72346045690865
 20
-10.87085937864324
 30
0.0
 40
3.5
 41
0.0
 71
     1
 72
     1
  1
0.00
  7
SLDTEXTSTYLE0
 11
-7.044195017643634E-15
 21
1.0
 31
0.0
 73
     1
 44
1.0
  0
MTEXT
  5
110
330
106
100
AcDbEntity
  8
치수문자_일반주서
100
AcDbMText
 10
-77.48682890654818
 20
-10.27743926054971
 30
0.0
 40
3.5
 41
0.0
 71
     1
 72
     1
  1
%%c
  7
SLDTEXTSTYLE0
 11
-7.044195017643634E-15
 21
1.0
 31
0.0
 73
     1
 44
1.0
  0
MTEXT
  5
111
330
106
100
AcDbEntity
  8
치수문자_일반주서
100
AcDbMText
 10
-77.48682890654823
 20
-4.999001862175633
 30
0.0
 40
3.5
 41
0.0
 71
     1
 72
     1
  1
0
  7
SLDTEXTSTYLE0
 11
-7.044195017643634E-15
 21
1.0
 31
0.0
 73
     1
 44
1.0
  0
ENDBLK
  5
108
330
106
100
AcDbEntity
  8
0
100
AcDbBlockEnd
  0
BLOCK
  5
113
330
112
100
AcDbEntity
  8
0
100
AcDbBlockBegin
  2
SW_DOWELSYMBOL_0
 70
     0
 10
0.0
 20
0.0
 30
0.0
  3
SW_DOWELSYMBOL_0
  1
SW_DOWELSYMBOL_0
  0
CIRCLE
  5
115
330
112
100
AcDbEntity
  8
외형선
 62
     0
100
AcDbCircle
 10
0.0
 20
0.0
 30
0.0
 40
3.000000000000004
  0
HATCH
  5
116
330
112
100
AcDbEntity
  8
0
  6
Continuous
 62
     0
370
    30
100
AcDbHatch
 10
0.0
 20
0.0
 30
0.0
210
0.0
220
0.0
230
1.0
  2
SOLID
 70
     1
 71
     0
 91
        1
 92
        0
 93
        3
 72
     2
 10
-0.0000000000000013
 20
-0.0000000000000039
 40
3.000000000000004
 50
0.0
 51
90.0
 73
     1
 72
     1
 10
-0.0000000000000013
 20
3.0
 11
-0.0000000000000013
 21
-0.000000000000004
 72
     1
 10
-0.0000000000000013
 20
-0.0000000000000039
 11
3.000000000000003
 21
-0.0000000000000039
 97
        0
 75
     0
 76
     1
 98
        1
 10
0.0
 20
0.0
  0
HATCH
  5
117
330
112
100
AcDbEntity
  8
0
  6
Continuous
 62
     0
370
    30
100
AcDbHatch
 10
0.0
 20
0.0
 30
0.0
210
0.0
220
0.0
230
1.0
  2
SOLID
 70
     1
 71
     0
 91
        1
 92
        0
 93
        3
 72
     2
 10
-0.0000000000000013
 20
-0.0000000000000039
 40
3.000000000000004
 50
180.0
 51
270.0000000000008
 73
     1
 72
     1
 10
-0.0000000000000013
 20
-3.000000000000008
 11
-0.0000000000000013
 21
-0.000000000000004
 72
     1
 10
-0.0000000000000013
 20
-0.0000000000000039
 11
-3.000000000000006
 21
-0.0000000000000039
 97
        0
 75
     0
 76
     1
 98
        1
 10
0.0
 20
0.0
  0
ENDBLK
  5
114
330
112
100
AcDbEntity
  8
0
100
AcDbBlockEnd
  0
BLOCK
  5
142
330
141
100
AcDbEntity
  8
0
100
AcDbBlockBegin
  2
*D7
 70
     1
 10
0.0
 20
0.0
 30
0.0
  3
*D7
  1
*D7
  0
LINE
  5
144
330
141
100
AcDbEntity
  8
치수문자_일반주서
 62
     0
370
    -2
100
AcDbLine
 10
-59.22759181734631
 20
-6.345164848185908
 30
0.0
 11
-81.94784751407897
 21
-6.345164848185906
 31
0.0
  0
LINE
  5
145
330
141
100
AcDbEntity
  8
치수문자_일반주서
 62
     0
370
    -2
100
AcDbLine
 10
-59.22759181734631
 20
6.354835151814083
 30
0.0
 11
-81.94784751407897
 21
6.354835151814084
 31
0.0
  0
LINE
  5
146
330
141
100
AcDbEntity
  8
치수문자_일반주서
 62
     0
370
    -2
100
AcDbLine
 10
-81.94784751407897
 20
9.656835151814084
 30
0.0
 11
-81.94784751407897
 21
37.45883515181409
 31
0.0
  0
LINE
  5
147
330
141
100
AcDbEntity
  8
치수문자_일반주서
 62
     0
370
    -2
100
AcDbLine
 10
-81.94784751407897
 20
-6.345164848185906
 30
0.0
 11
-81.94784751407897
 21
6.354835151814084
 31
0.0
  0
LINE
  5
148
330
141
100
AcDbEntity
  8
치수문자_일반주서
 62
     0
370
    -2
100
AcDbLine
 10
-81.94784751407897
 20
-9.647164848185906
 30
0.0
 11
-81.94784751407897
 21
-12.94916484818591
 31
0.0
  0
SOLID
  5
149
330
141
100
AcDbEntity
  8
치수문자_일반주서
 62
     0
100
AcDbTrace
 10
-81.39751418074565
 20
-9.647164848185906
 30
0.0
 11
-82.4981808474123
 21
-9.647164848185906
 31
0.0
 12
-81.94784751407897
 22
-6.345164848185906
 32
0.0
 13
-81.94784751407897
 23
-6.345164848185906
 33
0.0
  0
SOLID
  5
14A
330
141
100
AcDbEntity
  8
치수문자_일반주서
 62
     0
100
AcDbTrace
 10
-82.4981808474123
 20
9.656835151814084
 30
0.0
 11
-81.39751418074565
 21
9.656835151814084
 31
0.0
 12
-81.94784751407897
 22
6.354835151814084
 32
0.0
 13
-81.94784751407897
 23
6.354835151814084
 33
0.0
  0
MTEXT
  5
14B
330
141
100
AcDbEntity
  8
치수문자_일반주서
 62
     0
100
AcDbMText
 10
-84.57284751407897
 20
25.20883515181409
 30
0.0
 40
3.5
 41
0.0
 71
     5
 72
     1
  1
\A1;{%%c12.7 [1/2]}
  7
SLDTEXTSTYLE0
 11
0.0
 21
1.0
 31
0.0
 73
     1
 44
1.0
  0
POINT
  5
14C
330
141
100
AcDbEntity
  8
Defpoints
 62
     0
100
AcDbPoint
 10
-59.16509181734631
 20
-6.345164848185908
 30
0.0
  0
POINT
  5
14D
330
141
100
AcDbEntity
  8
Defpoints
 62
     0
100
AcDbPoint
 10
-59.16509181734631
 20
6.354835151814083
 30
0.0
  0
POINT
  5
14E
330
141
100
AcDbEntity
  8
Defpoints
 62
     0
100
AcDbPoint
 10
-81.94784751407897
 20
6.354835151814084
 30
0.0
  0
ENDBLK
  5
143
330
141
100
AcDbEntity
  8
0
100
AcDbBlockEnd
  0
BLOCK
  5
155
330
154
100
AcDbEntity
  8
0
100
AcDbBlockBegin
  2
*D8
 70
     1
 10
0.0
 20
0.0
 30
0.0
  3
*D8
  1
*D8
  0
LINE
  5
157
330
154
100
AcDbEntity
  8
치수문자_일반주서
 62
     0
370
    -2
100
AcDbLine
 10
41.6874081826537
 20
3.179835151814097
 30
0.0
 11
58.97675829121049
 21
3.179835151814096
 31
0.0
  0
LINE
  5
158
330
154
100
AcDbEntity
  8
치수문자_일반주서
 62
     0
370
    -2
100
AcDbLine
 10
41.6874081826537
 20
-3.170164848185913
 30
0.0
 11
58.97675829121049
 21
-3.170164848185912
 31
0.0
  0
LINE
  5
159
330
154
100
AcDbEntity
  8
치수문자_일반주서
 62
     0
370
    -2
100
AcDbLine
 10
58.97675829121049
 20
3.179835151814096
 30
0.0
 11
58.97675829121049
 21
45.44179486952598
 31
0.0
  0
LINE
  5
15A
330
154
100
AcDbEntity
  8
치수문자_일반주서
 62
     0
370
    -2
100
AcDbLine
 10
58.97675829121049
 20
3.179835151814096
 30
0.0
 11
58.97675829121049
 21
-3.170164848185912
 31
0.0
  0
LINE
  5
15B
330
154
100
AcDbEntity
  8
치수문자_일반주서
 62
     0
370
    -2
100
AcDbLine
 10
58.97675829121049
 20
6.481835151814096
 30
0.0
 11
58.97675829121049
 21
9.783835151814095
 31
0.0
  0
LINE
  5
15C
330
154
100
AcDbEntity
  8
치수문자_일반주서
 62
     0
370
    -2
100
AcDbLine
 10
58.97675829121049
 20
-6.472164848185912
 30
0.0
 11
58.97675829121049
 21
-9.774164848185912
 31
0.0
  0
SOLID
  5
15D
330
154
100
AcDbEntity
  8
치수문자_일반주서
 62
     0
100
AcDbTrace
 10
58.42642495787715
 20
6.481835151814096
 30
0.0
 11
59.52709162454382
 21
6.481835151814096
 31
0.0
 12
58.97675829121049
 22
3.179835151814096
 32
0.0
 13
58.97675829121049
 23
3.179835151814096
 33
0.0
  0
SOLID
  5
15E
330
154
100
AcDbEntity
  8
치수문자_일반주서
 62
     0
100
AcDbTrace
 10
59.52709162454382
 20
-6.472164848185912
 30
0.0
 11
58.42642495787715
 21
-6.472164848185912
 31
0.0
 12
58.97675829121049
 22
-3.170164848185912
 32
0.0
 13
58.97675829121049
 23
-3.170164848185912
 33
0.0
  0
MTEXT
  5
15F
330
154
100
AcDbEntity
  8
치수문자_일반주서
 62
     0
100
AcDbMText
 10
56.35175829121049
 20
32.75429486952598
 30
0.0
 40
3.5
 41
0.0
 71
     5
 72
     1
  1
\A1;{%%c6.35 [1/4]}
  7
SLDTEXTSTYLE0
 11
0.0
 21
1.0
 31
0.0
 73
     1
 44
1.0
  0
POINT
  5
160
330
154
100
AcDbEntity
  8
Defpoints
 62
     0
100
AcDbPoint
 10
41.6249081826537
 20
3.179835151814097
 30
0.0
  0
POINT
  5
161
330
154
100
AcDbEntity
  8
Defpoints
 62
     0
100
AcDbPoint
 10
41.6249081826537
 20
-3.170164848185913
 30
0.0
  0
POINT
  5
164
330
154
100
AcDbEntity
  8
Defpoints
 62
     0
100
AcDbPoint
 10
58.97675829121049
 20
-3.170164848185914
 30
0.0
  0
ENDBLK
  5
156
330
154
100
AcDbEntity
  8
0
100
AcDbBlockEnd
  0
BLOCK
  5
169
330
168
100
AcDbEntity
  8
0
100
AcDbBlockBegin
  2
*D9
 70
     1
 10
0.0
 20
0.0
 30
0.0
  3
*D9
  1
*D9
  0
LINE
  5
16B
330
168
100
AcDbEntity
  8
치수문자_일반주서
 62
     0
370
    -2
100
AcDbLine
 10
21.24586385839142
 20
11.57849689056172
 30
0.0
 11
22.29639161132818
 21
16.72231759508765
 31
0.0
  0
LINE
  5
16C
330
168
100
AcDbEntity
  8
치수문자_일반주서
 62
     0
370
    -2
100
AcDbLine
 10
19.41644516319892
 20
5.122823900351104
 30
0.0
 11
20.29618257494916
 21
5.04585684994332
 31
0.0
  0
ARC
  5
16D
330
168
100
AcDbEntity
  8
치수문자_일반주서
 62
     0
370
    -2
100
AcDbCircle
 10
77.91532424392123
 20
0.0048351518140839
 30
0.0
 40
57.83923742953467
100
AcDbArc
 50
168.4571625159523
 51
171.7285812579762
  0
ARC
  5
16E
330
168
100
AcDbEntity
  8
치수문자_일반주서
 62
     0
370
    -2
100
AcDbCircle
 10
77.91532424392123
 20
0.0048351518140839
 30
0.0
 40
57.83923742953467
100
AcDbArc
 50
183.2714187420238
 51
186.5428374840477
  0
ARC
  5
16F
330
168
100
AcDbEntity
  8
치수문자_일반주서
 62
     0
370
    -2
100
AcDbCircle
 10
77.91532424392123
 20
0.0048351518140839
 30
0.0
 40
57.83923742953467
100
AcDbArc
 50
175.0
 51
180.0
  0
SOLID
  5
170
330
168
100
AcDbEntity
  8
치수문자_일반주서
 62
     0
100
AcDbTrace
 10
20.13110267556368
 20
8.389331001869225
 30
0.0
 11
21.22439590858752
 21
8.262142096160412
 31
0.0
 12
20.29618257494916
 22
5.04585684994332
 32
0.0
 13
20.29618257494916
 23
5.04585684994332
 33
0.0
  0
SOLID
  5
171
330
168
100
AcDbEntity
  8
치수문자_일반주서
 62
     0
100
AcDbTrace
 10
20.72045028653277
 20
-3.280110280539618
 30
0.0
 11
19.62023212078854
 21
-3.31152841029765
 31
0.0
 12
20.07608681438656
 22
0.0048351518140839
 32
0.0
 13
20.07608681438656
 23
0.0048351518140839
 33
0.0
  0
MTEXT
  5
172
330
168
100
AcDbEntity
  8
치수문자_일반주서
 62
     0
100
AcDbMText
 10
19.19921738259684
 20
14.67567111929307
 30
0.0
 40
3.5
 41
0.0
 71
     5
 72
     1
  1
\A1;5%%d
  7
SLDTEXTSTYLE0
 11
0.2001005243689077
 21
0.9797753722906533
 31
0.0
 73
     1
 44
1.0
  0
POINT
  5
173
330
168
100
AcDbEntity
  8
Defpoints
 62
     0
100
AcDbPoint
 10
20.10055569902671
 20
1.687073104768138
 30
0.0
  0
POINT
  5
174
330
168
100
AcDbEntity
  8
Defpoints
 62
     0
100
AcDbPoint
 10
19.35418299456818
 20
5.128271134272833
 30
0.0
  0
POINT
  5
175
330
168
100
AcDbEntity
  8
Defpoints
 62
     0
100
AcDbPoint
 10
-62.97509181734628
 20
0.0048351518140866
 30
0.0
  0
POINT
  5
176
330
168
100
AcDbEntity
  8
Defpoints
 62
     0
100
AcDbPoint
 10
44.62490428620232
 20
0.0048351518140866
 30
0.0
  0
POINT
  5
177
330
168
100
AcDbEntity
  8
Defpoints
 62
     0
100
AcDbPoint
 10
13.49023170413728
 20
5.641300395653749
 30
0.0
  0
ENDBLK
  5
16A
330
168
100
AcDbEntity
  8
0
100
AcDbBlockEnd
  0
ENDSEC
  0
SECTION
  2
ENTITIES
  0
LINE
  5
95
330
1F
100
AcDbEntity
  8
0
  6
Continuous
 62
     1
370
    15
100
AcDbLine
 10
18.02319310591323
 20
-5.235047357169581
 30
0.0
 11
23.66795021316509
 21
-4.741195101927654
 31
0.0
  0
LINE
  5
96
330
1F
100
AcDbEntity
  8
0
  6
Continuous
 62
     1
370
    15
100
AcDbLine
 10
10.69217252120211
 20
5.886098854035187
 30
0.0
 11
9.874908182653714
 21
5.957600218762184
 31
0.0
  0
LINE
  5
97
330
1F
100
AcDbEntity
  8
0
  6
Continuous
 62
     1
370
    15
100
AcDbLine
 10
36.48111597412968
 20
3.629858657592924
 30
0.0
 11
31.75584498674121
 21
4.043266301077365
 31
0.0
  0
LINE
  5
98
102
{ACAD_REACTORS
102
}
330
1F
100
AcDbEntity
  8
0
  6
Continuous
 62
     4
370
    15
100
AcDbLine
 10
8.582903140970565
 20
6.354835151814092
 30
0.0
 11
-59.16509181734631
 21
6.354835151814083
 31
0.0
  0
LINE
  5
99
102
{ACAD_REACTORS
102
}
330
1F
100
AcDbEntity
  8
0
  6
Continuous
 62
     4
370
    15
100
AcDbLine
 10
-59.16509181734631
 20
-6.345164848185908
 30
0.0
 11
8.3549081826537
 21
-6.3451648481859
 31
0.0
  0
LINE
  5
9A
330
1F
100
AcDbEntity
  8
0
  6
Continuous
 62
     4
370
    15
100
AcDbLine
 10
-59.16509181734631
 20
6.354835151814082
 30
0.0
 11
-59.9750918173463
 21
5.544835151814102
 31
0.0
  0
LINE
  5
9B
330
1F
100
AcDbEntity
  8
0
  6
Continuous
 62
     4
370
    15
100
AcDbLine
 10
-59.9750918173463
 20
-5.535164848185929
 30
0.0
 11
-59.16509181734631
 21
-6.345164848185909
 31
0.0
  0
LINE
  5
9C
330
1F
100
AcDbEntity
  8
0
  6
Continuous
 62
     1
370
    15
100
AcDbLine
 10
36.40411585605129
 20
-3.626924991386748
 30
0.0
 11
40.22134326236482
 21
-3.292960867233848
 31
0.0
  0
LINE
  5
9D
330
1F
100
AcDbEntity
  8
0
  6
Continuous
 62
     1
370
    15
100
AcDbLine
 10
9.874908182653714
 20
-5.947929915133992
 30
0.0
 11
15.02909309412179
 21
-5.496997165664166
 31
0.0
  0
LINE
  5
9E
330
1F
100
AcDbEntity
  8
0
  6
Continuous
 62
     1
370
    15
100
AcDbLine
 10
27.96191012495888
 20
4.375192591639113
 30
0.0
 11
22.5756320980042
 21
4.846430857596428
 31
0.0
  0
LINE
  5
9F
330
1F
100
AcDbEntity
  8
0
  6
Continuous
 62
     4
370
    15
100
AcDbLine
 10
8.974444087501693
 20
-6.008467454243252
 30
0.0
 11
9.874908182653716
 21
-5.947929915133992
 31
0.0
  0
LINE
  5
A0
330
1F
100
AcDbEntity
  8
0
  6
Continuous
 62
     4
370
    15
100
AcDbLine
 10
9.874908182653714
 20
5.957600218762184
 30
0.0
 11
8.858908182653703
 21
6.025905151814096
 31
0.0
  0
LINE
  5
A1
330
1F
100
AcDbEntity
  8
0
  6
Continuous
 62
     1
370
    15
100
AcDbLine
 10
27.14523695253727
 20
-4.436971932403564
 30
0.0
 11
32.23630494003527
 21
-3.991561198257748
 31
0.0
  0
LINE
  5
A2
102
{ACAD_REACTORS
102
}
330
1F
100
AcDbEntity
  8
0
  6
Continuous
 62
     1
370
    15
100
AcDbLine
 10
19.35418299456818
 20
5.128271134272833
 30
0.0
 11
13.49023170413728
 21
5.641300395653749
 31
0.0
  0
LINE
  5
A3
102
{ACAD_REACTORS
102
}
330
1F
100
AcDbEntity
  8
0
  6
Continuous
 62
     1
370
    15
100
AcDbLine
 10
41.6249081826537
 20
3.179835151814097
 30
0.0
 11
41.11362129350524
 21
3.224566958424023
 31
0.0
  0
LINE
  5
A4
330
1F
100
AcDbEntity
  8
0
  6
Continuous
 62
     4
370
    15
100
AcDbLine
 10
8.858908182653703
 20
6.025905151814096
 30
0.0
 11
8.582903140970565
 21
6.354835151814087
 31
0.0
  0
SPLINE
  5
A5
330
1F
100
AcDbEntity
  8
0
  6
Continuous
 62
     4
370
    15
100
AcDbSpline
210
0.0
220
0.0
230
1.0
 70
     8
 71
     3
 72
     8
 73
     4
 74
     0
 42
0.000000001
 43
0.00000001
 40
0.0
 40
0.0
 40
0.0
 40
0.0
 40
1.0
 40
1.0
 40
1.0
 40
1.0
 10
9.874908182653714
 20
-1.90658421567526
 30
0.0
 10
9.53379968626163
 20
-1.449212003982534
 30
0.0
 10
9.197458806418622
 20
-0.9736779862949659
 30
0.0
 10
8.858908182653705
 20
-0.4846716663180397
 30
0.0
  0
SPLINE
  5
A6
330
1F
100
AcDbEntity
  8
0
  6
Continuous
 62
     4
370
    15
100
AcDbSpline
210
0.0
220
0.0
230
1.0
 70
     8
 71
     3
 72
     8
 73
     4
 74
     0
 42
0.000000001
 43
0.00000001
 40
0.0
 40
0.0
 40
0.0
 40
0.0
 40
1.0
 40
1.0
 40
1.0
 40
1.0
 10
8.858908182653705
 20
-0.4846716663180397
 30
0.0
 10
8.763023827827213
 20
-0.3715293457805541
 30
0.0
 10
8.671553575538477
 20
-0.247424441426516
 30
0.0
 10
8.582903140970567
 20
-0.1141463460984492
 30
0.0
  0
SPLINE
  5
A7
330
1F
100
AcDbEntity
  8
0
  6
Continuous
 62
     4
370
    15
100
AcDbSpline
210
0.0
220
0.0
230
1.0
 70
     8
 71
     3
 72
     8
 73
     4
 74
     0
 42
0.000000001
 43
0.00000001
 40
0.0
 40
0.0
 40
0.0
 40
0.0
 40
0.0004168895301882
 40
0.0004168895301882
 40
0.0004168895301882
 40
0.0004168895301882
 10
8.582903140970565
 20
-0.1141463460984536
 30
0.0
 10
8.506897673862975
 20
0.0021686654214698
 30
0.0
 10
8.430885098838196
 20
0.118582898256691
 30
0.0
 10
8.354908182653698
 20
0.2348606157892836
 30
0.0
  0
SPLINE
  5
A8
330
1F
100
AcDbEntity
  8
0
  6
Continuous
 62
     4
370
    15
100
AcDbSpline
210
0.0
220
0.0
230
1.0
 70
     8
 71
     3
 72
     8
 73
     4
 74
     0
 42
0.000000001
 43
0.00000001
 40
0.0
 40
0.0
 40
0.0
 40
0.0
 40
0.0004062461580886
 40
0.0004062461580886
 40
0.0004062461580886
 40
0.0004062461580886
 10
8.354908182653698
 20
3.952810243461879
 30
0.0
 10
8.430912035774318
 20
3.865029636733635
 30
0.0
 10
8.50692339319475
 20
3.775376515031903
 30
0.0
 10
8.582903140970565
 20
3.684017349360099
 30
0.0
  0
SPLINE
  5
A9
330
1F
100
AcDbEntity
  8
0
  6
Continuous
 62
     4
370
    15
100
AcDbSpline
210
0.0
220
0.0
230
1.0
 70
     8
 71
     3
 72
     8
 73
     4
 74
     0
 42
0.000000001
 43
0.00000001
 40
0.0
 40
0.0
 40
0.0
 40
0.0
 40
1.0
 40
1.0
 40
1.0
 40
1.0
 10
8.582903140970565
 20
3.684017349360095
 30
0.0
 10
8.676209204632977
 20
3.507046324800363
 30
0.0
 10
8.768237929335639
 20
3.329681317762391
 30
0.0
 10
8.858908182653705
 20
3.151911231626216
 30
0.0
  0
SPLINE
  5
AA
330
1F
100
AcDbEntity
  8
0
  6
Continuous
 62
     4
370
    15
100
AcDbSpline
210
0.0
220
0.0
230
1.0
 70
     8
 71
     3
 72
     8
 73
     4
 74
     0
 42
0.000000001
 43
0.00000001
 40
0.0
 40
0.0
 40
0.0
 40
0.0
 40
1.0
 40
1.0
 40
1.0
 40
1.0
 10
8.858908182653703
 20
3.151911231626216
 30
0.0
 10
9.196915797562866
 20
2.737892476691913
 30
0.0
 10
9.534251260860774
 20
2.300422247659022
 30
0.0
 10
9.874908182653714
 20
1.846597844727491
 30
0.0
  0
SPLINE
  5
AB
330
1F
100
AcDbEntity
  8
0
  6
Continuous
 62
     1
370
    15
100
AcDbSpline
210
0.0
220
0.0
230
1.0
 70
     8
 71
     3
 72
    16
 73
    12
 74
     0
 42
0.000000001
 43
0.00000001
 40
0.0
 40
0.0
 40
0.0
 40
0.0
 40
0.1119576487969715
 40
0.2238313415464981
 40
0.3389470763220269
 40
0.4507739069001332
 40
0.5658865091382287
 40
0.6769386646896277
 40
0.7912505722385409
 40
0.9015899552805886
 40
1.0
 40
1.0
 40
1.0
 40
1.0
 10
9.874908182653702
 20
1.846597844727506
 30
0.0
 10
10.16740061232814
 20
1.449876995123062
 30
0.0
 10
10.75216613419926
 20
0.656732793359233
 30
0.0
 10
11.64764383547155
 20
-0.5654525968396039
 30
0.0
 10
12.55059622969164
 20
-1.736508723105838
 30
0.0
 10
13.47064826351351
 20
-2.819171292123105
 30
0.0
 10
14.38853703886362
 20
-3.741242820835951
 30
0.0
 10
15.32172822869812
 20
-4.481010170057621
 30
0.0
 10
16.25116396434279
 20
-4.98347227993465
 30
0.0
 10
17.15322748122123
 20
-5.25685439235799
 30
0.0
 10
17.74357805657248
 20
-5.231873104142008
 30
0.0
 10
18.02188505431351
 20
-5.220096258970042
 30
0.0
  0
SPLINE
  5
AC
330
1F
100
AcDbEntity
  8
0
  6
Continuous
 62
     1
370
    15
100
AcDbSpline
210
0.0
220
0.0
230
1.0
 70
     8
 71
     3
 72
    18
 73
    14
 74
     0
 42
0.000000001
 43
0.00000001
 40
0.0
 40
0.0
 40
0.0
 40
0.0
 40
0.0322403007724045
 40
0.1263310917216612
 40
0.223121874514913
 40
0.3176944440719703
 40
0.414963786544389
 40
0.510327315011355
 40
0.6083887753382317
 40
0.7049405590526133
 40
0.8041966515159907
 40
0.9008083889804477
 40
1.0
 40
1.0
 40
1.0
 40
1.0
 10
29.79316890162553
 20
3.781050291840967
 30
0.0
 10
29.91226632803576
 20
3.828054077504408
 30
0.0
 10
30.37894025908426
 20
4.012234727673651
 30
0.0
 10
31.21545520380452
 20
4.092113340648034
 30
0.0
 10
32.29512999043053
 20
4.007544328754767
 30
0.0
 10
33.40034593168813
 20
3.664391076172203
 30
0.0
 10
34.51317836582533
 20
3.112689310929701
 30
0.0
 10
35.65301774183585
 20
2.376405068261198
 30
0.0
 10
36.80416795399501
 20
1.518089026227818
 30
0.0
 10
37.98502053578318
 20
0.5846116783820517
 30
0.0
 10
39.17534835064264
 20
-0.336239453330277
 30
0.0
 10
40.39031061203022
 20
-1.205048442336318
 30
0.0
 10
41.20977660821245
 20
-1.659457304172288
 30
0.0
 10
41.62490818265383
 20
-1.889655344277573
 30
0.0
  0
SPLINE
  5
AD
330
1F
100
AcDbEntity
  8
0
  6
Continuous
 62
     1
370
    15
100
AcDbSpline
210
0.0
220
0.0
230
1.0
 70
     8
 71
     3
 72
    11
 73
     7
 74
     0
 42
0.000000001
 43
0.00000001
 40
0.0
 40
0.0
 40
0.0
 40
0.0
 40
0.1492088524332651
 40
0.4956982711287603
 40
0.7879899252752963
 40
0.9999999999999999
 40
0.9999999999999999
 40
0.9999999999999999
 40
0.9999999999999999
 10
39.54427783370961
 20
-2.467112762321888
 30
0.0
 10
39.5984715303745
 20
-2.401746675980428
 30
0.0
 10
39.77851260236704
 20
-2.18458894397249
 30
0.0
 10
40.12482892623216
 20
-1.864684477120928
 30
0.0
 10
40.54301646565515
 20
-1.571337846606444
 30
0.0
 10
40.77936344223409
 20
-1.490082180024923
 30
0.0
 10
40.87872447412588
 20
-1.455922035497335
 30
0.0
  0
SPLINE
  5
AE
330
1F
100
AcDbEntity
  8
0
  6
Continuous
 62
     1
370
    15
100
AcDbSpline
210
0.0
220
0.0
230
1.0
 70
     8
 71
     3
 72
     8
 73
     4
 74
     0
 42
0.000000001
 43
0.00000001
 40
0.0
 40
0.0
 40
0.0
 40
0.0
 40
1.0
 40
1.0
 40
1.0
 40
1.0
 10
39.54427783370963
 20
-2.467112762321884
 30
0.0
 10
39.80956821820804
 20
-2.735049084982661
 30
0.0
 10
40.07074820371607
 20
-3.002354033768475
 30
0.0
 10
40.33392550473174
 20
-3.269972077781241
 30
0.0
  0
SPLINE
  5
AF
330
1F
100
AcDbEntity
  8
0
  6
Continuous
 62
     1
370
    15
100
AcDbSpline
210
0.0
220
0.0
230
1.0
 70
     8
 71
     3
 72
    20
 73
    16
 74
     0
 42
0.000000001
 43
0.00000001
 40
0.0
 40
0.0
 40
0.0
 40
0.0
 40
0.0715921043271358
 40
0.144882948051988
 40
0.2236989178581746
 40
0.3048062831950517
 40
0.3834858010986433
 40
0.4644458688095406
 40
0.5431149754886405
 40
0.6240581403483464
 40
0.7028296685100144
 40
0.783872840521387
 40
0.8628443128651806
 40
0.9440884897788998
 40
1.0
 40
1.0
 40
1.0
 40
1.0
 10
40.33392550474636
 20
-3.269972077787799
 30
0.0
 10
40.02074712773008
 20
-3.256457481805324
 30
0.0
 10
39.38695926865385
 20
-3.229107615139504
 30
0.0
 10
38.41966869863217
 20
-2.941924618238275
 30
0.0
 10
37.4199857519985
 20
-2.459684599925456
 30
0.0
 10
36.40752178980956
 20
-1.779508724717227
 30
0.0
 10
35.39624018239564
 20
-0.953520825122804
 30
0.0
 10
34.40489797385465
 20
-0.0456191454851667
 30
0.0
 10
33.4141523792571
 20
0.9047019027424212
 30
0.0
 10
32.44177920023616
 20
1.824697254564944
 30
0.0
 10
31.46943535094717
 20
2.675020812798504
 30
0.0
 10
30.51404219922205
 20
3.394489739555728
 30
0.0
 10
29.5584540934502
 20
3.942888841242188
 30
0.0
 10
28.70928930871518
 20
4.280927681720692
 30
0.0
 10
28.17693171794498
 20
4.331703001706455
 30
0.0
 10
27.95991616795637
 20
4.352401558810928
 30
0.0
  0
SPLINE
  5
B0
330
1F
100
AcDbEntity
  8
0
  6
Continuous
 62
     1
370
    15
100
AcDbSpline
210
0.0
220
0.0
230
1.0
 70
     8
 71
     3
 72
    16
 73
    12
 74
     0
 42
0.000000001
 43
0.00000001
 40
0.0
 40
0.0
 40
0.0
 40
0.0
 40
0.0676045582688623
 40
0.1938156974277777
 40
0.3236265545802151
 40
0.45089548613028
 40
0.5817923196923676
 40
0.7101666232295841
 40
0.8421987049630748
 40
0.920699339718804
 40
1.0
 40
1.0
 40
1.0
 40
1.0
 10
16.48190538414951
 20
-5.012725690809728
 30
0.0
 10
16.32795686876841
 20
-5.09916506390116
 30
0.0
 10
15.88660143888904
 20
-5.34697834469072
 30
0.0
 10
15.15784852071387
 20
-5.51578065963025
 30
0.0
 10
14.30044640672169
 20
-5.51760567010033
 30
0.0
 10
13.44032316881465
 20
-5.265599251335891
 30
0.0
 10
12.59021061198539
 20
-4.785128197232785
 30
0.0
 10
11.73692449236658
 20
-4.083604787159723
 30
0.0
 10
11.00356918623329
 20
-3.313165148848427
 30
0.0
 10
10.38112188604721
 20
-2.569489921508648
 30
0.0
 10
10.04421543644094
 20
-2.128298372803259
 30
0.0
 10
9.874908182653703
 20
-1.906584215675246
 30
0.0
  0
LINE
  5
B1
330
1F
100
AcDbEntity
  8
0
  6
Continuous
 62
     4
370
    15
100
AcDbLine
 10
9.874908182653714
 20
5.957600218762184
 30
0.0
 11
9.874908182653714
 21
1.846597844727489
 31
0.0
  0
SPLINE
  5
B2
330
1F
100
AcDbEntity
  8
0
  6
Continuous
 62
     1
370
    15
100
AcDbSpline
210
0.0
220
0.0
230
1.0
 70
     8
 71
     3
 72
    11
 73
     7
 74
     0
 42
0.000000001
 43
0.00000001
 40
0.0
 40
0.0
 40
0.0
 40
0.0
 40
0.239910871471207
 40
0.4855143546226071
 40
0.749632977477908
 40
1.0
 40
1.0
 40
1.0
 40
1.0
 10
40.33392550473132
 20
1.896544886793731
 30
0.0
 10
40.02073662525844
 20
2.115507790823797
 30
0.0
 10
39.38692751206656
 20
2.558629156623212
 30
0.0
 10
38.41980335960127
 20
3.091240661293898
 30
0.0
 10
37.44686321358159
 20
3.488790943613136
 30
0.0
 10
36.79675383562399
 20
3.578080461189645
 30
0.0
 10
36.48038747878709
 20
3.621531917724775
 30
0.0
  0
SPLINE
  5
B3
330
1F
100
AcDbEntity
  8
0
  6
Continuous
 62
     1
370
    15
100
AcDbSpline
210
0.0
220
0.0
230
1.0
 70
     8
 71
     3
 72
    25
 73
    21
 74
     0
 42
0.000000001
 43
0.00000001
 40
0.0
 40
0.0
 40
0.0
 40
0.0
 40
0.0282990942589016
 40
0.0858317857143324
 40
0.1450125674818486
 40
0.2028947373904801
 40
0.2624331459762781
 40
0.3207006522800216
 40
0.3806337160087097
 40
0.4393205531147828
 40
0.499683511940373
 40
0.5588199181339568
 40
0.6196440879898542
 40
0.6792557250760345
 40
0.7405675693235831
 40
0.8006788194910964
 40
0.8625035886044503
 40
0.9231369244942101
 40
0.9854978903525374
 40
1.0
 40
1.0
 40
1.0
 40
1.0
 10
25.35155320830629
 20
-4.184964685120187
 30
0.0
 10
25.2024800236573
 20
-4.268869809363856
 30
0.0
 10
24.75033772102794
 20
-4.523355927489408
 30
0.0
 10
23.995645671755
 20
-4.728066136058994
 30
0.0
 10
23.09334668903466
 20
-4.786640743647522
 30
0.0
 10
22.18950662938719
 20
-4.599252289111439
 30
0.0
 10
21.29807113910834
 20
-4.188965423056649
 30
0.0
 10
20.4043942722405
 20
-3.562541923269872
 30
0.0
 10
19.52264388368383
 20
-2.75757341499393
 30
0.0
 10
18.63837596419729
 20
-1.796859799256363
 30
0.0
 10
17.76550655333565
 20
-0.7374991593462265
 30
0.0
 10
16.88990058201609
 20
0.3894351263489224
 30
0.0
 10
16.02522114504624
 20
1.516899654338849
 30
0.0
 10
15.15761183063302
 20
2.611372085287708
 30
0.0
 10
14.30050531577568
 20
3.607864758405957
 30
0.0
 10
13.4403210019838
 20
4.475402836026445
 30
0.0
 10
12.59015742658623
 20
5.165282147124509
 30
0.0
 10
11.73713655222382
 20
5.642597994449912
 30
0.0
 10
11.10644042615071
 20
5.854703518549059
 30
0.0
 10
10.75716535346945
 20
5.872398845621016
 30
0.0
 10
10.69126602056067
 20
5.875737504291078
 30
0.0
  0
ELLIPSE
  5
B4
330
1F
100
AcDbEntity
  8
0
  6
Continuous
 62
     1
370
    15
100
AcDbEllipse
 10
35.12764648945256
 20
-0.3534670406230138
 30
0.0
 11
5.231685028345105
 21
3.29766687129613
 31
0.0
210
0.0
220
0.0
230
1.0
 40
0.3337249961586599
 41
5.624507741478494
 42
5.846577019568005
  0
LINE
  5
B5
330
1F
100
AcDbEntity
  8
0
  6
Continuous
 62
     1
370
    15
100
AcDbLine
 10
39.93846857505841
 20
1.185692877787748
 30
0.0
 11
41.62490818265368
 21
0.0048351518141035
 31
0.0
  0
LINE
  5
B6
330
1F
100
AcDbEntity
  8
0
  6
Continuous
 62
     1
370
    15
100
AcDbLine
 10
41.62490818265368
 20
0.0048351518140963
 30
0.0
 11
41.6249081826537
 21
-1.889655344275966
 31
0.0
  0
LINE
  5
B7
330
1F
100
AcDbEntity
  8
0
  6
Continuous
 62
     4
370
    15
100
AcDbLine
 10
8.582903140970565
 20
6.354835151814092
 30
0.0
 11
8.582903140970565
 21
3.684017349360095
 31
0.0
  0
LINE
  5
B8
330
1F
100
AcDbEntity
  8
0
  6
Continuous
 62
     4
370
    15
100
AcDbLine
 10
8.354908182653698
 20
0.2348606157892828
 30
0.0
 11
8.354908182653698
 21
3.952810243461879
 31
0.0
  0
LINE
  5
B9
330
1F
100
AcDbEntity
  8
0
  6
Continuous
 62
     4
370
    15
100
AcDbLine
 10
8.582903140970565
 20
-0.1141463460984553
 30
0.0
 11
8.582903140970567
 21
-6.316897038886442
 31
0.0
  0
SPLINE
  5
BA
330
1F
100
AcDbEntity
  8
0
  6
Continuous
 62
     4
370
    15
100
AcDbSpline
210
0.0
220
0.0
230
1.0
 70
     8
 71
     3
 72
     8
 73
     4
 74
     0
 42
0.000000001
 43
0.00000001
 40
0.0
 40
0.0
 40
0.0
 40
0.0
 40
0.0004062461580886
 40
0.0004062461580886
 40
0.0004062461580886
 40
0.0004062461580886
 10
8.3549081826537
 20
-6.276355025277159
 30
0.0
 10
8.43091203577432
 20
-6.292809395456558
 30
0.0
 10
8.506923393194752
 20
-6.306332238341428
 30
0.0
 10
8.582903140970565
 20
-6.31689703888645
 30
0.0
  0
LINE
  5
BB
330
1F
100
AcDbEntity
  8
0
  6
Continuous
 62
     4
370
    15
100
AcDbLine
 10
8.3549081826537
 20
-6.3451648481859
 30
0.0
 11
8.3549081826537
 21
-6.27635502527716
 31
0.0
  0
LINE
  5
BC
330
1F
100
AcDbEntity
  8
0
  6
Continuous
 62
     4
370
    15
100
AcDbLine
 10
-59.16509181734631
 20
6.354835151814083
 30
0.0
 11
-59.16509181734631
 21
-6.345164848185908
 31
0.0
  0
LINE
  5
BD
330
1F
100
AcDbEntity
  8
0
  6
Continuous
 62
     4
370
    15
100
AcDbLine
 10
-59.9750918173463
 20
-5.535164848185929
 30
0.0
 11
-59.9750918173463
 21
5.544835151814102
 31
0.0
  0
LINE
  5
BE
330
1F
100
AcDbEntity
  8
0
  6
Continuous
 62
     4
370
    15
100
AcDbLine
 10
8.858908182653705
 20
-0.4846716663180397
 30
0.0
 11
8.858908182653705
 21
-6.014138420138379
 31
0.0
  0
SPLINE
  5
BF
330
1F
100
AcDbEntity
  8
0
  6
Continuous
 62
     4
370
    15
100
AcDbSpline
210
0.0
220
0.0
230
1.0
 70
     8
 71
     3
 72
     8
 73
     4
 74
     0
 42
0.000000001
 43
0.00000001
 40
0.0
 40
0.0
 40
0.0
 40
0.0
 40
1.0
 40
1.0
 40
1.0
 40
1.0
 10
8.582903140970567
 20
-6.316897038886442
 30
0.0
 10
8.676209204632979
 20
-6.219208734104638
 30
0.0
 10
8.768237929335639
 20
-6.118403345602987
 30
0.0
 10
8.858908182653707
 20
-6.01413842013838
 30
0.0
  0
SPLINE
  5
C0
330
1F
100
AcDbEntity
  8
0
  6
Continuous
 62
     1
370
    15
100
AcDbSpline
210
0.0
220
0.0
230
1.0
 70
     8
 71
     3
 72
    23
 73
    19
 74
     0
 42
0.000000001
 43
0.00000001
 40
0.0
 40
0.0
 40
0.0
 40
0.0
 40
0.0080379985570608
 40
0.0769203986791819
 40
0.1435890135144749
 40
0.2122001847374507
 40
0.278688843764794
 40
0.3471094840904988
 40
0.4135122670091536
 40
0.4818380681394634
 40
0.5482690157951156
 40
0.6166158973788134
 40
0.6832148609008868
 40
0.751724921741986
 40
0.8186648958518432
 40
0.8875136888716649
 40
0.9550135163216528
 40
1.0
 40
1.0
 40
1.0
 40
1.0
 10
20.90189211841409
 20
4.618877977093068
 30
0.0
 10
20.94000698197058
 20
4.636131153035334
 30
0.0
 10
21.30475082704037
 20
4.801237076175283
 30
0.0
 10
21.99509568817772
 20
4.882435366916727
 30
0.0
 10
22.98294409632613
 20
4.833521841870853
 30
0.0
 10
23.97067292023244
 20
4.518203489832855
 30
0.0
 10
24.97710996120859
 20
3.979432509445759
 30
0.0
 10
25.98363654156903
 20
3.250449595063074
 30
0.0
 10
27.01019715548896
 20
2.361906172048136
 30
0.0
 10
28.03814017718941
 20
1.379473540198211
 30
0.0
 10
29.0874101109395
 20
0.3424104606562267
 30
0.0
 10
30.1397427130896
 20
-0.6719479237909561
 30
0.0
 10
31.21491622373663
 20
-1.621682548082304
 30
0.0
 10
32.29529589562086
 20
-2.434722730406882
 30
0.0
 10
33.40021414780762
 20
-3.078875791237034
 30
0.0
 10
34.51354506612505
 20
-3.493505032111176
 30
0.0
 10
35.51660296795979
 20
-3.68124847947134
 30
0.0
 10
36.14880133861692
 20
-3.622192511265337
 30
0.0
 10
36.40163549592693
 20
-3.598574345435565
 30
0.0
  0
LINE
  5
C1
330
1F
100
AcDbEntity
  8
0
  6
Continuous
 62
     4
370
    15
100
AcDbLine
 10
9.874908182653714
 20
-1.90658421567526
 30
0.0
 11
9.874908182653714
 21
-5.947929915133992
 31
0.0
  0
ELLIPSE
  5
C2
330
1F
100
AcDbEntity
  8
0
  6
Continuous
 62
     1
370
    15
100
AcDbEllipse
 10
35.12764648945256
 20
0.4443578574076579
 30
0.0
 11
5.312873254460222
 21
-3.637342427286792
 31
0.0
210
0.0
220
0.0
230
1.0
 40
0.1638145549350025
 41
6.086313879445516
 42
6.165595049016355
  0
ELLIPSE
  5
C3
330
1F
100
AcDbEntity
  8
0
  6
Continuous
 62
     1
370
    15
100
AcDbEllipse
 10
41.04936819686243
 20
-0.1966635664819774
 30
0.0
 11
4.459751175221392
 21
2.254822980043387
 31
0.0
210
0.0
220
0.0
230
1.0
 40
0.511164120852866
 41
4.28534501771589
 42
4.584755499614551
  0
LINE
  5
C4
330
1F
100
AcDbEntity
  8
0
  6
Continuous
 62
     4
370
    15
100
AcDbLine
 10
8.858908182653705
 20
-6.014138420138379
 30
0.0
 11
8.9735141630944
 21
-5.994635317154541
 31
0.0
  0
SPLINE
  5
C5
330
1F
100
AcDbEntity
  8
0
  6
Continuous
 62
     1
370
    15
100
AcDbSpline
210
0.0
220
0.0
230
1.0
 70
     8
 71
     3
 72
    24
 73
    20
 74
     0
 42
0.000000001
 43
0.00000001
 40
0.0
 40
0.0
 40
0.0
 40
0.0
 40
0.03519418441062
 40
0.0992423727348766
 40
0.1651724682989391
 40
0.22877696585825
 40
0.2942484680420131
 40
0.3574447291550679
 40
0.4224933485704774
 40
0.4853292804965377
 40
0.5500039178834574
 40
0.6125343954026942
 40
0.6768910597081952
 40
0.739179389630802
 40
0.8032826454142232
 40
0.8654028430490247
 40
0.9293280862635785
 40
0.9913680500521591
 40
1.0
 40
1.0
 40
1.0
 40
1.0
 10
12.06947119950808
 20
5.424252390722424
 30
0.0
 10
12.23301935324955
 20
5.486771246254566
 30
0.0
 10
12.69420085540745
 20
5.663065133087942
 30
0.0
 10
13.47090720023855
 20
5.677987449412667
 30
0.0
 10
14.38845912373797
 20
5.485330391160868
 30
0.0
 10
15.32178728269077
 20
5.031905371030025
 30
0.0
 10
16.25100383907455
 20
4.366381654386314
 30
0.0
 10
17.1961328237034
 20
3.50533680905227
 30
0.0
 10
18.13778821634978
 20
2.509861234263838
 30
0.0
 10
19.09595671622333
 20
1.409618560130435
 30
0.0
 10
20.05132619266883
 20
0.2804813153919055
 30
0.0
 10
21.02391790195849
 20
-0.8434434188328727
 30
0.0
 10
21.99449912254467
 20
-1.88487700643727
 30
0.0
 10
22.98309448853547
 20
-2.812419164983976
 30
0.0
 10
23.97068159027198
 20
-3.560569255881437
 30
0.0
 10
24.97693374617418
 20
-4.114473890831805
 30
0.0
 10
25.98434924414341
 20
-4.406816980264247
 30
0.0
 10
26.70997243721531
 20
-4.503786721509292
 30
0.0
 10
27.09673324685571
 20
-4.431366525345426
 30
0.0
 10
27.14397266311169
 20
-4.422521038143381
 30
0.0
  0
SPLINE
  5
C6
330
1F
100
AcDbEntity
  8
0
  6
Continuous
 62
     1
370
    15
100
AcDbSpline
210
0.0
220
0.0
230
1.0
 70
     8
 71
     3
 72
    10
 73
     6
 74
     0
 42
0.000000001
 43
0.00000001
 40
0.0
 40
0.0
 40
0.0
 40
0.0
 40
0.1753104256562439
 40
0.5822222239633092
 40
1.0
 40
1.0
 40
1.0
 40
1.0
 10
38.68029288357884
 20
2.92562783693518
 30
0.0
 10
38.84942587926832
 20
2.985924294090601
 30
0.0
 10
39.41113228393474
 20
3.186174434666805
 30
0.0
 10
40.39082708244853
 20
3.290911832172447
 30
0.0
 10
41.20995027061306
 20
3.20307752015285
 30
0.0
 10
41.62490818265383
 20
3.158581718730285
 30
0.0
  0
SPLINE
  5
C7
330
1F
100
AcDbEntity
  8
0
  6
Continuous
 62
     1
370
    15
100
AcDbSpline
210
0.0
220
0.0
230
1.0
 70
     8
 71
     3
 72
    13
 73
     9
 74
     0
 42
0.000000001
 43
0.00000001
 40
0.0
 40
0.0
 40
0.0
 40
0.0
 40
0.1840170512871854
 40
0.3770529049530374
 40
0.541245730963949
 40
0.6907421213080434
 40
0.8927222666367978
 40
1.0
 40
1.0
 40
1.0
 40
1.0
 10
40.175663100546
 20
1.607624868171986
 30
0.0
 10
40.30943653833198
 20
1.583392792013051
 30
0.0
 10
40.58353974219234
 20
1.533741008958933
 30
0.0
 10
40.98676774159532
 20
1.680289193453895
 30
0.0
 10
41.29913503735377
 20
1.970929372236739
 30
0.0
 10
41.51767400047475
 20
2.374770827093899
 30
0.0
 10
41.61295278149786
 20
2.785369926747763
 30
0.0
 10
41.62182909817611
 20
3.062461929808635
 30
0.0
 10
41.62490818265371
 20
3.158581718727734
 30
0.0
  0
LINE
  5
C8
330
1F
100
AcDbEntity
  8
0
  6
Continuous
 62
     4
370
    15
100
AcDbLine
 10
8.858908182653703
 20
6.025905151814096
 30
0.0
 11
8.858908182653703
 21
3.151911231626216
 31
0.0
  0
SPLINE
  5
C9
330
1F
100
AcDbEntity
  8
0
  6
Continuous
 62
     1
370
    15
100
AcDbSpline
210
0.0
220
0.0
230
1.0
 70
     8
 71
     3
 72
    24
 73
    20
 74
     0
 42
0.000000001
 43
0.00000001
 40
0.0
 40
0.0
 40
0.0
 40
0.0
 40
0.0503309323591424
 40
0.1128775483818635
 40
0.1737460915626285
 40
0.236369985375583
 40
0.2973930299525701
 40
0.3601722448042744
 40
0.4214159172425082
 40
0.4844189507663437
 40
0.5459416879193345
 40
0.6092290997760855
 40
0.6710824345314024
 40
0.7347076294100958
 40
0.7969366880748763
 40
0.8609463671615752
 40
0.9235897005706328
 40
0.9880236729773303
 40
1.0
 40
1.0
 40
1.0
 40
1.0
 10
34.22984346996315
 20
-3.351153810983511
 30
0.0
 10
33.96108533779585
 20
-3.484949267224071
 30
0.0
 10
33.35833951838081
 20
-3.785013310888146
 30
0.0
 10
32.44195408537171
 20
-4.002646430877476
 30
0.0
 10
31.46937472552244
 20
-4.027289483845341
 30
0.0
 10
30.51410718232193
 20
-3.816627097995941
 30
0.0
 10
29.5582576268513
 20
-3.383165622063638
 30
0.0
 10
28.61830232323653
 20
-2.753734945613695
 30
0.0
 10
27.67738349091641
 20
-1.950369145819763
 30
0.0
 10
26.75132871253173
 20
-1.026749151774282
 30
0.0
 10
25.82391933370961
 20
-0.0149711629394885
 30
0.0
 10
24.91048691930351
 20
1.017803587520562
 30
0.0
 10
23.99535549344519
 20
2.035701523884174
 30
0.0
 10
23.0934159106966
 20
2.972183799114008
 30
0.0
 10
22.18951500482357
 20
3.792934173153432
 30
0.0
 10
21.29796389846298
 20
4.45080613736879
 30
0.0
 10
20.40480845957334
 20
4.89652654076057
 30
0.0
 10
19.75860773322861
 20
5.115832881418095
 30
0.0
 10
19.4076574569508
 20
5.111443097975638
 30
0.0
 10
19.35265053630282
 20
5.110755056148054
 30
0.0
  0
LINE
  5
CA
330
1F
100
AcDbEntity
  8
0
  6
Continuous
 62
     1
370
    15
100
AcDbLine
 10
41.6249081826537
 20
3.179835151814097
 30
0.0
 11
41.6249081826537
 21
3.179113625450081
 31
0.0
  0
LINE
  5
CB
330
1F
100
AcDbEntity
  8
0
  6
Continuous
 62
     1
370
    15
100
AcDbLine
 10
41.6249081826537
 20
0.0048351518141013
 30
0.0
 11
41.6249081826537
 21
3.158581718727604
 31
0.0
  0
LINE
  5
CC
330
1F
100
AcDbEntity
  8
0
  6
Continuous
 62
     1
370
    15
100
AcDbLine
 10
41.6249081826537
 20
-1.889655344275966
 30
0.0
 11
41.62490818265368
 21
-2.744795505201485
 31
0.0
  0
LINE
  5
CD
102
{ACAD_REACTORS
102
}
330
1F
100
AcDbEntity
  8
중심선
  6
CENTER
 62
     1
370
    15
100
AcDbLine
 10
-62.97509181734628
 20
0.0048351518140866
 30
0.0
 11
44.62490428620232
 21
0.0048351518140866
 31
0.0
  0
CIRCLE
  5
CE
330
1F
100
AcDbEntity
  8
외형선
100
AcDbCircle
 10
-0.0000000000000013
 20
-0.0000000000000039
 30
0.0
 40
3.000000000000004
  0
INSERT
  5
CF
330
1F
100
AcDbEntity
  8
0
  6
Continuous
 62
     7
100
AcDbBlockReference
 66
     1
  2
블럭10
 10
-16.63945112874702
 20
-52.04717430164393
 30
0.0
  0
ATTRIB
  5
D0
330
CF
100
AcDbEntity
  8
FORMAT
 62
     2
100
AcDbText
 10
-25.8207464174883
 20
-49.97180738881174
 30
0.0
 40
4.233333333333333
  1
E5077516 [ 3 FLUTE ]
 41
0.75
  7
SLDTEXTSTYLE0
 11
-25.8207464174883
 21
-52.08847405547841
 31
0.0
100
AcDbAttribute
  2
AUTOATTR0
 70
     0
 74
     1
  0
SEQEND
  5
D1
330
CF
100
AcDbEntity
  8
0
  6
Continuous
 62
     7
  0
HATCH
  5
D2
330
1F
100
AcDbEntity
  8
중심선
100
AcDbHatch
 10
0.0
 20
0.0
 30
0.0
210
0.0
220
0.0
230
1.0
  2
SOLID
 70
     1
 71
     0
 91
        1
 92
        0
 93
        4
 72
     1
 10
-10.92454182436617
 20
-35.8
 11
-14.37081706820345
 21
-35.8
 72
     1
 10
-14.37081706820345
 20
-35.8
 11
-16.49904692740747
 21
-38.33632558057259
 72
     1
 10
-16.49904692740747
 20
-38.33632558057259
 11
-13.05273859845704
 21
-38.3362861512701
 72
     1
 10
-13.05273859845704
 20
-38.3362861512701
 11
-10.92454182436617
 21
-35.8
 97
        0
 75
     0
 76
     1
 98
        1
 10
0.0
 20
0.0
  0
HATCH
  5
D3
330
1F
100
AcDbEntity
  8
중심선
100
AcDbHatch
 10
0.0
 20
0.0
 30
0.0
210
0.0
220
0.0
230
1.0
  2
SOLID
 70
     1
 71
     0
 91
        1
 92
        0
 93
        4
 72
     1
 10
-5.911777833330217
 20
-35.8
 11
-9.358053077167499
 21
-35.8
 72
     1
 10
-9.358053077167499
 20
-35.8
 11
-13.88919108552489
 21
-41.20000000000002
 72
     1
 10
-13.88919108552489
 20
-41.20000000000002
 11
-10.44291584168761
 21
-41.20000000000002
 72
     1
 10
-10.44291584168761
 20
-41.20000000000002
 11
-5.911777833330217
 21
-35.8
 97
        0
 75
     0
 76
     1
 98
        1
 10
0.0
 20
0.0
  0
HATCH
  5
D4
330
1F
100
AcDbEntity
  8
중심선
100
AcDbHatch
 10
0.0
 20
0.0
 30
0.0
210
0.0
220
0.0
230
1.0
  2
SOLID
 70
     1
 71
     0
 91
        1
 92
        0
 93
        4
 72
     1
 10
-0.8990138422943217
 20
-35.80000000000003
 11
-4.345289086131437
 21
-35.8
 72
     1
 10
-4.345289086131437
 20
-35.8
 11
-11.39372598802069
 21
-44.20000000000002
 72
     1
 10
-11.39372598802069
 20
-44.20000000000002
 11
-7.947450744183405
 21
-44.20000000000002
 72
     1
 10
-7.947450744183405
 20
-44.20000000000002
 11
-0.8990138422943215
 21
-35.80000000000003
 97
        0
 75
     0
 76
     1
 98
        1
 10
0.0
 20
0.0
  0
HATCH
  5
D5
330
1F
100
AcDbEntity
  8
중심선
100
AcDbHatch
 10
0.0
 20
0.0
 30
0.0
210
0.0
220
0.0
230
1.0
  2
SOLID
 70
     1
 71
     0
 91
        1
 92
        0
 93
        6
 72
     3
 10
3.900876588717877
 20
-40.00000000005127
 11
3.960054785062284
 21
1.540850780301639E-10
 40
0.3939339440162633
 50
17.09539180608433
 51
320.0019657685079
 73
     0
 72
     1
 10
5.583876244418473
 20
-38.5878940046383
 11
7.889178118119511
 21
-36.65356729459038
 72
     3
 10
3.900876588665031
 20
-40.00000000000015
 11
6.600054785286829
 21
-1.249000902703301E-13
 40
0.6363583540795982
 50
39.99873849337408
 51
368.4976242363725
 73
     1
 72
     1
 10
10.32620908056564
 20
-39.03999999993002
 11
2.580943895500953
 21
-39.03999999992999
 72
     1
 10
2.580943895500953
 20
-39.03999999992999
 11
2.58091885105502
 21
-40.95999999992991
 72
     1
 10
2.58091885105502
 20
-40.95999999992991
 11
7.022298620527057
 21
-40.95999999992988
 97
        0
 75
     0
 76
     1
 98
        1
 10
0.0
 20
0.0
  0
POINT
  5
D6
330
1F
100
AcDbEntity
  8
치수문자_일반주서
100
AcDbPoint
 10
-0.0000000000000013
 20
-0.0000000000000039
 30
0.0
  0
DIMENSION
  5
D7
330
1F
100
AcDbEntity
  8
치수문자_일반주서
100
AcDbDimension
  2
_D
 10
9.874908182653716
 20
58.73982095945037
 30
0.0
 11
27.60040766839552
 21
58.73982095945037
 31
0.0
 70
   160
  1
<>
 71
     2
 42
31.74999999999999
  3
SLDDIMSTYLE0
100
AcDbAlignedDimension
 13
41.6249081826537
 23
3.158581718727604
 33
0.0
 14
9.874908182653714
 24
5.957600218762184
 34
0.0
 50
-0.0000000000000036
100
AcDbRotatedDimension
1001
ACAD
1000
DSTYLE
1002
{
1070
   171
1070
     6
1070
   273
1070
     7
1002
}
  0
DIMENSION
  5
ED
330
1F
100
AcDbEntity
  8
치수문자_일반주서
100
AcDbDimension
  2
_D_1
 10
-59.9750918173463
 20
75.81251644782087
 30
0.0
 11
-3.721407797071919
 21
75.81251644782087
 31
0.0
 70
   160
  1
<>
 71
     2
 42
101.6
  3
SLDDIMSTYLE1
100
AcDbAlignedDimension
 13
41.6249081826537
 23
3.158581718727604
 33
0.0
 14
-59.9750918173463
 24
5.544835151814103
 34
0.0
 50
0.000000000000004
100
AcDbRotatedDimension
1001
ACAD
1000
DSTYLE
1002
{
1070
   171
1070
     6
1070
   273
1070
     7
1002
}
  0
INSERT
  5
118
330
1F
100
AcDbEntity
  8
외형선
100
AcDbBlockReference
  2
SW_DOWELSYMBOL_0
 10
-0.0000000000000013
 20
-0.0000000000000039
 30
0.0
  0
DIMENSION
  5
13E
102
{ACAD_REACTORS
102
}
102
{ACAD_XDICTIONARY
360
13F
102
}
330
1F
100
AcDbEntity
  8
치수문자_일반주서
100
AcDbDimension
  2
*D7
 10
-81.94784751407897
 20
6.354835151814084
 30
0.0
 11
-84.57284751407897
 21
25.20883515181409
 31
0.0
 70
    32
  1
{%%c<>[]}
 71
     5
 42
12.69999999999999
  3
SLDDIMSTYLE0
100
AcDbAlignedDimension
 13
-59.16509181734631
 23
-6.345164848185908
 33
0.0
 14
-59.16509181734631
 24
6.354835151814083
 34
0.0
 50
90.0
100
AcDbRotatedDimension
1001
ACAD
1000
DSTYLE
1002
{
1070
   171
1070
     6
1070
   273
1070
     7
1070
   283
1070
     1
1070
   170
1070
     1
1002
}
  0
DIMENSION
  5
151
102
{ACAD_REACTORS
102
}
102
{ACAD_XDICTIONARY
360
152
102
}
330
1F
100
AcDbEntity
  8
치수문자_일반주서
100
AcDbDimension
  2
*D8
 10
58.97675829121049
 20
-3.170164848185912
 30
0.0
 11
58.97675829121049
 21
32.75429486952598
 31
0.0
 70
   160
  1
{%%c<>[]}
 71
     5
 42
6.35000000000001
  3
SLDDIMSTYLE0
100
AcDbAlignedDimension
 13
41.6249081826537
 23
3.179835151814097
 33
0.0
 14
41.6249081826537
 24
-3.170164848185913
 34
0.0
 50
90.0
100
AcDbRotatedDimension
1001
ACAD
1000
DSTYLE
1002
{
1070
   171
1070
     6
1070
   273
1070
     7
1070
   283
1070
     1
1070
   170
1070
     1
1002
}
  0
DIMENSION
  5
165
102
{ACAD_REACTORS
102
}
102
{ACAD_XDICTIONARY
360
166
102
}
330
1F
100
AcDbEntity
  8
치수문자_일반주서
100
AcDbDimension
  2
*D9
 10
13.49023170413728
 20
5.641300395653749
 30
0.0
 11
19.19921738259684
 21
14.67567111929307
 31
0.0
 70
    34
  1
<>
 71
     5
 42
0.0872664625997163
  3
SLDDIMSTYLE0
100
AcDb2LineAngularDimension
 13
-62.97509181734628
 23
0.0048351518140866
 33
0.0
 14
44.62490428620232
 24
0.0048351518140866
 34
0.0
 15
19.35418299456818
 25
5.128271134272833
 35
0.0
 16
20.10055569902671
 26
1.687073104768138
 36
0.0
1001
ACAD
1000
DSTYLE
1002
{
1070
   171
1070
     6
1070
   273
1070
     7
1002
}
  0
ENDSEC
  0
SECTION
  2
OBJECTS
  0
DICTIONARY
  5
C
330
0
100
AcDbDictionary
281
     1
  3
ACAD_GROUP
350
D
  3
ACAD_IMAGE_VARS
350
13C
  3
ACAD_LAYOUT
350
1A
  3
ACAD_MLINESTYLE
350
17
  3
ACAD_PLOTSETTINGS
350
19
  3
ACAD_PLOTSTYLENAME
350
E
  3
ACAD_SCALELIST
350
47
  3
APPDATA
350
13A
  3
DWGPROPS
350
178
  0
DICTIONARY
  5
13F
330
13E
100
AcDbDictionary
280
     1
281
     1
  0
DICTIONARY
  5
152
330
151
100
AcDbDictionary
280
     1
281
     1
  0
DICTIONARY
  5
166
330
165
100
AcDbDictionary
280
     1
281
     1
  0
DICTIONARY
  5
D
102
{ACAD_REACTORS
330
C
102
}
330
C
100
AcDbDictionary
281
     1
  0
RASTERVARIABLES
  5
13C
102
{ACAD_REACTORS
330
C
102
}
330
C
100
AcDbRasterVariables
 90
        0
 70
     1
 71
     1
 72
     1
  0
DICTIONARY
  5
1A
102
{ACAD_REACTORS
330
C
102
}
330
C
100
AcDbDictionary
281
     1
  3
Layout1
350
1E
  3
Layout2
350
26
  3
Model
350
22
  0
DICTIONARY
  5
17
102
{ACAD_REACTORS
330
C
102
}
330
C
100
AcDbDictionary
281
     1
  3
Standard
350
18
  0
DICTIONARY
  5
19
102
{ACAD_REACTORS
330
C
102
}
330
C
100
AcDbDictionary
281
     1
  0
ACDBDICTIONARYWDFLT
  5
E
102
{ACAD_REACTORS
330
C
102
}
330
C
100
AcDbDictionary
281
     1
  3
Normal
350
F
100
AcDbDictionaryWithDefault
340
F
  0
DICTIONARY
  5
47
102
{ACAD_REACTORS
330
C
102
}
330
C
100
AcDbDictionary
281
     1
  3
A0
350
48
  3
A1
350
49
  3
A2
350
4A
  3
A3
350
4B
  3
A4
350
4C
  3
A5
350
4D
  3
A6
350
4E
  3
A7
350
4F
  3
A8
350
50
  3
A9
350
51
  3
B0
350
52
  3
B1
350
53
  3
B2
350
54
  3
B3
350
55
  3
B4
350
56
  3
B5
350
57
  3
B6
350
58
  3
B7
350
59
  3
B8
350
5A
  3
B9
350
5B
  3
C0
350
5C
  3
C1
350
5D
  3
C2
350
5E
  3
C3
350
5F
  3
C4
350
60
  3
C5
350
61
  3
C6
350
62
  3
C7
350
63
  3
C8
350
64
  3
C9
350
65
  3
D0
350
66
  3
D1
350
67
  3
D2
350
68
  0
DICTIONARY
  5
13A
102
{ACAD_REACTORS
330
C
102
}
330
C
100
AcDbDictionary
281
     1
  0
XRECORD
  5
178
102
{ACAD_REACTORS
330
C
102
}
330
C
100
AcDbXrecord
280
     1
  1
DWGPROPS COOKIE
  2

  3

  4

  6

  7

  8
12015048
  9

300
=
301
=
302
=
303
=
304
=
305
=
306
=
307
=
308
=
309
=
 40
0.0
 41
2458333.349328056
 42
2458340.089075312
  1

 90
        0
  0
LAYOUT
  5
1E
102
{ACAD_REACTORS
330
1A
102
}
330
1A
100
AcDbPlotSettings
  1

  2
none_device
  4

  6

 40
0.0
 41
0.0
 42
0.0
 43
0.0
 44
0.0
 45
0.0
 46
0.0
 47
0.0
 48
0.0
 49
0.0
140
0.0
141
0.0
142
1.0
143
1.0
 70
   688
 72
     1
 73
     0
 74
     5
  7

 75
    16
147
1.0
148
0.0
149
0.0
100
AcDbLayout
  1
Layout1
 70
     1
 71
     1
 10
0.0
 20
0.0
 11
420.0
 21
297.0
 12
0.0
 22
0.0
 32
0.0
 14
1.000000000000000E+20
 24
1.000000000000000E+20
 34
1.000000000000000E+20
 15
-1.000000000000000E+20
 25
-1.000000000000000E+20
 35
-1.000000000000000E+20
146
0.0
 13
0.0
 23
0.0
 33
0.0
 16
1.0
 26
0.0
 36
0.0
 17
0.0
 27
1.0
 37
0.0
 76
     0
330
1B
  0
LAYOUT
  5
26
102
{ACAD_REACTORS
330
1A
102
}
330
1A
100
AcDbPlotSettings
  1

  2
none_device
  4

  6

 40
0.0
 41
0.0
 42
0.0
 43
0.0
 44
0.0
 45
0.0
 46
0.0
 47
0.0
 48
0.0
 49
0.0
140
0.0
141
0.0
142
1.0
143
1.0
 70
   688
 72
     1
 73
     0
 74
     5
  7

 75
    16
147
1.0
148
0.0
149
0.0
100
AcDbLayout
  1
Layout2
 70
     1
 71
     2
 10
0.0
 20
0.0
 11
0.0
 21
0.0
 12
0.0
 22
0.0
 32
0.0
 14
0.0
 24
0.0
 34
0.0
 15
0.0
 25
0.0
 35
0.0
146
0.0
 13
0.0
 23
0.0
 33
0.0
 16
1.0
 26
0.0
 36
0.0
 17
0.0
 27
1.0
 37
0.0
 76
     0
330
23
  0
LAYOUT
  5
22
102
{ACAD_REACTORS
330
1A
102
}
330
1A
100
AcDbPlotSettings
  1

  2
none_device
  4
ANSI_A_(11.00_x_8.50_Inches)
  6

 40
6.35
 41
19.05
 42
6.35000508
 43
19.05000254
 44
279.4
 45
215.9
 46
170.9253734706186
 47
101.644118882377
 48
0.0
 49
0.0
140
0.0
141
0.0
142
0.082661012558327
143
1.0
 70
  1696
 72
     0
 73
     0
 74
     0
  7

 75
     0
147
0.0235690232323232
148
0.0
149
0.0
100
AcDbLayout
  1
Model
 70
     1
 71
     0
 10
0.0
 20
0.0
 11
420.0
 21
297.0
 12
0.0
 22
0.0
 32
0.0
 14
-86.32284751407897
 24
-49.97180738881174
 34
0.0
 15
59.5270916245438
 25
80.18751644782087
 35
0.0
146
0.0
 13
0.0
 23
0.0
 33
0.0
 16
1.0
 26
0.0
 36
0.0
 17
0.0
 27
1.0
 37
0.0
 76
     0
330
1F
331
29
  0
MLINESTYLE
  5
18
102
{ACAD_REACTORS
330
17
102
}
330
17
100
AcDbMlineStyle
  2
Standard
 70
     0
  3

 62
   256
 51
90.0
 52
90.0
 71
     2
 49
0.5
 62
   256
  6
BYLAYER
 49
-0.5
 62
   256
  6
BYLAYER
  0
ACDBPLACEHOLDER
  5
F
102
{ACAD_REACTORS
330
E
102
}
330
E
  0
SCALE
  5
48
102
{ACAD_REACTORS
330
47
102
}
330
47
100
AcDbScale
 70
     0
300
1:1
140
1.0
141
1.0
290
     1
  0
SCALE
  5
49
102
{ACAD_REACTORS
330
47
102
}
330
47
100
AcDbScale
 70
     0
300
1:2
140
1.0
141
2.0
290
     0
  0
SCALE
  5
4A
102
{ACAD_REACTORS
330
47
102
}
330
47
100
AcDbScale
 70
     0
300
1:4
140
1.0
141
4.0
290
     0
  0
SCALE
  5
4B
102
{ACAD_REACTORS
330
47
102
}
330
47
100
AcDbScale
 70
     0
300
1:5
140
1.0
141
5.0
290
     0
  0
SCALE
  5
4C
102
{ACAD_REACTORS
330
47
102
}
330
47
100
AcDbScale
 70
     0
300
1:8
140
1.0
141
8.0
290
     0
  0
SCALE
  5
4D
102
{ACAD_REACTORS
330
47
102
}
330
47
100
AcDbScale
 70
     0
300
1:10
140
1.0
141
10.0
290
     0
  0
SCALE
  5
4E
102
{ACAD_REACTORS
330
47
102
}
330
47
100
AcDbScale
 70
     0
300
1:16
140
1.0
141
16.0
290
     0
  0
SCALE
  5
4F
102
{ACAD_REACTORS
330
47
102
}
330
47
100
AcDbScale
 70
     0
300
1:20
140
1.0
141
20.0
290
     0
  0
SCALE
  5
50
102
{ACAD_REACTORS
330
47
102
}
330
47
100
AcDbScale
 70
     0
300
1:30
140
1.0
141
30.0
290
     0
  0
SCALE
  5
51
102
{ACAD_REACTORS
330
47
102
}
330
47
100
AcDbScale
 70
     0
300
1:40
140
1.0
141
40.0
290
     0
  0
SCALE
  5
52
102
{ACAD_REACTORS
330
47
102
}
330
47
100
AcDbScale
 70
     0
300
1:50
140
1.0
141
50.0
290
     0
  0
SCALE
  5
53
102
{ACAD_REACTORS
330
47
102
}
330
47
100
AcDbScale
 70
     0
300
1:100
140
1.0
141
100.0
290
     0
  0
SCALE
  5
54
102
{ACAD_REACTORS
330
47
102
}
330
47
100
AcDbScale
 70
     0
300
2:1
140
2.0
141
1.0
290
     0
  0
SCALE
  5
55
102
{ACAD_REACTORS
330
47
102
}
330
47
100
AcDbScale
 70
     0
300
4:1
140
4.0
141
1.0
290
     0
  0
SCALE
  5
56
102
{ACAD_REACTORS
330
47
102
}
330
47
100
AcDbScale
 70
     0
300
8:1
140
8.0
141
1.0
290
     0
  0
SCALE
  5
57
102
{ACAD_REACTORS
330
47
102
}
330
47
100
AcDbScale
 70
     0
300
10:1
140
10.0
141
1.0
290
     0
  0
SCALE
  5
58
102
{ACAD_REACTORS
330
47
102
}
330
47
100
AcDbScale
 70
     0
300
100:1
140
100.0
141
1.0
290
     0
  0
SCALE
  5
59
102
{ACAD_REACTORS
330
47
102
}
330
47
100
AcDbScale
 70
     0
300
1/128" = 1'-0"
140
0.0078125
141
12.0
290
     0
  0
SCALE
  5
5A
102
{ACAD_REACTORS
330
47
102
}
330
47
100
AcDbScale
 70
     0
300
1/64" = 1'-0"
140
0.015625
141
12.0
290
     0
  0
SCALE
  5
5B
102
{ACAD_REACTORS
330
47
102
}
330
47
100
AcDbScale
 70
     0
300
1/32" = 1'-0"
140
0.03125
141
12.0
290
     0
  0
SCALE
  5
5C
102
{ACAD_REACTORS
330
47
102
}
330
47
100
AcDbScale
 70
     0
300
1/16" = 1'-0"
140
0.0625
141
12.0
290
     0
  0
SCALE
  5
5D
102
{ACAD_REACTORS
330
47
102
}
330
47
100
AcDbScale
 70
     0
300
3/32" = 1'-0"
140
0.09375
141
12.0
290
     0
  0
SCALE
  5
5E
102
{ACAD_REACTORS
330
47
102
}
330
47
100
AcDbScale
 70
     0
300
1/8" = 1'-0"
140
0.125
141
12.0
290
     0
  0
SCALE
  5
5F
102
{ACAD_REACTORS
330
47
102
}
330
47
100
AcDbScale
 70
     0
300
3/16" = 1'-0"
140
0.1875
141
12.0
290
     0
  0
SCALE
  5
60
102
{ACAD_REACTORS
330
47
102
}
330
47
100
AcDbScale
 70
     0
300
1/4" = 1'-0"
140
0.25
141
12.0
290
     0
  0
SCALE
  5
61
102
{ACAD_REACTORS
330
47
102
}
330
47
100
AcDbScale
 70
     0
300
3/8" = 1'-0"
140
0.375
141
12.0
290
     0
  0
SCALE
  5
62
102
{ACAD_REACTORS
330
47
102
}
330
47
100
AcDbScale
 70
     0
300
1/2" = 1'-0"
140
0.5
141
12.0
290
     0
  0
SCALE
  5
63
102
{ACAD_REACTORS
330
47
102
}
330
47
100
AcDbScale
 70
     0
300
3/4" = 1'-0"
140
0.75
141
12.0
290
     0
  0
SCALE
  5
64
102
{ACAD_REACTORS
330
47
102
}
330
47
100
AcDbScale
 70
     0
300
1" = 1'-0"
140
1.0
141
12.0
290
     0
  0
SCALE
  5
65
102
{ACAD_REACTORS
330
47
102
}
330
47
100
AcDbScale
 70
     0
300
1-1/2" = 1'-0"
140
1.5
141
12.0
290
     0
  0
SCALE
  5
66
102
{ACAD_REACTORS
330
47
102
}
330
47
100
AcDbScale
 70
     0
300
3" = 1'-0"
140
3.0
141
12.0
290
     0
  0
SCALE
  5
67
102
{ACAD_REACTORS
330
47
102
}
330
47
100
AcDbScale
 70
     0
300
6" = 1'-0"
140
6.0
141
12.0
290
     0
  0
SCALE
  5
68
102
{ACAD_REACTORS
330
47
102
}
330
47
100
AcDbScale
 70
     0
300
1'-0" = 1'-0"
140
12.0
141
12.0
290
     0
  0
ENDSEC
  0
EOF
