  0
SECTION
  2
HEADER
  9
$ACADVER
  1
AC1015
  9
$ACADMAINTVER
 70
     6
  9
$DWGCODEPAGE
  3
ANSI_949
  9
$INSBASE
 10
0.0
 20
0.0
 30
0.0
  9
$EXTMIN
 10
-58.30009181734636
 20
-49.97180738881174
 30
0.0
  9
$EXTMAX
 10
44.39549877938379
 20
66.15832401681838
 30
0.0
  9
$LIMMIN
 10
0.0
 20
0.0
  9
$LIMMAX
 10
420.0
 20
297.0
  9
$ORTHOMODE
 70
     1
  9
$REGENMODE
 70
     1
  9
$FILLMODE
 70
     1
  9
$QTEXTMODE
 70
     0
  9
$MIRRTEXT
 70
     1
  9
$LTSCALE
 40
1.0
  9
$ATTMODE
 70
     1
  9
$TEXTSIZE
 40
3.5
  9
$TRACEWID
 40
1.0
  9
$TEXTSTYLE
  7
Standard
  9
$CLAYER
  8
0
  9
$CELTYPE
  6
ByLayer
  9
$CECOLOR
 62
   256
  9
$CELTSCALE
 40
1.0
  9
$DISPSILH
 70
     0
  9
$DIMSCALE
 40
1.0
  9
$DIMASZ
 40
3.302
  9
$DIMEXO
 40
1.0
  9
$DIMDLI
 40
3.75
  9
$DIMRND
 40
0.0
  9
$DIMDLE
 40
0.0
  9
$DIMEXE
 40
1.0
  9
$DIMTP
 40
0.0
  9
$DIMTM
 40
0.0
  9
$DIMTXT
 40
3.5
  9
$DIMCEN
 40
2.5
  9
$DIMTSZ
 40
0.0
  9
$DIMTOL
 70
     0
  9
$DIMLIM
 70
     0
  9
$DIMTIH
 70
     1
  9
$DIMTOH
 70
     1
  9
$DIMSE1
 70
     0
  9
$DIMSE2
 70
     0
  9
$DIMTAD
 70
     1
  9
$DIMZIN
 70
     0
  9
$DIMBLK
  1

  9
$DIMASO
 70
     1
  9
$DIMSHO
 70
     1
  9
$DIMPOST
  1

  9
$DIMAPOST
  1

  9
$DIMALT
 70
     0
  9
$DIMALTD
 70
     3
  9
$DIMALTF
 40
0.0393700787401575
  9
$DIMLFAC
 40
1.0
  9
$DIMTOFL
 70
     1
  9
$DIMTVP
 40
0.0
  9
$DIMTIX
 70
     0
  9
$DIMSOXD
 70
     0
  9
$DIMSAH
 70
     0
  9
$DIMBLK1
  1

  9
$DIMBLK2
  1

  9
$DIMSTYLE
  2
ISO-25
  9
$DIMCLRD
 70
     0
  9
$DIMCLRE
 70
     0
  9
$DIMCLRT
 70
     0
  9
$DIMTFAC
 40
1.0
  9
$DIMGAP
 40
1.524
  9
$DIMJUST
 70
     0
  9
$DIMSD1
 70
     0
  9
$DIMSD2
 70
     0
  9
$DIMTOLJ
 70
     0
  9
$DIMTZIN
 70
     0
  9
$DIMALTZ
 70
     0
  9
$DIMALTTZ
 70
     0
  9
$DIMUPT
 70
     0
  9
$DIMDEC
 70
     2
  9
$DIMTDEC
 70
     2
  9
$DIMALTU
 70
     2
  9
$DIMALTTD
 70
     3
  9
$DIMTXSTY
  7
Standard
  9
$DIMAUNIT
 70
     0
  9
$DIMADEC
 70
     2
  9
$DIMALTRND
 40
0.0
  9
$DIMAZIN
 70
     0
  9
$DIMDSEP
 70
    44
  9
$DIMATFIT
 70
     3
  9
$DIMFRAC
 70
     0
  9
$DIMLDRBLK
  1

  9
$DIMLUNIT
 70
     2
  9
$DIMLWD
 70
    -2
  9
$DIMLWE
 70
    -2
  9
$DIMTMOVE
 70
     0
  9
$LUNITS
 70
     2
  9
$LUPREC
 70
     2
  9
$SKETCHINC
 40
1.0
  9
$FILLETRAD
 40
10.0
  9
$AUNITS
 70
     0
  9
$AUPREC
 70
     2
  9
$MENU
  1
.
  9
$ELEVATION
 40
0.0
  9
$PELEVATION
 40
0.0
  9
$THICKNESS
 40
0.0
  9
$LIMCHECK
 70
     0
  9
$CHAMFERA
 40
0.0
  9
$CHAMFERB
 40
0.0
  9
$CHAMFERC
 40
0.0
  9
$CHAMFERD
 40
0.0
  9
$SKPOLY
 70
     0
  9
$TDCREATE
 40
2458333.723771262
  9
$TDUCREATE
 40
2458333.348771262
  9
$TDUPDATE
 40
2458340.452481331
  9
$TDUUPDATE
 40
2458340.077481331
  9
$TDINDWG
 40
0.0011539815
  9
$TDUSRTIMER
 40
2458340.074420243
  9
$USRTIMER
 70
     1
  9
$ANGBASE
 50
0.0
  9
$ANGDIR
 70
     0
  9
$PDMODE
 70
     0
  9
$PDSIZE
 40
-1.0
  9
$PLINEWID
 40
0.0
  9
$SPLFRAME
 70
     0
  9
$SPLINETYPE
 70
     6
  9
$SPLINESEGS
 70
     8
  9
$HANDSEED
  5
181
  9
$SURFTAB1
 70
     6
  9
$SURFTAB2
 70
     6
  9
$SURFTYPE
 70
     6
  9
$SURFU
 70
     6
  9
$SURFV
 70
     6
  9
$UCSBASE
  2

  9
$UCSNAME
  2

  9
$UCSORG
 10
0.0
 20
0.0
 30
0.0
  9
$UCSXDIR
 10
1.0
 20
0.0
 30
0.0
  9
$UCSYDIR
 10
0.0
 20
1.0
 30
0.0
  9
$UCSORTHOREF
  2

  9
$UCSORTHOVIEW
 70
     0
  9
$UCSORGTOP
 10
0.0
 20
0.0
 30
0.0
  9
$UCSORGBOTTOM
 10
0.0
 20
0.0
 30
0.0
  9
$UCSORGLEFT
 10
0.0
 20
0.0
 30
0.0
  9
$UCSORGRIGHT
 10
0.0
 20
0.0
 30
0.0
  9
$UCSORGFRONT
 10
0.0
 20
0.0
 30
0.0
  9
$UCSORGBACK
 10
0.0
 20
0.0
 30
0.0
  9
$PUCSBASE
  2

  9
$PUCSNAME
  2

  9
$PUCSORG
 10
0.0
 20
0.0
 30
0.0
  9
$PUCSXDIR
 10
1.0
 20
0.0
 30
0.0
  9
$PUCSYDIR
 10
0.0
 20
1.0
 30
0.0
  9
$PUCSORTHOREF
  2

  9
$PUCSORTHOVIEW
 70
     0
  9
$PUCSORGTOP
 10
0.0
 20
0.0
 30
0.0
  9
$PUCSORGBOTTOM
 10
0.0
 20
0.0
 30
0.0
  9
$PUCSORGLEFT
 10
0.0
 20
0.0
 30
0.0
  9
$PUCSORGRIGHT
 10
0.0
 20
0.0
 30
0.0
  9
$PUCSORGFRONT
 10
0.0
 20
0.0
 30
0.0
  9
$PUCSORGBACK
 10
0.0
 20
0.0
 30
0.0
  9
$USERI1
 70
     0
  9
$USERI2
 70
     0
  9
$USERI3
 70
     0
  9
$USERI4
 70
     0
  9
$USERI5
 70
     0
  9
$USERR1
 40
0.0
  9
$USERR2
 40
0.0
  9
$USERR3
 40
0.0
  9
$USERR4
 40
0.0
  9
$USERR5
 40
0.0
  9
$WORLDVIEW
 70
     1
  9
$SHADEDGE
 70
     3
  9
$SHADEDIF
 70
    70
  9
$TILEMODE
 70
     1
  9
$MAXACTVP
 70
    64
  9
$PINSBASE
 10
0.0
 20
0.0
 30
0.0
  9
$PLIMCHECK
 70
     0
  9
$PEXTMIN
 10
1.000000000000000E+20
 20
1.000000000000000E+20
 30
1.000000000000000E+20
  9
$PEXTMAX
 10
-1.000000000000000E+20
 20
-1.000000000000000E+20
 30
-1.000000000000000E+20
  9
$PLIMMIN
 10
0.0
 20
0.0
  9
$PLIMMAX
 10
0.0
 20
0.0
  9
$UNITMODE
 70
     0
  9
$VISRETAIN
 70
     1
  9
$PLINEGEN
 70
     0
  9
$PSLTSCALE
 70
     1
  9
$TREEDEPTH
 70
  3020
  9
$CMLSTYLE
  2
Standard
  9
$CMLJUST
 70
     0
  9
$CMLSCALE
 40
20.0
  9
$PROXYGRAPHICS
 70
     1
  9
$MEASUREMENT
 70
     1
  9
$CELWEIGHT
370
    -1
  9
$ENDCAPS
280
     0
  9
$JOINSTYLE
280
     0
  9
$LWDISPLAY
290
     1
  9
$INSUNITS
 70
     4
  9
$HYPERLINKBASE
  1

  9
$STYLESHEET
  1

  9
$XEDIT
290
     1
  9
$CEPSNTYPE
380
     0
  9
$PSTYLEMODE
290
     1
  9
$FINGERPRINTGUID
  2
{E685BFEE-3755-490C-85F9-86F1DC57F5E3}
  9
$VERSIONGUID
  2
{FAEB1C32-E019-11D5-929B-00C0DF256EC4}
  9
$EXTNAMES
290
     1
  9
$PSVPSCALE
 40
0.0
  9
$OLESTARTUP
290
     0
  0
ENDSEC
  0
SECTION
  2
CLASSES
  0
CLASS
  1
ACDBDICTIONARYWDFLT
  2
AcDbDictionaryWithDefault
  3
ObjectDBX Classes
 90
        0
280
     0
281
     0
  0
CLASS
  1
VISUALSTYLE
  2
AcDbVisualStyle
  3
ObjectDBX Classes
 90
     4095
280
     0
281
     0
  0
CLASS
  1
MATERIAL
  2
AcDbMaterial
  3
ObjectDBX Classes
 90
     1153
280
     0
281
     0
  0
CLASS
  1
SCALE
  2
AcDbScale
  3
ObjectDBX Classes
 90
     1153
280
     0
281
     0
  0
CLASS
  1
SUN
  2
AcDbSun
  3
SCENEOE
 90
     1153
280
     0
281
     0
  0
CLASS
  1
ACDBPLACEHOLDER
  2
AcDbPlaceHolder
  3
ObjectDBX Classes
 90
        0
280
     0
281
     0
  0
CLASS
  1
LAYOUT
  2
AcDbLayout
  3
ObjectDBX Classes
 90
        0
280
     0
281
     0
  0
CLASS
  1
TABLESTYLE
  2
AcDbTableStyle
  3
ObjectDBX Classes
 90
     4095
280
     0
281
     0
  0
CLASS
  1
MLEADERSTYLE
  2
AcDbMLeaderStyle
  3
ACDB_MLEADERSTYLE_CLASS
 90
     4095
280
     0
281
     0
  0
CLASS
  1
RASTERVARIABLES
  2
AcDbRasterVariables
  3
ISM
 90
        0
280
     0
281
     0
  0
CLASS
  1
DIMASSOC
  2
AcDbDimAssoc
  3
"AcDbDimAssoc|Product Desc:     AcDim ARX App For Dimension|Company:          Autodesk, Inc.|WEB Address:      www.autodesk.com"
 90
        0
280
     0
281
     0
  0
CLASS
  1
DICTIONARYVAR
  2
AcDbDictionaryVar
  3
ObjectDBX Classes
 90
        0
280
     0
281
     0
  0
ENDSEC
  0
SECTION
  2
TABLES
  0
TABLE
  2
VPORT
  5
8
330
0
100
AcDbSymbolTable
 70
     1
  0
VPORT
  5
29
330
8
100
AcDbSymbolTableRecord
100
AcDbViewportTableRecord
  2
*Active
 70
     0
 10
0.0
 20
0.0
 11
1.0
 21
1.0
 12
3.475784636186717
 22
14.94413994737473
 13
0.0
 23
0.0
 14
10.0
 24
10.0
 15
10.0
 25
10.0
 16
0.0
 26
0.0
 36
1.0
 17
0.0
 27
0.0
 37
0.0
 40
177.4794917295683
 41
1.444267515923567
 42
50.0
 43
0.0
 44
0.0
 50
0.0
 51
0.0
 71
    16
 72
  2000
 73
     1
 74
     3
 75
     0
 76
     0
 77
     0
 78
     0
281
     0
 65
     1
110
0.0
120
0.0
130
0.0
111
1.0
121
0.0
131
0.0
112
0.0
122
1.0
132
0.0
 79
     0
146
0.0
  0
ENDTAB
  0
TABLE
  2
LTYPE
  5
5
330
0
100
AcDbSymbolTable
 70
     6
  0
LTYPE
  5
14
330
5
100
AcDbSymbolTableRecord
100
AcDbLinetypeTableRecord
  2
ByBlock
 70
     0
  3

 72
    65
 73
     0
 40
0.0
  0
LTYPE
  5
15
330
5
100
AcDbSymbolTableRecord
100
AcDbLinetypeTableRecord
  2
ByLayer
 70
     0
  3

 72
    65
 73
     0
 40
0.0
  0
LTYPE
  5
16
330
5
100
AcDbSymbolTableRecord
100
AcDbLinetypeTableRecord
  2
Continuous
 70
     0
  3
Solid line
 72
    65
 73
     0
 40
0.0
  0
LTYPE
  5
6A
330
5
100
AcDbSymbolTableRecord
100
AcDbLinetypeTableRecord
  2
HIDDEN
 70
     0
  3
Hidden __ __ __ __ __ __ __ __ __ __ __ __ __ __
 72
    65
 73
     2
 40
1.905
 49
1.27
 74
     0
 49
-0.635
 74
     0
  0
LTYPE
  5
6B
330
5
100
AcDbSymbolTableRecord
100
AcDbLinetypeTableRecord
  2
PHANTOM
 70
     0
  3
Phantom ______  __  __  ______  __  __  ______
 72
    65
 73
     6
 40
12.7
 49
6.35
 74
     0
 49
-1.27
 74
     0
 49
1.27
 74
     0
 49
-1.27
 74
     0
 49
1.27
 74
     0
 49
-1.27
 74
     0
  0
LTYPE
  5
6C
330
5
100
AcDbSymbolTableRecord
100
AcDbLinetypeTableRecord
  2
CENTER
 70
     0
  3
Center ____ _ ____ _ ____ _ ____ _ ____ _ ____
 72
    65
 73
     4
 40
10.16
 49
6.35
 74
     0
 49
-1.27
 74
     0
 49
1.27
 74
     0
 49
-1.27
 74
     0
  0
LTYPE
  5
6D
330
5
100
AcDbSymbolTableRecord
100
AcDbLinetypeTableRecord
  2
CENTERX2
 70
     0
  3
Center (2x) ________  __  ________  __  _____
 72
    65
 73
     4
 40
20.32
 49
12.7
 74
     0
 49
-2.54
 74
     0
 49
2.54
 74
     0
 49
-2.54
 74
     0
  0
LTYPE
  5
6E
330
5
100
AcDbSymbolTableRecord
100
AcDbLinetypeTableRecord
  2
DOT2
 70
     0
  3
Dot (.5x) ........................................
 72
    65
 73
     2
 40
0.635
 49
0.0
 74
     0
 49
-0.635
 74
     0
  0
ENDTAB
  0
TABLE
  2
LAYER
  5
2
330
0
100
AcDbSymbolTable
 70
    17
  0
LAYER
  5
10
330
2
100
AcDbSymbolTableRecord
100
AcDbLayerTableRecord
  2
0
 70
     0
 62
     7
  6
Continuous
370
    -3
390
F
  0
LAYER
  5
6F
330
2
100
AcDbSymbolTableRecord
100
AcDbLayerTableRecord
  2
FORMAT
 70
     0
 62
     2
  6
Continuous
370
    -3
390
F
  0
LAYER
  5
70
330
2
100
AcDbSymbolTableRecord
100
AcDbLayerTableRecord
  2
외형선
 70
     0
 62
   100
  6
Continuous
370
    30
390
F
  0
LAYER
  5
71
330
2
100
AcDbSymbolTableRecord
100
AcDbLayerTableRecord
  2
숨은선
 70
     0
 62
     2
  6
HIDDEN
370
    15
390
F
  0
LAYER
  5
72
330
2
100
AcDbSymbolTableRecord
100
AcDbLayerTableRecord
  2
중심선
 70
     0
 62
     1
  6
CENTERX2
370
    -3
390
F
  0
LAYER
  5
73
330
2
100
AcDbSymbolTableRecord
100
AcDbLayerTableRecord
  2
파단선
 70
     0
 62
     4
  6
Continuous
370
    -3
390
F
  0
LAYER
  5
74
330
2
100
AcDbSymbolTableRecord
100
AcDbLayerTableRecord
  2
해칭선
 70
     0
 62
     4
  6
Continuous
370
    -3
390
F
  0
LAYER
  5
75
330
2
100
AcDbSymbolTableRecord
100
AcDbLayerTableRecord
  2
가는실선
 70
     0
 62
     4
  6
Continuous
370
    -3
390
F
  0
LAYER
  5
76
330
2
100
AcDbSymbolTableRecord
100
AcDbLayerTableRecord
  2
치수_보조선
 70
     0
 62
     4
  6
Continuous
370
    -3
390
F
  0
LAYER
  5
77
330
2
100
AcDbSymbolTableRecord
100
AcDbLayerTableRecord
  2
치수문자_일반주서
 70
     0
 62
     7
  6
Continuous
370
    15
390
F
  0
LAYER
  5
78
330
2
100
AcDbSymbolTableRecord
100
AcDbLayerTableRecord
  2
개별주서
 70
     0
 62
   100
  6
Continuous
370
    30
390
F
  0
LAYER
  5
79
330
2
100
AcDbSymbolTableRecord
100
AcDbLayerTableRecord
  2
중간선
 70
     0
 62
     2
  6
Continuous
370
    15
390
F
  0
LAYER
  5
7A
330
2
100
AcDbSymbolTableRecord
100
AcDbLayerTableRecord
  2
윤곽선
 70
     0
 62
     3
  6
Continuous
370
    40
390
F
  0
LAYER
  5
7B
330
2
100
AcDbSymbolTableRecord
100
AcDbLayerTableRecord
  2
중심마크
 70
     0
 62
   100
  6
Continuous
370
    30
390
F
  0
LAYER
  5
7C
330
2
100
AcDbSymbolTableRecord
100
AcDbLayerTableRecord
  2
가상선
 70
     0
 62
     4
  6
PHANTOM
370
    -3
390
F
  0
LAYER
  5
7D
330
2
100
AcDbSymbolTableRecord
100
AcDbLayerTableRecord
  2
특수지정선
 70
     0
 62
     5
  6
CENTERX2
370
    60
390
F
  0
LAYER
  5
14E
330
2
100
AcDbSymbolTableRecord
100
AcDbLayerTableRecord
  2
Defpoints
 70
     0
 62
     7
  6
Continuous
290
     0
370
    -3
390
F
  0
ENDTAB
  0
TABLE
  2
STYLE
  5
3
330
0
100
AcDbSymbolTable
 70
     2
  0
STYLE
  5
11
330
3
100
AcDbSymbolTableRecord
100
AcDbTextStyleTableRecord
  2
Standard
 70
     0
 40
0.0
 41
1.0
 50
0.0
 71
     0
 42
3.5
  3
txt
  4

  0
STYLE
  5
93
330
3
100
AcDbSymbolTableRecord
100
AcDbTextStyleTableRecord
  2
SLDTEXTSTYLE0
 70
     0
 40
0.0
 41
0.75
 50
0.0
 71
     0
 42
3.5
  3
TXT
  4

  0
ENDTAB
  0
TABLE
  2
VIEW
  5
6
330
0
100
AcDbSymbolTable
 70
     0
  0
ENDTAB
  0
TABLE
  2
UCS
  5
7
330
0
100
AcDbSymbolTable
 70
     0
  0
ENDTAB
  0
TABLE
  2
APPID
  5
9
330
0
100
AcDbSymbolTable
 70
     4
  0
APPID
  5
12
330
9
100
AcDbSymbolTableRecord
100
AcDbRegAppTableRecord
  2
ACAD
 70
     0
  0
APPID
  5
16A
330
9
100
AcDbSymbolTableRecord
100
AcDbRegAppTableRecord
  2
PE_DIMMEASUREMENT
 70
     0
  0
APPID
  5
17F
330
9
100
AcDbSymbolTableRecord
100
AcDbRegAppTableRecord
  2
ACAD_DSTYLE_DIMFLIPARROW_SYMBOL
 70
     0
  0
APPID
  5
180
330
9
100
AcDbSymbolTableRecord
100
AcDbRegAppTableRecord
  2
ACAD_DSTYLE_DIMFLIPARROW_WHICH_SYMBOL
 70
     0
  0
ENDTAB
  0
TABLE
  2
DIMSTYLE
  5
A
330
0
100
AcDbSymbolTable
 70
     4
100
AcDbDimStyleTable
  0
DIMSTYLE
105
27
330
A
100
AcDbSymbolTableRecord
100
AcDbDimStyleTableRecord
  2
ISO-25
 70
     0
 41
2.5
 42
0.625
 43
3.75
 44
1.25
 73
     0
 74
     0
 77
     1
 78
     8
140
2.5
141
2.5
143
0.03937007874016
147
0.625
171
     3
172
     1
178
     0
271
     2
272
     2
274
     3
278
    44
283
     0
284
     8
340
11
  0
DIMSTYLE
105
E3
102
{ACAD_REACTORS
330
E2
102
}
330
A
100
AcDbSymbolTableRecord
100
AcDbDimStyleTableRecord
  2
SLDDIMSTYLE0
 70
     0
 41
3.302
 44
0.0
 45
0.000000001
 73
     0
 74
     0
 77
     1
 78
     4
 79
     1
140
3.5
143
0.0393700787401575
147
0.875
148
0.000000001
170
     1
172
     1
173
     1
178
     0
271
     2
272
     2
276
     2
284
    12
289
     0
340
93
  0
DIMSTYLE
105
F9
102
{ACAD_REACTORS
330
F8
102
}
330
A
100
AcDbSymbolTableRecord
100
AcDbDimStyleTableRecord
  2
SLDDIMSTYLE1
 70
     0
 41
3.302
 44
0.0
 45
0.000000001
 73
     0
 74
     0
 77
     1
 78
     4
 79
     1
140
3.5
143
0.0393700787401575
147
0.875
148
0.000000001
170
     1
173
     1
178
     0
271
     2
272
     2
276
     2
284
    12
340
93
  0
DIMSTYLE
105
10D
102
{ACAD_REACTORS
330
10C
330
14F
330
16B
102
}
330
A
100
AcDbSymbolTableRecord
100
AcDbDimStyleTableRecord
  2
SLDDIMSTYLE2
 70
     0
 41
3.302
 44
0.0
 45
0.000000001
 73
     0
 74
     0
 77
     1
 78
    12
 79
     3
140
3.5
143
0.0393700787401575
147
0.875
148
0.000000001
170
     1
172
     1
173
     1
178
     0
271
     2
272
     2
276
     2
284
    12
289
     0
340
93
  0
ENDTAB
  0
TABLE
  2
BLOCK_RECORD
  5
1
330
0
100
AcDbSymbolTable
 70
     8
  0
BLOCK_RECORD
  5
1F
330
1
100
AcDbSymbolTableRecord
100
AcDbBlockTableRecord
  2
*Model_Space
340
22
  0
BLOCK_RECORD
  5
1B
330
1
100
AcDbSymbolTableRecord
100
AcDbBlockTableRecord
  2
*Paper_Space
340
1E
  0
BLOCK_RECORD
  5
23
330
1
100
AcDbSymbolTableRecord
100
AcDbBlockTableRecord
  2
*Paper_Space0
340
26
  0
BLOCK_RECORD
  5
7E
330
1
100
AcDbSymbolTableRecord
100
AcDbBlockTableRecord
  2
블럭10
340
0
102
{BLKREFS
331
DA
102
}
  0
BLOCK_RECORD
  5
E4
330
1
100
AcDbSymbolTableRecord
100
AcDbBlockTableRecord
  2
_D
340
0
  0
BLOCK_RECORD
  5
FA
330
1
100
AcDbSymbolTableRecord
100
AcDbBlockTableRecord
  2
_D_1
340
0
  0
BLOCK_RECORD
  5
10E
330
1
100
AcDbSymbolTableRecord
100
AcDbBlockTableRecord
  2
_D_2
340
0
  0
BLOCK_RECORD
  5
121
330
1
100
AcDbSymbolTableRecord
100
AcDbBlockTableRecord
  2
SW_DOWELSYMBOL_0
340
0
102
{BLKREFS
331
127
102
}
  0
BLOCK_RECORD
  5
152
330
1
100
AcDbSymbolTableRecord
100
AcDbBlockTableRecord
  2
*D6
340
0
  0
BLOCK_RECORD
  5
16E
330
1
100
AcDbSymbolTableRecord
100
AcDbBlockTableRecord
  2
*D7
340
0
  0
ENDTAB
  0
ENDSEC
  0
SECTION
  2
BLOCKS
  0
BLOCK
  5
20
330
1F
100
AcDbEntity
  8
0
100
AcDbBlockBegin
  2
*Model_Space
 70
     0
 10
0.0
 20
0.0
 30
0.0
  3
*Model_Space
  1
*Model_Space
  0
ENDBLK
  5
21
330
1F
100
AcDbEntity
  8
0
100
AcDbBlockEnd
  0
BLOCK
  5
1C
330
1B
100
AcDbEntity
 67
     1
  8
0
100
AcDbBlockBegin
  2
*Paper_Space
 70
     0
 10
0.0
 20
0.0
 30
0.0
  3
*Paper_Space
  1
*Paper_Space
  0
ENDBLK
  5
1D
330
1B
100
AcDbEntity
 67
     1
  8
0
100
AcDbBlockEnd
  0
BLOCK
  5
24
330
23
100
AcDbEntity
  8
0
100
AcDbBlockBegin
  2
*Paper_Space0
 70
     0
 10
0.0
 20
0.0
 30
0.0
  3
*Paper_Space0
  1
*Paper_Space0
  0
ENDBLK
  5
25
330
23
100
AcDbEntity
  8
0
100
AcDbBlockEnd
  0
BLOCK
  5
7F
330
7E
100
AcDbEntity
  8
0
100
AcDbBlockBegin
  2
블럭10
 70
     2
 10
0.0
 20
0.0
 30
0.0
  3
블럭10
  1
블럭10
  0
ELLIPSE
  5
81
330
7E
100
AcDbEntity
  8
중심선
100
AcDbEllipse
 10
20.54032771741204
 20
12.0471743016438
 30
0.0
 11
6.600054785286829
 21
-1.261213355974178E-13
 31
0.0
210
0.0
220
0.0
230
1.0
 40
0.636358354079598
 41
0.9219305317359503
 42
6.513795318482858
  0
ELLIPSE
  5
82
330
7E
100
AcDbEntity
  8
중심선
100
AcDbEllipse
 10
20.54032771746488
 20
12.04717430159265
 30
0.0
 11
3.960054785062283
 21
1.540847449632565E-10
 31
0.0
210
0.0
220
0.0
230
1.0
 40
0.3939339440162632
 41
1.131841032648279
 42
5.62031148352944
  0
LINE
  5
83
330
7E
100
AcDbEntity
  8
중심선
100
AcDbLine
 10
2.268634060543552
 20
16.24717430164393
 30
0.0
 11
5.714909304380834
 21
16.24717430164393
 31
0.0
  0
LINE
  5
84
330
7E
100
AcDbEntity
  8
중심선
100
AcDbLine
 10
5.245725140726316
 20
7.84717430164391
 30
0.0
 11
8.692000384563599
 21
7.84717430164391
 31
0.0
  0
LINE
  5
85
330
7E
100
AcDbEntity
  8
중심선
100
AcDbLine
 10
15.74043728645272
 20
16.24717430164393
 30
0.0
 11
8.692000384563599
 21
7.84717430164391
 31
0.0
  0
LINE
  5
86
330
7E
100
AcDbEntity
  8
중심선
100
AcDbLine
 10
0.1404042013395286
 20
13.71084872107135
 30
0.0
 11
3.58671253028996
 21
13.71088815037384
 31
0.0
  0
LINE
  5
87
330
7E
100
AcDbEntity
  8
중심선
100
AcDbLine
 10
2.750260043222114
 20
10.84717430164391
 30
0.0
 11
6.196535287059397
 21
10.84717430164391
 31
0.0
  0
LINE
  5
88
330
7E
100
AcDbEntity
  8
중심선
100
AcDbLine
 10
12.29416204261559
 20
16.24717430164393
 30
0.0
 11
5.245725140726316
 21
7.84717430164391
 31
0.0
  0
LINE
  5
89
330
7E
100
AcDbEntity
  8
중심선
100
AcDbLine
 10
10.72767329541681
 20
16.24717430164393
 30
0.0
 11
6.196535287059397
 21
10.84717430164391
 31
0.0
  0
LINE
  5
8A
330
7E
100
AcDbEntity
  8
중심선
100
AcDbLine
 10
7.28139805157953
 20
16.24717430164393
 30
0.0
 11
2.750260043222114
 21
10.84717430164391
 31
0.0
  0
LINE
  5
8B
330
7E
100
AcDbEntity
  8
중심선
100
AcDbLine
 10
5.714909304380834
 20
16.24717430164393
 30
0.0
 11
3.58671253028996
 21
13.71088815037384
 31
0.0
  0
LINE
  5
8C
330
7E
100
AcDbEntity
  8
중심선
100
AcDbLine
 10
2.268634060543552
 20
16.24717430164393
 30
0.0
 11
0.1404042013395286
 21
13.71084872107135
 31
0.0
  0
LINE
  5
8D
330
7E
100
AcDbEntity
  8
중심선
100
AcDbLine
 10
7.28139805157953
 20
16.24717430164393
 30
0.0
 11
10.72767329541681
 21
16.24717430164393
 31
0.0
  0
LINE
  5
8E
330
7E
100
AcDbEntity
  8
중심선
100
AcDbLine
 10
12.29416204261559
 20
16.24717430164393
 30
0.0
 11
15.74043728645272
 21
16.24717430164393
 31
0.0
  0
LINE
  5
8F
330
7E
100
AcDbEntity
  8
중심선
100
AcDbLine
 10
19.22036997980202
 20
11.08717430171403
 30
0.0
 11
23.66174974927406
 21
11.08717430171406
 31
0.0
  0
LINE
  5
90
330
7E
100
AcDbEntity
  8
중심선
100
AcDbLine
 10
19.22039502424796
 20
13.00717430171391
 30
0.0
 11
19.22036997980202
 21
11.08717430171403
 31
0.0
  0
LINE
  5
91
330
7E
100
AcDbEntity
  8
중심선
100
AcDbLine
 10
19.22039502424796
 20
13.00717430171391
 30
0.0
 11
26.96566020931264
 21
13.00717430171391
 31
0.0
  0
LINE
  5
92
330
7E
100
AcDbEntity
  8
중심선
100
AcDbLine
 10
22.22332737316547
 20
13.45928029700563
 30
0.0
 11
24.52862924686651
 21
15.39360700705356
 31
0.0
  0
ATTDEF
  5
94
330
7E
100
AcDbEntity
  8
FORMAT
 62
     2
100
AcDbText
 10
-9.18129528874128
 20
2.075366912832191
 30
0.0
 40
4.233333333333333
  1
E5077308 [ 3 FLUTE ]
 41
0.75
  7
SLDTEXTSTYLE0
 11
-9.18129528874128
 21
-0.0412997538344756
 31
0.0
100
AcDbAttributeDefinition
  3

  2
AUTOATTR0
 70
     0
 74
     1
  0
ENDBLK
  5
80
330
7E
100
AcDbEntity
  8
0
100
AcDbBlockEnd
  0
BLOCK
  5
E5
330
E4
100
AcDbEntity
  8
0
100
AcDbBlockBegin
  2
_D
 70
     0
 10
0.0
 20
0.0
 30
0.0
  3
_D
  1
_D
  0
LINE
  5
E7
330
E4
100
AcDbEntity
  8
치수문자_일반주서
 62
     0
370
    -2
100
AcDbLine
 10
35.2749081826537
 20
1.644208435270854
 30
0.0
 11
35.2749081826537
 21
42.84841009025615
 31
0.0
  0
LINE
  5
E8
330
E4
100
AcDbEntity
  8
치수문자_일반주서
 62
     0
370
    -2
100
AcDbLine
 10
9.874908182653707
 20
2.985992745603345
 30
0.0
 11
9.874908182653705
 21
42.84841009025615
 31
0.0
  0
LINE
  5
E9
330
E4
100
AcDbEntity
  8
치수문자_일반주서
 62
     0
370
    -2
100
AcDbLine
 10
31.9729081826537
 20
42.84841009025615
 30
0.0
 11
13.1769081826537
 21
42.84841009025615
 31
0.0
  0
SOLID
  5
EA
330
E4
100
AcDbEntity
  8
치수문자_일반주서
 62
     0
100
AcDbTrace
 10
31.9729081826537
 20
42.29807675692282
 30
0.0
 11
31.9729081826537
 21
43.39874342358949
 31
0.0
 12
35.2749081826537
 22
42.84841009025615
 32
0.0
 13
35.2749081826537
 23
42.84841009025615
 33
0.0
  0
SOLID
  5
EB
330
E4
100
AcDbEntity
  8
치수문자_일반주서
 62
     0
100
AcDbTrace
 10
13.1769081826537
 20
43.39874342358949
 30
0.0
 11
13.1769081826537
 21
42.29807675692282
 31
0.0
 12
9.874908182653705
 22
42.84841009025615
 32
0.0
 13
9.874908182653705
 23
42.84841009025615
 33
0.0
  0
MTEXT
  5
EC
330
E4
100
AcDbEntity
  8
치수문자_일반주서
 62
     0
100
AcDbMText
 10
28.34636827504449
 20
47.22341009025615
 30
0.0
 40
3.5
 41
0.0
 71
     2
 72
     1
  1
\A1;25.40 [1]
  7
SLDTEXTSTYLE0
 73
     1
 44
1.0
  0
POINT
  5
ED
330
E4
100
AcDbEntity
  8
Defpoints
 62
     0
100
AcDbPoint
 10
35.2749081826537
 20
1.581708435270854
 30
0.0
  0
POINT
  5
EE
330
E4
100
AcDbEntity
  8
Defpoints
 62
     0
100
AcDbPoint
 10
9.874908182653707
 20
2.923492745603345
 30
0.0
  0
POINT
  5
EF
330
E4
100
AcDbEntity
  8
Defpoints
 62
     0
100
AcDbPoint
 10
9.874908182653707
 20
42.84841009025615
 30
0.0
  0
ENDBLK
  5
E6
330
E4
100
AcDbEntity
  8
0
100
AcDbBlockEnd
  0
BLOCK
  5
FB
330
FA
100
AcDbEntity
  8
0
100
AcDbBlockBegin
  2
_D_1
 70
     0
 10
0.0
 20
0.0
 30
0.0
  3
_D_1
  1
_D_1
  0
LINE
  5
FD
330
FA
100
AcDbEntity
  8
치수문자_일반주서
 62
     0
370
    -2
100
AcDbLine
 10
35.2749081826537
 20
1.644208435270854
 30
0.0
 11
35.2749081826537
 21
61.78332401681838
 31
0.0
  0
LINE
  5
FE
330
FA
100
AcDbEntity
  8
치수문자_일반주서
 62
     0
370
    -2
100
AcDbLine
 10
-40.92509181734631
 20
2.432335151814089
 30
0.0
 11
-40.92509181734631
 21
61.78332401681838
 31
0.0
  0
LINE
  5
FF
330
FA
100
AcDbEntity
  8
치수문자_일반주서
 62
     0
370
    -2
100
AcDbLine
 10
31.9729081826537
 20
61.78332401681838
 30
0.0
 11
-37.62309181734631
 21
61.78332401681838
 31
0.0
  0
SOLID
  5
100
330
FA
100
AcDbEntity
  8
치수문자_일반주서
 62
     0
100
AcDbTrace
 10
31.9729081826537
 20
61.23299068348505
 30
0.0
 11
31.9729081826537
 21
62.33365735015172
 31
0.0
 12
35.2749081826537
 22
61.78332401681838
 32
0.0
 13
35.2749081826537
 23
61.78332401681838
 33
0.0
  0
SOLID
  5
101
330
FA
100
AcDbEntity
  8
치수문자_일반주서
 62
     0
100
AcDbTrace
 10
-37.62309181734631
 20
62.33365735015172
 30
0.0
 11
-37.62309181734631
 21
61.23299068348505
 31
0.0
 12
-40.92509181734631
 22
61.78332401681838
 32
0.0
 13
-40.92509181734631
 23
61.78332401681838
 33
0.0
  0
MTEXT
  5
102
330
FA
100
AcDbEntity
  8
치수문자_일반주서
 62
     0
100
AcDbMText
 10
0.0757015097943068
 20
66.15832401681838
 30
0.0
 40
3.5
 41
0.0
 71
     2
 72
     1
  1
\A1;76.20 [3]
  7
SLDTEXTSTYLE0
 73
     1
 44
1.0
  0
POINT
  5
103
330
FA
100
AcDbEntity
  8
Defpoints
 62
     0
100
AcDbPoint
 10
35.2749081826537
 20
1.581708435270854
 30
0.0
  0
POINT
  5
104
330
FA
100
AcDbEntity
  8
Defpoints
 62
     0
100
AcDbPoint
 10
-40.92509181734631
 20
2.369835151814089
 30
0.0
  0
POINT
  5
105
330
FA
100
AcDbEntity
  8
Defpoints
 62
     0
100
AcDbPoint
 10
-40.92509181734631
 20
61.78332401681838
 30
0.0
  0
ENDBLK
  5
FC
330
FA
100
AcDbEntity
  8
0
100
AcDbBlockEnd
  0
BLOCK
  5
10F
330
10E
100
AcDbEntity
  8
0
100
AcDbBlockBegin
  2
_D_2
 70
     0
 10
0.0
 20
0.0
 30
0.0
  3
_D_2
  1
_D_2
  0
LINE
  5
111
330
10E
100
AcDbEntity
  8
치수문자_일반주서
 62
     0
370
    -2
100
AcDbLine
 10
-40.1775918173463
 20
3.179835151814086
 30
0.0
 11
-53.92509181734627
 21
3.179835151814036
 31
0.0
  0
LINE
  5
112
330
10E
100
AcDbEntity
  8
치수문자_일반주서
 62
     0
370
    -2
100
AcDbLine
 10
-40.1775918173463
 20
-3.170164848185907
 30
0.0
 11
-53.92509181734625
 21
-3.170164848185955
 31
0.0
  0
LINE
  5
113
330
10E
100
AcDbEntity
  8
치수문자_일반주서
 62
     0
370
    -2
100
AcDbLine
 10
-53.92509181734627
 20
3.179835151814036
 30
0.0
 11
-53.92509181734638
 21
35.15883515181403
 31
0.0
  0
LINE
  5
114
330
10E
100
AcDbEntity
  8
치수문자_일반주서
 62
     0
370
    -2
100
AcDbLine
 10
-53.92509181734626
 20
-0.1221648481859638
 30
0.0
 11
-53.92509181734626
 21
0.1318351518140446
 31
0.0
  0
SOLID
  5
115
330
10E
100
AcDbEntity
  8
치수문자_일반주서
 62
     0
100
AcDbTrace
 10
-53.37475848401292
 20
-0.122164848185962
 30
0.0
 11
-54.47542515067959
 21
-0.1221648481859657
 31
0.0
 12
-53.92509181734627
 22
3.179835151814036
 32
0.0
 13
-53.92509181734627
 23
3.179835151814036
 33
0.0
  0
SOLID
  5
116
330
10E
100
AcDbEntity
  8
치수문자_일반주서
 62
     0
100
AcDbTrace
 10
-54.4754251506796
 20
0.1318351518140427
 30
0.0
 11
-53.37475848401293
 21
0.1318351518140465
 31
0.0
 12
-53.92509181734625
 22
-3.170164848185955
 32
0.0
 13
-53.92509181734625
 23
-3.170164848185955
 33
0.0
  0
MTEXT
  5
117
330
10E
100
AcDbEntity
  8
치수문자_일반주서
 62
     0
100
AcDbMText
 10
-58.30009181734633
 20
22.47133515181402
 30
0.0
 40
3.5
 41
0.0
 71
     2
 72
     1
  1
\A1;%%c6.35 [1/4]
  7
SLDTEXTSTYLE0
 11
-3.356894814614650E-15
 21
1.0
 31
0.0
 73
     1
 44
1.0
  0
POINT
  5
118
330
10E
100
AcDbEntity
  8
Defpoints
 62
     0
100
AcDbPoint
 10
-40.1150918173463
 20
3.179835151814087
 30
0.0
  0
POINT
  5
119
330
10E
100
AcDbEntity
  8
Defpoints
 62
     0
100
AcDbPoint
 10
-40.1150918173463
 20
-3.170164848185907
 30
0.0
  0
POINT
  5
168
330
10E
100
AcDbEntity
  8
Defpoints
 62
     0
100
AcDbPoint
 10
-53.92509181734624
 20
-3.170164848185955
 30
0.0
  0
ENDBLK
  5
110
330
10E
100
AcDbEntity
  8
0
100
AcDbBlockEnd
  0
BLOCK
  5
122
330
121
100
AcDbEntity
  8
0
100
AcDbBlockBegin
  2
SW_DOWELSYMBOL_0
 70
     0
 10
0.0
 20
0.0
 30
0.0
  3
SW_DOWELSYMBOL_0
  1
SW_DOWELSYMBOL_0
  0
CIRCLE
  5
124
330
121
100
AcDbEntity
  8
외형선
 62
     0
100
AcDbCircle
 10
0.0
 20
0.0
 30
0.0
 40
3.000000000000004
  0
HATCH
  5
125
330
121
100
AcDbEntity
  8
0
  6
Continuous
 62
     0
370
    30
100
AcDbHatch
 10
0.0
 20
0.0
 30
0.0
210
0.0
220
0.0
230
1.0
  2
SOLID
 70
     1
 71
     0
 91
        1
 92
        0
 93
        3
 72
     2
 10
-0.0000000000000013
 20
-0.0000000000000039
 40
3.000000000000004
 50
0.0
 51
90.0
 73
     1
 72
     1
 10
-0.0000000000000013
 20
3.0
 11
-0.0000000000000013
 21
-0.000000000000004
 72
     1
 10
-0.0000000000000013
 20
-0.0000000000000039
 11
3.000000000000003
 21
-0.0000000000000039
 97
        0
 75
     0
 76
     1
 98
        1
 10
0.0
 20
0.0
  0
HATCH
  5
126
330
121
100
AcDbEntity
  8
0
  6
Continuous
 62
     0
370
    30
100
AcDbHatch
 10
0.0
 20
0.0
 30
0.0
210
0.0
220
0.0
230
1.0
  2
SOLID
 70
     1
 71
     0
 91
        1
 92
        0
 93
        3
 72
     2
 10
-0.0000000000000013
 20
-0.0000000000000039
 40
3.000000000000004
 50
180.0
 51
270.0000000000008
 73
     1
 72
     1
 10
-0.0000000000000013
 20
-3.000000000000008
 11
-0.0000000000000013
 21
-0.000000000000004
 72
     1
 10
-0.0000000000000013
 20
-0.0000000000000039
 11
-3.000000000000006
 21
-0.0000000000000039
 97
        0
 75
     0
 76
     1
 98
        1
 10
0.0
 20
0.0
  0
ENDBLK
  5
123
330
121
100
AcDbEntity
  8
0
100
AcDbBlockEnd
  0
BLOCK
  5
153
330
152
100
AcDbEntity
  8
0
100
AcDbBlockBegin
  2
*D6
 70
     1
 10
0.0
 20
0.0
 30
0.0
  3
*D6
  1
*D6
  0
LINE
  5
155
330
152
100
AcDbEntity
  8
치수문자_일반주서
 62
     0
370
    -2
100
AcDbLine
 10
35.33494251043908
 20
-1.582664848185909
 30
0.0
 11
43.84516544605047
 21
-1.58266484818591
 31
0.0
  0
LINE
  5
156
330
152
100
AcDbEntity
  8
치수문자_일반주서
 62
     0
370
    -2
100
AcDbLine
 10
35.3374081826537
 20
1.592335151814099
 30
0.0
 11
43.84516544605047
 21
1.592335151814098
 31
0.0
  0
LINE
  5
157
330
152
100
AcDbEntity
  8
치수문자_일반주서
 62
     0
370
    -2
100
AcDbLine
 10
43.84516544605047
 20
4.894335151814098
 30
0.0
 11
43.84516544605047
 21
32.6963351518141
 31
0.0
  0
LINE
  5
158
330
152
100
AcDbEntity
  8
치수문자_일반주서
 62
     0
370
    -2
100
AcDbLine
 10
43.84516544605047
 20
-1.58266484818591
 30
0.0
 11
43.84516544605047
 21
1.592335151814098
 31
0.0
  0
LINE
  5
159
330
152
100
AcDbEntity
  8
치수문자_일반주서
 62
     0
370
    -2
100
AcDbLine
 10
43.84516544605047
 20
-4.88466484818591
 30
0.0
 11
43.84516544605047
 21
-8.18666484818591
 31
0.0
  0
SOLID
  5
15A
330
152
100
AcDbEntity
  8
치수문자_일반주서
 62
     0
100
AcDbTrace
 10
44.3954987793838
 20
-4.88466484818591
 30
0.0
 11
43.29483211271713
 21
-4.88466484818591
 31
0.0
 12
43.84516544605047
 22
-1.58266484818591
 32
0.0
 13
43.84516544605047
 23
-1.58266484818591
 33
0.0
  0
SOLID
  5
15B
330
152
100
AcDbEntity
  8
치수문자_일반주서
 62
     0
100
AcDbTrace
 10
43.29483211271713
 20
4.894335151814098
 30
0.0
 11
44.3954987793838
 21
4.894335151814098
 31
0.0
 12
43.84516544605047
 22
1.592335151814098
 32
0.0
 13
43.84516544605047
 23
1.592335151814098
 33
0.0
  0
MTEXT
  5
15C
330
152
100
AcDbEntity
  8
치수문자_일반주서
 62
     0
100
AcDbMText
 10
41.22016544605047
 20
20.4463351518141
 30
0.0
 40
3.5
 41
0.0
 71
     5
 72
     1
  1
\A1;{%%c3.18 [1/8]}
  7
SLDTEXTSTYLE0
 11
0.0
 21
1.0
 31
0.0
 73
     1
 44
1.0
  0
POINT
  5
15D
330
152
100
AcDbEntity
  8
Defpoints
 62
     0
100
AcDbPoint
 10
35.27244251043908
 20
-1.582664848185909
 30
0.0
  0
POINT
  5
15E
330
152
100
AcDbEntity
  8
Defpoints
 62
     0
100
AcDbPoint
 10
35.2749081826537
 20
1.592335151814099
 30
0.0
  0
POINT
  5
15F
330
152
100
AcDbEntity
  8
Defpoints
 62
     0
100
AcDbPoint
 10
43.84516544605047
 20
1.592335151814098
 30
0.0
  0
ENDBLK
  5
154
330
152
100
AcDbEntity
  8
0
100
AcDbBlockEnd
  0
BLOCK
  5
16F
330
16E
100
AcDbEntity
  8
0
100
AcDbBlockBegin
  2
*D7
 70
     1
 10
0.0
 20
0.0
 30
0.0
  3
*D7
  1
*D7
  0
LINE
  5
171
330
16E
100
AcDbEntity
  8
치수문자_일반주서
 62
     0
370
    -2
100
AcDbLine
 10
20.06334037176423
 20
8.98166223348127
 30
0.0
 11
21.07947765524199
 21
14.13238694182343
 31
0.0
  0
LINE
  5
172
330
16E
100
AcDbEntity
  8
치수문자_일반주서
 62
     0
370
    -2
100
AcDbLine
 10
15.39411661876687
 20
2.634243288066427
 30
0.0
 11
19.24987807183275
 21
2.432171392866092
 31
0.0
  0
ARC
  5
173
330
16E
100
AcDbEntity
  8
치수문자_일반주서
 62
     0
370
    -2
100
AcDbCircle
 10
65.5662126744223
 20
0.0048351518140897
 30
0.0
 40
46.3798966390198
100
AcDbArc
 50
168.8399713426743
 51
172.9199856713372
  0
ARC
  5
174
330
16E
100
AcDbEntity
  8
치수문자_일반주서
 62
     0
370
    -2
100
AcDbCircle
 10
65.5662126744223
 20
0.0048351518140897
 30
0.0
 40
46.3798966390198
100
AcDbArc
 50
184.0800143286629
 51
188.1600286573257
  0
ARC
  5
175
330
16E
100
AcDbEntity
  8
치수문자_일반주서
 62
     0
370
    -2
100
AcDbCircle
 10
65.5662126744223
 20
0.0048351518140897
 30
0.0
 40
46.3798966390198
100
AcDbArc
 50
177.0
 51
180.0
  0
SOLID
  5
176
330
16E
100
AcDbEntity
  8
치수문자_일반주서
 62
     0
100
AcDbTrace
 10
18.99175761061317
 20
5.76975204436765
 30
0.0
 11
20.08816865765257
 21
5.673057023600943
 31
0.0
 12
19.24987807183275
 22
2.432171392866092
 32
0.0
 13
19.24987807183275
 23
2.432171392866092
 33
0.0
  0
SOLID
  5
177
330
16E
100
AcDbEntity
  8
치수문자_일반주서
 62
     0
100
AcDbTrace
 10
19.85384292455037
 20
-3.275481697217776
 30
0.0
 11
18.75387384436988
 21
-3.314662480236983
 31
0.0
 12
19.18631603540251
 22
0.0048351518140897
 32
0.0
 13
19.18631603540251
 23
0.0048351518140897
 33
0.0
  0
MTEXT
  5
178
330
16E
100
AcDbEntity
  8
치수문자_일반주서
 62
     0
100
AcDbMText
 10
17.99604665933203
 20
12.06509322939123
 30
0.0
 40
3.5
 41
0.0
 71
     5
 72
     1
  1
\A1;3%%d
  7
SLDTEXTSTYLE0
 11
0.1935499587576679
 21
0.9810904206366022
 31
0.0
 73
     1
 44
1.0
  0
POINT
  5
179
330
16E
100
AcDbEntity
  8
Defpoints
 62
     0
100
AcDbPoint
 10
19.19337991830671
 20
0.8142759584774643
 30
0.0
  0
POINT
  5
17A
330
16E
100
AcDbEntity
  8
Defpoints
 62
     0
100
AcDbPoint
 10
15.33170227284471
 20
2.637514285331611
 30
0.0
  0
POINT
  5
17B
330
16E
100
AcDbEntity
  8
Defpoints
 62
     0
100
AcDbPoint
 10
-43.92509181734628
 20
0.0048351518140906
 30
0.0
  0
POINT
  5
17C
330
16E
100
AcDbEntity
  8
Defpoints
 62
     0
100
AcDbPoint
 10
38.27490428620233
 20
0.0048351518140906
 30
0.0
  0
POINT
  5
17D
330
16E
100
AcDbEntity
  8
Defpoints
 62
     0
100
AcDbPoint
 10
12.39344620285828
 20
2.791501760924516
 30
0.0
  0
ENDBLK
  5
170
330
16E
100
AcDbEntity
  8
0
100
AcDbBlockEnd
  0
ENDSEC
  0
SECTION
  2
ENTITIES
  0
LINE
  5
95
330
1F
100
AcDbEntity
  8
0
  6
Continuous
 62
     1
370
    15
100
AcDbLine
 10
23.63178641081532
 20
-2.192855004169981
 30
0.0
 11
26.19341045995838
 21
-2.05860597639636
 31
0.0
  0
LINE
  5
96
330
1F
100
AcDbEntity
  8
0
  6
Continuous
 62
     1
370
    15
100
AcDbLine
 10
10.15531121544932
 20
-2.899127141722105
 30
0.0
 11
13.1514493848741
 21
-2.742106193837396
 31
0.0
  0
LINE
  5
97
330
1F
100
AcDbEntity
  8
0
  6
Continuous
 62
     1
370
    15
100
AcDbLine
 10
19.68457333275833
 20
2.409389979576121
 30
0.0
 11
16.87775849275902
 21
2.556488912199169
 31
0.0
  0
LINE
  5
98
330
1F
100
AcDbEntity
  8
0
  6
Continuous
 62
     1
370
    15
100
AcDbLine
 10
32.65864474691705
 20
1.729447708500476
 30
0.0
 11
30.43990046406846
 21
1.845727169161514
 31
0.0
  0
LINE
  5
99
330
1F
100
AcDbEntity
  8
0
  6
Continuous
 62
     4
370
    15
100
AcDbLine
 10
-40.1150918173463
 20
3.179835151814086
 30
0.0
 11
-40.92509181734631
 21
2.369835151814088
 31
0.0
  0
LINE
  5
9A
330
1F
100
AcDbEntity
  8
0
  6
Continuous
 62
     4
370
    15
100
AcDbLine
 10
-40.92509181734631
 20
-2.360164848185909
 30
0.0
 11
-40.1150918173463
 21
-3.170164848185907
 31
0.0
  0
LINE
  5
9B
330
1F
100
AcDbEntity
  8
0
  6
Continuous
 62
     4
370
    15
100
AcDbLine
 10
9.15018235148445
 20
3.179835151814093
 30
0.0
 11
-40.1150918173463
 21
3.179835151814087
 31
0.0
  0
LINE
  5
9C
330
1F
100
AcDbEntity
  8
0
  6
Continuous
 62
     4
370
    15
100
AcDbLine
 10
-40.1150918173463
 20
-3.170164848185907
 30
0.0
 11
8.984908182653697
 21
-3.170164848185901
 31
0.0
  0
LINE
  5
9D
330
1F
100
AcDbEntity
  8
0
  6
Continuous
 62
     1
370
    15
100
AcDbLine
 10
28.16415334493217
 20
-1.95532371825703
 30
0.0
 11
30.50873196684131
 21
-1.832449559328278
 31
0.0
  0
LINE
  5
9E
330
1F
100
AcDbEntity
  8
0
  6
Continuous
 62
     1
370
    15
100
AcDbLine
 10
14.63427235977906
 20
-2.664394734652753
 30
0.0
 11
17.50913524189968
 21
-2.513729555257568
 31
0.0
  0
LINE
  5
9F
330
1F
100
AcDbEntity
  8
0
  6
Continuous
 62
     1
370
    15
100
AcDbLine
 10
10.96916801988337
 20
2.866145017575516
 30
0.0
 11
9.874908182653707
 21
2.923492745603345
 31
0.0
  0
LINE
  5
A0
330
1F
100
AcDbEntity
  8
0
  6
Continuous
 62
     1
370
    15
100
AcDbLine
 10
24.02661640421062
 20
2.181833144649991
 30
0.0
 11
21.37740900077338
 21
2.320672221524329
 31
0.0
  0
LINE
  5
A1
330
1F
100
AcDbEntity
  8
0
  6
Continuous
 62
     1
370
    15
100
AcDbLine
 10
35.2749081826537
 20
1.592335151814099
 30
0.0
 11
35.02421453609502
 21
1.605473449110607
 31
0.0
  0
LINE
  5
A2
330
1F
100
AcDbEntity
  8
0
  6
Continuous
 62
     1
370
    15
100
AcDbLine
 10
32.72596579577254
 20
-1.716249258202758
 30
0.0
 11
34.54225737037005
 21
-1.621061450247603
 31
0.0
  0
LINE
  5
A3
330
1F
100
AcDbEntity
  8
0
  6
Continuous
 62
     1
370
    15
100
AcDbLine
 10
19.12424172731783
 20
-2.429085411051164
 30
0.0
 11
21.85861691737239
 21
-2.28578287961376
 31
0.0
  0
LINE
  5
A4
102
{ACAD_REACTORS
102
}
330
1F
100
AcDbEntity
  8
0
  6
Continuous
 62
     1
370
    15
100
AcDbLine
 10
15.33170227284471
 20
2.637514285331611
 30
0.0
 11
12.39344620285828
 21
2.791501760924516
 31
0.0
  0
LINE
  5
A5
330
1F
100
AcDbEntity
  8
0
  6
Continuous
 62
     1
370
    15
100
AcDbLine
 10
28.35275913645768
 20
1.955109611191454
 30
0.0
 11
25.89562981872615
 21
2.083882302145018
 31
0.0
  0
LINE
  5
A6
330
1F
100
AcDbEntity
  8
0
  6
Continuous
 62
     4
370
    15
100
AcDbLine
 10
9.874908182653707
 20
2.923492745603345
 30
0.0
 11
9.3669081826537
 21
2.947425151814095
 31
0.0
  0
LINE
  5
A7
330
1F
100
AcDbEntity
  8
0
  6
Continuous
 62
     4
370
    15
100
AcDbLine
 10
9.3669081826537
 20
2.947425151814095
 30
0.0
 11
9.15018235148445
 21
3.17983515181409
 31
0.0
  0
LINE
  5
A8
330
1F
100
AcDbEntity
  8
0
  6
Continuous
 62
     1
370
    15
100
AcDbLine
 10
9.8749081826537
 20
-2.889016523850158
 30
0.0
 11
10.15453553338469
 21
-2.884326246220521
 31
0.0
  0
SPLINE
  5
A9
330
1F
100
AcDbEntity
  8
0
  6
Continuous
 62
     1
370
    15
100
AcDbSpline
210
0.0
220
0.0
230
1.0
 70
     8
 71
     3
 72
    24
 73
    20
 74
     0
 42
0.000000001
 43
0.00000001
 40
0.0
 40
0.0
 40
0.0
 40
0.0
 40
0.0247222800945685
 40
0.0891307111656985
 40
0.1554169787764783
 40
0.2196312872053471
 40
0.2857164144941928
 40
0.3497600571081878
 40
0.4156682951412201
 40
0.4795635046022714
 40
0.5453177874501459
 40
0.6090864750133825
 40
0.6747089442734098
 40
0.738379200481375
 40
0.803898352193757
 40
0.8675045016365388
 40
0.9329553908091232
 40
0.9965366394387967
 40
0.9999999999999999
 40
0.9999999999999999
 40
0.9999999999999999
 40
0.9999999999999999
 10
16.10584193688463
 20
2.416887145539106
 30
0.0
 10
16.16494582073546
 20
2.44292808509991
 30
0.0
 10
16.37803179743861
 20
2.536812931222475
 30
0.0
 10
16.75244542672185
 20
2.574764529636407
 30
0.0
 10
17.22409280485148
 20
2.526608322956148
 30
0.0
 10
17.7027943362649
 20
2.34756861654031
 30
0.0
 10
18.17886025937975
 20
2.060476632086452
 30
0.0
 10
18.66187811765067
 20
1.672416961862444
 30
0.0
 10
19.14253088532064
 20
1.211330989536484
 30
0.0
 10
19.63019608479016
 20
0.692274907058211
 30
0.0
 10
20.11567537707382
 20
0.1516712060517129
 30
0.0
 10
20.60833572233872
 20
-0.3925404366646818
 30
0.0
 10
21.09889902578655
 20
-0.9021525094748234
 30
0.0
 10
21.59691465138602
 20
-1.36024663574228
 30
0.0
 10
22.09294684368184
 20
-1.733600933698685
 30
0.0
 10
22.59660493522406
 20
-2.01410738736864
 30
0.0
 10
23.09886341850883
 20
-2.164847446625696
 30
0.0
 10
23.44549388979618
 20
-2.220569061858138
 30
0.0
 10
23.62248025526307
 20
-2.191250294830506
 30
0.0
 10
23.63162293810404
 20
-2.189735759021407
 30
0.0
  0
SPLINE
  5
AA
330
1F
100
AcDbEntity
  8
0
  6
Continuous
 62
     1
370
    15
100
AcDbSpline
210
0.0
220
0.0
230
1.0
 70
     8
 71
     3
 72
    18
 73
    14
 74
     0
 42
0.000000001
 43
0.00000001
 40
0.0
 40
0.0
 40
0.0
 40
0.0
 40
0.012348401419833
 40
0.1085092138812899
 40
0.2074228572763532
 40
0.3041796899136165
 40
0.4036977742115387
 40
0.5012078538162115
 40
0.6014916519858157
 40
0.6999241925623176
 40
0.8011436798303343
 40
0.8992322298676585
 40
0.9999999999999999
 40
0.9999999999999999
 40
0.9999999999999999
 40
0.9999999999999999
 10
29.37021270726498
 20
1.671797824175366
 30
0.0
 10
29.39357043267245
 20
1.682361762322466
 30
0.0
 10
29.59882197381114
 20
1.775190346756985
 30
0.0
 10
29.99484559005684
 20
1.844307520832221
 30
0.0
 10
30.55459645526107
 20
1.859458857294212
 30
0.0
 10
31.12511616470601
 20
1.739071703024501
 30
0.0
 10
31.69703739737242
 20
1.507812991142839
 30
0.0
 10
32.27994516898058
 20
1.174954537764916
 30
0.0
 10
32.86505024572443
 20
0.7703176708601083
 30
0.0
 10
33.46175844490699
 20
0.3169814438418482
 30
0.0
 10
34.05870491892281
 20
-0.1408177238890171
 30
0.0
 10
34.664354243894
 20
-0.5824277089463171
 30
0.0
 10
35.06957035787352
 20
-0.8213429870492014
 30
0.0
 10
35.2749081826536
 20
-0.9424100962285068
 30
0.0
  0
LINE
  5
AB
330
1F
100
AcDbEntity
  8
0
  6
Continuous
 62
     4
370
    15
100
AcDbLine
 10
9.874908182653707
 20
0.0062057098724743
 30
0.0
 11
9.874908182653707
 21
-2.889016523851035
 31
0.0
  0
SPLINE
  5
AC
330
1F
100
AcDbEntity
  8
0
  6
Continuous
 62
     1
370
    15
100
AcDbSpline
210
0.0
220
0.0
230
1.0
 70
     8
 71
     3
 72
    11
 73
     7
 74
     0
 42
0.000000001
 43
0.00000001
 40
0.0
 40
0.0
 40
0.0
 40
0.0
 40
0.2448247014123469
 40
0.4951674477254493
 40
0.7715019830605818
 40
1.0
 40
1.0
 40
1.0
 40
1.0
 10
34.60367078616294
 20
0.9466521753979557
 30
0.0
 10
34.44332596829363
 20
1.051264982339267
 30
0.0
 10
34.11902235937542
 20
1.262848439048068
 30
0.0
 10
33.61743463234338
 20
1.510440782308429
 30
0.0
 10
33.12876887740059
 20
1.683060380007636
 30
0.0
 10
32.80478414057193
 20
1.708386257128273
 30
0.0
 10
32.65814171517673
 20
1.719849291105071
 30
0.0
  0
SPLINE
  5
AD
330
1F
100
AcDbEntity
  8
0
  6
Continuous
 62
     1
370
    15
100
AcDbSpline
210
0.0
220
0.0
230
1.0
 70
     8
 71
     3
 72
    24
 73
    20
 74
     0
 42
0.000000001
 43
0.00000001
 40
0.0
 40
0.0
 40
0.0
 40
0.0
 40
0.0335079859836689
 40
0.0981482608209013
 40
0.1609916906059531
 40
0.2256533083011237
 40
0.2885484887401364
 40
0.3532616292824971
 40
0.4162396863881576
 40
0.481036603437689
 40
0.544125123358915
 40
0.609034354859193
 40
0.6722597505238873
 40
0.7373085941184455
 40
0.8006949847280328
 40
0.8659083830194
 40
0.929476889489746
 40
0.9948766558577941
 40
1.0
 40
1.0
 40
1.0
 40
1.0
 10
27.14945575615914
 20
-1.78350494132997
 30
0.0
 10
27.06211001330881
 20
-1.82772465692095
 30
0.0
 10
26.80626554819988
 20
-1.957248651032826
 30
0.0
 10
26.38983759427437
 20
-2.055150269315464
 30
0.0
 10
25.89533967273791
 20
-2.073503708495394
 30
0.0
 10
25.40829024495883
 20
-1.969274139445217
 30
0.0
 10
24.91946928246858
 20
-1.751991537054962
 30
0.0
 10
24.43765957919345
 20
-1.435119455579923
 30
0.0
 10
23.95403201195093
 20
-1.030407349131897
 30
0.0
 10
23.47716857340728
 20
-0.5660625829247495
 30
0.0
 10
22.99837716199624
 20
-0.0587802651675053
 30
0.0
 10
22.52615852232682
 20
0.456266380781757
 30
0.0
 10
22.05190246069475
 20
0.9605841978626588
 30
0.0
 10
21.58402074153203
 20
1.419769162251804
 30
0.0
 10
21.11404267939963
 20
1.816324821732533
 30
0.0
 10
20.65017202179862
 20
2.127234616230687
 30
0.0
 10
20.18441773311656
 20
2.325519243576501
 30
0.0
 10
19.86382759862818
 20
2.416378416052709
 30
0.0
 10
19.69650578850911
 20
2.40589470053418
 30
0.0
 10
19.68435023822872
 20
2.405133082362466
 30
0.0
  0
SPLINE
  5
AE
330
1F
100
AcDbEntity
  8
0
  6
Continuous
 62
     1
370
    15
100
AcDbSpline
210
0.0
220
0.0
230
1.0
 70
     8
 71
     3
 72
    17
 73
    13
 74
     0
 42
0.000000001
 43
0.00000001
 40
0.0
 40
0.0
 40
0.0
 40
0.0
 40
0.0034697456099349
 40
0.1123138659370557
 40
0.2186072025138204
 40
0.3279534242124041
 40
0.434753164196346
 40
0.5446196349929469
 40
0.6519420947460686
 40
0.762345652133362
 40
0.8791893205440819
 40
0.9999999999999999
 40
0.9999999999999999
 40
0.9999999999999999
 40
0.9999999999999999
 10
13.88662760844798
 20
-2.534285664622824
 30
0.0
 10
13.88186469452014
 20
-2.537212584461178
 30
0.0
 10
13.72769164078695
 20
-2.631955461688894
 30
0.0
 10
13.42970891880578
 20
-2.715227385028145
 30
0.0
 10
12.98875988154508
 20
-2.764957895584601
 30
0.0
 10
12.55307163663964
 20
-2.679676158056711
 30
0.0
 10
12.11478917499779
 20
-2.476650127912529
 30
0.0
 10
11.68144528354297
 20
-2.162883423068414
 30
0.0
 10
11.24552226712092
 20
-1.747427762117931
 30
0.0
 10
10.80262155761458
 20
-1.240171481477416
 30
0.0
 10
10.34399385743074
 20
-0.6470998595080996
 30
0.0
 10
10.03300047834049
 20
-0.213972783741576
 30
0.0
 10
9.8749081826537
 20
0.006205709872486
 30
0.0
  0
ELLIPSE
  5
AF
330
1F
100
AcDbEntity
  8
0
  6
Continuous
 62
     1
370
    15
100
AcDbEllipse
 10
32.17320597574763
 20
-0.0955048775951042
 30
0.0
 11
2.445147788189608
 21
1.543871623052011
 31
0.0
210
0.0
220
0.0
230
1.0
 40
0.3352728068329059
 41
5.614898375587656
 42
5.83927351516695
  0
LINE
  5
B0
330
1F
100
AcDbEntity
  8
0
  6
Continuous
 62
     1
370
    15
100
AcDbLine
 10
34.41310223607667
 20
0.6082781720812858
 30
0.0
 11
35.2749081826537
 21
0.0048351518140989
 31
0.0
  0
LINE
  5
B1
330
1F
100
AcDbEntity
  8
0
  6
Continuous
 62
     1
370
    15
100
AcDbLine
 10
35.2749081826537
 20
0.0048351518140987
 30
0.0
 11
35.2749081826537
 21
-0.9424100962309345
 31
0.0
  0
LINE
  5
B2
330
1F
100
AcDbEntity
  8
0
  6
Continuous
 62
     4
370
    15
100
AcDbLine
 10
-40.1150918173463
 20
3.179835151814086
 30
0.0
 11
-40.1150918173463
 21
-3.170164848185907
 31
0.0
  0
LINE
  5
B3
330
1F
100
AcDbEntity
  8
0
  6
Continuous
 62
     4
370
    15
100
AcDbLine
 10
-40.92509181734631
 20
-2.360164848185909
 30
0.0
 11
-40.92509181734631
 21
2.36983515181409
 31
0.0
  0
SPLINE
  5
B4
330
1F
100
AcDbEntity
  8
0
  6
Continuous
 62
     4
370
    15
100
AcDbSpline
210
0.0
220
0.0
230
1.0
 70
     8
 71
     3
 72
     8
 73
     4
 74
     0
 42
0.000000001
 43
0.00000001
 40
0.0
 40
0.0
 40
0.0
 40
0.0
 40
0.0002966808668852
 40
0.0002966808668852
 40
0.0002966808668852
 40
0.0002966808668852
 10
8.984908182653697
 20
2.795240650295534
 30
0.0
 10
9.039993028246004
 20
2.756058492339479
 30
0.0
 10
9.095105212071914
 20
2.714051476994098
 30
0.0
 10
9.15018235148446
 20
2.66938726984614
 30
0.0
  0
LINE
  5
B5
330
1F
100
AcDbEntity
  8
0
  6
Continuous
 62
     4
370
    15
100
AcDbLine
 10
8.984908182653697
 20
1.312566091156556
 30
0.0
 11
8.984908182653697
 21
2.795240650295534
 31
0.0
  0
SPLINE
  5
B6
330
1F
100
AcDbEntity
  8
0
  6
Continuous
 62
     4
370
    15
100
AcDbSpline
210
0.0
220
0.0
230
1.0
 70
     8
 71
     3
 72
     8
 73
     4
 74
     0
 42
0.000000001
 43
0.00000001
 40
0.0
 40
0.0
 40
0.0
 40
0.0
 40
0.0003003403730714
 40
0.0003003403730714
 40
0.0003003403730714
 40
0.0003003403730714
 10
9.150182351484439
 20
1.080148613472933
 30
0.0
 10
9.095094674556378
 20
1.158802838204171
 30
0.0
 10
9.039980810506842
 20
1.236382640752493
 30
0.0
 10
8.984908182653697
 20
1.312566091156557
 30
0.0
  0
LINE
  5
B7
330
1F
100
AcDbEntity
  8
0
  6
Continuous
 62
     4
370
    15
100
AcDbLine
 10
9.15018235148445
 20
1.080148613472918
 30
0.0
 11
9.150182351484451
 21
-2.822629944654441
 31
0.0
  0
SPLINE
  5
B8
330
1F
100
AcDbEntity
  8
0
  6
Continuous
 62
     4
370
    15
100
AcDbSpline
210
0.0
220
0.0
230
1.0
 70
     8
 71
     3
 72
     8
 73
     4
 74
     0
 42
0.000000001
 43
0.00000001
 40
0.0
 40
0.0
 40
0.0
 40
0.0
 40
0.0002966808668852
 40
0.0002966808668852
 40
0.0002966808668852
 40
0.0002966808668852
 10
8.984908182653697
 20
-2.702120857583969
 30
0.0
 10
9.039993028246004
 20
-2.745041978302989
 30
0.0
 10
9.095105212071914
 20
-2.785265529205451
 30
0.0
 10
9.150182351484462
 20
-2.822629944654452
 30
0.0
  0
LINE
  5
B9
330
1F
100
AcDbEntity
  8
0
  6
Continuous
 62
     4
370
    15
100
AcDbLine
 10
8.984908182653697
 20
-3.170164848185901
 30
0.0
 11
8.984908182653697
 21
-2.702120857583969
 31
0.0
  0
SPLINE
  5
BA
330
1F
100
AcDbEntity
  8
0
  6
Continuous
 62
     4
370
    15
100
AcDbSpline
210
0.0
220
0.0
230
1.0
 70
     8
 71
     3
 72
     8
 73
     4
 74
     0
 42
0.000000001
 43
0.00000001
 40
0.0
 40
0.0
 40
0.0
 40
0.0
 40
0.0003003403730714
 40
0.0003003403730714
 40
0.0003003403730714
 40
0.0003003403730714
 10
9.150182351484439
 20
-3.119952126432944
 30
0.0
 10
9.095094674556378
 20
-3.134760391048226
 30
0.0
 10
9.039980810506844
 20
-3.146323991252566
 30
0.0
 10
8.984908182653697
 20
-3.154593845831404
 30
0.0
  0
LINE
  5
BB
330
1F
100
AcDbEntity
  8
0
  6
Continuous
 62
     4
370
    15
100
AcDbLine
 10
9.15018235148445
 20
3.179835151814093
 30
0.0
 11
9.15018235148445
 21
2.669387269846147
 31
0.0
  0
SPLINE
  5
BC
330
1F
100
AcDbEntity
  8
0
  6
Continuous
 62
     4
370
    15
100
AcDbSpline
210
0.0
220
0.0
230
1.0
 70
     8
 71
     3
 72
     8
 73
     4
 74
     0
 42
0.000000001
 43
0.00000001
 40
0.0
 40
0.0
 40
0.0
 40
0.0
 40
1.0
 40
1.0
 40
1.0
 40
1.0
 10
9.3669081826537
 20
0.7161443212242227
 30
0.0
 10
9.290152902976896
 20
0.8303032828324126
 30
0.0
 10
9.218761701001014
 20
0.9523314695379257
 30
0.0
 10
9.150182351484451
 20
1.080148613472919
 30
0.0
  0
LINE
  5
BD
330
1F
100
AcDbEntity
  8
0
  6
Continuous
 62
     4
370
    15
100
AcDbLine
 10
9.3669081826537
 20
0.7161443212242231
 30
0.0
 11
9.3669081826537
 21
-2.740488302693509
 31
0.0
  0
SPLINE
  5
BE
330
1F
100
AcDbEntity
  8
0
  6
Continuous
 62
     4
370
    15
100
AcDbSpline
210
0.0
220
0.0
230
1.0
 70
     8
 71
     3
 72
     8
 73
     4
 74
     0
 42
0.000000001
 43
0.00000001
 40
0.0
 40
0.0
 40
0.0
 40
0.0
 40
1.0
 40
1.0
 40
1.0
 40
1.0
 10
9.150182351484451
 20
-2.822629944654441
 30
0.0
 10
9.223763833242103
 20
-2.799688745231934
 30
0.0
 10
9.29601439269976
 20
-2.772543114918689
 30
0.0
 10
9.366908182654502
 20
-2.740488302693148
 30
0.0
  0
SPLINE
  5
BF
330
1F
100
AcDbEntity
  8
0
  6
Continuous
 62
     4
370
    15
100
AcDbSpline
210
0.0
220
0.0
230
1.0
 70
     8
 71
     3
 72
     8
 73
     4
 74
     0
 42
0.000000001
 43
0.00000001
 40
0.0
 40
0.0
 40
0.0
 40
0.0
 40
1.0
 40
1.0
 40
1.0
 40
1.0
 10
9.874908182653707
 20
0.0062057098724743
 30
0.0
 10
9.704558244680761
 20
0.2447137340941675
 30
0.0
 10
9.536344488530215
 20
0.4821547157165049
 30
0.0
 10
9.366908182653697
 20
0.7161443212242279
 30
0.0
  0
SPLINE
  5
C0
330
1F
100
AcDbEntity
  8
0
  6
Continuous
 62
     4
370
    15
100
AcDbSpline
210
0.0
220
0.0
230
1.0
 70
     8
 71
     3
 72
     8
 73
     4
 74
     0
 42
0.000000001
 43
0.00000001
 40
0.0
 40
0.0
 40
0.0
 40
0.0
 40
1.0
 40
1.0
 40
1.0
 40
1.0
 10
9.15018235148445
 20
2.669387269846147
 30
0.0
 10
9.223763833242103
 20
2.546592083258905
 30
0.0
 10
9.296014392699758
 20
2.421822683550112
 30
0.0
 10
9.366908182654502
 20
2.294844293448192
 30
0.0
  0
SPLINE
  5
C1
330
1F
100
AcDbEntity
  8
0
  6
Continuous
 62
     4
370
    15
100
AcDbSpline
210
0.0
220
0.0
230
1.0
 70
     8
 71
     3
 72
     8
 73
     4
 74
     0
 42
0.000000001
 43
0.00000001
 40
0.0
 40
0.0
 40
0.0
 40
0.0
 40
1.0
 40
1.0
 40
1.0
 40
1.0
 10
9.3669081826537
 20
2.294844293449624
 30
0.0
 10
9.53613657150241
 20
2.142261353853238
 30
0.0
 10
9.704734587316125
 20
1.969923186077713
 30
0.0
 10
9.874908182658636
 20
1.780605134759873
 30
0.0
  0
SPLINE
  5
C2
330
1F
100
AcDbEntity
  8
0
  6
Continuous
 62
     1
370
    15
100
AcDbSpline
210
0.0
220
0.0
230
1.0
 70
     8
 71
     3
 72
    18
 73
    14
 74
     0
 42
0.000000001
 43
0.00000001
 40
0.0
 40
0.0
 40
0.0
 40
0.0
 40
0.0962509198242347
 40
0.1909347766174447
 40
0.2883596478967116
 40
0.3830724666818293
 40
0.4805539244967317
 40
0.5748588355523542
 40
0.671919483622835
 40
0.7658341799978758
 40
0.8591446545285856
 40
0.9551545732051375
 40
1.0
 40
1.0
 40
1.0
 40
1.0
 10
9.8749081826537
 20
1.780605134765366
 30
0.0
 10
10.02349517460188
 20
1.608043208819251
 30
0.0
 10
10.31825001089529
 20
1.265728840880071
 30
0.0
 10
10.7663415106274
 20
0.6810385282531256
 30
0.0
 10
11.2143959765342
 20
0.0810643805193078
 30
0.0
 10
11.66926576000714
 20
-0.5223651922362422
 30
0.0
 10
12.12175449922312
 20
-1.088979450742882
 30
0.0
 10
12.58046566561423
 20
-1.603850283962873
 30
0.0
 10
13.0360384123862
 20
-2.033644202002147
 30
0.0
 10
13.49258062559951
 20
-2.365840155181921
 30
0.0
 10
13.94997455956986
 20
-2.580181404026823
 30
0.0
 10
14.32997204419918
 20
-2.67812722856113
 30
0.0
 10
14.56018391671713
 20
-2.656222988418421
 30
0.0
 10
14.63347861236223
 20
-2.649249131696624
 30
0.0
  0
SPLINE
  5
C3
330
1F
100
AcDbEntity
  8
0
  6
Continuous
 62
     1
370
    15
100
AcDbSpline
210
0.0
220
0.0
230
1.0
 70
     8
 71
     3
 72
    23
 73
    19
 74
     0
 42
0.000000001
 43
0.00000001
 40
0.0
 40
0.0
 40
0.0
 40
0.0
 40
0.0126552095764362
 40
0.0809496078296705
 40
0.1472123053993419
 40
0.2153991793575446
 40
0.2815951599474752
 40
0.3497109919419832
 40
0.4158810578404002
 40
0.4839677735472673
 40
0.5501543521477894
 40
0.618255914295138
 40
0.6844975797847989
 40
0.7526527031408495
 40
0.8190034505986775
 40
0.8872669497385677
 40
0.9537937867100035
 40
1.0
 40
1.0
 40
1.0
 40
1.0
 10
20.51206249063804
 20
2.169823141613164
 30
0.0
 10
20.54275177452865
 20
2.184214768102535
 30
0.0
 10
20.73905713640455
 20
2.276271443522188
 30
0.0
 10
21.09906161872493
 20
2.330587431510345
 30
0.0
 10
21.59687442348754
 20
2.318900688910881
 30
0.0
 10
22.09294122749039
 20
2.175999182012875
 30
0.0
 10
22.59666511087054
 20
1.920461603006849
 30
0.0
 10
23.09862278084486
 20
1.567952998293169
 30
0.0
 10
23.60847274215162
 20
1.133097342253945
 30
0.0
 10
24.1168740557071
 20
0.6478050662842085
 30
0.0
 10
24.63334967849277
 20
0.1310913859595995
 30
0.0
 10
25.14864005362001
 20
-0.3786048499707131
 30
0.0
 10
25.67231099608583
 20
-0.8609813985493044
 30
0.0
 10
26.19499088730619
 20
-1.279656150308592
 30
0.0
 10
26.72639326573608
 20
-1.618925782384029
 30
0.0
 10
27.25730680289826
 20
-1.847558650207254
 30
0.0
 10
27.7377249557353
 20
-1.963977071134096
 30
0.0
 10
28.03967117567545
 20
-1.948059485283345
 30
0.0
 10
28.16343072452388
 20
-1.941535299472919
 30
0.0
  0
SPLINE
  5
C4
330
1F
100
AcDbEntity
  8
0
  6
Continuous
 62
     1
370
    15
100
AcDbSpline
210
0.0
220
0.0
230
1.0
 70
     8
 71
     3
 72
    10
 73
     6
 74
     0
 42
0.000000001
 43
0.00000001
 40
0.0
 40
0.0
 40
0.0
 40
0.0
 40
0.1792462499113894
 40
0.5840940576914038
 40
1.0
 40
1.0
 40
1.0
 40
1.0
 10
33.80450278933417
 20
1.406473476617135
 30
0.0
 10
33.89147867389462
 20
1.440581070338152
 30
0.0
 10
34.17489937228761
 20
1.551724499137622
 30
0.0
 10
34.6645039615022
 20
1.62549977105231
 30
0.0
 10
35.06962070999812
 20
1.596436073667887
 30
0.0
 10
35.2749081826536
 20
1.581708435266802
 30
0.0
  0
SPLINE
  5
C5
330
1F
100
AcDbEntity
  8
0
  6
Continuous
 62
     1
370
    15
100
AcDbSpline
210
0.0
220
0.0
230
1.0
 70
     8
 71
     3
 72
    14
 73
    10
 74
     0
 42
0.000000001
 43
0.00000001
 40
0.0
 40
0.0
 40
0.0
 40
0.0
 40
0.0706181066530096
 40
0.2460001567528075
 40
0.4222863049086418
 40
0.576038895407063
 40
0.7213467704309333
 40
0.9252917434997898
 40
1.0
 40
1.0
 40
1.0
 40
1.0
 10
34.50223063393204
 20
0.8107215363257774
 30
0.0
 10
34.52682841529124
 20
0.7972420601916961
 30
0.0
 10
34.61251547710769
 20
0.7502859267141586
 30
0.0
 10
34.78456896038544
 20
0.7635504690448858
 30
0.0
 10
34.97718973430991
 20
0.8427974710840888
 30
0.0
 10
35.12592102434578
 20
0.9990689074488076
 30
0.0
 10
35.23102096372302
 20
1.211965566227525
 30
0.0
 10
35.27082665904438
 20
1.414425794820827
 30
0.0
 10
35.27404526033551
 20
1.546341269058735
 30
0.0
 10
35.2749081826537
 20
1.581708435270854
 30
0.0
  0
SPLINE
  5
C6
330
1F
100
AcDbEntity
  8
0
  6
Continuous
 62
     1
370
    15
100
AcDbSpline
210
0.0
220
0.0
230
1.0
 70
     8
 71
     3
 72
    23
 73
    19
 74
     0
 42
0.000000001
 43
0.00000001
 40
0.0
 40
0.0
 40
0.0
 40
0.0
 40
0.0125146417329326
 40
0.078321108034265
 40
0.1460433489520453
 40
0.2116905056207353
 40
0.2792460013512199
 40
0.3447803091869002
 40
0.4122169758770135
 40
0.4776882181172495
 40
0.5450576254702506
 40
0.610512468140037
 40
0.6778628931373781
 40
0.7433411373894564
 40
0.8107138000792644
 40
0.8762459647168447
 40
0.9436723104342085
 40
1.0
 40
1.0
 40
1.0
 40
1.0
 10
31.58378516839529
 20
-1.530173125844607
 30
0.0
 10
31.55068879186804
 20
-1.548259779110675
 30
0.0
 10
31.34355981951298
 20
-1.66145253002278
 30
0.0
 10
30.96064345416448
 20
-1.778392062363914
 30
0.0
 10
30.4404738464513
 20
-1.856288658202109
 30
0.0
 10
29.91945598903456
 20
-1.806608990014772
 30
0.0
 10
29.40709232293608
 20
-1.643547715041638
 30
0.0
 10
28.89348454307671
 20
-1.370940017429891
 30
0.0
 10
28.38821303499935
 20
-1.01073641845237
 30
0.0
 10
27.88149063865799
 20
-0.5778129743238908
 30
0.0
 10
27.38277084809376
 20
-0.1053696981796471
 30
0.0
 10
26.88243523243556
 20
0.3870459697401344
 30
0.0
 10
26.3897455399458
 20
0.8623808223454695
 30
0.0
 10
25.89536783116447
 20
1.301042418684891
 30
0.0
 10
25.40827142230439
 20
1.671331011651985
 30
0.0
 10
24.9195159826167
 20
1.954473679396096
 30
0.0
 10
24.4600405777701
 20
2.13504538906498
 30
0.0
 10
24.16193963761834
 20
2.16247893556312
 30
0.0
 10
24.02625648855803
 20
2.174965544887012
 30
0.0
  0
SPLINE
  5
C7
330
1F
100
AcDbEntity
  8
0
  6
Continuous
 62
     1
370
    15
100
AcDbSpline
210
0.0
220
0.0
230
1.0
 70
     8
 71
     3
 72
    24
 73
    20
 74
     0
 42
0.000000001
 43
0.00000001
 40
0.0
 40
0.0
 40
0.0
 40
0.0
 40
0.0548253395190845
 40
0.1135524126116135
 40
0.1739688674202328
 40
0.2329242093613544
 40
0.2935748471174727
 40
0.3527715097874606
 40
0.4136698177373416
 40
0.4731201446456511
 40
0.5342788754765275
 40
0.5939943941161184
 40
0.6554254531903343
 40
0.7154168630967058
 40
0.7771313055904292
 40
0.8374085269630351
 40
0.8994165953593571
 40
0.959988837068599
 40
1.0
 40
1.0
 40
1.0
 40
1.0
 10
18.31073385174103
 20
-2.284886465720236
 30
0.0
 10
18.17062888598807
 20
-2.347660666868914
 30
0.0
 10
17.88044815897992
 20
-2.477676496277828
 30
0.0
 10
17.43906630541235
 20
-2.534393912745866
 30
0.0
 10
16.98931979205268
 20
-2.482292215087273
 30
0.0
 10
16.53735606108122
 20
-2.308074282061046
 30
0.0
 10
16.09073873340979
 20
-2.025193768673389
 30
0.0
 10
15.64179467760655
 20
-1.640522440360256
 30
0.0
 10
15.19811230480917
 20
-1.1776161107597
 30
0.0
 10
14.75204194211683
 20
-0.649596001716206
 30
0.0
 10
14.3111421066546
 20
-0.088647504673615
 30
0.0
 10
13.86780371686138
 20
0.4890966397847848
 30
0.0
 10
13.42954560389663
 20
1.048392327487875
 30
0.0
 10
12.98880370788252
 20
1.573161574366298
 30
0.0
 10
12.55306358119813
 20
2.030924684315627
 30
0.0
 10
12.11477855243813
 20
2.409946580036552
 30
0.0
 10
11.68149733589774
 20
2.680578739522955
 30
0.0
 10
11.29793499521341
 20
2.836802937894059
 30
0.0
 10
11.06218826860067
 20
2.847452019201895
 30
0.0
 10
10.96841036634387
 20
2.851688126826208
 30
0.0
  0
LINE
  5
C8
102
{ACAD_REACTORS
102
}
330
1F
100
AcDbEntity
  8
0
  6
Continuous
 62
     1
370
    15
100
AcDbLine
 10
35.2749081826537
 20
1.592335151814099
 30
0.0
 11
35.2749081826537
 21
1.581708435270854
 31
0.0
  0
SPLINE
  5
C9
330
1F
100
AcDbEntity
  8
0
  6
Continuous
 62
     4
370
    15
100
AcDbSpline
210
0.0
220
0.0
230
1.0
 70
     8
 71
     3
 72
     8
 73
     4
 74
     0
 42
0.000000001
 43
0.00000001
 40
0.0
 40
0.0
 40
0.0
 40
0.0
 40
1.0
 40
1.0
 40
1.0
 40
1.0
 10
9.3669081826537
 20
-2.740488302693509
 30
0.0
 10
9.53613657150211
 20
-2.816958475473495
 30
0.0
 10
9.704734587316413
 20
-2.86672958575142
 30
0.0
 10
9.874908182658638
 20
-2.889016523850804
 30
0.0
  0
SPLINE
  5
CA
330
1F
100
AcDbEntity
  8
0
  6
Continuous
 62
     1
370
    15
100
AcDbSpline
210
0.0
220
0.0
230
1.0
 70
     8
 71
     3
 72
    23
 73
    19
 74
     0
 42
0.000000001
 43
0.00000001
 40
0.0
 40
0.0
 40
0.0
 40
0.0
 40
0.0639741616471097
 40
0.1265310244566595
 40
0.1909158966503231
 40
0.2532139117925969
 40
0.3151111182961769
 40
0.3787989924882495
 40
0.4407367392953028
 40
0.5044824181927097
 40
0.5661982575769133
 40
0.6297146058638488
 40
0.69122496042129
 40
0.754528657704736
 40
0.8158536242259445
 40
0.8789652315560691
 40
0.9401272114215069
 40
1.0
 40
1.0
 40
1.0
 40
1.0
 10
11.67025519369769
 20
2.669448894020996
 30
0.0
 10
11.82239058430626
 20
2.716753761301915
 30
0.0
 10
12.1232909217894
 20
2.810315492549881
 30
0.0
 10
12.58049882260389
 20
2.790358371496321
 30
0.0
 10
13.036023714559
 20
2.653905842251212
 30
0.0
 10
13.49260598411046
 20
2.397181994759815
 30
0.0
 10
13.94988685028777
 20
2.038012785370252
 30
0.0
 10
14.40905083838008
 20
1.590735733301175
 30
0.0
 10
14.87522889622879
 20
1.071080229191744
 30
0.0
 10
15.33932865566654
 20
0.513304395521851
 30
0.0
 10
15.80996596482198
 20
-0.0655926638465519
 30
0.0
 10
16.27778253962266
 20
-0.6271747531846033
 30
0.0
 10
16.75233040440988
 20
-1.155067628667416
 30
0.0
 10
17.22412546434186
 20
-1.614139456603717
 30
0.0
 10
17.70277609226117
 20
-1.991828785436377
 30
0.0
 10
18.17890075638361
 20
-2.259922176684945
 30
0.0
 10
18.65382036652344
 20
-2.420886501315096
 30
0.0
 10
18.96844860225596
 20
-2.424397963716513
 30
0.0
 10
19.12408710250695
 20
-2.426134993899364
 30
0.0
  0
SPLINE
  5
CB
330
1F
100
AcDbEntity
  8
0
  6
Continuous
 62
     1
370
    15
100
AcDbSpline
210
0.0
220
0.0
230
1.0
 70
     8
 71
     3
 72
    22
 73
    18
 74
     0
 42
0.000000001
 43
0.00000001
 40
0.0
 40
0.0
 40
0.0
 40
0.0
 40
0.0272502513762148
 40
0.0962781546827026
 40
0.1672999991681423
 40
0.2364415726170623
 40
0.3075763513572841
 40
0.3769014209461143
 40
0.4482209589296587
 40
0.5178007848328139
 40
0.5893783874556839
 40
0.6592858664701025
 40
0.7311946125890233
 40
0.8015353893976862
 40
0.8738835550540518
 40
0.9447719311936583
 40
1.0
 40
1.0
 40
1.0
 40
1.0
 10
24.95241009278121
 20
1.920824598236152
 30
0.0
 10
25.01954798076686
 20
1.949146704849429
 30
0.0
 10
25.25675357110481
 20
2.049211842737777
 30
0.0
 10
25.67245184498563
 20
2.100653291919634
 30
0.0
 10
26.19494786627986
 20
2.069337998032849
 30
0.0
 10
26.72642682306794
 20
1.909094320317918
 30
0.0
 10
27.25721437700663
 20
1.642162519854086
 30
0.0
 10
27.79707210842231
 20
1.278412036915936
 30
0.0
 10
28.33678672491999
 20
0.8473307523701743
 30
0.0
 10
28.88592349570374
 20
0.3690098510854696
 30
0.0
 10
29.43531289810071
 20
-0.1183099719153443
 30
0.0
 10
29.99459848501495
 20
-0.590846516118102
 30
0.0
 10
30.55466757199638
 20
-1.01013661235229
 30
0.0
 10
31.12507543942716
 20
-1.356151886045707
 30
0.0
 10
31.69712975713621
 20
-1.595401460390468
 30
0.0
 10
32.23198251379304
 20
-1.723038788463443
 30
0.0
 10
32.57509733769691
 20
-1.710170361776593
 30
0.0
 10
32.72535188309866
 20
-1.704535106558328
 30
0.0
  0
SPLINE
  5
CC
330
1F
100
AcDbEntity
  8
0
  6
Continuous
 62
     1
370
    15
100
AcDbSpline
210
0.0
220
0.0
230
1.0
 70
     8
 71
     3
 72
    20
 73
    16
 74
     0
 42
0.000000001
 43
0.00000001
 40
0.0
 40
0.0
 40
0.0
 40
0.0
 40
0.0742612920236288
 40
0.1501963413985817
 40
0.2340153331357606
 40
0.3202830213104317
 40
0.403736011002566
 40
0.4896227599369583
 40
0.5727959809179559
 40
0.65839056190321
 40
0.7413624304028338
 40
0.8267462610608037
 40
0.9095754991860434
 40
0.994809141046633
 40
1.0
 40
1.0
 40
1.0
 40
1.0
 10
34.60367078616282
 20
-1.610428457221279
 30
0.0
 10
34.44333044514424
 20
-1.597806781897921
 30
0.0
 10
34.11903589083014
 20
-1.572278954355062
 30
0.0
 10
33.61737667168277
 20
-1.41214026520587
 30
0.0
 10
33.09283605328413
 20
-1.153755069816904
 30
0.0
 10
32.55571952267574
 20
-0.7961754649692755
 30
0.0
 10
32.01776677778105
 20
-0.371339914070661
 30
0.0
 10
31.48962698930072
 20
0.0849020676698025
 30
0.0
 10
30.96045045195014
 20
0.5500937541885978
 30
0.0
 10
30.44052049157886
 20
0.9855659037925084
 30
0.0
 10
29.9194572557312
 20
1.369640761548011
 30
0.0
 10
29.40703827692807
 20
1.674975434278213
 30
0.0
 10
28.8936940280896
 20
1.871338817958511
 30
0.0
 10
28.5439692049973
 20
1.962084735283887
 30
0.0
 10
28.36297380397513
 20
1.952322164416068
 30
0.0
 10
28.35258368194563
 20
1.951761739664581
 30
0.0
  0
SPLINE
  5
CD
330
1F
100
AcDbEntity
  8
0
  6
Continuous
 62
     1
370
    15
100
AcDbSpline
210
0.0
220
0.0
230
1.0
 70
     8
 71
     3
 72
    24
 73
    20
 74
     0
 42
0.000000001
 43
0.00000001
 40
0.0
 40
0.0
 40
0.0
 40
0.0
 40
0.0261945690264401
 40
0.0867125277004634
 40
0.1489758506431269
 40
0.2096479101388121
 40
0.2720687412194056
 40
0.3329151180130591
 40
0.3955143365192147
 40
0.4565524049278143
 40
0.5193479320474573
 40
0.5805941592154392
 40
0.6436029749052273
 40
0.705073906110308
 40
0.7683131506635662
 40
0.8300230159402632
 40
0.8935073849837617
 40
0.9554698460249219
 40
1.0
 40
1.0
 40
1.0
 40
1.0
 10
22.72521152939928
 20
-2.033225108604947
 30
0.0
 10
22.65758161683543
 20
-2.069338719173984
 30
0.0
 10
22.43370464979494
 20
-2.188886494656392
 30
0.0
 10
22.05200642971765
 20
-2.28101576992972
 30
0.0
 10
21.58399643379352
 20
-2.301135310895715
 30
0.0
 10
21.1140381819955
 20
-2.19593511065831
 30
0.0
 10
20.65021599541999
 20
-1.979624963151953
 30
0.0
 10
20.18424967386236
 20
-1.656646471428908
 30
0.0
 10
19.72425936220016
 20
-1.24835195243881
 30
0.0
 10
19.26209647444592
 20
-0.7675106634381591
 30
0.0
 10
18.80572478002497
 20
-0.2452889079018314
 30
0.0
 10
18.34715512636429
 20
0.3017605286461302
 30
0.0
 10
17.89420895413526
 20
0.8382493573513274
 30
0.0
 10
17.43902867019733
 20
1.347283717187515
 30
0.0
 10
16.98933338345866
 20
1.795611043988558
 30
0.0
 10
16.53733894117444
 20
2.170432645798765
 30
0.0
 10
16.09079466801478
 20
2.441891211643623
 30
0.0
 10
15.68721092222883
 20
2.603614546038956
 30
0.0
 10
15.43604822780079
 20
2.61839148016616
 30
0.0
 10
15.33102391739231
 20
2.624570492221256
 30
0.0
  0
ELLIPSE
  5
CE
330
1F
100
AcDbEntity
  8
0
  6
Continuous
 62
     1
370
    15
100
AcDbEllipse
 10
32.17320597574763
 20
0.1279204193233414
 30
0.0
 11
2.483597899653155
 21
-1.701032697949713
 31
0.0
210
0.0
220
0.0
230
1.0
 40
0.1646245233453023
 41
6.071159200655958
 42
6.160163900357245
  0
ELLIPSE
  5
CF
330
1F
100
AcDbEntity
  8
0
  6
Continuous
 62
     1
370
    15
100
AcDbEllipse
 10
35.10426236199353
 20
-0.0549085931810153
 30
0.0
 11
2.206223206756029
 21
1.120191046554809
 31
0.0
210
0.0
220
0.0
230
1.0
 40
0.5134284556394991
 41
4.149383338854108
 42
4.532291849077863
  0
LINE
  5
D0
330
1F
100
AcDbEntity
  8
0
  6
Continuous
 62
     4
370
    15
100
AcDbLine
 10
9.458948688731903
 20
-2.769225988795694
 30
0.0
 11
9.366908182653697
 21
-2.823602557269207
 31
0.0
  0
SPLINE
  5
D1
330
1F
100
AcDbEntity
  8
0
  6
Continuous
 62
     4
370
    15
100
AcDbSpline
210
0.0
220
0.0
230
1.0
 70
     8
 71
     3
 72
     8
 73
     4
 74
     0
 42
0.000000001
 43
0.00000001
 40
0.0
 40
0.0
 40
0.0
 40
0.0
 40
1.0
 40
1.0
 40
1.0
 40
1.0
 10
9.3669081826537
 20
-2.823602557269203
 30
0.0
 10
9.290152902976896
 20
-2.929514307732153
 30
0.0
 10
9.218761701001014
 20
-3.028197995612989
 30
0.0
 10
9.150182351484453
 20
-3.11995212643295
 30
0.0
  0
SPLINE
  5
D2
330
1F
100
AcDbEntity
  8
0
  6
Continuous
 62
     1
370
    15
100
AcDbSpline
210
0.0
220
0.0
230
1.0
 70
     8
 71
     3
 72
    11
 73
     7
 74
     0
 42
0.000000001
 43
0.00000001
 40
0.0
 40
0.0
 40
0.0
 40
0.0
 40
0.1610009898977589
 40
0.5510806827784506
 40
0.826485518924918
 40
1.0
 40
1.0
 40
1.0
 40
1.0
 10
34.22156181219739
 20
-1.228356432489473
 30
0.0
 10
34.25146267869025
 20
-1.192129951948651
 30
0.0
 10
34.35380857068147
 20
-1.068132493027596
 30
0.0
 10
34.54533500471626
 20
-0.8980387081628692
 30
0.0
 10
34.75925669473973
 20
-0.7590281314282439
 30
0.0
 10
34.8648503750963
 20
-0.7280446746022029
 30
0.0
 10
34.90566401788023
 20
-0.7160690740280143
 30
0.0
  0
SPLINE
  5
D3
330
1F
100
AcDbEntity
  8
0
  6
Continuous
 62
     1
370
    15
100
AcDbSpline
210
0.0
220
0.0
230
1.0
 70
     8
 71
     3
 72
     8
 73
     4
 74
     0
 42
0.000000001
 43
0.00000001
 40
0.0
 40
0.0
 40
0.0
 40
0.0
 40
1.0
 40
1.0
 40
1.0
 40
1.0
 10
34.22156181219739
 20
-1.228356432489476
 30
0.0
 10
34.35039649890489
 20
-1.355923703121453
 30
0.0
 10
34.47691708892084
 20
-1.483159357752039
 30
0.0
 10
34.60367078616292
 20
-1.610428457221284
 30
0.0
  0
LINE
  5
D4
330
1F
100
AcDbEntity
  8
0
  6
Continuous
 62
     4
370
    15
100
AcDbLine
 10
9.3669081826537
 20
2.947425151814095
 30
0.0
 11
9.3669081826537
 21
2.294844293449624
 31
0.0
  0
LINE
  5
D5
330
1F
100
AcDbEntity
  8
0
  6
Continuous
 62
     1
370
    15
100
AcDbLine
 10
35.2749081826537
 20
0.0048351518140991
 30
0.0
 11
35.2749081826537
 21
1.581708435270854
 31
0.0
  0
LINE
  5
D6
330
1F
100
AcDbEntity
  8
0
  6
Continuous
 62
     1
370
    15
100
AcDbLine
 10
35.2749081826537
 20
-0.9424100962285732
 30
0.0
 11
35.2749081826537
 21
-1.369980176693694
 31
0.0
  0
LINE
  5
D7
330
1F
100
AcDbEntity
  8
0
  6
Continuous
 62
     4
370
    15
100
AcDbLine
 10
9.874908182653707
 20
2.923492745603345
 30
0.0
 11
9.874908182653707
 21
1.780605134758579
 31
0.0
  0
LINE
  5
D8
102
{ACAD_REACTORS
102
}
330
1F
100
AcDbEntity
  8
중심선
100
AcDbLine
 10
-43.92509181734628
 20
0.0048351518140906
 30
0.0
 11
38.27490428620234
 21
0.0048351518140906
 31
0.0
  0
CIRCLE
  5
D9
330
1F
100
AcDbEntity
  8
외형선
100
AcDbCircle
 10
-0.0000000000000013
 20
-0.0000000000000039
 30
0.0
 40
3.000000000000004
  0
INSERT
  5
DA
330
1F
100
AcDbEntity
  8
0
  6
Continuous
 62
     7
100
AcDbBlockReference
 66
     1
  2
블럭10
 10
-16.63945112874702
 20
-52.04717430164393
 30
0.0
  0
ATTRIB
  5
DB
330
DA
100
AcDbEntity
  8
FORMAT
 62
     2
100
AcDbText
 10
-25.8207464174883
 20
-49.97180738881174
 30
0.0
 40
4.233333333333333
  1
E5077308 [ 3 FLUTE ]
 41
0.75
  7
SLDTEXTSTYLE0
 11
-25.8207464174883
 21
-52.08847405547841
 31
0.0
100
AcDbAttribute
  2
AUTOATTR0
 70
     0
 74
     1
  0
SEQEND
  5
DC
330
DA
100
AcDbEntity
  8
0
  6
Continuous
 62
     7
  0
HATCH
  5
DD
330
1F
100
AcDbEntity
  8
중심선
100
AcDbHatch
 10
0.0
 20
0.0
 30
0.0
210
0.0
220
0.0
230
1.0
  2
SOLID
 70
     1
 71
     0
 91
        1
 92
        0
 93
        4
 72
     1
 10
-10.92454182436617
 20
-35.8
 11
-14.37081706820345
 21
-35.8
 72
     1
 10
-14.37081706820345
 20
-35.8
 11
-16.49904692740747
 21
-38.33632558057259
 72
     1
 10
-16.49904692740747
 20
-38.33632558057259
 11
-13.05273859845704
 21
-38.3362861512701
 72
     1
 10
-13.05273859845704
 20
-38.3362861512701
 11
-10.92454182436617
 21
-35.8
 97
        0
 75
     0
 76
     1
 98
        1
 10
0.0
 20
0.0
  0
HATCH
  5
DE
330
1F
100
AcDbEntity
  8
중심선
100
AcDbHatch
 10
0.0
 20
0.0
 30
0.0
210
0.0
220
0.0
230
1.0
  2
SOLID
 70
     1
 71
     0
 91
        1
 92
        0
 93
        4
 72
     1
 10
-5.911777833330217
 20
-35.8
 11
-9.358053077167499
 21
-35.8
 72
     1
 10
-9.358053077167499
 20
-35.8
 11
-13.88919108552489
 21
-41.20000000000002
 72
     1
 10
-13.88919108552489
 20
-41.20000000000002
 11
-10.44291584168761
 21
-41.20000000000002
 72
     1
 10
-10.44291584168761
 20
-41.20000000000002
 11
-5.911777833330217
 21
-35.8
 97
        0
 75
     0
 76
     1
 98
        1
 10
0.0
 20
0.0
  0
HATCH
  5
DF
330
1F
100
AcDbEntity
  8
중심선
100
AcDbHatch
 10
0.0
 20
0.0
 30
0.0
210
0.0
220
0.0
230
1.0
  2
SOLID
 70
     1
 71
     0
 91
        1
 92
        0
 93
        4
 72
     1
 10
-0.8990138422943217
 20
-35.80000000000003
 11
-4.345289086131437
 21
-35.8
 72
     1
 10
-4.345289086131437
 20
-35.8
 11
-11.39372598802069
 21
-44.20000000000002
 72
     1
 10
-11.39372598802069
 20
-44.20000000000002
 11
-7.947450744183405
 21
-44.20000000000002
 72
     1
 10
-7.947450744183405
 20
-44.20000000000002
 11
-0.8990138422943215
 21
-35.80000000000003
 97
        0
 75
     0
 76
     1
 98
        1
 10
0.0
 20
0.0
  0
HATCH
  5
E0
330
1F
100
AcDbEntity
  8
중심선
100
AcDbHatch
 10
0.0
 20
0.0
 30
0.0
210
0.0
220
0.0
230
1.0
  2
SOLID
 70
     1
 71
     0
 91
        1
 92
        0
 93
        6
 72
     3
 10
3.900876588717877
 20
-40.00000000005127
 11
3.960054785062284
 21
1.540850780301639E-10
 40
0.3939339440162633
 50
17.09539180608433
 51
320.0019657685079
 73
     0
 72
     1
 10
5.583876244418473
 20
-38.5878940046383
 11
7.889178118119511
 21
-36.65356729459038
 72
     3
 10
3.900876588665031
 20
-40.00000000000015
 11
6.600054785286829
 21
-1.249000902703301E-13
 40
0.6363583540795982
 50
39.99873849337408
 51
368.4976242363725
 73
     1
 72
     1
 10
10.32620908056564
 20
-39.03999999993002
 11
2.580943895500953
 21
-39.03999999992999
 72
     1
 10
2.580943895500953
 20
-39.03999999992999
 11
2.58091885105502
 21
-40.95999999992991
 72
     1
 10
2.58091885105502
 20
-40.95999999992991
 11
7.022298620527057
 21
-40.95999999992988
 97
        0
 75
     0
 76
     1
 98
        1
 10
0.0
 20
0.0
  0
POINT
  5
E1
330
1F
100
AcDbEntity
  8
치수문자_일반주서
100
AcDbPoint
 10
-0.0000000000000013
 20
-0.0000000000000039
 30
0.0
  0
DIMENSION
  5
E2
330
1F
100
AcDbEntity
  8
치수문자_일반주서
100
AcDbDimension
  2
_D
 10
9.874908182653705
 20
42.84841009025615
 30
0.0
 11
28.34636827504449
 21
42.84841009025615
 31
0.0
 70
   160
  1
<>
 71
     2
 42
25.39999999999999
  3
SLDDIMSTYLE0
100
AcDbAlignedDimension
 13
35.2749081826537
 23
1.581708435270854
 33
0.0
 14
9.874908182653707
 24
2.923492745603345
 34
0.0
100
AcDbRotatedDimension
1001
ACAD
1000
DSTYLE
1002
{
1070
   171
1070
     6
1070
   273
1070
     7
1002
}
  0
DIMENSION
  5
F8
330
1F
100
AcDbEntity
  8
치수문자_일반주서
100
AcDbDimension
  2
_D_1
 10
-40.92509181734631
 20
61.78332401681838
 30
0.0
 11
0.0757015097943068
 21
61.78332401681838
 31
0.0
 70
   160
  1
<>
 71
     2
 42
76.2
  3
SLDDIMSTYLE1
100
AcDbAlignedDimension
 13
35.2749081826537
 23
1.581708435270854
 33
0.0
 14
-40.92509181734631
 24
2.369835151814089
 34
0.0
 50
0.0000000000000053
100
AcDbRotatedDimension
1001
ACAD
1000
DSTYLE
1002
{
1070
   171
1070
     6
1070
   273
1070
     7
1002
}
  0
DIMENSION
  5
10C
330
1F
100
AcDbEntity
  8
치수문자_일반주서
100
AcDbDimension
  2
_D_2
 10
-53.92509181734625
 20
-3.170164848185955
 30
0.0
 11
-53.92509181734633
 21
22.47133515181404
 31
0.0
 70
   160
  1
%%c<>
 71
     2
 42
6.349999999999994
  3
SLDDIMSTYLE2
100
AcDbAlignedDimension
 13
-40.1150918173463
 23
3.179835151814087
 33
0.0
 14
-40.1150918173463
 24
-3.170164848185907
 34
0.0
 50
90.0000000000002
100
AcDbRotatedDimension
1001
ACAD
1000
DSTYLE
1002
{
1070
   171
1070
     6
1070
   273
1070
     7
1002
}
1001
ACAD_DSTYLE_DIMFLIPARROW_SYMBOL
1070
   385
1070
     0
1001
ACAD_DSTYLE_DIMFLIPARROW_WHICH_SYMBOL
1070
   386
1070
     3
  0
INSERT
  5
127
330
1F
100
AcDbEntity
  8
외형선
100
AcDbBlockReference
  2
SW_DOWELSYMBOL_0
 10
-0.0000000000000013
 20
-0.0000000000000039
 30
0.0
  0
DIMENSION
  5
14F
102
{ACAD_REACTORS
102
}
102
{ACAD_XDICTIONARY
360
150
102
}
330
1F
100
AcDbEntity
  8
치수문자_일반주서
100
AcDbDimension
  2
*D6
 10
43.84516544605047
 20
1.592335151814098
 30
0.0
 11
41.22016544605047
 21
20.4463351518141
 31
0.0
 70
    32
  1
{%%c<>[]}
 71
     5
 42
3.175000000000008
  3
SLDDIMSTYLE2
100
AcDbAlignedDimension
 13
35.27244251043908
 23
-1.582664848185909
 33
0.0
 14
35.2749081826537
 24
1.592335151814099
 34
0.0
 50
90.0
100
AcDbRotatedDimension
1001
ACAD
1000
DSTYLE
1002
{
1070
   283
1070
     1
1070
   170
1070
     1
1070
   171
1070
     6
1070
   273
1070
     7
1002
}
  0
DIMENSION
  5
16B
102
{ACAD_REACTORS
102
}
102
{ACAD_XDICTIONARY
360
16C
102
}
330
1F
100
AcDbEntity
  8
치수문자_일반주서
100
AcDbDimension
  2
*D7
 10
12.39344620285828
 20
2.791501760924516
 30
0.0
 11
17.99604665933203
 21
12.06509322939123
 31
0.0
 70
    34
  1
<>
 71
     5
 42
0.05235987755983
  3
SLDDIMSTYLE2
100
AcDb2LineAngularDimension
 13
-43.92509181734628
 23
0.0048351518140906
 33
0.0
 14
38.27490428620233
 24
0.0048351518140906
 34
0.0
 15
15.33170227284471
 25
2.637514285331611
 35
0.0
 16
19.19337991830671
 26
0.8142759584774643
 36
0.0
1001
ACAD
1000
DSTYLE
1002
{
1070
   171
1070
     6
1070
   273
1070
     7
1002
}
  0
ENDSEC
  0
SECTION
  2
OBJECTS
  0
DICTIONARY
  5
C
330
0
100
AcDbDictionary
281
     1
  3
ACAD_DETAILVIEWSTYLE
350
166
  3
ACAD_GROUP
350
D
  3
ACAD_IMAGE_VARS
350
14B
  3
ACAD_LAYOUT
350
1A
  3
ACAD_MLINESTYLE
350
17
  3
ACAD_PLOTSETTINGS
350
19
  3
ACAD_PLOTSTYLENAME
350
E
  3
ACAD_SCALELIST
350
47
  3
ACAD_SECTIONVIEWSTYLE
350
167
  3
AcDbVariableDictionary
350
161
  3
APPDATA
350
149
  3
DWGPROPS
350
17E
  0
DICTIONARY
  5
150
330
14F
100
AcDbDictionary
280
     1
281
     1
  0
DICTIONARY
  5
16C
330
16B
100
AcDbDictionary
280
     1
281
     1
  0
DICTIONARY
  5
166
102
{ACAD_REACTORS
330
C
102
}
330
C
100
AcDbDictionary
281
     1
  0
DICTIONARY
  5
D
102
{ACAD_REACTORS
330
C
102
}
330
C
100
AcDbDictionary
281
     1
  0
RASTERVARIABLES
  5
14B
102
{ACAD_REACTORS
330
C
102
}
330
C
100
AcDbRasterVariables
 90
        0
 70
     1
 71
     1
 72
     1
  0
DICTIONARY
  5
1A
102
{ACAD_REACTORS
330
C
102
}
330
C
100
AcDbDictionary
281
     1
  3
Layout1
350
1E
  3
Layout2
350
26
  3
Model
350
22
  0
DICTIONARY
  5
17
102
{ACAD_REACTORS
330
C
102
}
330
C
100
AcDbDictionary
281
     1
  3
Standard
350
18
  0
DICTIONARY
  5
19
102
{ACAD_REACTORS
330
C
102
}
330
C
100
AcDbDictionary
281
     1
  0
ACDBDICTIONARYWDFLT
  5
E
102
{ACAD_REACTORS
330
C
102
}
330
C
100
AcDbDictionary
281
     1
  3
Normal
350
F
100
AcDbDictionaryWithDefault
340
F
  0
DICTIONARY
  5
47
102
{ACAD_REACTORS
330
C
102
}
330
C
100
AcDbDictionary
281
     1
  3
A0
350
48
  3
A1
350
49
  3
A2
350
4A
  3
A3
350
4B
  3
A4
350
4C
  3
A5
350
4D
  3
A6
350
4E
  3
A7
350
4F
  3
A8
350
50
  3
A9
350
51
  3
B0
350
52
  3
B1
350
53
  3
B2
350
54
  3
B3
350
55
  3
B4
350
56
  3
B5
350
57
  3
B6
350
58
  3
B7
350
59
  3
B8
350
5A
  3
B9
350
5B
  3
C0
350
5C
  3
C1
350
5D
  3
C2
350
5E
  3
C3
350
5F
  3
C4
350
60
  3
C5
350
61
  3
C6
350
62
  3
C7
350
63
  3
C8
350
64
  3
C9
350
65
  3
D0
350
66
  3
D1
350
67
  3
D2
350
68
  0
DICTIONARY
  5
167
102
{ACAD_REACTORS
330
C
102
}
330
C
100
AcDbDictionary
281
     1
  0
DICTIONARY
  5
161
102
{ACAD_REACTORS
330
C
102
}
330
C
100
AcDbDictionary
281
     1
  0
DICTIONARY
  5
149
102
{ACAD_REACTORS
330
C
102
}
330
C
100
AcDbDictionary
281
     1
  0
XRECORD
  5
17E
102
{ACAD_REACTORS
330
C
102
}
330
C
100
AcDbXrecord
280
     1
  1
DWGPROPS COOKIE
  2

  3

  4

  6

  7

  8
12015048
  9

300
=
301
=
302
=
303
=
304
=
305
=
306
=
307
=
308
=
309
=
 40
0.0
 41
2458333.348771262
 42
2458340.077481331
  1

 90
        0
  0
LAYOUT
  5
1E
102
{ACAD_REACTORS
330
1A
102
}
330
1A
100
AcDbPlotSettings
  1

  2
none_device
  4

  6

 40
0.0
 41
0.0
 42
0.0
 43
0.0
 44
0.0
 45
0.0
 46
0.0
 47
0.0
 48
0.0
 49
0.0
140
0.0
141
0.0
142
1.0
143
1.0
 70
   688
 72
     1
 73
     0
 74
     5
  7

 75
    16
147
1.0
148
0.0
149
0.0
100
AcDbLayout
  1
Layout1
 70
     1
 71
     1
 10
0.0
 20
0.0
 11
420.0
 21
297.0
 12
0.0
 22
0.0
 32
0.0
 14
1.000000000000000E+20
 24
1.000000000000000E+20
 34
1.000000000000000E+20
 15
-1.000000000000000E+20
 25
-1.000000000000000E+20
 35
-1.000000000000000E+20
146
0.0
 13
0.0
 23
0.0
 33
0.0
 16
1.0
 26
0.0
 36
0.0
 17
0.0
 27
1.0
 37
0.0
 76
     0
330
1B
  0
LAYOUT
  5
26
102
{ACAD_REACTORS
330
1A
102
}
330
1A
100
AcDbPlotSettings
  1

  2
none_device
  4

  6

 40
0.0
 41
0.0
 42
0.0
 43
0.0
 44
0.0
 45
0.0
 46
0.0
 47
0.0
 48
0.0
 49
0.0
140
0.0
141
0.0
142
1.0
143
1.0
 70
   688
 72
     1
 73
     0
 74
     5
  7

 75
    16
147
1.0
148
0.0
149
0.0
100
AcDbLayout
  1
Layout2
 70
     1
 71
     2
 10
0.0
 20
0.0
 11
0.0
 21
0.0
 12
0.0
 22
0.0
 32
0.0
 14
0.0
 24
0.0
 34
0.0
 15
0.0
 25
0.0
 35
0.0
146
0.0
 13
0.0
 23
0.0
 33
0.0
 16
1.0
 26
0.0
 36
0.0
 17
0.0
 27
1.0
 37
0.0
 76
     0
330
23
  0
LAYOUT
  5
22
102
{ACAD_REACTORS
330
1A
102
}
330
1A
100
AcDbPlotSettings
  1

  2
none_device
  4
ANSI_A_(11.00_x_8.50_Inches)
  6

 40
6.35
 41
19.05
 42
6.35000508
 43
19.05000254
 44
279.4
 45
215.9
 46
161.4861908622549
 47
105.6119490946392
 48
0.0
 49
0.0
140
0.0
141
0.0
142
0.095935652791958
143
1.0
 70
  1696
 72
     0
 73
     0
 74
     0
  7

 75
     0
147
0.0235690232323232
148
0.0
149
0.0
100
AcDbLayout
  1
Model
 70
     1
 71
     0
 10
0.0
 20
0.0
 11
420.0
 21
297.0
 12
0.0
 22
0.0
 32
0.0
 14
-58.30009181734636
 24
-49.97180738881174
 34
0.0
 15
44.39549877938379
 25
66.15832401681838
 35
0.0
146
0.0
 13
0.0
 23
0.0
 33
0.0
 16
1.0
 26
0.0
 36
0.0
 17
0.0
 27
1.0
 37
0.0
 76
     0
330
1F
331
29
  0
MLINESTYLE
  5
18
102
{ACAD_REACTORS
330
17
102
}
330
17
100
AcDbMlineStyle
  2
Standard
 70
     0
  3

 62
   256
 51
90.0
 52
90.0
 71
     2
 49
0.5
 62
   256
  6
BYLAYER
 49
-0.5
 62
   256
  6
BYLAYER
  0
ACDBPLACEHOLDER
  5
F
102
{ACAD_REACTORS
330
E
102
}
330
E
  0
SCALE
  5
48
102
{ACAD_REACTORS
330
47
102
}
330
47
100
AcDbScale
 70
     0
300
1:1
140
1.0
141
1.0
290
     1
  0
SCALE
  5
49
102
{ACAD_REACTORS
330
47
102
}
330
47
100
AcDbScale
 70
     0
300
1:2
140
1.0
141
2.0
290
     0
  0
SCALE
  5
4A
102
{ACAD_REACTORS
330
47
102
}
330
47
100
AcDbScale
 70
     0
300
1:4
140
1.0
141
4.0
290
     0
  0
SCALE
  5
4B
102
{ACAD_REACTORS
330
47
102
}
330
47
100
AcDbScale
 70
     0
300
1:5
140
1.0
141
5.0
290
     0
  0
SCALE
  5
4C
102
{ACAD_REACTORS
330
47
102
}
330
47
100
AcDbScale
 70
     0
300
1:8
140
1.0
141
8.0
290
     0
  0
SCALE
  5
4D
102
{ACAD_REACTORS
330
47
102
}
330
47
100
AcDbScale
 70
     0
300
1:10
140
1.0
141
10.0
290
     0
  0
SCALE
  5
4E
102
{ACAD_REACTORS
330
47
102
}
330
47
100
AcDbScale
 70
     0
300
1:16
140
1.0
141
16.0
290
     0
  0
SCALE
  5
4F
102
{ACAD_REACTORS
330
47
102
}
330
47
100
AcDbScale
 70
     0
300
1:20
140
1.0
141
20.0
290
     0
  0
SCALE
  5
50
102
{ACAD_REACTORS
330
47
102
}
330
47
100
AcDbScale
 70
     0
300
1:30
140
1.0
141
30.0
290
     0
  0
SCALE
  5
51
102
{ACAD_REACTORS
330
47
102
}
330
47
100
AcDbScale
 70
     0
300
1:40
140
1.0
141
40.0
290
     0
  0
SCALE
  5
52
102
{ACAD_REACTORS
330
47
102
}
330
47
100
AcDbScale
 70
     0
300
1:50
140
1.0
141
50.0
290
     0
  0
SCALE
  5
53
102
{ACAD_REACTORS
330
47
102
}
330
47
100
AcDbScale
 70
     0
300
1:100
140
1.0
141
100.0
290
     0
  0
SCALE
  5
54
102
{ACAD_REACTORS
330
47
102
}
330
47
100
AcDbScale
 70
     0
300
2:1
140
2.0
141
1.0
290
     0
  0
SCALE
  5
55
102
{ACAD_REACTORS
330
47
102
}
330
47
100
AcDbScale
 70
     0
300
4:1
140
4.0
141
1.0
290
     0
  0
SCALE
  5
56
102
{ACAD_REACTORS
330
47
102
}
330
47
100
AcDbScale
 70
     0
300
8:1
140
8.0
141
1.0
290
     0
  0
SCALE
  5
57
102
{ACAD_REACTORS
330
47
102
}
330
47
100
AcDbScale
 70
     0
300
10:1
140
10.0
141
1.0
290
     0
  0
SCALE
  5
58
102
{ACAD_REACTORS
330
47
102
}
330
47
100
AcDbScale
 70
     0
300
100:1
140
100.0
141
1.0
290
     0
  0
SCALE
  5
59
102
{ACAD_REACTORS
330
47
102
}
330
47
100
AcDbScale
 70
     0
300
1/128" = 1'-0"
140
0.0078125
141
12.0
290
     0
  0
SCALE
  5
5A
102
{ACAD_REACTORS
330
47
102
}
330
47
100
AcDbScale
 70
     0
300
1/64" = 1'-0"
140
0.015625
141
12.0
290
     0
  0
SCALE
  5
5B
102
{ACAD_REACTORS
330
47
102
}
330
47
100
AcDbScale
 70
     0
300
1/32" = 1'-0"
140
0.03125
141
12.0
290
     0
  0
SCALE
  5
5C
102
{ACAD_REACTORS
330
47
102
}
330
47
100
AcDbScale
 70
     0
300
1/16" = 1'-0"
140
0.0625
141
12.0
290
     0
  0
SCALE
  5
5D
102
{ACAD_REACTORS
330
47
102
}
330
47
100
AcDbScale
 70
     0
300
3/32" = 1'-0"
140
0.09375
141
12.0
290
     0
  0
SCALE
  5
5E
102
{ACAD_REACTORS
330
47
102
}
330
47
100
AcDbScale
 70
     0
300
1/8" = 1'-0"
140
0.125
141
12.0
290
     0
  0
SCALE
  5
5F
102
{ACAD_REACTORS
330
47
102
}
330
47
100
AcDbScale
 70
     0
300
3/16" = 1'-0"
140
0.1875
141
12.0
290
     0
  0
SCALE
  5
60
102
{ACAD_REACTORS
330
47
102
}
330
47
100
AcDbScale
 70
     0
300
1/4" = 1'-0"
140
0.25
141
12.0
290
     0
  0
SCALE
  5
61
102
{ACAD_REACTORS
330
47
102
}
330
47
100
AcDbScale
 70
     0
300
3/8" = 1'-0"
140
0.375
141
12.0
290
     0
  0
SCALE
  5
62
102
{ACAD_REACTORS
330
47
102
}
330
47
100
AcDbScale
 70
     0
300
1/2" = 1'-0"
140
0.5
141
12.0
290
     0
  0
SCALE
  5
63
102
{ACAD_REACTORS
330
47
102
}
330
47
100
AcDbScale
 70
     0
300
3/4" = 1'-0"
140
0.75
141
12.0
290
     0
  0
SCALE
  5
64
102
{ACAD_REACTORS
330
47
102
}
330
47
100
AcDbScale
 70
     0
300
1" = 1'-0"
140
1.0
141
12.0
290
     0
  0
SCALE
  5
65
102
{ACAD_REACTORS
330
47
102
}
330
47
100
AcDbScale
 70
     0
300
1-1/2" = 1'-0"
140
1.5
141
12.0
290
     0
  0
SCALE
  5
66
102
{ACAD_REACTORS
330
47
102
}
330
47
100
AcDbScale
 70
     0
300
3" = 1'-0"
140
3.0
141
12.0
290
     0
  0
SCALE
  5
67
102
{ACAD_REACTORS
330
47
102
}
330
47
100
AcDbScale
 70
     0
300
6" = 1'-0"
140
6.0
141
12.0
290
     0
  0
SCALE
  5
68
102
{ACAD_REACTORS
330
47
102
}
330
47
100
AcDbScale
 70
     0
300
1'-0" = 1'-0"
140
12.0
141
12.0
290
     0
  0
ENDSEC
  0
EOF
