  0
SECTION
  2
HEADER
  9
$ACADVER
  1
AC1015
  9
$ACADMAINTVER
 70
     6
  9
$DWGCODEPAGE
  3
ANSI_949
  9
$INSBASE
 10
0.0
 20
0.0
 30
0.0
  9
$EXTMIN
 10
-51.95009181734636
 20
-49.97180738881174
 30
0.0
  9
$EXTMAX
 10
66.36376370441224
 20
58.41813782779402
 30
0.0
  9
$LIMMIN
 10
0.0
 20
0.0
  9
$LIMMAX
 10
420.0
 20
297.0
  9
$ORTHOMODE
 70
     1
  9
$REGENMODE
 70
     1
  9
$FILLMODE
 70
     1
  9
$QTEXTMODE
 70
     0
  9
$MIRRTEXT
 70
     1
  9
$LTSCALE
 40
1.0
  9
$ATTMODE
 70
     1
  9
$TEXTSIZE
 40
3.5
  9
$TRACEWID
 40
1.0
  9
$TEXTSTYLE
  7
Standard
  9
$CLAYER
  8
0
  9
$CELTYPE
  6
ByLayer
  9
$CECOLOR
 62
   256
  9
$CELTSCALE
 40
1.0
  9
$DISPSILH
 70
     0
  9
$DIMSCALE
 40
1.0
  9
$DIMASZ
 40
3.302
  9
$DIMEXO
 40
1.0
  9
$DIMDLI
 40
3.75
  9
$DIMRND
 40
0.0
  9
$DIMDLE
 40
0.0
  9
$DIMEXE
 40
1.0
  9
$DIMTP
 40
0.0
  9
$DIMTM
 40
0.0
  9
$DIMTXT
 40
3.5
  9
$DIMCEN
 40
2.5
  9
$DIMTSZ
 40
0.0
  9
$DIMTOL
 70
     0
  9
$DIMLIM
 70
     0
  9
$DIMTIH
 70
     1
  9
$DIMTOH
 70
     1
  9
$DIMSE1
 70
     0
  9
$DIMSE2
 70
     0
  9
$DIMTAD
 70
     1
  9
$DIMZIN
 70
     0
  9
$DIMBLK
  1

  9
$DIMASO
 70
     1
  9
$DIMSHO
 70
     1
  9
$DIMPOST
  1

  9
$DIMAPOST
  1

  9
$DIMALT
 70
     0
  9
$DIMALTD
 70
     3
  9
$DIMALTF
 40
0.0393700787401575
  9
$DIMLFAC
 40
1.0
  9
$DIMTOFL
 70
     1
  9
$DIMTVP
 40
0.0
  9
$DIMTIX
 70
     0
  9
$DIMSOXD
 70
     0
  9
$DIMSAH
 70
     0
  9
$DIMBLK1
  1

  9
$DIMBLK2
  1

  9
$DIMSTYLE
  2
ISO-25
  9
$DIMCLRD
 70
     0
  9
$DIMCLRE
 70
     0
  9
$DIMCLRT
 70
     0
  9
$DIMTFAC
 40
1.0
  9
$DIMGAP
 40
1.524
  9
$DIMJUST
 70
     0
  9
$DIMSD1
 70
     0
  9
$DIMSD2
 70
     0
  9
$DIMTOLJ
 70
     0
  9
$DIMTZIN
 70
     0
  9
$DIMALTZ
 70
     0
  9
$DIMALTTZ
 70
     0
  9
$DIMUPT
 70
     0
  9
$DIMDEC
 70
     2
  9
$DIMTDEC
 70
     2
  9
$DIMALTU
 70
     2
  9
$DIMALTTD
 70
     3
  9
$DIMTXSTY
  7
Standard
  9
$DIMAUNIT
 70
     0
  9
$DIMADEC
 70
     2
  9
$DIMALTRND
 40
0.0
  9
$DIMAZIN
 70
     0
  9
$DIMDSEP
 70
    44
  9
$DIMATFIT
 70
     3
  9
$DIMFRAC
 70
     0
  9
$DIMLDRBLK
  1

  9
$DIMLUNIT
 70
     2
  9
$DIMLWD
 70
    -2
  9
$DIMLWE
 70
    -2
  9
$DIMTMOVE
 70
     0
  9
$LUNITS
 70
     2
  9
$LUPREC
 70
     2
  9
$SKETCHINC
 40
1.0
  9
$FILLETRAD
 40
10.0
  9
$AUNITS
 70
     0
  9
$AUPREC
 70
     2
  9
$MENU
  1
.
  9
$ELEVATION
 40
0.0
  9
$PELEVATION
 40
0.0
  9
$THICKNESS
 40
0.0
  9
$LIMCHECK
 70
     0
  9
$CHAMFERA
 40
0.0
  9
$CHAMFERB
 40
0.0
  9
$CHAMFERC
 40
0.0
  9
$CHAMFERD
 40
0.0
  9
$SKPOLY
 70
     0
  9
$TDCREATE
 40
2458333.723532025
  9
$TDUCREATE
 40
2458333.348532025
  9
$TDUPDATE
 40
2458340.447576574
  9
$TDUUPDATE
 40
2458340.072576574
  9
$TDINDWG
 40
0.0030536806
  9
$TDUSRTIMER
 40
2458340.072425903
  9
$USRTIMER
 70
     1
  9
$ANGBASE
 50
0.0
  9
$ANGDIR
 70
     0
  9
$PDMODE
 70
     0
  9
$PDSIZE
 40
-1.0
  9
$PLINEWID
 40
0.0
  9
$SPLFRAME
 70
     0
  9
$SPLINETYPE
 70
     6
  9
$SPLINESEGS
 70
     8
  9
$HANDSEED
  5
19F
  9
$SURFTAB1
 70
     6
  9
$SURFTAB2
 70
     6
  9
$SURFTYPE
 70
     6
  9
$SURFU
 70
     6
  9
$SURFV
 70
     6
  9
$UCSBASE
  2

  9
$UCSNAME
  2

  9
$UCSORG
 10
0.0
 20
0.0
 30
0.0
  9
$UCSXDIR
 10
1.0
 20
0.0
 30
0.0
  9
$UCSYDIR
 10
0.0
 20
1.0
 30
0.0
  9
$UCSORTHOREF
  2

  9
$UCSORTHOVIEW
 70
     0
  9
$UCSORGTOP
 10
0.0
 20
0.0
 30
0.0
  9
$UCSORGBOTTOM
 10
0.0
 20
0.0
 30
0.0
  9
$UCSORGLEFT
 10
0.0
 20
0.0
 30
0.0
  9
$UCSORGRIGHT
 10
0.0
 20
0.0
 30
0.0
  9
$UCSORGFRONT
 10
0.0
 20
0.0
 30
0.0
  9
$UCSORGBACK
 10
0.0
 20
0.0
 30
0.0
  9
$PUCSBASE
  2

  9
$PUCSNAME
  2

  9
$PUCSORG
 10
0.0
 20
0.0
 30
0.0
  9
$PUCSXDIR
 10
1.0
 20
0.0
 30
0.0
  9
$PUCSYDIR
 10
0.0
 20
1.0
 30
0.0
  9
$PUCSORTHOREF
  2

  9
$PUCSORTHOVIEW
 70
     0
  9
$PUCSORGTOP
 10
0.0
 20
0.0
 30
0.0
  9
$PUCSORGBOTTOM
 10
0.0
 20
0.0
 30
0.0
  9
$PUCSORGLEFT
 10
0.0
 20
0.0
 30
0.0
  9
$PUCSORGRIGHT
 10
0.0
 20
0.0
 30
0.0
  9
$PUCSORGFRONT
 10
0.0
 20
0.0
 30
0.0
  9
$PUCSORGBACK
 10
0.0
 20
0.0
 30
0.0
  9
$USERI1
 70
     0
  9
$USERI2
 70
     0
  9
$USERI3
 70
     0
  9
$USERI4
 70
     0
  9
$USERI5
 70
     0
  9
$USERR1
 40
0.0
  9
$USERR2
 40
0.0
  9
$USERR3
 40
0.0
  9
$USERR4
 40
0.0
  9
$USERR5
 40
0.0
  9
$WORLDVIEW
 70
     1
  9
$SHADEDGE
 70
     3
  9
$SHADEDIF
 70
    70
  9
$TILEMODE
 70
     1
  9
$MAXACTVP
 70
    64
  9
$PINSBASE
 10
0.0
 20
0.0
 30
0.0
  9
$PLIMCHECK
 70
     0
  9
$PEXTMIN
 10
1.000000000000000E+20
 20
1.000000000000000E+20
 30
1.000000000000000E+20
  9
$PEXTMAX
 10
-1.000000000000000E+20
 20
-1.000000000000000E+20
 30
-1.000000000000000E+20
  9
$PLIMMIN
 10
0.0
 20
0.0
  9
$PLIMMAX
 10
0.0
 20
0.0
  9
$UNITMODE
 70
     0
  9
$VISRETAIN
 70
     1
  9
$PLINEGEN
 70
     0
  9
$PSLTSCALE
 70
     1
  9
$TREEDEPTH
 70
  3020
  9
$CMLSTYLE
  2
Standard
  9
$CMLJUST
 70
     0
  9
$CMLSCALE
 40
20.0
  9
$PROXYGRAPHICS
 70
     1
  9
$MEASUREMENT
 70
     1
  9
$CELWEIGHT
370
    -1
  9
$ENDCAPS
280
     0
  9
$JOINSTYLE
280
     0
  9
$LWDISPLAY
290
     1
  9
$INSUNITS
 70
     4
  9
$HYPERLINKBASE
  1

  9
$STYLESHEET
  1

  9
$XEDIT
290
     1
  9
$CEPSNTYPE
380
     0
  9
$PSTYLEMODE
290
     1
  9
$FINGERPRINTGUID
  2
{3EACDD62-E52D-4CB1-ACD5-3F4BBEF1D11A}
  9
$VERSIONGUID
  2
{FAEB1C32-E019-11D5-929B-00C0DF256EC4}
  9
$EXTNAMES
290
     1
  9
$PSVPSCALE
 40
0.0
  9
$OLESTARTUP
290
     0
  0
ENDSEC
  0
SECTION
  2
CLASSES
  0
CLASS
  1
ACDBDICTIONARYWDFLT
  2
AcDbDictionaryWithDefault
  3
ObjectDBX Classes
 90
        0
280
     0
281
     0
  0
CLASS
  1
VISUALSTYLE
  2
AcDbVisualStyle
  3
ObjectDBX Classes
 90
     4095
280
     0
281
     0
  0
CLASS
  1
MATERIAL
  2
AcDbMaterial
  3
ObjectDBX Classes
 90
     1153
280
     0
281
     0
  0
CLASS
  1
SCALE
  2
AcDbScale
  3
ObjectDBX Classes
 90
     1153
280
     0
281
     0
  0
CLASS
  1
SUN
  2
AcDbSun
  3
SCENEOE
 90
     1153
280
     0
281
     0
  0
CLASS
  1
ACDBPLACEHOLDER
  2
AcDbPlaceHolder
  3
ObjectDBX Classes
 90
        0
280
     0
281
     0
  0
CLASS
  1
LAYOUT
  2
AcDbLayout
  3
ObjectDBX Classes
 90
        0
280
     0
281
     0
  0
CLASS
  1
TABLESTYLE
  2
AcDbTableStyle
  3
ObjectDBX Classes
 90
     4095
280
     0
281
     0
  0
CLASS
  1
MLEADERSTYLE
  2
AcDbMLeaderStyle
  3
ACDB_MLEADERSTYLE_CLASS
 90
     4095
280
     0
281
     0
  0
CLASS
  1
RASTERVARIABLES
  2
AcDbRasterVariables
  3
ISM
 90
        0
280
     0
281
     0
  0
CLASS
  1
DICTIONARYVAR
  2
AcDbDictionaryVar
  3
ObjectDBX Classes
 90
        0
280
     0
281
     0
  0
CLASS
  1
DIMASSOC
  2
AcDbDimAssoc
  3
"AcDbDimAssoc|Product Desc:     AcDim ARX App For Dimension|Company:          Autodesk, Inc.|WEB Address:      www.autodesk.com"
 90
        0
280
     0
281
     0
  0
ENDSEC
  0
SECTION
  2
TABLES
  0
TABLE
  2
VPORT
  5
8
330
0
100
AcDbSymbolTable
 70
     1
  0
VPORT
  5
29
330
8
100
AcDbSymbolTableRecord
100
AcDbViewportTableRecord
  2
*Active
 70
     0
 10
0.0
 20
0.0
 11
1.0
 21
1.0
 12
-16.09349980836115
 22
-4.328274084921214
 13
0.0
 23
0.0
 14
10.0
 24
10.0
 15
10.0
 25
10.0
 16
0.0
 26
0.0
 36
1.0
 17
0.0
 27
0.0
 37
0.0
 40
175.626210972164
 41
1.444267515923567
 42
50.0
 43
0.0
 44
0.0
 50
0.0
 51
0.0
 71
    16
 72
  2000
 73
     1
 74
     3
 75
     0
 76
     0
 77
     0
 78
     0
281
     0
 65
     1
110
0.0
120
0.0
130
0.0
111
1.0
121
0.0
131
0.0
112
0.0
122
1.0
132
0.0
 79
     0
146
0.0
  0
ENDTAB
  0
TABLE
  2
LTYPE
  5
5
330
0
100
AcDbSymbolTable
 70
     6
  0
LTYPE
  5
14
330
5
100
AcDbSymbolTableRecord
100
AcDbLinetypeTableRecord
  2
ByBlock
 70
     0
  3

 72
    65
 73
     0
 40
0.0
  0
LTYPE
  5
15
330
5
100
AcDbSymbolTableRecord
100
AcDbLinetypeTableRecord
  2
ByLayer
 70
     0
  3

 72
    65
 73
     0
 40
0.0
  0
LTYPE
  5
16
330
5
100
AcDbSymbolTableRecord
100
AcDbLinetypeTableRecord
  2
Continuous
 70
     0
  3
Solid line
 72
    65
 73
     0
 40
0.0
  0
LTYPE
  5
6A
330
5
100
AcDbSymbolTableRecord
100
AcDbLinetypeTableRecord
  2
HIDDEN
 70
     0
  3
Hidden __ __ __ __ __ __ __ __ __ __ __ __ __ __
 72
    65
 73
     2
 40
1.905
 49
1.27
 74
     0
 49
-0.635
 74
     0
  0
LTYPE
  5
6B
330
5
100
AcDbSymbolTableRecord
100
AcDbLinetypeTableRecord
  2
PHANTOM
 70
     0
  3
Phantom ______  __  __  ______  __  __  ______
 72
    65
 73
     6
 40
12.7
 49
6.35
 74
     0
 49
-1.27
 74
     0
 49
1.27
 74
     0
 49
-1.27
 74
     0
 49
1.27
 74
     0
 49
-1.27
 74
     0
  0
LTYPE
  5
6C
330
5
100
AcDbSymbolTableRecord
100
AcDbLinetypeTableRecord
  2
CENTER
 70
     0
  3
Center ____ _ ____ _ ____ _ ____ _ ____ _ ____
 72
    65
 73
     4
 40
10.16
 49
6.35
 74
     0
 49
-1.27
 74
     0
 49
1.27
 74
     0
 49
-1.27
 74
     0
  0
LTYPE
  5
6D
330
5
100
AcDbSymbolTableRecord
100
AcDbLinetypeTableRecord
  2
CENTERX2
 70
     0
  3
Center (2x) ________  __  ________  __  _____
 72
    65
 73
     4
 40
20.32
 49
12.7
 74
     0
 49
-2.54
 74
     0
 49
2.54
 74
     0
 49
-2.54
 74
     0
  0
LTYPE
  5
6E
330
5
100
AcDbSymbolTableRecord
100
AcDbLinetypeTableRecord
  2
DOT2
 70
     0
  3
Dot (.5x) ........................................
 72
    65
 73
     2
 40
0.635
 49
0.0
 74
     0
 49
-0.635
 74
     0
  0
ENDTAB
  0
TABLE
  2
LAYER
  5
2
330
0
100
AcDbSymbolTable
 70
    17
  0
LAYER
  5
10
330
2
100
AcDbSymbolTableRecord
100
AcDbLayerTableRecord
  2
0
 70
     0
 62
     7
  6
Continuous
370
    -3
390
F
  0
LAYER
  5
6F
330
2
100
AcDbSymbolTableRecord
100
AcDbLayerTableRecord
  2
FORMAT
 70
     0
 62
     2
  6
Continuous
370
    -3
390
F
  0
LAYER
  5
70
330
2
100
AcDbSymbolTableRecord
100
AcDbLayerTableRecord
  2
외형선
 70
     0
 62
   100
  6
Continuous
370
    30
390
F
  0
LAYER
  5
71
330
2
100
AcDbSymbolTableRecord
100
AcDbLayerTableRecord
  2
숨은선
 70
     0
 62
     2
  6
HIDDEN
370
    15
390
F
  0
LAYER
  5
72
330
2
100
AcDbSymbolTableRecord
100
AcDbLayerTableRecord
  2
중심선
 70
     0
 62
     1
  6
CENTERX2
370
    -3
390
F
  0
LAYER
  5
73
330
2
100
AcDbSymbolTableRecord
100
AcDbLayerTableRecord
  2
파단선
 70
     0
 62
     4
  6
Continuous
370
    -3
390
F
  0
LAYER
  5
74
330
2
100
AcDbSymbolTableRecord
100
AcDbLayerTableRecord
  2
해칭선
 70
     0
 62
     4
  6
Continuous
370
    -3
390
F
  0
LAYER
  5
75
330
2
100
AcDbSymbolTableRecord
100
AcDbLayerTableRecord
  2
가는실선
 70
     0
 62
     4
  6
Continuous
370
    -3
390
F
  0
LAYER
  5
76
330
2
100
AcDbSymbolTableRecord
100
AcDbLayerTableRecord
  2
치수_보조선
 70
     0
 62
     4
  6
Continuous
370
    -3
390
F
  0
LAYER
  5
77
330
2
100
AcDbSymbolTableRecord
100
AcDbLayerTableRecord
  2
치수문자_일반주서
 70
     0
 62
     7
  6
Continuous
370
    15
390
F
  0
LAYER
  5
78
330
2
100
AcDbSymbolTableRecord
100
AcDbLayerTableRecord
  2
개별주서
 70
     0
 62
   100
  6
Continuous
370
    30
390
F
  0
LAYER
  5
79
330
2
100
AcDbSymbolTableRecord
100
AcDbLayerTableRecord
  2
중간선
 70
     0
 62
     2
  6
Continuous
370
    15
390
F
  0
LAYER
  5
7A
330
2
100
AcDbSymbolTableRecord
100
AcDbLayerTableRecord
  2
윤곽선
 70
     0
 62
     3
  6
Continuous
370
    40
390
F
  0
LAYER
  5
7B
330
2
100
AcDbSymbolTableRecord
100
AcDbLayerTableRecord
  2
중심마크
 70
     0
 62
   100
  6
Continuous
370
    30
390
F
  0
LAYER
  5
7C
330
2
100
AcDbSymbolTableRecord
100
AcDbLayerTableRecord
  2
가상선
 70
     0
 62
     4
  6
PHANTOM
370
    -3
390
F
  0
LAYER
  5
7D
330
2
100
AcDbSymbolTableRecord
100
AcDbLayerTableRecord
  2
특수지정선
 70
     0
 62
     5
  6
CENTERX2
370
    60
390
F
  0
LAYER
  5
146
330
2
100
AcDbSymbolTableRecord
100
AcDbLayerTableRecord
  2
Defpoints
 70
     0
 62
     7
  6
Continuous
290
     0
370
    -3
390
F
  0
ENDTAB
  0
TABLE
  2
STYLE
  5
3
330
0
100
AcDbSymbolTable
 70
     2
  0
STYLE
  5
11
330
3
100
AcDbSymbolTableRecord
100
AcDbTextStyleTableRecord
  2
Standard
 70
     0
 40
0.0
 41
1.0
 50
0.0
 71
     0
 42
3.5
  3
txt
  4

  0
STYLE
  5
93
330
3
100
AcDbSymbolTableRecord
100
AcDbTextStyleTableRecord
  2
SLDTEXTSTYLE0
 70
     0
 40
0.0
 41
0.75
 50
0.0
 71
     0
 42
3.5
  3
TXT
  4

  0
ENDTAB
  0
TABLE
  2
VIEW
  5
6
330
0
100
AcDbSymbolTable
 70
     0
  0
ENDTAB
  0
TABLE
  2
UCS
  5
7
330
0
100
AcDbSymbolTable
 70
     0
  0
ENDTAB
  0
TABLE
  2
APPID
  5
9
330
0
100
AcDbSymbolTable
 70
     4
  0
APPID
  5
12
330
9
100
AcDbSymbolTableRecord
100
AcDbRegAppTableRecord
  2
ACAD
 70
     0
  0
APPID
  5
163
330
9
100
AcDbSymbolTableRecord
100
AcDbRegAppTableRecord
  2
PE_DIMMEASUREMENT
 70
     0
  0
APPID
  5
167
330
9
100
AcDbSymbolTableRecord
100
AcDbRegAppTableRecord
  2
ACAD_DSTYLE_DIMFLIPARROW_SYMBOL
 70
     0
  0
APPID
  5
168
330
9
100
AcDbSymbolTableRecord
100
AcDbRegAppTableRecord
  2
ACAD_DSTYLE_DIMFLIPARROW_WHICH_SYMBOL
 70
     0
  0
ENDTAB
  0
TABLE
  2
DIMSTYLE
  5
A
330
0
100
AcDbSymbolTable
 70
     3
100
AcDbDimStyleTable
  0
DIMSTYLE
105
27
330
A
100
AcDbSymbolTableRecord
100
AcDbDimStyleTableRecord
  2
ISO-25
 70
     0
 41
2.5
 42
0.625
 43
3.75
 44
1.25
 73
     0
 74
     0
 77
     1
 78
     8
140
2.5
141
2.5
143
0.03937007874016
147
0.625
171
     3
172
     1
178
     0
271
     2
272
     2
274
     3
278
    44
283
     0
284
     8
340
11
  0
DIMSTYLE
105
DE
102
{ACAD_REACTORS
330
DD
330
107
330
150
330
18B
102
}
330
A
100
AcDbSymbolTableRecord
100
AcDbDimStyleTableRecord
  2
SLDDIMSTYLE0
 70
     0
 41
3.302
 44
0.0
 45
0.000000001
 73
     0
 74
     0
 77
     1
 78
    12
 79
     3
140
3.5
143
0.0393700787401575
147
0.875
148
0.000000001
170
     1
172
     1
173
     1
178
     0
271
     2
272
     2
276
     2
284
    12
289
     0
340
93
  0
DIMSTYLE
105
F4
102
{ACAD_REACTORS
330
F3
102
}
330
A
100
AcDbSymbolTableRecord
100
AcDbDimStyleTableRecord
  2
SLDDIMSTYLE1
 70
     0
 41
3.302
 44
0.0
 45
0.000000001
 73
     0
 74
     0
 77
     1
 78
     4
 79
     1
140
3.5
143
0.0393700787401575
147
0.875
148
0.000000001
170
     1
173
     1
178
     0
271
     2
272
     2
276
     2
284
    12
340
93
  0
ENDTAB
  0
TABLE
  2
BLOCK_RECORD
  5
1
330
0
100
AcDbSymbolTable
 70
     8
  0
BLOCK_RECORD
  5
1F
330
1
100
AcDbSymbolTableRecord
100
AcDbBlockTableRecord
  2
*Model_Space
340
22
  0
BLOCK_RECORD
  5
1B
330
1
100
AcDbSymbolTableRecord
100
AcDbBlockTableRecord
  2
*Paper_Space
340
1E
  0
BLOCK_RECORD
  5
23
330
1
100
AcDbSymbolTableRecord
100
AcDbBlockTableRecord
  2
*Paper_Space0
340
26
  0
BLOCK_RECORD
  5
7E
330
1
100
AcDbSymbolTableRecord
100
AcDbBlockTableRecord
  2
블럭10
340
0
102
{BLKREFS
331
D5
102
}
  0
BLOCK_RECORD
  5
DF
330
1
100
AcDbSymbolTableRecord
100
AcDbBlockTableRecord
  2
_D
340
0
  0
BLOCK_RECORD
  5
F5
330
1
100
AcDbSymbolTableRecord
100
AcDbBlockTableRecord
  2
_D_1
340
0
  0
BLOCK_RECORD
  5
108
330
1
100
AcDbSymbolTableRecord
100
AcDbBlockTableRecord
  2
_D_2
340
0
  0
BLOCK_RECORD
  5
11B
330
1
100
AcDbSymbolTableRecord
100
AcDbBlockTableRecord
  2
SW_DOWELSYMBOL_0
340
0
102
{BLKREFS
331
121
102
}
  0
BLOCK_RECORD
  5
153
330
1
100
AcDbSymbolTableRecord
100
AcDbBlockTableRecord
  2
*D6
340
0
  0
BLOCK_RECORD
  5
18E
330
1
100
AcDbSymbolTableRecord
100
AcDbBlockTableRecord
  2
*D7
340
0
  0
ENDTAB
  0
ENDSEC
  0
SECTION
  2
BLOCKS
  0
BLOCK
  5
20
330
1F
100
AcDbEntity
  8
0
100
AcDbBlockBegin
  2
*Model_Space
 70
     0
 10
0.0
 20
0.0
 30
0.0
  3
*Model_Space
  1
*Model_Space
  0
ENDBLK
  5
21
330
1F
100
AcDbEntity
  8
0
100
AcDbBlockEnd
  0
BLOCK
  5
1C
330
1B
100
AcDbEntity
 67
     1
  8
0
100
AcDbBlockBegin
  2
*Paper_Space
 70
     0
 10
0.0
 20
0.0
 30
0.0
  3
*Paper_Space
  1
*Paper_Space
  0
ENDBLK
  5
1D
330
1B
100
AcDbEntity
 67
     1
  8
0
100
AcDbBlockEnd
  0
BLOCK
  5
24
330
23
100
AcDbEntity
  8
0
100
AcDbBlockBegin
  2
*Paper_Space0
 70
     0
 10
0.0
 20
0.0
 30
0.0
  3
*Paper_Space0
  1
*Paper_Space0
  0
ENDBLK
  5
25
330
23
100
AcDbEntity
  8
0
100
AcDbBlockEnd
  0
BLOCK
  5
7F
330
7E
100
AcDbEntity
  8
0
100
AcDbBlockBegin
  2
블럭10
 70
     2
 10
0.0
 20
0.0
 30
0.0
  3
블럭10
  1
블럭10
  0
ELLIPSE
  5
81
330
7E
100
AcDbEntity
  8
중심선
100
AcDbEllipse
 10
20.54032771741204
 20
12.0471743016438
 30
0.0
 11
6.600054785286829
 21
-1.261213355974178E-13
 31
0.0
210
0.0
220
0.0
230
1.0
 40
0.636358354079598
 41
0.9219305317359503
 42
6.513795318482858
  0
ELLIPSE
  5
82
330
7E
100
AcDbEntity
  8
중심선
100
AcDbEllipse
 10
20.54032771746488
 20
12.04717430159265
 30
0.0
 11
3.960054785062283
 21
1.540847449632565E-10
 31
0.0
210
0.0
220
0.0
230
1.0
 40
0.3939339440162632
 41
1.131841032648279
 42
5.62031148352944
  0
LINE
  5
83
330
7E
100
AcDbEntity
  8
중심선
100
AcDbLine
 10
2.268634060543552
 20
16.24717430164393
 30
0.0
 11
5.714909304380834
 21
16.24717430164393
 31
0.0
  0
LINE
  5
84
330
7E
100
AcDbEntity
  8
중심선
100
AcDbLine
 10
5.245725140726316
 20
7.84717430164391
 30
0.0
 11
8.692000384563599
 21
7.84717430164391
 31
0.0
  0
LINE
  5
85
330
7E
100
AcDbEntity
  8
중심선
100
AcDbLine
 10
15.74043728645272
 20
16.24717430164393
 30
0.0
 11
8.692000384563599
 21
7.84717430164391
 31
0.0
  0
LINE
  5
86
330
7E
100
AcDbEntity
  8
중심선
100
AcDbLine
 10
0.1404042013395286
 20
13.71084872107135
 30
0.0
 11
3.58671253028996
 21
13.71088815037384
 31
0.0
  0
LINE
  5
87
330
7E
100
AcDbEntity
  8
중심선
100
AcDbLine
 10
2.750260043222114
 20
10.84717430164391
 30
0.0
 11
6.196535287059397
 21
10.84717430164391
 31
0.0
  0
LINE
  5
88
330
7E
100
AcDbEntity
  8
중심선
100
AcDbLine
 10
12.29416204261559
 20
16.24717430164393
 30
0.0
 11
5.245725140726316
 21
7.84717430164391
 31
0.0
  0
LINE
  5
89
330
7E
100
AcDbEntity
  8
중심선
100
AcDbLine
 10
10.72767329541681
 20
16.24717430164393
 30
0.0
 11
6.196535287059397
 21
10.84717430164391
 31
0.0
  0
LINE
  5
8A
330
7E
100
AcDbEntity
  8
중심선
100
AcDbLine
 10
7.28139805157953
 20
16.24717430164393
 30
0.0
 11
2.750260043222114
 21
10.84717430164391
 31
0.0
  0
LINE
  5
8B
330
7E
100
AcDbEntity
  8
중심선
100
AcDbLine
 10
5.714909304380834
 20
16.24717430164393
 30
0.0
 11
3.58671253028996
 21
13.71088815037384
 31
0.0
  0
LINE
  5
8C
330
7E
100
AcDbEntity
  8
중심선
100
AcDbLine
 10
2.268634060543552
 20
16.24717430164393
 30
0.0
 11
0.1404042013395286
 21
13.71084872107135
 31
0.0
  0
LINE
  5
8D
330
7E
100
AcDbEntity
  8
중심선
100
AcDbLine
 10
7.28139805157953
 20
16.24717430164393
 30
0.0
 11
10.72767329541681
 21
16.24717430164393
 31
0.0
  0
LINE
  5
8E
330
7E
100
AcDbEntity
  8
중심선
100
AcDbLine
 10
12.29416204261559
 20
16.24717430164393
 30
0.0
 11
15.74043728645272
 21
16.24717430164393
 31
0.0
  0
LINE
  5
8F
330
7E
100
AcDbEntity
  8
중심선
100
AcDbLine
 10
19.22036997980202
 20
11.08717430171403
 30
0.0
 11
23.66174974927406
 21
11.08717430171406
 31
0.0
  0
LINE
  5
90
330
7E
100
AcDbEntity
  8
중심선
100
AcDbLine
 10
19.22039502424796
 20
13.00717430171391
 30
0.0
 11
19.22036997980202
 21
11.08717430171403
 31
0.0
  0
LINE
  5
91
330
7E
100
AcDbEntity
  8
중심선
100
AcDbLine
 10
19.22039502424796
 20
13.00717430171391
 30
0.0
 11
26.96566020931264
 21
13.00717430171391
 31
0.0
  0
LINE
  5
92
330
7E
100
AcDbEntity
  8
중심선
100
AcDbLine
 10
22.22332737316547
 20
13.45928029700563
 30
0.0
 11
24.52862924686651
 21
15.39360700705356
 31
0.0
  0
ATTDEF
  5
94
330
7E
100
AcDbEntity
  8
FORMAT
 62
     2
100
AcDbText
 10
-9.18129528874128
 20
2.075366912832191
 30
0.0
 40
4.233333333333333
  1
E5077212 [ 3 FLUTE ]
 41
0.75
  7
SLDTEXTSTYLE0
 11
-9.18129528874128
 21
-0.0412997538344756
 31
0.0
100
AcDbAttributeDefinition
  3

  2
AUTOATTR0
 70
     0
 74
     1
  0
ENDBLK
  5
80
330
7E
100
AcDbEntity
  8
0
100
AcDbBlockEnd
  0
BLOCK
  5
E0
330
DF
100
AcDbEntity
  8
0
100
AcDbBlockBegin
  2
_D
 70
     0
 10
0.0
 20
0.0
 30
0.0
  3
_D
  1
_D
  0
LINE
  5
E2
330
DF
100
AcDbEntity
  8
치수문자_일반주서
 62
     0
370
    -2
100
AcDbLine
 10
54.3249081826537
 20
2.432645076999229
 30
0.0
 11
54.3249081826537
 21
39.52555361008361
 31
0.0
  0
LINE
  5
E3
330
DF
100
AcDbEntity
  8
치수문자_일반주서
 62
     0
370
    -2
100
AcDbLine
 10
9.874908182653726
 20
4.000813355722281
 30
0.0
 11
9.874908182653726
 21
39.52555361008361
 31
0.0
  0
LINE
  5
E4
330
DF
100
AcDbEntity
  8
치수문자_일반주서
 62
     0
370
    -2
100
AcDbLine
 10
51.0229081826537
 20
39.52555361008361
 30
0.0
 11
13.17690818265373
 21
39.52555361008361
 31
0.0
  0
SOLID
  5
E5
330
DF
100
AcDbEntity
  8
치수문자_일반주서
 62
     0
100
AcDbTrace
 10
51.0229081826537
 20
38.97522027675027
 30
0.0
 11
51.0229081826537
 21
40.07588694341694
 31
0.0
 12
54.3249081826537
 22
39.52555361008361
 32
0.0
 13
54.3249081826537
 23
39.52555361008361
 33
0.0
  0
SOLID
  5
E6
330
DF
100
AcDbEntity
  8
치수문자_일반주서
 62
     0
100
AcDbTrace
 10
13.17690818265373
 20
40.07588694341694
 30
0.0
 11
13.17690818265373
 21
38.97522027675027
 31
0.0
 12
9.874908182653726
 22
39.52555361008361
 32
0.0
 13
9.874908182653726
 23
39.52555361008361
 33
0.0
  0
MTEXT
  5
E7
330
DF
100
AcDbEntity
  8
치수문자_일반주서
 62
     0
100
AcDbMText
 10
32.09990818265371
 20
43.90055361008361
 30
0.0
 40
3.5
 41
0.0
 71
     2
 72
     1
  1
\A1;44.45 [1 3/4]
  7
SLDTEXTSTYLE0
 73
     1
 44
1.0
  0
POINT
  5
E8
330
DF
100
AcDbEntity
  8
Defpoints
 62
     0
100
AcDbPoint
 10
54.3249081826537
 20
2.370145076999229
 30
0.0
  0
POINT
  5
E9
330
DF
100
AcDbEntity
  8
Defpoints
 62
     0
100
AcDbPoint
 10
9.874908182653726
 20
3.938313355722281
 30
0.0
  0
POINT
  5
EA
330
DF
100
AcDbEntity
  8
Defpoints
 62
     0
100
AcDbPoint
 10
9.874908182653726
 20
39.52555361008361
 30
0.0
  0
ENDBLK
  5
E1
330
DF
100
AcDbEntity
  8
0
100
AcDbBlockEnd
  0
BLOCK
  5
F6
330
F5
100
AcDbEntity
  8
0
100
AcDbBlockBegin
  2
_D_1
 70
     0
 10
0.0
 20
0.0
 30
0.0
  3
_D_1
  1
_D_1
  0
LINE
  5
F8
330
F5
100
AcDbEntity
  8
치수문자_일반주서
 62
     0
370
    -2
100
AcDbLine
 10
54.3249081826537
 20
2.432645076999229
 30
0.0
 11
54.3249081826537
 21
54.04313782779403
 31
0.0
  0
LINE
  5
F9
330
F5
100
AcDbEntity
  8
치수문자_일반주서
 62
     0
370
    -2
100
AcDbLine
 10
-34.5750918173463
 20
4.019835151814108
 30
0.0
 11
-34.5750918173463
 21
54.04313782779403
 31
0.0
  0
LINE
  5
FA
330
F5
100
AcDbEntity
  8
치수문자_일반주서
 62
     0
370
    -2
100
AcDbLine
 10
51.0229081826537
 20
54.04313782779403
 30
0.0
 11
-31.27309181734631
 21
54.04313782779403
 31
0.0
  0
SOLID
  5
FB
330
F5
100
AcDbEntity
  8
치수문자_일반주서
 62
     0
100
AcDbTrace
 10
51.0229081826537
 20
53.49280449446069
 30
0.0
 11
51.0229081826537
 21
54.59347116112736
 31
0.0
 12
54.3249081826537
 22
54.04313782779403
 32
0.0
 13
54.3249081826537
 23
54.04313782779403
 33
0.0
  0
SOLID
  5
FC
330
F5
100
AcDbEntity
  8
치수문자_일반주서
 62
     0
100
AcDbTrace
 10
-31.27309181734631
 20
54.59347116112736
 30
0.0
 11
-31.27309181734631
 21
53.49280449446069
 31
0.0
 12
-34.5750918173463
 22
54.04313782779403
 32
0.0
 13
-34.5750918173463
 23
54.04313782779403
 33
0.0
  0
MTEXT
  5
FD
330
F5
100
AcDbEntity
  8
치수문자_일반주서
 62
     0
100
AcDbMText
 10
13.31772320210671
 20
58.41813782779403
 30
0.0
 40
3.5
 41
0.0
 71
     2
 72
     1
  1
\A1;88.90 [3 1/2]
  7
SLDTEXTSTYLE0
 73
     1
 44
1.0
  0
POINT
  5
FE
330
F5
100
AcDbEntity
  8
Defpoints
 62
     0
100
AcDbPoint
 10
54.3249081826537
 20
2.370145076999229
 30
0.0
  0
POINT
  5
FF
330
F5
100
AcDbEntity
  8
Defpoints
 62
     0
100
AcDbPoint
 10
-34.5750918173463
 20
3.957335151814108
 30
0.0
  0
POINT
  5
100
330
F5
100
AcDbEntity
  8
Defpoints
 62
     0
100
AcDbPoint
 10
-34.5750918173463
 20
54.04313782779403
 30
0.0
  0
ENDBLK
  5
F7
330
F5
100
AcDbEntity
  8
0
100
AcDbBlockEnd
  0
BLOCK
  5
109
330
108
100
AcDbEntity
  8
0
100
AcDbBlockBegin
  2
_D_2
 70
     0
 10
0.0
 20
0.0
 30
0.0
  3
_D_2
  1
_D_2
  0
LINE
  5
10B
330
108
100
AcDbEntity
  8
치수문자_일반주서
 62
     0
370
    -2
100
AcDbLine
 10
-33.82759181734631
 20
4.767335151814089
 30
0.0
 11
-47.57509181734628
 21
4.767335151814038
 31
0.0
  0
LINE
  5
10C
330
108
100
AcDbEntity
  8
치수문자_일반주서
 62
     0
370
    -2
100
AcDbLine
 10
-33.82759181734631
 20
-4.757664848185907
 30
0.0
 11
-47.57509181734624
 21
-4.757664848185957
 31
0.0
  0
LINE
  5
10D
330
108
100
AcDbEntity
  8
치수문자_일반주서
 62
     0
370
    -2
100
AcDbLine
 10
-47.57509181734628
 20
4.767335151814038
 30
0.0
 11
-47.5750918173464
 21
37.62133515181404
 31
0.0
  0
LINE
  5
10E
330
108
100
AcDbEntity
  8
치수문자_일반주서
 62
     0
370
    -2
100
AcDbLine
 10
-47.57509181734626
 20
1.465335151814038
 30
0.0
 11
-47.57509181734626
 21
-1.455664848185958
 31
0.0
  0
SOLID
  5
10F
330
108
100
AcDbEntity
  8
치수문자_일반주서
 62
     0
100
AcDbTrace
 10
-47.02475848401293
 20
1.46533515181404
 30
0.0
 11
-48.1254251506796
 21
1.465335151814036
 31
0.0
 12
-47.57509181734628
 22
4.767335151814038
 32
0.0
 13
-47.57509181734628
 23
4.767335151814038
 33
0.0
  0
SOLID
  5
110
330
108
100
AcDbEntity
  8
치수문자_일반주서
 62
     0
100
AcDbTrace
 10
-48.12542515067959
 20
-1.45566484818596
 30
0.0
 11
-47.02475848401292
 21
-1.455664848185956
 31
0.0
 12
-47.57509181734624
 22
-4.757664848185957
 32
0.0
 13
-47.57509181734624
 23
-4.757664848185957
 33
0.0
  0
MTEXT
  5
111
330
108
100
AcDbEntity
  8
치수문자_일반주서
 62
     0
100
AcDbMText
 10
-51.95009181734635
 20
24.49633515181402
 30
0.0
 40
3.5
 41
0.0
 71
     2
 72
     1
  1
\A1;%%c9.53 [3/8]
  7
SLDTEXTSTYLE0
 11
-3.729883127349610E-15
 21
1.0
 31
0.0
 73
     1
 44
1.0
  0
POINT
  5
112
330
108
100
AcDbEntity
  8
Defpoints
 62
     0
100
AcDbPoint
 10
-33.76509181734631
 20
4.767335151814089
 30
0.0
  0
POINT
  5
113
330
108
100
AcDbEntity
  8
Defpoints
 62
     0
100
AcDbPoint
 10
-33.76509181734631
 20
-4.757664848185907
 30
0.0
  0
POINT
  5
164
330
108
100
AcDbEntity
  8
Defpoints
 62
     0
100
AcDbPoint
 10
-47.57509181734624
 20
-4.757664848185954
 30
0.0
  0
ENDBLK
  5
10A
330
108
100
AcDbEntity
  8
0
100
AcDbBlockEnd
  0
BLOCK
  5
11C
330
11B
100
AcDbEntity
  8
0
100
AcDbBlockBegin
  2
SW_DOWELSYMBOL_0
 70
     0
 10
0.0
 20
0.0
 30
0.0
  3
SW_DOWELSYMBOL_0
  1
SW_DOWELSYMBOL_0
  0
CIRCLE
  5
11E
330
11B
100
AcDbEntity
  8
외형선
 62
     0
100
AcDbCircle
 10
0.0
 20
0.0
 30
0.0
 40
3.000000000000004
  0
HATCH
  5
11F
330
11B
100
AcDbEntity
  8
0
  6
Continuous
 62
     0
370
    30
100
AcDbHatch
 10
0.0
 20
0.0
 30
0.0
210
0.0
220
0.0
230
1.0
  2
SOLID
 70
     1
 71
     0
 91
        1
 92
        0
 93
        3
 72
     2
 10
-0.0000000000000013
 20
-0.0000000000000039
 40
3.000000000000004
 50
0.0
 51
90.0
 73
     1
 72
     1
 10
-0.0000000000000013
 20
3.0
 11
-0.0000000000000013
 21
-0.000000000000004
 72
     1
 10
-0.0000000000000013
 20
-0.0000000000000039
 11
3.000000000000003
 21
-0.0000000000000039
 97
        0
 75
     0
 76
     1
 98
        1
 10
0.0
 20
0.0
  0
HATCH
  5
120
330
11B
100
AcDbEntity
  8
0
  6
Continuous
 62
     0
370
    30
100
AcDbHatch
 10
0.0
 20
0.0
 30
0.0
210
0.0
220
0.0
230
1.0
  2
SOLID
 70
     1
 71
     0
 91
        1
 92
        0
 93
        3
 72
     2
 10
-0.0000000000000013
 20
-0.0000000000000039
 40
3.000000000000004
 50
180.0
 51
270.0000000000007
 73
     1
 72
     1
 10
-0.0000000000000013
 20
-3.000000000000008
 11
-0.0000000000000013
 21
-0.000000000000004
 72
     1
 10
-0.0000000000000013
 20
-0.0000000000000039
 11
-3.000000000000006
 21
-0.0000000000000039
 97
        0
 75
     0
 76
     1
 98
        1
 10
0.0
 20
0.0
  0
ENDBLK
  5
11D
330
11B
100
AcDbEntity
  8
0
100
AcDbBlockEnd
  0
BLOCK
  5
154
330
153
100
AcDbEntity
  8
0
100
AcDbBlockBegin
  2
*D6
 70
     1
 10
0.0
 20
0.0
 30
0.0
  3
*D6
  1
*D6
  0
LINE
  5
156
330
153
100
AcDbEntity
  8
치수문자_일반주서
 62
     0
370
    -2
100
AcDbLine
 10
54.3874081826537
 20
2.386085151814098
 30
0.0
 11
65.8134303710789
 21
2.386085151814097
 31
0.0
  0
LINE
  5
157
330
153
100
AcDbEntity
  8
치수문자_일반주서
 62
     0
370
    -2
100
AcDbLine
 10
54.38740818265372
 20
-2.37641484818591
 30
0.0
 11
65.8134303710789
 21
-2.37641484818591
 31
0.0
  0
LINE
  5
158
330
153
100
AcDbEntity
  8
치수문자_일반주서
 62
     0
370
    -2
100
AcDbLine
 10
65.8134303710789
 20
2.386085151814097
 30
0.0
 11
65.8134303710789
 21
36.9900851518141
 31
0.0
  0
LINE
  5
159
330
153
100
AcDbEntity
  8
치수문자_일반주서
 62
     0
370
    -2
100
AcDbLine
 10
65.8134303710789
 20
2.386085151814097
 30
0.0
 11
65.8134303710789
 21
-2.37641484818591
 31
0.0
  0
LINE
  5
15A
330
153
100
AcDbEntity
  8
치수문자_일반주서
 62
     0
370
    -2
100
AcDbLine
 10
65.8134303710789
 20
5.688085151814096
 30
0.0
 11
65.8134303710789
 21
8.990085151814096
 31
0.0
  0
LINE
  5
15B
330
153
100
AcDbEntity
  8
치수문자_일반주서
 62
     0
370
    -2
100
AcDbLine
 10
65.8134303710789
 20
-5.678414848185909
 30
0.0
 11
65.8134303710789
 21
-8.980414848185909
 31
0.0
  0
SOLID
  5
15C
330
153
100
AcDbEntity
  8
치수문자_일반주서
 62
     0
100
AcDbTrace
 10
65.26309703774557
 20
5.688085151814096
 30
0.0
 11
66.36376370441222
 21
5.688085151814096
 31
0.0
 12
65.8134303710789
 22
2.386085151814097
 32
0.0
 13
65.8134303710789
 23
2.386085151814097
 33
0.0
  0
SOLID
  5
15D
330
153
100
AcDbEntity
  8
치수문자_일반주서
 62
     0
100
AcDbTrace
 10
66.36376370441222
 20
-5.678414848185909
 30
0.0
 11
65.26309703774557
 21
-5.678414848185909
 31
0.0
 12
65.8134303710789
 22
-2.37641484818591
 32
0.0
 13
65.8134303710789
 23
-2.37641484818591
 33
0.0
  0
MTEXT
  5
15E
330
153
100
AcDbEntity
  8
치수문자_일반주서
 62
     0
100
AcDbMText
 10
63.18843037107889
 20
22.9900851518141
 30
0.0
 40
3.5
 41
0.0
 71
     5
 72
     1
  1
\A1;{%%c4.76 [3/16]}
  7
SLDTEXTSTYLE0
 11
0.0
 21
1.0
 31
0.0
 73
     1
 44
1.0
  0
POINT
  5
15F
330
153
100
AcDbEntity
  8
Defpoints
 62
     0
100
AcDbPoint
 10
54.3249081826537
 20
2.386085151814098
 30
0.0
  0
POINT
  5
160
330
153
100
AcDbEntity
  8
Defpoints
 62
     0
100
AcDbPoint
 10
54.32490818265372
 20
-2.37641484818591
 30
0.0
  0
POINT
  5
162
330
153
100
AcDbEntity
  8
Defpoints
 62
     0
100
AcDbPoint
 10
65.8134303710789
 20
-2.376414848185911
 30
0.0
  0
ENDBLK
  5
155
330
153
100
AcDbEntity
  8
0
100
AcDbBlockEnd
  0
BLOCK
  5
18F
330
18E
100
AcDbEntity
  8
0
100
AcDbBlockBegin
  2
*D7
 70
     1
 10
0.0
 20
0.0
 30
0.0
  3
*D7
  1
*D7
  0
LINE
  5
191
330
18E
100
AcDbEntity
  8
치수문자_일반주서
 62
     0
370
    -2
100
AcDbLine
 10
26.69123766293217
 20
9.95424832291259
 30
0.0
 11
27.23343219544165
 21
15.17617565761544
 31
0.0
  0
LINE
  5
192
330
18E
100
AcDbEntity
  8
치수문자_일반주서
 62
     0
370
    -2
100
AcDbLine
 10
24.33176835618909
 20
3.433468674027826
 30
0.0
 11
26.23478387338274
 21
3.367013907812687
 31
0.0
  0
ARC
  5
193
330
18E
100
AcDbEntity
  8
치수문자_일반주서
 62
     0
370
    -2
100
AcDbCircle
 10
122.5149863125972
 20
0.0048351518140897
 30
0.0
 40
96.3388894877007
100
AcDbArc
 50
174.0722004003436
 51
176.0361002001718
  0
ARC
  5
194
330
18E
100
AcDbEntity
  8
치수문자_일반주서
 62
     0
370
    -2
100
AcDbCircle
 10
122.5149863125972
 20
0.0048351518140897
 30
0.0
 40
96.3388894877007
100
AcDbArc
 50
181.9638997998282
 51
183.9277995996564
  0
ARC
  5
195
330
18E
100
AcDbEntity
  8
치수문자_일반주서
 62
     0
370
    -2
100
AcDbCircle
 10
122.5149863125972
 20
0.0048351518140897
 30
0.0
 40
96.3388894877007
100
AcDbArc
 50
178.0
 51
180.0
  0
SOLID
  5
196
330
18E
100
AcDbEntity
  8
치수문자_일반주서
 62
     0
100
AcDbTrace
 10
25.85697020972787
 20
6.693171993853317
 30
0.0
 11
26.95614654377645
 21
6.63591382606351
 31
0.0
 12
26.23478387338274
 22
3.367013907812687
 32
0.0
 13
26.23478387338274
 23
3.367013907812687
 33
0.0
  0
SOLID
  5
197
330
18E
100
AcDbEntity
  8
치수문자_일반주서
 62
     0
100
AcDbTrace
 10
26.78293709872418
 20
-3.287248635065967
 30
0.0
 11
25.68243207196158
 21
-3.306111221881426
 31
0.0
 12
26.1760968248965
 22
0.0048351518140897
 32
0.0
 13
26.1760968248965
 23
0.0048351518140897
 33
0.0
  0
MTEXT
  5
198
330
18E
100
AcDbEntity
  8
치수문자_일반주서
 62
     0
100
AcDbMText
 10
24.35137126183549
 20
12.83630925651876
 30
0.0
 40
3.5
 41
0.0
 71
     5
 72
     1
  1
\A1;2%%d
  7
SLDTEXTSTYLE0
 11
0.1032751490494263
 21
0.9946528256576859
 31
0.0
 73
     1
 44
1.0
  0
POINT
  5
199
330
18E
100
AcDbEntity
  8
Defpoints
 62
     0
100
AcDbPoint
 10
26.18261819664126
 20
1.125763738014894
 30
0.0
  0
POINT
  5
19A
330
18E
100
AcDbEntity
  8
Defpoints
 62
     0
100
AcDbPoint
 10
-37.57509181734629
 20
0.0048351518140897
 30
0.0
  0
POINT
  5
19B
330
18E
100
AcDbEntity
  8
Defpoints
 62
     0
100
AcDbPoint
 10
24.2693064295004
 20
3.435649892571732
 30
0.0
  0
POINT
  5
19C
330
18E
100
AcDbEntity
  8
Defpoints
 62
     0
100
AcDbPoint
 10
20.20204201271299
 20
3.577681895732352
 30
0.0
  0
POINT
  5
19D
330
18E
100
AcDbEntity
  8
Defpoints
 62
     0
100
AcDbPoint
 10
57.32490428620234
 20
0.0048351518140897
 30
0.0
  0
ENDBLK
  5
190
330
18E
100
AcDbEntity
  8
0
100
AcDbBlockEnd
  0
ENDSEC
  0
SECTION
  2
ENTITIES
  0
LINE
  5
95
330
1F
100
AcDbEntity
  8
0
  6
Continuous
 62
     4
370
    15
100
AcDbLine
 10
-33.76509181734631
 20
4.767335151814088
 30
0.0
 11
-34.5750918173463
 21
3.957335151814108
 31
0.0
  0
LINE
  5
96
330
1F
100
AcDbEntity
  8
0
  6
Continuous
 62
     4
370
    15
100
AcDbLine
 10
-34.5750918173463
 20
-3.947664848185928
 30
0.0
 11
-33.76509181734631
 21
-4.757664848185907
 31
0.0
  0
LINE
  5
97
330
1F
100
AcDbEntity
  8
0
  6
Continuous
 62
     4
370
    15
100
AcDbLine
 10
8.12346150966951
 20
4.767335151814094
 30
0.0
 11
-33.76509181734631
 21
4.767335151814089
 31
0.0
  0
LINE
  5
98
330
1F
100
AcDbEntity
  8
0
  6
Continuous
 62
     4
370
    15
100
AcDbLine
 10
-33.76509181734631
 20
-4.757664848185907
 30
0.0
 11
8.12346150966951
 21
-4.757664848185902
 31
0.0
  0
LINE
  5
99
330
1F
100
AcDbEntity
  8
0
  6
Continuous
 62
     4
370
    15
100
AcDbLine
 10
8.12346150966951
 20
-4.757664848185899
 30
0.0
 11
8.858908182653703
 21
-3.968994848185905
 31
0.0
  0
LINE
  5
9A
330
1F
100
AcDbEntity
  8
0
  6
Continuous
 62
     4
370
    15
100
AcDbLine
 10
8.858908182653703
 20
3.978665151814096
 30
0.0
 11
8.12346150966951
 21
4.767335151814091
 31
0.0
  0
LINE
  5
9B
330
1F
100
AcDbEntity
  8
0
  6
Continuous
 62
     1
370
    15
100
AcDbLine
 10
50.55001373961505
 20
-2.508237066886934
 30
0.0
 11
53.20129583571821
 21
-2.415652255951318
 31
0.0
  0
LINE
  5
9C
330
1F
100
AcDbEntity
  8
0
  6
Continuous
 62
     1
370
    15
100
AcDbLine
 10
30.27582608776286
 20
-3.216227300509704
 30
0.0
 11
34.08059378470136
 21
-3.083361884795266
 31
0.0
  0
LINE
  5
9D
330
1F
100
AcDbEntity
  8
0
  6
Continuous
 62
     1
370
    15
100
AcDbLine
 10
10.15140010134486
 20
-3.918987741535145
 30
0.0
 11
14.43817847473101
 21
-3.769290142095918
 31
0.0
  0
LINE
  5
9E
102
{ACAD_REACTORS
102
}
330
1F
100
AcDbEntity
  8
0
  6
Continuous
 62
     1
370
    15
100
AcDbLine
 10
24.2693064295004
 20
3.435649892571732
 30
0.0
 11
20.20204201271299
 21
3.577681895732352
 31
0.0
  0
LINE
  5
9F
330
1F
100
AcDbEntity
  8
0
  6
Continuous
 62
     1
370
    15
100
AcDbLine
 10
43.86275288935611
 20
2.751431665198211
 30
0.0
 11
40.38868424508934
 21
2.872748815523159
 31
0.0
  0
LINE
  5
A0
330
1F
100
AcDbEntity
  8
0
  6
Continuous
 62
     1
370
    15
100
AcDbLine
 10
37.01438159922377
 20
-2.980911756786631
 30
0.0
 11
40.60480490021122
 21
-2.855531412315048
 31
0.0
  0
LINE
  5
A1
330
1F
100
AcDbEntity
  8
0
  6
Continuous
 62
     1
370
    15
100
AcDbLine
 10
16.8484256194133
 20
-3.685122457138325
 30
0.0
 11
20.99528259157287
 21
-3.540311020698293
 31
0.0
  0
LINE
  5
A2
330
1F
100
AcDbEntity
  8
0
  6
Continuous
 62
     1
370
    15
100
AcDbLine
 10
11.1582755824579
 20
3.893497178580496
 30
0.0
 11
9.874908182653726
 21
3.938313355722281
 31
0.0
  0
LINE
  5
A3
330
1F
100
AcDbEntity
  8
0
  6
Continuous
 62
     1
370
    15
100
AcDbLine
 10
30.81224794358045
 20
3.207165340160556
 30
0.0
 11
26.91602701259319
 21
3.343224373180484
 31
0.0
  0
LINE
  5
A4
330
1F
100
AcDbEntity
  8
0
  6
Continuous
 62
     1
370
    15
100
AcDbLine
 10
50.36359829038602
 20
2.524417141447358
 30
0.0
 11
47.15508451404042
 21
2.636460911442219
 31
0.0
  0
LINE
  5
A5
330
1F
100
AcDbEntity
  8
0
  6
Continuous
 62
     4
370
    15
100
AcDbLine
 10
8.858908182653703
 20
-3.968994848185905
 30
0.0
 11
8.984908182653697
 21
-3.963990590009164
 31
0.0
  0
LINE
  5
A6
330
1F
100
AcDbEntity
  8
0
  6
Continuous
 62
     4
370
    15
100
AcDbLine
 10
9.874908182653726
 20
3.938313355722281
 30
0.0
 11
8.858908182653703
 21
3.978665151814096
 31
0.0
  0
LINE
  5
A7
330
1F
100
AcDbEntity
  8
0
  6
Continuous
 62
     1
370
    15
100
AcDbLine
 10
43.76831539987706
 20
-2.745059191371494
 30
0.0
 11
47.11585467261929
 21
-2.628160544063489
 31
0.0
  0
LINE
  5
A8
330
1F
100
AcDbEntity
  8
0
  6
Continuous
 62
     1
370
    15
100
AcDbLine
 10
23.55567684377601
 20
-3.450900083209112
 30
0.0
 11
27.54273454292295
 21
-3.311668960346903
 31
0.0
  0
LINE
  5
A9
330
1F
100
AcDbEntity
  8
0
  6
Continuous
 62
     1
370
    15
100
AcDbLine
 10
17.71733406550211
 20
3.664449809211217
 30
0.0
 11
13.49803865193762
 21
3.81179085176589
 31
0.0
  0
LINE
  5
AA
330
1F
100
AcDbEntity
  8
0
  6
Continuous
 62
     1
370
    15
100
AcDbLine
 10
37.34286575022003
 20
2.979111141096193
 30
0.0
 11
33.64370011788033
 21
3.108288851454922
 31
0.0
  0
LINE
  5
AB
330
1F
100
AcDbEntity
  8
0
  6
Continuous
 62
     1
370
    15
100
AcDbLine
 10
54.3249081826537
 20
2.386085151814098
 30
0.0
 11
53.95226267048062
 21
2.399098219846829
 31
0.0
  0
LINE
  5
AC
330
1F
100
AcDbEntity
  8
0
  6
Continuous
 62
     4
370
    15
100
AcDbLine
 10
-33.76509181734631
 20
4.767335151814088
 30
0.0
 11
-33.76509181734631
 21
-4.757664848185907
 31
0.0
  0
LINE
  5
AD
330
1F
100
AcDbEntity
  8
0
  6
Continuous
 62
     4
370
    15
100
AcDbLine
 10
-34.5750918173463
 20
-3.947664848185927
 30
0.0
 11
-34.5750918173463
 21
3.957335151814106
 31
0.0
  0
LINE
  5
AE
330
1F
100
AcDbEntity
  8
0
  6
Continuous
 62
     4
370
    15
100
AcDbLine
 10
8.12346150966951
 20
4.767335151814091
 30
0.0
 11
8.12346150966951
 21
-4.757664848185902
 31
0.0
  0
LINE
  5
AF
330
1F
100
AcDbEntity
  8
0
  6
Continuous
 62
     4
370
    15
100
AcDbLine
 10
8.858908182653703
 20
3.978665151814096
 30
0.0
 11
8.858908182653703
 21
-3.968994848185902
 31
0.0
  0
LINE
  5
B0
330
1F
100
AcDbEntity
  8
0
  6
Continuous
 62
     1
370
    15
100
AcDbLine
 10
9.8749081826537
 20
-3.91411102455847
 30
0.0
 11
10.15059842055246
 21
-3.896030607311774
 31
0.0
  0
SPLINE
  5
B1
330
1F
100
AcDbEntity
  8
0
  6
Continuous
 62
     1
370
    15
100
AcDbSpline
210
0.0
220
0.0
230
1.0
 70
     8
 71
     3
 72
    24
 73
    20
 74
     0
 42
0.000000001
 43
0.00000001
 40
0.0
 40
0.0
 40
0.0
 40
0.0
 40
0.0154871305825608
 40
0.0803206764397113
 40
0.1470381171455259
 40
0.2117851949674228
 40
0.2784129332141984
 40
0.3430858999671701
 40
0.4096366076700469
 40
0.4742485896462966
 40
0.5407357256382741
 40
0.605300705773917
 40
0.671738603074794
 40
0.7362715480283227
 40
0.8026755413137513
 40
0.8671925784546367
 40
0.9335791825606721
 40
0.9980978326636499
 40
1.0
 40
1.0
 40
1.0
 40
1.0
 10
18.94012776217039
 20
3.329712838448899
 30
0.0
 10
18.99675873488397
 20
3.357221261239766
 30
0.0
 10
19.29046311165958
 20
3.499887787784068
 30
0.0
 10
19.8309487279102
 20
3.588704268711333
 30
0.0
 10
20.55463578871724
 20
3.576332227714838
 30
0.0
 10
21.28801257875392
 20
3.365518151779175
 30
0.0
 10
22.0168700320879
 20
2.989802118071358
 30
0.0
 10
22.75527712681835
 20
2.457923555576144
 30
0.0
 10
23.48937076078655
 20
1.809208727234514
 30
0.0
 10
24.23308501198119
 20
1.066385663801267
 30
0.0
 10
24.97264605771221
 20
0.2826650598997319
 30
0.0
 10
25.72192259012051
 20
-0.5140406169799054
 30
0.0
 10
26.46720694224537
 20
-1.266390163972905
 30
0.0
 10
27.22231532553281
 20
-1.947862514670439
 30
0.0
 10
27.97361201763469
 20
-2.507370287230935
 30
0.0
 10
28.73477776373054
 20
-2.932082855380639
 30
0.0
 10
29.49265355561289
 20
-3.163993323135501
 30
0.0
 10
30.00863274512541
 20
-3.253985865328913
 30
0.0
 10
30.2682990654807
 20
-3.21475444973177
 30
0.0
 10
30.27573542070744
 20
-3.213630935746478
 30
0.0
  0
SPLINE
  5
B2
330
1F
100
AcDbEntity
  8
0
  6
Continuous
 62
     1
370
    15
100
AcDbSpline
210
0.0
220
0.0
230
1.0
 70
     8
 71
     3
 72
    22
 73
    18
 74
     0
 42
0.000000001
 43
0.00000001
 40
0.0
 40
0.0
 40
0.0
 40
0.0
 40
0.0064755460958343
 40
0.0768851619009061
 40
0.1493235974657124
 40
0.2199317189708957
 40
0.2925725609762193
 40
0.3634113963623736
 40
0.4362873635359859
 40
0.5073969939318471
 40
0.5805487638708888
 40
0.6519789772248566
 40
0.7254573068618352
 40
0.7972657239943266
 40
0.8711296587833531
 40
0.9433784619008171
 40
1.0
 40
1.0
 40
1.0
 40
1.0
 10
38.8405435368696
 20
2.590445247861676
 30
0.0
 10
38.86496179756901
 20
2.602149794571712
 30
0.0
 10
39.15488358940375
 20
2.741119690771935
 30
0.0
 10
39.72133819533499
 20
2.854392185121268
 30
0.0
 10
40.53349731969838
 20
2.898360116275833
 30
0.0
 10
41.35805885251736
 20
2.739336566473114
 30
0.0
 10
42.18044659463285
 20
2.412811826369759
 30
0.0
 10
43.01512102224119
 20
1.929321377825162
 30
0.0
 10
43.84800518324622
 20
1.330691317335908
 30
0.0
 10
44.69357878311802
 20
0.6471802455606399
 30
0.0
 10
45.53760559924605
 20
-0.0638555927240639
 30
0.0
 10
46.39485008551306
 20
-0.7648367528947867
 30
0.0
 10
47.25091124959696
 20
-1.39599469793114
 30
0.0
 10
48.12061921730312
 20
-1.924630276379568
 30
0.0
 10
48.98985571406197
 20
-2.297757597518502
 30
0.0
 10
49.80176475643043
 20
-2.504878449491746
 30
0.0
 10
50.32118562923309
 20
-2.495054734347328
 30
0.0
 10
50.54940267639265
 20
-2.490738505678467
 30
0.0
  0
LINE
  5
B3
330
1F
100
AcDbEntity
  8
0
  6
Continuous
 62
     4
370
    15
100
AcDbLine
 10
9.874908182653728
 20
-0.4446133175307189
 30
0.0
 11
9.874908182653728
 21
-3.914111024558471
 31
0.0
  0
SPLINE
  5
B4
330
1F
100
AcDbEntity
  8
0
  6
Continuous
 62
     1
370
    15
100
AcDbSpline
210
0.0
220
0.0
230
1.0
 70
     8
 71
     3
 72
    19
 73
    15
 74
     0
 42
0.000000001
 43
0.00000001
 40
0.0
 40
0.0
 40
0.0
 40
0.0
 40
0.0793079016562686
 40
0.1605394705163063
 40
0.2469263977794536
 40
0.3358359859284351
 40
0.4218613866814427
 40
0.5103966432567711
 40
0.5961036666294076
 40
0.6843086800049013
 40
0.7697447056904378
 40
0.8576685761955447
 40
0.9428781871197343
 40
1.0
 40
1.0
 40
1.0
 40
1.0
 10
53.29750755860785
 20
-2.400482254399825
 30
0.0
 10
53.04205396906477
 20
-2.375198139911766
 30
0.0
 10
52.52495058907015
 20
-2.324016627507375
 30
0.0
 10
51.73368799663
 20
-2.051862615687126
 30
0.0
 10
50.9147434996899
 20
-1.632702785966388
 30
0.0
 10
50.08412504633298
 20
-1.074322731747084
 30
0.0
 10
49.25059520359071
 20
-0.4238897283616405
 30
0.0
 10
48.43053725389525
 20
0.2612109274362456
 30
0.0
 10
47.60750922050579
 20
0.9454643337117417
 30
0.0
 10
46.79749614679763
 20
1.568024384404424
 30
0.0
 10
45.98428555461895
 20
2.099925933372988
 30
0.0
 10
45.18383729397965
 20
2.486095214522096
 30
0.0
 10
44.47376330467732
 20
2.711435844546185
 30
0.0
 10
44.03722010262422
 20
2.725049496682899
 30
0.0
 10
43.86202239550308
 20
2.730513058201392
 30
0.0
  0
SPLINE
  5
B5
330
1F
100
AcDbEntity
  8
0
  6
Continuous
 62
     1
370
    15
100
AcDbSpline
210
0.0
220
0.0
230
1.0
 70
     8
 71
     3
 72
    23
 73
    19
 74
     0
 42
0.000000001
 43
0.00000001
 40
0.0
 40
0.0
 40
0.0
 40
0.0
 40
0.0362629786931399
 40
0.1022389215131955
 40
0.1663508125104197
 40
0.2323198579653067
 40
0.2964427190421324
 40
0.3624221948123201
 40
0.4265717499751131
 40
0.4925778892692046
 40
0.5567690110173789
 40
0.6228171715457976
 40
0.6870638424942138
 40
0.7531684629818389
 40
0.8174837971591538
 40
0.8836584180157737
 40
0.9480547114102669
 40
0.9999999999999999
 40
0.9999999999999999
 40
0.9999999999999999
 40
0.9999999999999999
 10
35.51834216732367
 20
-2.696427857286796
 30
0.0
 10
35.37806579952506
 20
-2.764265838853775
 30
0.0
 10
34.98257416937307
 20
-2.955526521869649
 30
0.0
 10
34.34232460714291
 20
-3.088299603669828
 30
0.0
 10
33.5905304705476
 20
-3.093555287908494
 30
0.0
 10
32.84875430137275
 20
-2.914229752652696
 30
0.0
 10
32.10310131628441
 20
-2.565719580610219
 30
0.0
 10
31.36709517462553
 20
-2.070766826478379
 30
0.0
 10
30.62720163856651
 20
-1.448458842105413
 30
0.0
 10
29.89672976390218
 20
-0.7436279419684753
 30
0.0
 10
29.16232300483114
 20
0.0174878732722574
 30
0.0
 10
28.43713947089833
 20
0.7801424190052826
 30
0.0
 10
27.70796995650411
 20
1.516321558224128
 30
0.0
 10
26.98784520116793
 20
2.172913357912068
 30
0.0
 10
26.26366569172817
 20
2.727680045948606
 30
0.0
 10
25.54844064243895
 20
3.134078188336837
 30
0.0
 10
24.88113605564835
 20
3.383679176561291
 30
0.0
 10
24.45778744411435
 20
3.408924095848838
 30
0.0
 10
24.26876675671148
 20
3.420195685898164
 30
0.0
  0
SPLINE
  5
B6
330
1F
100
AcDbEntity
  8
0
  6
Continuous
 62
     1
370
    15
100
AcDbSpline
210
0.0
220
0.0
230
1.0
 70
     8
 71
     3
 72
    16
 73
    12
 74
     0
 42
0.000000001
 43
0.00000001
 40
0.0
 40
0.0
 40
0.0
 40
0.0
 40
0.1034159332527071
 40
0.2228904380627258
 40
0.3392936840481771
 40
0.4590544711606468
 40
0.575749470001196
 40
0.6958098620392205
 40
0.8128087492942603
 40
0.933181270487422
 40
1.0
 40
1.0
 40
1.0
 40
1.0
 10
15.6355191615181
 20
-3.449734477670786
 30
0.0
 10
15.43398900316013
 20
-3.536930162590431
 30
0.0
 10
14.99963480002693
 20
-3.724861401014085
 30
0.0
 10
14.34136624401522
 20
-3.798656736274019
 30
0.0
 10
13.65392607181617
 20
-3.708813713636095
 30
0.0
 10
12.97417962765989
 20
-3.438201605068172
 30
0.0
 10
12.29012754802144
 20
-2.999369231146103
 30
0.0
 10
11.6135953494431
 20
-2.418353934013753
 30
0.0
 10
10.93283504667537
 20
-1.711943092615807
 30
0.0
 10
10.3550516227261
 20
-1.037656120311533
 30
0.0
 10
10.00121256889026
 20
-0.6006165052571504
 30
0.0
 10
9.8749081826537
 20
-0.4446133175306816
 30
0.0
  0
ELLIPSE
  5
B7
330
1F
100
AcDbEntity
  8
0
  6
Continuous
 62
     1
370
    15
100
AcDbEllipse
 10
49.77202529497131
 20
0.1238819226504647
 30
0.0
 11
3.604921122368011
 21
-2.469346962929742
 31
0.0
210
0.0
220
0.0
230
1.0
 40
0.1648756616496593
 41
6.063258097878364
 42
6.157538655827254
  0
ELLIPSE
  5
B8
330
1F
100
AcDbEntity
  8
0
  6
Continuous
 62
     1
370
    15
100
AcDbEllipse
 10
54.15488162381755
 20
-0.0546917872823612
 30
0.0
 11
3.298436386623258
 21
1.676966968097077
 31
0.0
210
0.0
220
0.0
230
1.0
 40
0.5141293395495333
 41
4.116642602409499
 42
4.506612205938604
  0
SPLINE
  5
B9
330
1F
100
AcDbEntity
  8
0
  6
Continuous
 62
     1
370
    15
100
AcDbSpline
210
0.0
220
0.0
230
1.0
 70
     8
 71
     3
 72
    17
 73
    13
 74
     0
 42
0.000000001
 43
0.00000001
 40
0.0
 40
0.0
 40
0.0
 40
0.0
 40
0.1036928889363539
 40
0.2035312769206675
 40
0.3062560525325698
 40
0.4061989198978203
 40
0.5090503757995374
 40
0.6087839097544362
 40
0.7114192499405306
 40
0.8109555283200538
 40
0.9133870151716607
 40
1.0
 40
1.0
 40
1.0
 40
1.0
 10
9.8749081826537
 20
2.256855219965519
 30
0.0
 10
10.11164690550036
 20
2.003362384283449
 30
0.0
 10
10.57632423344253
 20
1.505799619219776
 30
0.0
 10
11.27888409699171
 20
0.6655160514085923
 30
0.0
 10
11.9753427194839
 20
-0.1819037363231634
 30
0.0
 10
12.68148291375126
 20
-1.022489487052264
 30
0.0
 10
13.38342317288924
 20
-1.798297535362321
 30
0.0
 10
14.09435536237511
 20
-2.485298615559303
 30
0.0
 10
14.80031211554935
 20
-3.039623976374697
 30
0.0
 10
15.51542266961498
 20
-3.438742822081138
 30
0.0
 10
16.19534828782954
 20
-3.668888989417094
 30
0.0
 10
16.64298523162223
 20
-3.67314496637314
 30
0.0
 10
16.84807544916089
 20
-3.675094893098044
 30
0.0
  0
SPLINE
  5
BA
330
1F
100
AcDbEntity
  8
0
  6
Continuous
 62
     1
370
    15
100
AcDbSpline
210
0.0
220
0.0
230
1.0
 70
     8
 71
     3
 72
    23
 73
    19
 74
     0
 42
0.000000001
 43
0.00000001
 40
0.0
 40
0.0
 40
0.0
 40
0.0
 40
0.0119706497345095
 40
0.080370374956447
 40
0.1468088969733908
 40
0.2151737170367547
 40
0.281595861503266
 40
0.349942778906542
 40
0.4163665839638969
 40
0.484714059547636
 40
0.5511592882501998
 40
0.619527535418636
 40
0.6860159945571671
 40
0.7544273130315373
 40
0.8209831327891212
 40
0.8894622086687374
 40
0.9561119546326198
 40
1.0
 40
1.0
 40
1.0
 40
1.0
 10
25.58301303257532
 20
3.090588992740182
 30
0.0
 10
25.62712031402341
 20
3.111750609516749
 30
0.0
 10
25.92325451115672
 20
3.253828701578397
 30
0.0
 10
26.4673808607691
 20
3.3479390373228
 30
0.0
 10
27.22227227152163
 20
3.35002538143162
 30
0.0
 10
27.97360604303005
 20
3.155575689304745
 30
0.0
 10
28.73484212359529
 20
2.791447316302447
 30
0.0
 10
29.4923961321512
 20
2.280013322470468
 30
0.0
 10
30.26011201449172
 20
1.642728390596774
 30
0.0
 10
31.02424476014837
 20
0.9269321933710216
 30
0.0
 10
31.79879227377259
 20
0.1610881346319058
 30
0.0
 10
32.56983649449919
 20
-0.5973571878561131
 30
0.0
 10
33.35160567139651
 20
-1.317900860900271
 30
0.0
 10
34.12994450013533
 20
-1.945723411454323
 30
0.0
 10
34.91931481142367
 20
-2.457397028730429
 30
0.0
 10
35.70549013230011
 20
-2.80499465114541
 30
0.0
 10
36.40592315533062
 20
-2.984704665958051
 30
0.0
 10
36.84091430167334
 20
-2.966453657339718
 30
0.0
 10
37.01362366138802
 20
-2.959207256949453
 30
0.0
  0
SPLINE
  5
BB
330
1F
100
AcDbEntity
  8
0
  6
Continuous
 62
     1
370
    15
100
AcDbSpline
210
0.0
220
0.0
230
1.0
 70
     8
 71
     3
 72
    18
 73
    14
 74
     0
 42
0.000000001
 43
0.00000001
 40
0.0
 40
0.0
 40
0.0
 40
0.0
 40
0.009638608251854
 40
0.1067506153772445
 40
0.206647112058669
 40
0.3042733011570691
 40
0.4046940422515361
 40
0.5029189523239117
 40
0.6039508206238694
 40
0.7028595140010734
 40
0.8045898756076919
 40
0.9010138601496332
 40
1.0
 40
1.0
 40
1.0
 40
1.0
 10
45.46178792315677
 20
2.32889553129682
 30
0.0
 10
45.48952416390904
 20
2.341959346602259
 30
0.0
 10
45.7967117465132
 20
2.486645206488931
 30
0.0
 10
46.39511901859561
 20
2.610549086122258
 30
0.0
 10
47.2508345453377
 20
2.665974419367432
 30
0.0
 10
48.12066104539247
 20
2.516074604548971
 30
0.0
 10
48.98976474412532
 20
2.195797817404777
 30
0.0
 10
49.87293473412107
 20
1.717899729603155
 30
0.0
 10
50.75614585944676
 20
1.126706098411115
 30
0.0
 10
51.65383380295539
 20
0.456373032251417
 30
0.0
 10
52.54244533282841
 20
-0.2218783094014225
 30
0.0
 10
53.43506876325862
 20
-0.8765983295303588
 30
0.0
 10
54.0257135938935
 20
-1.234656342471496
 30
0.0
 10
54.32490818265363
 20
-1.416032720250063
 30
0.0
  0
SPLINE
  5
BC
330
1F
100
AcDbEntity
  8
0
  6
Continuous
 62
     1
370
    15
100
AcDbSpline
210
0.0
220
0.0
230
1.0
 70
     8
 71
     3
 72
    11
 73
     7
 74
     0
 42
0.000000001
 43
0.00000001
 40
0.0
 40
0.0
 40
0.0
 40
0.0
 40
0.2594205140405603
 40
0.5251334494467214
 40
0.8077098461109198
 40
1.0
 40
1.0
 40
1.0
 40
1.0
 10
53.2975075586052
 20
1.414171336479378
 30
0.0
 10
53.04204723517305
 20
1.57444437672434
 30
0.0
 10
52.52493022406529
 20
1.898877989033008
 30
0.0
 10
51.73377398761862
 20
2.256885229982107
 30
0.0
 10
51.01061430928555
 20
2.482118826137684
 30
0.0
 10
50.54956213968579
 20
2.497298034041638
 30
0.0
 10
50.36286591410423
 20
2.503444628743592
 30
0.0
  0
SPLINE
  5
BD
330
1F
100
AcDbEntity
  8
0
  6
Continuous
 62
     1
370
    15
100
AcDbSpline
210
0.0
220
0.0
230
1.0
 70
     8
 71
     3
 72
    23
 73
    19
 74
     0
 42
0.000000001
 43
0.00000001
 40
0.0
 40
0.0
 40
0.0
 40
0.0
 40
0.0123754889299779
 40
0.0785608641372843
 40
0.1466690811313018
 40
0.2127651981738741
 40
0.2807803144297043
 40
0.34680954208685
 40
0.4147546411792455
 40
0.4807370087595446
 40
0.5486327396212954
 40
0.6145892380394525
 40
0.6824572733617608
 40
0.7484077986107446
 40
0.8162687387616478
 40
0.8822305486958987
 40
0.9501022182881249
 40
1.0
 40
1.0
 40
1.0
 40
1.0
 10
42.14709466655258
 20
-2.452148266650504
 30
0.0
 10
42.09878239946421
 20
-2.477876337136245
 30
0.0
 10
41.79209120751468
 20
-2.641200748913523
 30
0.0
 10
41.22280016748501
 20
-2.798371199342514
 30
0.0
 10
40.44707156838953
 20
-2.889679632944005
 30
0.0
 10
39.66796053979731
 20
-2.787218025021892
 30
0.0
 10
38.89988638049342
 20
-2.515487946727263
 30
0.0
 10
38.12813006213211
 20
-2.081209413426678
 30
0.0
 10
37.36713185785354
 20
-1.519095785826082
 30
0.0
 10
36.60241908165157
 20
-0.8522248869059894
 30
0.0
 10
35.84814657009526
 20
-0.1318269265217184
 30
0.0
 10
35.09012025130255
 20
0.6125064171674387
 30
0.0
 10
34.34223456874497
 20
1.324317770156606
 30
0.0
 10
33.59055891921473
 20
1.974258402259571
 30
0.0
 10
32.84873216914963
 20
2.51523522192754
 30
0.0
 10
32.10316065571186
 20
2.918211254354231
 30
0.0
 10
31.42616743115022
 20
3.158889267446394
 30
0.0
 10
30.99456139080754
 20
3.181657715332283
 30
0.0
 10
30.81169407039408
 20
3.191304487308783
 30
0.0
  0
SPLINE
  5
BE
330
1F
100
AcDbEntity
  8
0
  6
Continuous
 62
     1
370
    15
100
AcDbSpline
210
0.0
220
0.0
230
1.0
 70
     8
 71
     3
 72
    24
 73
    20
 74
     0
 42
0.000000001
 43
0.00000001
 40
0.0
 40
0.0
 40
0.0
 40
0.0
 40
0.0231636066499223
 40
0.0858519781434858
 40
0.1468876896132224
 40
0.2096858022201749
 40
0.2708377103985973
 40
0.3337549387237419
 40
0.3950316209691148
 40
0.4580768185125246
 40
0.5194863833229714
 40
0.5826679203270706
 40
0.6442180360725248
 40
0.707543829218155
 40
0.7692417445054041
 40
0.8327192775883128
 40
0.8945718324028902
 40
0.9582081668934402
 40
1.0
 40
1.0
 40
1.0
 40
1.0
 10
22.25920570847205
 20
-3.195186967419534
 30
0.0
 10
22.1707882559613
 20
-3.241640150534561
 30
0.0
 10
21.84308396900902
 20
-3.413810992569642
 30
0.0
 10
21.28506927219265
 20
-3.53823076195984
 30
0.0
 10
20.57878108195424
 20
-3.555355077689238
 30
0.0
 10
19.88090514553559
 20
-3.383385058730946
 30
0.0
 10
19.17879788763589
 20
-3.040008063792924
 30
0.0
 10
18.48480310320277
 20
-2.543970555519964
 30
0.0
 10
17.78660184922196
 20
-1.911566522506464
 30
0.0
 10
17.09636806497679
 20
-1.183877474251132
 30
0.0
 10
16.40191356524067
 20
-0.3837358715985998
 30
0.0
 10
15.71530090365999
 20
0.4365913655726286
 30
0.0
 10
15.02444898186819
 20
1.251391094406987
 30
0.0
 10
14.34132363677699
 20
2.007655199049432
 30
0.0
 10
13.65394117382249
 20
2.681085964630978
 30
0.0
 10
12.97416245922474
 20
3.230045014110369
 30
0.0
 10
12.29018033180584
 20
3.628491706635407
 30
0.0
 10
11.68638678031864
 20
3.855189507943634
 30
0.0
 10
11.30770790374868
 20
3.868752179198777
 30
0.0
 10
11.15759921105975
 20
3.874128435909793
 30
0.0
  0
ELLIPSE
  5
BF
330
1F
100
AcDbEntity
  8
0
  6
Continuous
 62
     1
370
    15
100
AcDbEllipse
 10
49.77202529497131
 20
-0.0922126649434535
 30
0.0
 11
3.548885814639178
 21
2.24196457496434
 31
0.0
210
0.0
220
0.0
230
1.0
 40
0.3357523528405988
 41
5.611038744452558
 42
5.836066758887092
  0
LINE
  5
C0
330
1F
100
AcDbEntity
  8
0
  6
Continuous
 62
     1
370
    15
100
AcDbLine
 10
53.01769132346081
 20
0.9201582506957826
 30
0.0
 11
54.32490818265369
 21
0.0048351518141044
 31
0.0
  0
LINE
  5
C1
330
1F
100
AcDbEntity
  8
0
  6
Continuous
 62
     1
370
    15
100
AcDbLine
 10
54.32490818265369
 20
0.004835151814098
 30
0.0
 11
54.3249081826537
 21
-1.416032720253447
 31
0.0
  0
SPLINE
  5
C2
330
1F
100
AcDbEntity
  8
0
  6
Continuous
 62
     4
370
    15
100
AcDbSpline
210
0.0
220
0.0
230
1.0
 70
     8
 71
     3
 72
     8
 73
     4
 74
     0
 42
0.000000001
 43
0.00000001
 40
0.0
 40
0.0
 40
0.0
 40
0.0
 40
1.0
 40
1.0
 40
1.0
 40
1.0
 10
9.874908182653728
 20
-0.4446133175307189
 30
0.0
 10
9.576831039583135
 20
-0.0744605005432347
 30
0.0
 10
9.281383207593707
 20
0.3017978857853473
 30
0.0
 10
8.984908182653697
 20
0.67364127900724
 30
0.0
  0
SPLINE
  5
C3
330
1F
100
AcDbEntity
  8
0
  6
Continuous
 62
     4
370
    15
100
AcDbSpline
210
0.0
220
0.0
230
1.0
 70
     8
 71
     3
 72
     8
 73
     4
 74
     0
 42
0.000000001
 43
0.00000001
 40
0.0
 40
0.0
 40
0.0
 40
0.0
 40
1.0
 40
1.0
 40
1.0
 40
1.0
 10
8.984908182653697
 20
3.084479901673432
 30
0.0
 10
9.281343002149756
 20
2.842964033130184
 30
0.0
 10
9.576863020400534
 20
2.564610472574937
 30
0.0
 10
9.874908182653728
 20
2.256855219965487
 30
0.0
  0
SPLINE
  5
C4
330
1F
100
AcDbEntity
  8
0
  6
Continuous
 62
     1
370
    15
100
AcDbSpline
210
0.0
220
0.0
230
1.0
 70
     8
 71
     3
 72
    11
 73
     7
 74
     0
 42
0.000000001
 43
0.00000001
 40
0.0
 40
0.0
 40
0.0
 40
0.0
 40
0.1810571256088833
 40
0.5603018812689243
 40
0.8314621961183416
 40
1.0
 40
1.0
 40
1.0
 40
1.0
 10
52.735145199724
 20
-1.842871844096603
 30
0.0
 10
52.78626960035985
 20
-1.781018932500127
 30
0.0
 10
52.94447987658443
 20
-1.589608058098363
 30
0.0
 10
53.23933332018461
 20
-1.332456610221193
 30
0.0
 10
53.55676612567644
 20
-1.130082510808992
 30
0.0
 10
53.71280821842706
 20
-1.086228848571934
 30
0.0
 10
53.77261969021863
 20
-1.069419588739458
 30
0.0
  0
SPLINE
  5
C5
330
1F
100
AcDbEntity
  8
0
  6
Continuous
 62
     1
370
    15
100
AcDbSpline
210
0.0
220
0.0
230
1.0
 70
     8
 71
     3
 72
     8
 73
     4
 74
     0
 42
0.000000001
 43
0.00000001
 40
0.0
 40
0.0
 40
0.0
 40
0.0
 40
1.0
 40
1.0
 40
1.0
 40
1.0
 10
52.73514519972401
 20
-1.842871844096587
 30
0.0
 10
52.92504383491561
 20
-2.02907389832753
 30
0.0
 10
53.1113479957771
 20
-2.214787893155443
 30
0.0
 10
53.29750755860795
 20
-2.400482254395163
 30
0.0
  0
LINE
  5
C6
330
1F
100
AcDbEntity
  8
0
  6
Continuous
 62
     4
370
    15
100
AcDbLine
 10
8.984908182653697
 20
0.6736412790072402
 30
0.0
 11
8.984908182653697
 21
3.084479901673431
 31
0.0
  0
SPLINE
  5
C7
330
1F
100
AcDbEntity
  8
0
  6
Continuous
 62
     4
370
    15
100
AcDbSpline
210
0.0
220
0.0
230
1.0
 70
     8
 71
     3
 72
     8
 73
     4
 74
     0
 42
0.000000001
 43
0.00000001
 40
0.0
 40
0.0
 40
0.0
 40
0.0
 40
1.0
 40
1.0
 40
1.0
 40
1.0
 10
8.984908182653697
 20
-3.703056522680768
 30
0.0
 10
9.281343002149757
 20
-3.823431407364915
 30
0.0
 10
9.576863020400536
 20
-3.894378506685425
 30
0.0
 10
9.874908182653728
 20
-3.914111024558471
 30
0.0
  0
LINE
  5
C8
330
1F
100
AcDbEntity
  8
0
  6
Continuous
 62
     4
370
    15
100
AcDbLine
 10
8.984908182653697
 20
-3.963990590009164
 30
0.0
 11
8.984908182653697
 21
-3.703056522680767
 31
0.0
  0
SPLINE
  5
C9
330
1F
100
AcDbEntity
  8
0
  6
Continuous
 62
     1
370
    15
100
AcDbSpline
210
0.0
220
0.0
230
1.0
 70
     8
 71
     3
 72
    24
 73
    20
 74
     0
 42
0.000000001
 43
0.00000001
 40
0.0
 40
0.0
 40
0.0
 40
0.0
 40
0.0312655610473203
 40
0.0968144054430351
 40
0.1603761493282303
 40
0.2257872597921244
 40
0.2892232896083926
 40
0.3545044811480991
 40
0.4178242487999736
 40
0.4829852121236279
 40
0.5461987770992571
 40
0.6112498272150493
 40
0.6743678741139586
 40
0.7393199679069337
 40
0.8023538347192498
 40
0.8672185995848661
 40
0.9301803163109529
 40
0.9949700888648244
 40
1.0
 40
1.0
 40
1.0
 40
1.0
 10
12.33504089282934
 20
3.579447564434459
 30
0.0
 10
12.44836650406705
 20
3.628499760171394
 30
0.0
 10
12.79928141830263
 20
3.780390818795264
 30
0.0
 10
13.38351267902681
 20
3.838830798524826
 30
0.0
 10
14.09432786524529
 20
3.756975671609712
 30
0.0
 10
14.80033094934451
 20
3.485751286816698
 30
0.0
 10
15.51537536523411
 20
3.04611039003319
 30
0.0
 10
16.2255410500368
 20
2.465252808366253
 30
0.0
 10
16.94488141273983
 20
1.763027865313306
 30
0.0
 10
17.65941845550181
 20
0.9872642134196467
 30
0.0
 10
18.38322670528614
 20
0.1633535953922894
 30
0.0
 10
19.10233094477346
 20
-0.6523644719144917
 30
0.0
 10
19.8307979895784
 20
-1.433025663163033
 30
0.0
 10
20.55467171407146
 20
-2.125575380314997
 30
0.0
 10
21.2880157286161
 20
-2.70550129202152
 30
0.0
 10
22.01681948102754
 20
-3.139569255487607
 30
0.0
 10
22.75547133334967
 20
-3.389326052668109
 30
0.0
 10
23.26608055343753
 20
-3.486329991999385
 30
0.0
 10
23.53600380800248
 20
-3.447207403821531
 30
0.0
 10
23.55544947020034
 20
-3.444388955906627
 30
0.0
  0
SPLINE
  5
CA
330
1F
100
AcDbEntity
  8
0
  6
Continuous
 62
     1
370
    15
100
AcDbSpline
210
0.0
220
0.0
230
1.0
 70
     8
 71
     3
 72
    22
 73
    18
 74
     0
 42
0.000000001
 43
0.00000001
 40
0.0
 40
0.0
 40
0.0
 40
0.0
 40
0.0320067029381427
 40
0.1003278019398142
 40
0.1706247605831783
 40
0.2390150768833517
 40
0.3093816605481389
 40
0.3778684919687185
 40
0.4483326585915524
 40
0.516945514729839
 40
0.5875375191104892
 40
0.6563085318895597
 40
0.7270611488576006
 40
0.79602604762629
 40
0.8669763605446391
 40
0.9361666039210949
 40
1.0
 40
1.0
 40
1.0
 40
1.0
 10
32.21969523271831
 20
2.832972142353569
 30
0.0
 10
32.33892063531511
 20
2.884085203570673
 30
0.0
 10
32.71264305842892
 20
3.044303551965945
 30
0.0
 10
33.35172938077483
 20
3.130516321187108
 30
0.0
 10
34.12990583176362
 20
3.08736621870536
 30
0.0
 10
34.91934780574975
 20
2.852602210405131
 30
0.0
 10
35.70539547879395
 20
2.456896956027891
 30
0.0
 10
36.50285000878652
 20
1.914815532813675
 30
0.0
 10
37.29713990191121
 20
1.269388609918611
 30
0.0
 10
38.10308619803453
 20
0.5497201309478341
 30
0.0
 10
38.90617048796715
 20
-0.1877667449013207
 30
0.0
 10
39.7210932068738
 20
-0.9090988108267408
 30
0.0
 10
40.53356570590773
 20
-1.556689366976691
 30
0.0
 10
41.35802599087587
 20
-2.101641144156033
 30
0.0
 10
42.18050951152418
 20
-2.494445619126091
 30
0.0
 10
42.98589801455177
 20
-2.729370743038652
 30
0.0
 10
43.51439923669474
 20
-2.734033413312212
 30
0.0
 10
43.76800850478696
 20
-2.736270865840019
 30
0.0
  0
SPLINE
  5
CB
330
1F
100
AcDbEntity
  8
0
  6
Continuous
 62
     1
370
    15
100
AcDbSpline
210
0.0
220
0.0
230
1.0
 70
     8
 71
     3
 72
    10
 73
     6
 74
     0
 42
0.000000001
 43
0.00000001
 40
0.0
 40
0.0
 40
0.0
 40
0.0
 40
0.2005954258428691
 40
0.5950569438476063
 40
1.0
 40
1.0
 40
1.0
 40
1.0
 10
52.11901674343963
 20
2.062267881324837
 30
0.0
 10
52.26557662068355
 20
2.121381859664777
 30
0.0
 10
52.70033963821996
 20
2.296740710156175
 30
0.0
 10
53.43520045131148
 20
2.419913582889873
 30
0.0
 10
54.02575787194183
 20
2.386878958782016
 30
0.0
 10
54.32490818265362
 20
2.37014507699358
 30
0.0
  0
SPLINE
  5
CC
330
1F
100
AcDbEntity
  8
0
  6
Continuous
 62
     1
370
    15
100
AcDbSpline
210
0.0
220
0.0
230
1.0
 70
     8
 71
     3
 72
    23
 73
    19
 74
     0
 42
0.000000001
 43
0.00000001
 40
0.0
 40
0.0
 40
0.0
 40
0.0
 40
0.0309831169605022
 40
0.0995820443829229
 40
0.1701803346132525
 40
0.2385623585668847
 40
0.3089356252390271
 40
0.3771364293909465
 40
0.4473215262355482
 40
0.5153746908983768
 40
0.5854063379628877
 40
0.6533417534153708
 40
0.7232508534654004
 40
0.7910946506338628
 40
0.8609081882230335
 40
0.9286833273507408
 40
0.9984249964180246
 40
0.9999999999999999
 40
0.9999999999999999
 40
0.9999999999999999
 40
0.9999999999999999
 10
48.788160099763
 20
-2.185017040679553
 30
0.0
 10
48.66612900737999
 20
-2.245025132995826
 30
0.0
 10
48.27391199211738
 20
-2.437895608874405
 30
0.0
 10
47.60764585558731
 20
-2.6019472919076
 30
0.0
 10
46.79745455622605
 20
-2.65743993079151
 30
0.0
 10
45.98431811867544
 20
-2.521695953321739
 30
0.0
 10
45.18374751676412
 20
-2.216873022962179
 30
0.0
 10
44.37981796328531
 20
-1.754535204206373
 30
0.0
 10
43.58814227259486
 20
-1.173837342674519
 30
0.0
 10
42.79292558585048
 20
-0.5019549831447309
 30
0.0
 10
42.00958818967131
 20
0.2061232252691087
 30
0.0
 10
41.22260751694355
 20
0.9175169815891806
 30
0.0
 10
40.44711780529367
 20
1.575296828038985
 30
0.0
 10
39.66796330474281
 20
2.147732962342531
 30
0.0
 10
38.8998265981044
 20
2.596074744864425
 30
0.0
 10
38.12836068343616
 20
2.874033058226146
 30
0.0
 10
37.61188538201701
 20
2.997961807659308
 30
0.0
 10
37.34861151673741
 20
2.977598024325288
 30
0.0
 10
37.34279720620591
 20
2.977148297346979
 30
0.0
  0
SPLINE
  5
CD
330
1F
100
AcDbEntity
  8
0
  6
Continuous
 62
     1
370
    15
100
AcDbSpline
210
0.0
220
0.0
230
1.0
 70
     8
 71
     3
 72
    24
 73
    20
 74
     0
 42
0.000000001
 43
0.00000001
 40
0.0
 40
0.0
 40
0.0
 40
0.0
 40
0.0393328467267737
 40
0.1017745865275938
 40
0.1660220790620226
 40
0.2285305530828344
 40
0.2928460794120449
 40
0.3554332382004701
 40
0.4198291358776741
 40
0.482506194657256
 40
0.5469940408134744
 40
0.6097715403781079
 40
0.6743622150808507
 40
0.737250079143439
 40
0.8019538250966793
 40
0.8649614119026318
 40
0.9297878881872307
 40
0.9929240353781112
 40
1.0
 40
1.0
 40
1.0
 40
1.0
 10
28.88361010158803
 20
-2.948022133389617
 30
0.0
 10
28.7326218073255
 20
-3.020435898611676
 30
0.0
 10
28.34193634980393
 20
-3.207808072956859
 30
0.0
 10
27.70804926331564
 20
-3.32649186072447
 30
0.0
 10
26.98782060193868
 20
-3.309781015677918
 30
0.0
 10
26.26368609676151
 20
-3.107267460485007
 30
0.0
 10
25.54838282858492
 20
-2.741144739053518
 30
0.0
 10
24.82901597370697
 20
-2.221334750716291
 30
0.0
 10
24.11834578619325
 20
-1.584018960697017
 30
0.0
 10
23.40356756650591
 20
-0.8507001646591295
 30
0.0
 10
22.69732966356289
 20
-0.0715625489157015
 30
0.0
 10
21.98695243316449
 20
0.7269906946050578
 30
0.0
 10
21.28496427159645
 20
1.490431068142327
 30
0.0
 10
20.57880694808453
 20
2.193387825272112
 30
0.0
 10
19.88090935121004
 20
2.786401896784947
 30
0.0
 10
19.17875664324215
 20
3.25566445890817
 30
0.0
 10
18.48496776314061
 20
3.545701709816906
 30
0.0
 10
17.99570993361322
 20
3.677650001467331
 30
0.0
 10
17.7425359664086
 20
3.657517652308219
 30
0.0
 10
17.71702113728766
 20
3.655488717602691
 30
0.0
  0
LINE
  5
CE
330
1F
100
AcDbEntity
  8
0
  6
Continuous
 62
     1
370
    15
100
AcDbLine
 10
54.3249081826537
 20
2.386085151814098
 30
0.0
 11
54.3249081826537
 21
2.370145076999229
 31
0.0
  0
SPLINE
  5
CF
330
1F
100
AcDbEntity
  8
0
  6
Continuous
 62
     1
370
    15
100
AcDbSpline
210
0.0
220
0.0
230
1.0
 70
     8
 71
     3
 72
    14
 73
    10
 74
     0
 42
0.000000001
 43
0.00000001
 40
0.0
 40
0.0
 40
0.0
 40
0.0
 40
0.0624492876896765
 40
0.2386335924943859
 40
0.4156690778966107
 40
0.5713301114992698
 40
0.7200041176815728
 40
0.9301159035742623
 40
1.0
 40
1.0
 40
1.0
 40
1.0
 10
53.18555766577053
 20
1.18652128079191
 30
0.0
 10
53.21823536476283
 20
1.169661931498374
 30
0.0
 10
53.34310463058588
 20
1.105238344971234
 30
0.0
 10
53.59538655208592
 20
1.13136065439481
 30
0.0
 10
53.88224307443134
 20
1.255142122267642
 30
0.0
 10
54.10394388500798
 20
1.493647736746229
 30
0.0
 10
54.26149934539813
 20
1.818933254469114
 30
0.0
 10
54.31930457387688
 20
2.12383406322286
 30
0.0
 10
54.32378893273978
 20
2.320947570187741
 30
0.0
 10
54.3249081826537
 20
2.370145076999229
 30
0.0
  0
LINE
  5
D0
330
1F
100
AcDbEntity
  8
0
  6
Continuous
 62
     1
370
    15
100
AcDbLine
 10
54.3249081826537
 20
0.004835151814103
 30
0.0
 11
54.3249081826537
 21
2.370145076999229
 31
0.0
  0
LINE
  5
D1
330
1F
100
AcDbEntity
  8
0
  6
Continuous
 62
     1
370
    15
100
AcDbLine
 10
54.3249081826537
 20
-1.416032720250108
 30
0.0
 11
54.32490818265369
 21
-2.057387840947585
 31
0.0
  0
LINE
  5
D2
330
1F
100
AcDbEntity
  8
0
  6
Continuous
 62
     4
370
    15
100
AcDbLine
 10
9.874908182653726
 20
3.938313355722281
 30
0.0
 11
9.874908182653726
 21
2.256855219965486
 31
0.0
  0
LINE
  5
D3
102
{ACAD_REACTORS
102
}
330
1F
100
AcDbEntity
  8
중심선
100
AcDbLine
 10
-37.57509181734629
 20
0.0048351518140897
 30
0.0
 11
57.32490428620233
 21
0.0048351518140897
 31
0.0
  0
CIRCLE
  5
D4
330
1F
100
AcDbEntity
  8
외형선
100
AcDbCircle
 10
-0.0000000000000013
 20
-0.0000000000000039
 30
0.0
 40
3.000000000000004
  0
INSERT
  5
D5
330
1F
100
AcDbEntity
  8
0
  6
Continuous
 62
     7
100
AcDbBlockReference
 66
     1
  2
블럭10
 10
-16.63945112874702
 20
-52.04717430164393
 30
0.0
  0
ATTRIB
  5
D6
330
D5
100
AcDbEntity
  8
FORMAT
 62
     2
100
AcDbText
 10
-25.8207464174883
 20
-49.97180738881174
 30
0.0
 40
4.233333333333333
  1
E5077212 [ 3 FLUTE ]
 41
0.75
  7
SLDTEXTSTYLE0
 11
-25.8207464174883
 21
-52.08847405547841
 31
0.0
100
AcDbAttribute
  2
AUTOATTR0
 70
     0
 74
     1
  0
SEQEND
  5
D7
330
D5
100
AcDbEntity
  8
0
  6
Continuous
 62
     7
  0
HATCH
  5
D8
330
1F
100
AcDbEntity
  8
중심선
100
AcDbHatch
 10
0.0
 20
0.0
 30
0.0
210
0.0
220
0.0
230
1.0
  2
SOLID
 70
     1
 71
     0
 91
        1
 92
        0
 93
        4
 72
     1
 10
-10.92454182436617
 20
-35.8
 11
-14.37081706820345
 21
-35.8
 72
     1
 10
-14.37081706820345
 20
-35.8
 11
-16.49904692740747
 21
-38.33632558057259
 72
     1
 10
-16.49904692740747
 20
-38.33632558057259
 11
-13.05273859845704
 21
-38.3362861512701
 72
     1
 10
-13.05273859845704
 20
-38.3362861512701
 11
-10.92454182436617
 21
-35.8
 97
        0
 75
     0
 76
     1
 98
        1
 10
0.0
 20
0.0
  0
HATCH
  5
D9
330
1F
100
AcDbEntity
  8
중심선
100
AcDbHatch
 10
0.0
 20
0.0
 30
0.0
210
0.0
220
0.0
230
1.0
  2
SOLID
 70
     1
 71
     0
 91
        1
 92
        0
 93
        4
 72
     1
 10
-5.911777833330217
 20
-35.8
 11
-9.358053077167499
 21
-35.8
 72
     1
 10
-9.358053077167499
 20
-35.8
 11
-13.88919108552489
 21
-41.20000000000002
 72
     1
 10
-13.88919108552489
 20
-41.20000000000002
 11
-10.44291584168761
 21
-41.20000000000002
 72
     1
 10
-10.44291584168761
 20
-41.20000000000002
 11
-5.911777833330217
 21
-35.8
 97
        0
 75
     0
 76
     1
 98
        1
 10
0.0
 20
0.0
  0
HATCH
  5
DA
330
1F
100
AcDbEntity
  8
중심선
100
AcDbHatch
 10
0.0
 20
0.0
 30
0.0
210
0.0
220
0.0
230
1.0
  2
SOLID
 70
     1
 71
     0
 91
        1
 92
        0
 93
        4
 72
     1
 10
-0.8990138422943217
 20
-35.80000000000003
 11
-4.345289086131437
 21
-35.8
 72
     1
 10
-4.345289086131437
 20
-35.8
 11
-11.39372598802069
 21
-44.20000000000002
 72
     1
 10
-11.39372598802069
 20
-44.20000000000002
 11
-7.947450744183405
 21
-44.20000000000002
 72
     1
 10
-7.947450744183405
 20
-44.20000000000002
 11
-0.8990138422943215
 21
-35.80000000000003
 97
        0
 75
     0
 76
     1
 98
        1
 10
0.0
 20
0.0
  0
HATCH
  5
DB
330
1F
100
AcDbEntity
  8
중심선
100
AcDbHatch
 10
0.0
 20
0.0
 30
0.0
210
0.0
220
0.0
230
1.0
  2
SOLID
 70
     1
 71
     0
 91
        1
 92
        0
 93
        6
 72
     3
 10
3.900876588717877
 20
-40.00000000005127
 11
3.960054785062284
 21
1.540850780301639E-10
 40
0.3939339440162633
 50
17.09539180608433
 51
320.0019657685079
 73
     0
 72
     1
 10
5.583876244418473
 20
-38.5878940046383
 11
7.889178118119511
 21
-36.65356729459038
 72
     3
 10
3.900876588665031
 20
-40.00000000000015
 11
6.600054785286829
 21
-1.249000902703301E-13
 40
0.6363583540795982
 50
39.99873849337408
 51
368.4976242363724
 73
     1
 72
     1
 10
10.32620908056564
 20
-39.03999999993002
 11
2.580943895500953
 21
-39.03999999992999
 72
     1
 10
2.580943895500953
 20
-39.03999999992999
 11
2.58091885105502
 21
-40.95999999992991
 72
     1
 10
2.58091885105502
 20
-40.95999999992991
 11
7.022298620527057
 21
-40.95999999992988
 97
        0
 75
     0
 76
     1
 98
        1
 10
0.0
 20
0.0
  0
POINT
  5
DC
330
1F
100
AcDbEntity
  8
치수문자_일반주서
100
AcDbPoint
 10
-0.0000000000000013
 20
-0.0000000000000039
 30
0.0
  0
DIMENSION
  5
DD
330
1F
100
AcDbEntity
  8
치수문자_일반주서
100
AcDbDimension
  2
_D
 10
9.874908182653726
 20
39.52555361008361
 30
0.0
 11
32.09990818265371
 21
39.52555361008361
 31
0.0
 70
   160
  1
<>
 71
     2
 42
44.44999999999997
  3
SLDDIMSTYLE0
100
AcDbAlignedDimension
 13
54.3249081826537
 23
2.370145076999229
 33
0.0
 14
9.874908182653726
 24
3.938313355722281
 34
0.0
100
AcDbRotatedDimension
1001
ACAD
1000
DSTYLE
1002
{
1070
   171
1070
     6
1070
   273
1070
     7
1002
}
  0
DIMENSION
  5
F3
330
1F
100
AcDbEntity
  8
치수문자_일반주서
100
AcDbDimension
  2
_D_1
 10
-34.5750918173463
 20
54.04313782779403
 30
0.0
 11
13.31772320210671
 21
54.04313782779403
 31
0.0
 70
   160
  1
<>
 71
     2
 42
88.9
  3
SLDDIMSTYLE1
100
AcDbAlignedDimension
 13
54.3249081826537
 23
2.370145076999229
 33
0.0
 14
-34.5750918173463
 24
3.957335151814108
 34
0.0
 50
0.0000000000000046
100
AcDbRotatedDimension
1001
ACAD
1000
DSTYLE
1002
{
1070
   171
1070
     6
1070
   273
1070
     7
1002
}
  0
DIMENSION
  5
107
330
1F
100
AcDbEntity
  8
치수문자_일반주서
100
AcDbDimension
  2
_D_2
 10
-47.57509181734624
 20
-4.757664848185957
 30
0.0
 11
-47.57509181734635
 21
24.49633515181404
 31
0.0
 70
   160
  1
%%c<>
 71
     2
 42
9.524999999999995
  3
SLDDIMSTYLE0
100
AcDbAlignedDimension
 13
-33.76509181734631
 23
4.767335151814089
 33
0.0
 14
-33.76509181734631
 24
-4.757664848185907
 34
0.0
 50
90.0000000000002
100
AcDbRotatedDimension
1001
ACAD
1000
DSTYLE
1002
{
1070
   171
1070
     6
1070
   273
1070
     7
1002
}
1001
ACAD_DSTYLE_DIMFLIPARROW_SYMBOL
1070
   385
1070
     0
1001
ACAD_DSTYLE_DIMFLIPARROW_WHICH_SYMBOL
1070
   386
1070
     3
  0
INSERT
  5
121
330
1F
100
AcDbEntity
  8
외형선
100
AcDbBlockReference
  2
SW_DOWELSYMBOL_0
 10
-0.0000000000000013
 20
-0.0000000000000039
 30
0.0
  0
DIMENSION
  5
150
330
1F
100
AcDbEntity
  8
치수문자_일반주서
100
AcDbDimension
  2
*D6
 10
65.8134303710789
 20
-2.37641484818591
 30
0.0
 11
65.8134303710789
 21
22.9900851518141
 31
0.0
 70
   160
  1
{%%c<>[]}
 71
     5
 42
4.762500000000008
  3
SLDDIMSTYLE0
100
AcDbAlignedDimension
 13
54.3249081826537
 23
2.386085151814098
 33
0.0
 14
54.32490818265372
 24
-2.37641484818591
 34
0.0
 50
90.0
100
AcDbRotatedDimension
1001
ACAD
1000
DSTYLE
1002
{
1070
   171
1070
     6
1070
   273
1070
     7
1070
   283
1070
     1
1070
   170
1070
     1
1002
}
  0
DIMENSION
  5
18B
102
{ACAD_REACTORS
102
}
102
{ACAD_XDICTIONARY
360
18C
102
}
330
1F
100
AcDbEntity
  8
치수문자_일반주서
100
AcDbDimension
  2
*D7
 10
57.32490428620234
 20
0.0048351518140897
 30
0.0
 11
24.35137126183549
 21
12.83630925651876
 31
0.0
 70
    34
  1
<>
 71
     5
 42
0.0349065850398864
  3
SLDDIMSTYLE0
100
AcDb2LineAngularDimension
 13
24.2693064295004
 23
3.435649892571732
 33
0.0
 14
20.20204201271299
 24
3.577681895732352
 34
0.0
 15
-37.57509181734629
 25
0.0048351518140897
 35
0.0
 16
26.18261819664126
 26
1.125763738014894
 36
0.0
1001
ACAD
1000
DSTYLE
1002
{
1070
   171
1070
     6
1070
   273
1070
     7
1002
}
  0
ENDSEC
  0
SECTION
  2
OBJECTS
  0
DICTIONARY
  5
C
330
0
100
AcDbDictionary
281
     1
  3
ACAD_DETAILVIEWSTYLE
350
14C
  3
ACAD_GROUP
350
D
  3
ACAD_IMAGE_VARS
350
145
  3
ACAD_LAYOUT
350
1A
  3
ACAD_MLINESTYLE
350
17
  3
ACAD_PLOTSETTINGS
350
19
  3
ACAD_PLOTSTYLENAME
350
E
  3
ACAD_SCALELIST
350
47
  3
ACAD_SECTIONVIEWSTYLE
350
14D
  3
AcDbVariableDictionary
350
147
  3
APPDATA
350
143
  3
DWGPROPS
350
19E
  0
DICTIONARY
  5
18C
330
18B
100
AcDbDictionary
280
     1
281
     1
  0
DICTIONARY
  5
14C
102
{ACAD_REACTORS
330
C
102
}
330
C
100
AcDbDictionary
281
     1
  0
DICTIONARY
  5
D
102
{ACAD_REACTORS
330
C
102
}
330
C
100
AcDbDictionary
281
     1
  0
RASTERVARIABLES
  5
145
102
{ACAD_REACTORS
330
C
102
}
330
C
100
AcDbRasterVariables
 90
        0
 70
     1
 71
     1
 72
     1
  0
DICTIONARY
  5
1A
102
{ACAD_REACTORS
330
C
102
}
330
C
100
AcDbDictionary
281
     1
  3
Layout1
350
1E
  3
Layout2
350
26
  3
Model
350
22
  0
DICTIONARY
  5
17
102
{ACAD_REACTORS
330
C
102
}
330
C
100
AcDbDictionary
281
     1
  3
Standard
350
18
  0
DICTIONARY
  5
19
102
{ACAD_REACTORS
330
C
102
}
330
C
100
AcDbDictionary
281
     1
  0
ACDBDICTIONARYWDFLT
  5
E
102
{ACAD_REACTORS
330
C
102
}
330
C
100
AcDbDictionary
281
     1
  3
Normal
350
F
100
AcDbDictionaryWithDefault
340
F
  0
DICTIONARY
  5
47
102
{ACAD_REACTORS
330
C
102
}
330
C
100
AcDbDictionary
281
     1
  3
A0
350
48
  3
A1
350
49
  3
A2
350
4A
  3
A3
350
4B
  3
A4
350
4C
  3
A5
350
4D
  3
A6
350
4E
  3
A7
350
4F
  3
A8
350
50
  3
A9
350
51
  3
B0
350
52
  3
B1
350
53
  3
B2
350
54
  3
B3
350
55
  3
B4
350
56
  3
B5
350
57
  3
B6
350
58
  3
B7
350
59
  3
B8
350
5A
  3
B9
350
5B
  3
C0
350
5C
  3
C1
350
5D
  3
C2
350
5E
  3
C3
350
5F
  3
C4
350
60
  3
C5
350
61
  3
C6
350
62
  3
C7
350
63
  3
C8
350
64
  3
C9
350
65
  3
D0
350
66
  3
D1
350
67
  3
D2
350
68
  0
DICTIONARY
  5
14D
102
{ACAD_REACTORS
330
C
102
}
330
C
100
AcDbDictionary
281
     1
  0
DICTIONARY
  5
147
102
{ACAD_REACTORS
330
C
102
}
330
C
100
AcDbDictionary
281
     1
  0
DICTIONARY
  5
143
102
{ACAD_REACTORS
330
C
102
}
330
C
100
AcDbDictionary
281
     1
  0
XRECORD
  5
19E
102
{ACAD_REACTORS
330
C
102
}
330
C
100
AcDbXrecord
280
     1
  1
DWGPROPS COOKIE
  2

  3

  4

  6

  7

  8
12015048
  9

300
=
301
=
302
=
303
=
304
=
305
=
306
=
307
=
308
=
309
=
 40
0.0
 41
2458333.348532025
 42
2458340.072576574
  1

 90
        0
  0
LAYOUT
  5
1E
102
{ACAD_REACTORS
330
1A
102
}
330
1A
100
AcDbPlotSettings
  1

  2
none_device
  4

  6

 40
0.0
 41
0.0
 42
0.0
 43
0.0
 44
0.0
 45
0.0
 46
0.0
 47
0.0
 48
0.0
 49
0.0
140
0.0
141
0.0
142
1.0
143
1.0
 70
   688
 72
     1
 73
     0
 74
     5
  7

 75
    16
147
1.0
148
0.0
149
0.0
100
AcDbLayout
  1
Layout1
 70
     1
 71
     1
 10
0.0
 20
0.0
 11
420.0
 21
297.0
 12
0.0
 22
0.0
 32
0.0
 14
1.000000000000000E+20
 24
1.000000000000000E+20
 34
1.000000000000000E+20
 15
-1.000000000000000E+20
 25
-1.000000000000000E+20
 35
-1.000000000000000E+20
146
0.0
 13
0.0
 23
0.0
 33
0.0
 16
1.0
 26
0.0
 36
0.0
 17
0.0
 27
1.0
 37
0.0
 76
     0
330
1B
  0
LAYOUT
  5
26
102
{ACAD_REACTORS
330
1A
102
}
330
1A
100
AcDbPlotSettings
  1

  2
none_device
  4

  6

 40
0.0
 41
0.0
 42
0.0
 43
0.0
 44
0.0
 45
0.0
 46
0.0
 47
0.0
 48
0.0
 49
0.0
140
0.0
141
0.0
142
1.0
143
1.0
 70
   688
 72
     1
 73
     0
 74
     5
  7

 75
    16
147
1.0
148
0.0
149
0.0
100
AcDbLayout
  1
Layout2
 70
     1
 71
     2
 10
0.0
 20
0.0
 11
0.0
 21
0.0
 12
0.0
 22
0.0
 32
0.0
 14
0.0
 24
0.0
 34
0.0
 15
0.0
 25
0.0
 35
0.0
146
0.0
 13
0.0
 23
0.0
 33
0.0
 16
1.0
 26
0.0
 36
0.0
 17
0.0
 27
1.0
 37
0.0
 76
     0
330
23
  0
LAYOUT
  5
22
102
{ACAD_REACTORS
330
1A
102
}
330
1A
100
AcDbPlotSettings
  1

  2
none_device
  4
ANSI_A_(11.00_x_8.50_Inches)
  6

 40
6.35
 41
19.05
 42
6.35000508
 43
19.05000254
 44
279.4
 45
215.9
 46
130.6698205506549
 47
103.9197146583791
 48
0.0
 49
0.0
140
0.0
141
0.0
142
0.0914796403028641
143
1.0
 70
  1696
 72
     0
 73
     0
 74
     0
  7

 75
     0
147
0.0235690232323232
148
0.0
149
0.0
100
AcDbLayout
  1
Model
 70
     1
 71
     0
 10
0.0
 20
0.0
 11
420.0
 21
297.0
 12
0.0
 22
0.0
 32
0.0
 14
-51.95009181734636
 24
-49.97180738881174
 34
0.0
 15
66.36376370441224
 25
58.41813782779402
 35
0.0
146
0.0
 13
0.0
 23
0.0
 33
0.0
 16
1.0
 26
0.0
 36
0.0
 17
0.0
 27
1.0
 37
0.0
 76
     0
330
1F
331
29
  0
MLINESTYLE
  5
18
102
{ACAD_REACTORS
330
17
102
}
330
17
100
AcDbMlineStyle
  2
Standard
 70
     0
  3

 62
   256
 51
90.0
 52
90.0
 71
     2
 49
0.5
 62
   256
  6
BYLAYER
 49
-0.5
 62
   256
  6
BYLAYER
  0
ACDBPLACEHOLDER
  5
F
102
{ACAD_REACTORS
330
E
102
}
330
E
  0
SCALE
  5
48
102
{ACAD_REACTORS
330
47
102
}
330
47
100
AcDbScale
 70
     0
300
1:1
140
1.0
141
1.0
290
     1
  0
SCALE
  5
49
102
{ACAD_REACTORS
330
47
102
}
330
47
100
AcDbScale
 70
     0
300
1:2
140
1.0
141
2.0
290
     0
  0
SCALE
  5
4A
102
{ACAD_REACTORS
330
47
102
}
330
47
100
AcDbScale
 70
     0
300
1:4
140
1.0
141
4.0
290
     0
  0
SCALE
  5
4B
102
{ACAD_REACTORS
330
47
102
}
330
47
100
AcDbScale
 70
     0
300
1:5
140
1.0
141
5.0
290
     0
  0
SCALE
  5
4C
102
{ACAD_REACTORS
330
47
102
}
330
47
100
AcDbScale
 70
     0
300
1:8
140
1.0
141
8.0
290
     0
  0
SCALE
  5
4D
102
{ACAD_REACTORS
330
47
102
}
330
47
100
AcDbScale
 70
     0
300
1:10
140
1.0
141
10.0
290
     0
  0
SCALE
  5
4E
102
{ACAD_REACTORS
330
47
102
}
330
47
100
AcDbScale
 70
     0
300
1:16
140
1.0
141
16.0
290
     0
  0
SCALE
  5
4F
102
{ACAD_REACTORS
330
47
102
}
330
47
100
AcDbScale
 70
     0
300
1:20
140
1.0
141
20.0
290
     0
  0
SCALE
  5
50
102
{ACAD_REACTORS
330
47
102
}
330
47
100
AcDbScale
 70
     0
300
1:30
140
1.0
141
30.0
290
     0
  0
SCALE
  5
51
102
{ACAD_REACTORS
330
47
102
}
330
47
100
AcDbScale
 70
     0
300
1:40
140
1.0
141
40.0
290
     0
  0
SCALE
  5
52
102
{ACAD_REACTORS
330
47
102
}
330
47
100
AcDbScale
 70
     0
300
1:50
140
1.0
141
50.0
290
     0
  0
SCALE
  5
53
102
{ACAD_REACTORS
330
47
102
}
330
47
100
AcDbScale
 70
     0
300
1:100
140
1.0
141
100.0
290
     0
  0
SCALE
  5
54
102
{ACAD_REACTORS
330
47
102
}
330
47
100
AcDbScale
 70
     0
300
2:1
140
2.0
141
1.0
290
     0
  0
SCALE
  5
55
102
{ACAD_REACTORS
330
47
102
}
330
47
100
AcDbScale
 70
     0
300
4:1
140
4.0
141
1.0
290
     0
  0
SCALE
  5
56
102
{ACAD_REACTORS
330
47
102
}
330
47
100
AcDbScale
 70
     0
300
8:1
140
8.0
141
1.0
290
     0
  0
SCALE
  5
57
102
{ACAD_REACTORS
330
47
102
}
330
47
100
AcDbScale
 70
     0
300
10:1
140
10.0
141
1.0
290
     0
  0
SCALE
  5
58
102
{ACAD_REACTORS
330
47
102
}
330
47
100
AcDbScale
 70
     0
300
100:1
140
100.0
141
1.0
290
     0
  0
SCALE
  5
59
102
{ACAD_REACTORS
330
47
102
}
330
47
100
AcDbScale
 70
     0
300
1/128" = 1'-0"
140
0.0078125
141
12.0
290
     0
  0
SCALE
  5
5A
102
{ACAD_REACTORS
330
47
102
}
330
47
100
AcDbScale
 70
     0
300
1/64" = 1'-0"
140
0.015625
141
12.0
290
     0
  0
SCALE
  5
5B
102
{ACAD_REACTORS
330
47
102
}
330
47
100
AcDbScale
 70
     0
300
1/32" = 1'-0"
140
0.03125
141
12.0
290
     0
  0
SCALE
  5
5C
102
{ACAD_REACTORS
330
47
102
}
330
47
100
AcDbScale
 70
     0
300
1/16" = 1'-0"
140
0.0625
141
12.0
290
     0
  0
SCALE
  5
5D
102
{ACAD_REACTORS
330
47
102
}
330
47
100
AcDbScale
 70
     0
300
3/32" = 1'-0"
140
0.09375
141
12.0
290
     0
  0
SCALE
  5
5E
102
{ACAD_REACTORS
330
47
102
}
330
47
100
AcDbScale
 70
     0
300
1/8" = 1'-0"
140
0.125
141
12.0
290
     0
  0
SCALE
  5
5F
102
{ACAD_REACTORS
330
47
102
}
330
47
100
AcDbScale
 70
     0
300
3/16" = 1'-0"
140
0.1875
141
12.0
290
     0
  0
SCALE
  5
60
102
{ACAD_REACTORS
330
47
102
}
330
47
100
AcDbScale
 70
     0
300
1/4" = 1'-0"
140
0.25
141
12.0
290
     0
  0
SCALE
  5
61
102
{ACAD_REACTORS
330
47
102
}
330
47
100
AcDbScale
 70
     0
300
3/8" = 1'-0"
140
0.375
141
12.0
290
     0
  0
SCALE
  5
62
102
{ACAD_REACTORS
330
47
102
}
330
47
100
AcDbScale
 70
     0
300
1/2" = 1'-0"
140
0.5
141
12.0
290
     0
  0
SCALE
  5
63
102
{ACAD_REACTORS
330
47
102
}
330
47
100
AcDbScale
 70
     0
300
3/4" = 1'-0"
140
0.75
141
12.0
290
     0
  0
SCALE
  5
64
102
{ACAD_REACTORS
330
47
102
}
330
47
100
AcDbScale
 70
     0
300
1" = 1'-0"
140
1.0
141
12.0
290
     0
  0
SCALE
  5
65
102
{ACAD_REACTORS
330
47
102
}
330
47
100
AcDbScale
 70
     0
300
1-1/2" = 1'-0"
140
1.5
141
12.0
290
     0
  0
SCALE
  5
66
102
{ACAD_REACTORS
330
47
102
}
330
47
100
AcDbScale
 70
     0
300
3" = 1'-0"
140
3.0
141
12.0
290
     0
  0
SCALE
  5
67
102
{ACAD_REACTORS
330
47
102
}
330
47
100
AcDbScale
 70
     0
300
6" = 1'-0"
140
6.0
141
12.0
290
     0
  0
SCALE
  5
68
102
{ACAD_REACTORS
330
47
102
}
330
47
100
AcDbScale
 70
     0
300
1'-0" = 1'-0"
140
12.0
141
12.0
290
     0
  0
ENDSEC
  0
EOF
