  0
SECTION
  2
HEADER
  9
$ACADVER
  1
AC1015
  9
$ACADMAINTVER
 70
     6
  9
$DWGCODEPAGE
  3
ANSI_949
  9
$INSBASE
 10
0.0
 20
0.0
 30
0.0
  9
$EXTMIN
 10
-45.60009181734635
 20
-49.97180738881174
 30
0.0
  9
$EXTMAX
 10
68.95634229625173
 20
53.5370225212
 30
0.0
  9
$LIMMIN
 10
0.0
 20
0.0
  9
$LIMMAX
 10
420.0
 20
297.0
  9
$ORTHOMODE
 70
     1
  9
$REGENMODE
 70
     1
  9
$FILLMODE
 70
     1
  9
$QTEXTMODE
 70
     0
  9
$MIRRTEXT
 70
     1
  9
$LTSCALE
 40
1.0
  9
$ATTMODE
 70
     1
  9
$TEXTSIZE
 40
3.5
  9
$TRACEWID
 40
1.0
  9
$TEXTSTYLE
  7
Standard
  9
$CLAYER
  8
0
  9
$CELTYPE
  6
ByLayer
  9
$CECOLOR
 62
   256
  9
$CELTSCALE
 40
1.0
  9
$DISPSILH
 70
     0
  9
$DIMSCALE
 40
1.0
  9
$DIMASZ
 40
3.302
  9
$DIMEXO
 40
1.0
  9
$DIMDLI
 40
3.75
  9
$DIMRND
 40
0.0
  9
$DIMDLE
 40
0.0
  9
$DIMEXE
 40
1.0
  9
$DIMTP
 40
0.0
  9
$DIMTM
 40
0.0
  9
$DIMTXT
 40
3.5
  9
$DIMCEN
 40
2.5
  9
$DIMTSZ
 40
0.0
  9
$DIMTOL
 70
     0
  9
$DIMLIM
 70
     0
  9
$DIMTIH
 70
     1
  9
$DIMTOH
 70
     1
  9
$DIMSE1
 70
     0
  9
$DIMSE2
 70
     0
  9
$DIMTAD
 70
     1
  9
$DIMZIN
 70
     0
  9
$DIMBLK
  1

  9
$DIMASO
 70
     1
  9
$DIMSHO
 70
     1
  9
$DIMPOST
  1

  9
$DIMAPOST
  1

  9
$DIMALT
 70
     0
  9
$DIMALTD
 70
     3
  9
$DIMALTF
 40
0.0393700787401575
  9
$DIMLFAC
 40
1.0
  9
$DIMTOFL
 70
     1
  9
$DIMTVP
 40
0.0
  9
$DIMTIX
 70
     0
  9
$DIMSOXD
 70
     0
  9
$DIMSAH
 70
     0
  9
$DIMBLK1
  1

  9
$DIMBLK2
  1

  9
$DIMSTYLE
  2
ISO-25
  9
$DIMCLRD
 70
     0
  9
$DIMCLRE
 70
     0
  9
$DIMCLRT
 70
     0
  9
$DIMTFAC
 40
1.0
  9
$DIMGAP
 40
1.524
  9
$DIMJUST
 70
     0
  9
$DIMSD1
 70
     0
  9
$DIMSD2
 70
     0
  9
$DIMTOLJ
 70
     0
  9
$DIMTZIN
 70
     0
  9
$DIMALTZ
 70
     0
  9
$DIMALTTZ
 70
     0
  9
$DIMUPT
 70
     0
  9
$DIMDEC
 70
     2
  9
$DIMTDEC
 70
     2
  9
$DIMALTU
 70
     2
  9
$DIMALTTD
 70
     3
  9
$DIMTXSTY
  7
Standard
  9
$DIMAUNIT
 70
     0
  9
$DIMADEC
 70
     2
  9
$DIMALTRND
 40
0.0
  9
$DIMAZIN
 70
     0
  9
$DIMDSEP
 70
    44
  9
$DIMATFIT
 70
     3
  9
$DIMFRAC
 70
     0
  9
$DIMLDRBLK
  1

  9
$DIMLUNIT
 70
     2
  9
$DIMLWD
 70
    -2
  9
$DIMLWE
 70
    -2
  9
$DIMTMOVE
 70
     0
  9
$LUNITS
 70
     2
  9
$LUPREC
 70
     2
  9
$SKETCHINC
 40
1.0
  9
$FILLETRAD
 40
10.0
  9
$AUNITS
 70
     0
  9
$AUPREC
 70
     2
  9
$MENU
  1
.
  9
$ELEVATION
 40
0.0
  9
$PELEVATION
 40
0.0
  9
$THICKNESS
 40
0.0
  9
$LIMCHECK
 70
     0
  9
$CHAMFERA
 40
0.0
  9
$CHAMFERB
 40
0.0
  9
$CHAMFERC
 40
0.0
  9
$CHAMFERD
 40
0.0
  9
$SKPOLY
 70
     0
  9
$TDCREATE
 40
2458333.723283414
  9
$TDUCREATE
 40
2458333.348283414
  9
$TDUPDATE
 40
2458340.440467627
  9
$TDUUPDATE
 40
2458340.065467627
  9
$TDINDWG
 40
0.0014721412
  9
$TDUSRTIMER
 40
2458340.063995625
  9
$USRTIMER
 70
     1
  9
$ANGBASE
 50
0.0
  9
$ANGDIR
 70
     0
  9
$PDMODE
 70
     0
  9
$PDSIZE
 40
-1.0
  9
$PLINEWID
 40
0.0
  9
$SPLFRAME
 70
     0
  9
$SPLINETYPE
 70
     6
  9
$SPLINESEGS
 70
     8
  9
$HANDSEED
  5
17D
  9
$SURFTAB1
 70
     6
  9
$SURFTAB2
 70
     6
  9
$SURFTYPE
 70
     6
  9
$SURFU
 70
     6
  9
$SURFV
 70
     6
  9
$UCSBASE
  2

  9
$UCSNAME
  2

  9
$UCSORG
 10
0.0
 20
0.0
 30
0.0
  9
$UCSXDIR
 10
1.0
 20
0.0
 30
0.0
  9
$UCSYDIR
 10
0.0
 20
1.0
 30
0.0
  9
$UCSORTHOREF
  2

  9
$UCSORTHOVIEW
 70
     0
  9
$UCSORGTOP
 10
0.0
 20
0.0
 30
0.0
  9
$UCSORGBOTTOM
 10
0.0
 20
0.0
 30
0.0
  9
$UCSORGLEFT
 10
0.0
 20
0.0
 30
0.0
  9
$UCSORGRIGHT
 10
0.0
 20
0.0
 30
0.0
  9
$UCSORGFRONT
 10
0.0
 20
0.0
 30
0.0
  9
$UCSORGBACK
 10
0.0
 20
0.0
 30
0.0
  9
$PUCSBASE
  2

  9
$PUCSNAME
  2

  9
$PUCSORG
 10
0.0
 20
0.0
 30
0.0
  9
$PUCSXDIR
 10
1.0
 20
0.0
 30
0.0
  9
$PUCSYDIR
 10
0.0
 20
1.0
 30
0.0
  9
$PUCSORTHOREF
  2

  9
$PUCSORTHOVIEW
 70
     0
  9
$PUCSORGTOP
 10
0.0
 20
0.0
 30
0.0
  9
$PUCSORGBOTTOM
 10
0.0
 20
0.0
 30
0.0
  9
$PUCSORGLEFT
 10
0.0
 20
0.0
 30
0.0
  9
$PUCSORGRIGHT
 10
0.0
 20
0.0
 30
0.0
  9
$PUCSORGFRONT
 10
0.0
 20
0.0
 30
0.0
  9
$PUCSORGBACK
 10
0.0
 20
0.0
 30
0.0
  9
$USERI1
 70
     0
  9
$USERI2
 70
     0
  9
$USERI3
 70
     0
  9
$USERI4
 70
     0
  9
$USERI5
 70
     0
  9
$USERR1
 40
0.0
  9
$USERR2
 40
0.0
  9
$USERR3
 40
0.0
  9
$USERR4
 40
0.0
  9
$USERR5
 40
0.0
  9
$WORLDVIEW
 70
     1
  9
$SHADEDGE
 70
     3
  9
$SHADEDIF
 70
    70
  9
$TILEMODE
 70
     1
  9
$MAXACTVP
 70
    64
  9
$PINSBASE
 10
0.0
 20
0.0
 30
0.0
  9
$PLIMCHECK
 70
     0
  9
$PEXTMIN
 10
1.000000000000000E+20
 20
1.000000000000000E+20
 30
1.000000000000000E+20
  9
$PEXTMAX
 10
-1.000000000000000E+20
 20
-1.000000000000000E+20
 30
-1.000000000000000E+20
  9
$PLIMMIN
 10
0.0
 20
0.0
  9
$PLIMMAX
 10
0.0
 20
0.0
  9
$UNITMODE
 70
     0
  9
$VISRETAIN
 70
     1
  9
$PLINEGEN
 70
     0
  9
$PSLTSCALE
 70
     1
  9
$TREEDEPTH
 70
  3020
  9
$CMLSTYLE
  2
Standard
  9
$CMLJUST
 70
     0
  9
$CMLSCALE
 40
20.0
  9
$PROXYGRAPHICS
 70
     1
  9
$MEASUREMENT
 70
     1
  9
$CELWEIGHT
370
    -1
  9
$ENDCAPS
280
     0
  9
$JOINSTYLE
280
     0
  9
$LWDISPLAY
290
     1
  9
$INSUNITS
 70
     4
  9
$HYPERLINKBASE
  1

  9
$STYLESHEET
  1

  9
$XEDIT
290
     1
  9
$CEPSNTYPE
380
     0
  9
$PSTYLEMODE
290
     1
  9
$FINGERPRINTGUID
  2
{BE1F8FFB-D043-4618-AF4F-0412633790C8}
  9
$VERSIONGUID
  2
{FAEB1C32-E019-11D5-929B-00C0DF256EC4}
  9
$EXTNAMES
290
     1
  9
$PSVPSCALE
 40
0.0
  9
$OLESTARTUP
290
     0
  0
ENDSEC
  0
SECTION
  2
CLASSES
  0
CLASS
  1
ACDBDICTIONARYWDFLT
  2
AcDbDictionaryWithDefault
  3
ObjectDBX Classes
 90
        0
280
     0
281
     0
  0
CLASS
  1
VISUALSTYLE
  2
AcDbVisualStyle
  3
ObjectDBX Classes
 90
     4095
280
     0
281
     0
  0
CLASS
  1
MATERIAL
  2
AcDbMaterial
  3
ObjectDBX Classes
 90
     1153
280
     0
281
     0
  0
CLASS
  1
SCALE
  2
AcDbScale
  3
ObjectDBX Classes
 90
     1153
280
     0
281
     0
  0
CLASS
  1
SUN
  2
AcDbSun
  3
SCENEOE
 90
     1153
280
     0
281
     0
  0
CLASS
  1
ACDBPLACEHOLDER
  2
AcDbPlaceHolder
  3
ObjectDBX Classes
 90
        0
280
     0
281
     0
  0
CLASS
  1
LAYOUT
  2
AcDbLayout
  3
ObjectDBX Classes
 90
        0
280
     0
281
     0
  0
CLASS
  1
TABLESTYLE
  2
AcDbTableStyle
  3
ObjectDBX Classes
 90
     4095
280
     0
281
     0
  0
CLASS
  1
MLEADERSTYLE
  2
AcDbMLeaderStyle
  3
ACDB_MLEADERSTYLE_CLASS
 90
     4095
280
     0
281
     0
  0
CLASS
  1
RASTERVARIABLES
  2
AcDbRasterVariables
  3
ISM
 90
        0
280
     0
281
     0
  0
CLASS
  1
DIMASSOC
  2
AcDbDimAssoc
  3
"AcDbDimAssoc|Product Desc:     AcDim ARX App For Dimension|Company:          Autodesk, Inc.|WEB Address:      www.autodesk.com"
 90
        0
280
     0
281
     0
  0
ENDSEC
  0
SECTION
  2
TABLES
  0
TABLE
  2
VPORT
  5
8
330
0
100
AcDbSymbolTable
 70
     1
  0
VPORT
  5
29
330
8
100
AcDbSymbolTableRecord
100
AcDbViewportTableRecord
  2
*Active
 70
     0
 10
0.0
 20
0.0
 11
1.0
 21
1.0
 12
16.74370125036528
 22
22.95573232281212
 13
0.0
 23
0.0
 14
10.0
 24
10.0
 15
10.0
 25
10.0
 16
0.0
 26
0.0
 36
1.0
 17
0.0
 27
0.0
 37
0.0
 40
221.8493646619599
 41
1.444267515923567
 42
50.0
 43
0.0
 44
0.0
 50
0.0
 51
0.0
 71
    16
 72
  2000
 73
     1
 74
     3
 75
     0
 76
     0
 77
     0
 78
     0
281
     0
 65
     1
110
0.0
120
0.0
130
0.0
111
1.0
121
0.0
131
0.0
112
0.0
122
1.0
132
0.0
 79
     0
146
0.0
  0
ENDTAB
  0
TABLE
  2
LTYPE
  5
5
330
0
100
AcDbSymbolTable
 70
     6
  0
LTYPE
  5
14
330
5
100
AcDbSymbolTableRecord
100
AcDbLinetypeTableRecord
  2
ByBlock
 70
     0
  3

 72
    65
 73
     0
 40
0.0
  0
LTYPE
  5
15
330
5
100
AcDbSymbolTableRecord
100
AcDbLinetypeTableRecord
  2
ByLayer
 70
     0
  3

 72
    65
 73
     0
 40
0.0
  0
LTYPE
  5
16
330
5
100
AcDbSymbolTableRecord
100
AcDbLinetypeTableRecord
  2
Continuous
 70
     0
  3
Solid line
 72
    65
 73
     0
 40
0.0
  0
LTYPE
  5
6A
330
5
100
AcDbSymbolTableRecord
100
AcDbLinetypeTableRecord
  2
HIDDEN
 70
     0
  3
Hidden __ __ __ __ __ __ __ __ __ __ __ __ __ __
 72
    65
 73
     2
 40
1.905
 49
1.27
 74
     0
 49
-0.635
 74
     0
  0
LTYPE
  5
6B
330
5
100
AcDbSymbolTableRecord
100
AcDbLinetypeTableRecord
  2
PHANTOM
 70
     0
  3
Phantom ______  __  __  ______  __  __  ______
 72
    65
 73
     6
 40
12.7
 49
6.35
 74
     0
 49
-1.27
 74
     0
 49
1.27
 74
     0
 49
-1.27
 74
     0
 49
1.27
 74
     0
 49
-1.27
 74
     0
  0
LTYPE
  5
6C
330
5
100
AcDbSymbolTableRecord
100
AcDbLinetypeTableRecord
  2
CENTER
 70
     0
  3
Center ____ _ ____ _ ____ _ ____ _ ____ _ ____
 72
    65
 73
     4
 40
10.16
 49
6.35
 74
     0
 49
-1.27
 74
     0
 49
1.27
 74
     0
 49
-1.27
 74
     0
  0
LTYPE
  5
6D
330
5
100
AcDbSymbolTableRecord
100
AcDbLinetypeTableRecord
  2
CENTERX2
 70
     0
  3
Center (2x) ________  __  ________  __  _____
 72
    65
 73
     4
 40
20.32
 49
12.7
 74
     0
 49
-2.54
 74
     0
 49
2.54
 74
     0
 49
-2.54
 74
     0
  0
LTYPE
  5
6E
330
5
100
AcDbSymbolTableRecord
100
AcDbLinetypeTableRecord
  2
DOT2
 70
     0
  3
Dot (.5x) ........................................
 72
    65
 73
     2
 40
0.635
 49
0.0
 74
     0
 49
-0.635
 74
     0
  0
ENDTAB
  0
TABLE
  2
LAYER
  5
2
330
0
100
AcDbSymbolTable
 70
    17
  0
LAYER
  5
10
330
2
100
AcDbSymbolTableRecord
100
AcDbLayerTableRecord
  2
0
 70
     0
 62
     7
  6
Continuous
370
    -3
390
F
  0
LAYER
  5
6F
330
2
100
AcDbSymbolTableRecord
100
AcDbLayerTableRecord
  2
FORMAT
 70
     0
 62
     2
  6
Continuous
370
    -3
390
F
  0
LAYER
  5
70
330
2
100
AcDbSymbolTableRecord
100
AcDbLayerTableRecord
  2
외형선
 70
     0
 62
   100
  6
Continuous
370
    30
390
F
  0
LAYER
  5
71
330
2
100
AcDbSymbolTableRecord
100
AcDbLayerTableRecord
  2
숨은선
 70
     0
 62
     2
  6
HIDDEN
370
    15
390
F
  0
LAYER
  5
72
330
2
100
AcDbSymbolTableRecord
100
AcDbLayerTableRecord
  2
중심선
 70
     0
 62
     1
  6
CENTERX2
370
    -3
390
F
  0
LAYER
  5
73
330
2
100
AcDbSymbolTableRecord
100
AcDbLayerTableRecord
  2
파단선
 70
     0
 62
     4
  6
Continuous
370
    -3
390
F
  0
LAYER
  5
74
330
2
100
AcDbSymbolTableRecord
100
AcDbLayerTableRecord
  2
해칭선
 70
     0
 62
     4
  6
Continuous
370
    -3
390
F
  0
LAYER
  5
75
330
2
100
AcDbSymbolTableRecord
100
AcDbLayerTableRecord
  2
가는실선
 70
     0
 62
     4
  6
Continuous
370
    -3
390
F
  0
LAYER
  5
76
330
2
100
AcDbSymbolTableRecord
100
AcDbLayerTableRecord
  2
치수_보조선
 70
     0
 62
     4
  6
Continuous
370
    -3
390
F
  0
LAYER
  5
77
330
2
100
AcDbSymbolTableRecord
100
AcDbLayerTableRecord
  2
치수문자_일반주서
 70
     0
 62
     7
  6
Continuous
370
    15
390
F
  0
LAYER
  5
78
330
2
100
AcDbSymbolTableRecord
100
AcDbLayerTableRecord
  2
개별주서
 70
     0
 62
   100
  6
Continuous
370
    30
390
F
  0
LAYER
  5
79
330
2
100
AcDbSymbolTableRecord
100
AcDbLayerTableRecord
  2
중간선
 70
     0
 62
     2
  6
Continuous
370
    15
390
F
  0
LAYER
  5
7A
330
2
100
AcDbSymbolTableRecord
100
AcDbLayerTableRecord
  2
윤곽선
 70
     0
 62
     3
  6
Continuous
370
    40
390
F
  0
LAYER
  5
7B
330
2
100
AcDbSymbolTableRecord
100
AcDbLayerTableRecord
  2
중심마크
 70
     0
 62
   100
  6
Continuous
370
    30
390
F
  0
LAYER
  5
7C
330
2
100
AcDbSymbolTableRecord
100
AcDbLayerTableRecord
  2
가상선
 70
     0
 62
     4
  6
PHANTOM
370
    -3
390
F
  0
LAYER
  5
7D
330
2
100
AcDbSymbolTableRecord
100
AcDbLayerTableRecord
  2
특수지정선
 70
     0
 62
     5
  6
CENTERX2
370
    60
390
F
  0
LAYER
  5
14E
330
2
100
AcDbSymbolTableRecord
100
AcDbLayerTableRecord
  2
Defpoints
 70
     0
 62
     7
  6
Continuous
290
     0
370
    -3
390
F
  0
ENDTAB
  0
TABLE
  2
STYLE
  5
3
330
0
100
AcDbSymbolTable
 70
     2
  0
STYLE
  5
11
330
3
100
AcDbSymbolTableRecord
100
AcDbTextStyleTableRecord
  2
Standard
 70
     0
 40
0.0
 41
1.0
 50
0.0
 71
     0
 42
3.5
  3
txt
  4

  0
STYLE
  5
93
330
3
100
AcDbSymbolTableRecord
100
AcDbTextStyleTableRecord
  2
SLDTEXTSTYLE0
 70
     0
 40
0.0
 41
0.75
 50
0.0
 71
     0
 42
3.5
  3
TXT
  4

  0
ENDTAB
  0
TABLE
  2
VIEW
  5
6
330
0
100
AcDbSymbolTable
 70
     0
  0
ENDTAB
  0
TABLE
  2
UCS
  5
7
330
0
100
AcDbSymbolTable
 70
     0
  0
ENDTAB
  0
TABLE
  2
APPID
  5
9
330
0
100
AcDbSymbolTable
 70
     4
  0
APPID
  5
12
330
9
100
AcDbSymbolTableRecord
100
AcDbRegAppTableRecord
  2
ACAD
 70
     0
  0
APPID
  5
163
330
9
100
AcDbSymbolTableRecord
100
AcDbRegAppTableRecord
  2
PE_DIMMEASUREMENT
 70
     0
  0
APPID
  5
17B
330
9
100
AcDbSymbolTableRecord
100
AcDbRegAppTableRecord
  2
ACAD_DSTYLE_DIMFLIPARROW_SYMBOL
 70
     0
  0
APPID
  5
17C
330
9
100
AcDbSymbolTableRecord
100
AcDbRegAppTableRecord
  2
ACAD_DSTYLE_DIMFLIPARROW_WHICH_SYMBOL
 70
     0
  0
ENDTAB
  0
TABLE
  2
DIMSTYLE
  5
A
330
0
100
AcDbSymbolTable
 70
     3
100
AcDbDimStyleTable
  0
DIMSTYLE
105
27
330
A
100
AcDbSymbolTableRecord
100
AcDbDimStyleTableRecord
  2
ISO-25
 70
     0
 41
2.5
 42
0.625
 43
3.75
 44
1.25
 73
     0
 74
     0
 77
     1
 78
     8
140
2.5
141
2.5
143
0.03937007874016
147
0.625
171
     3
172
     1
178
     0
271
     2
272
     2
274
     3
278
    44
283
     0
284
     8
340
11
  0
DIMSTYLE
105
E6
102
{ACAD_REACTORS
330
E5
330
10F
330
151
330
167
102
}
330
A
100
AcDbSymbolTableRecord
100
AcDbDimStyleTableRecord
  2
SLDDIMSTYLE0
 70
     0
 41
3.302
 44
0.0
 45
0.000000001
 73
     0
 74
     0
 77
     1
 78
    12
 79
     3
140
3.5
143
0.0393700787401575
147
0.875
148
0.000000001
170
     1
172
     1
173
     1
178
     0
271
     2
272
     2
276
     2
284
    12
289
     0
340
93
  0
DIMSTYLE
105
FC
102
{ACAD_REACTORS
330
FB
102
}
330
A
100
AcDbSymbolTableRecord
100
AcDbDimStyleTableRecord
  2
SLDDIMSTYLE1
 70
     0
 41
3.302
 44
0.0
 45
0.000000001
 73
     0
 74
     0
 77
     1
 78
     4
 79
     1
140
3.5
143
0.0393700787401575
147
0.875
148
0.000000001
170
     1
173
     1
178
     0
271
     2
272
     2
276
     2
284
    12
340
93
  0
ENDTAB
  0
TABLE
  2
BLOCK_RECORD
  5
1
330
0
100
AcDbSymbolTable
 70
     8
  0
BLOCK_RECORD
  5
1F
330
1
100
AcDbSymbolTableRecord
100
AcDbBlockTableRecord
  2
*Model_Space
340
22
  0
BLOCK_RECORD
  5
1B
330
1
100
AcDbSymbolTableRecord
100
AcDbBlockTableRecord
  2
*Paper_Space
340
1E
  0
BLOCK_RECORD
  5
23
330
1
100
AcDbSymbolTableRecord
100
AcDbBlockTableRecord
  2
*Paper_Space0
340
26
  0
BLOCK_RECORD
  5
7E
330
1
100
AcDbSymbolTableRecord
100
AcDbBlockTableRecord
  2
블럭10
340
0
102
{BLKREFS
331
DD
102
}
  0
BLOCK_RECORD
  5
E7
330
1
100
AcDbSymbolTableRecord
100
AcDbBlockTableRecord
  2
_D
340
0
  0
BLOCK_RECORD
  5
FD
330
1
100
AcDbSymbolTableRecord
100
AcDbBlockTableRecord
  2
_D_1
340
0
  0
BLOCK_RECORD
  5
110
330
1
100
AcDbSymbolTableRecord
100
AcDbBlockTableRecord
  2
_D_2
340
0
  0
BLOCK_RECORD
  5
123
330
1
100
AcDbSymbolTableRecord
100
AcDbBlockTableRecord
  2
SW_DOWELSYMBOL_0
340
0
102
{BLKREFS
331
129
102
}
  0
BLOCK_RECORD
  5
154
330
1
100
AcDbSymbolTableRecord
100
AcDbBlockTableRecord
  2
*D6
340
0
  0
BLOCK_RECORD
  5
16A
330
1
100
AcDbSymbolTableRecord
100
AcDbBlockTableRecord
  2
*D7
340
0
  0
ENDTAB
  0
ENDSEC
  0
SECTION
  2
BLOCKS
  0
BLOCK
  5
20
330
1F
100
AcDbEntity
  8
0
100
AcDbBlockBegin
  2
*Model_Space
 70
     0
 10
0.0
 20
0.0
 30
0.0
  3
*Model_Space
  1
*Model_Space
  0
ENDBLK
  5
21
330
1F
100
AcDbEntity
  8
0
100
AcDbBlockEnd
  0
BLOCK
  5
1C
330
1B
100
AcDbEntity
 67
     1
  8
0
100
AcDbBlockBegin
  2
*Paper_Space
 70
     0
 10
0.0
 20
0.0
 30
0.0
  3
*Paper_Space
  1
*Paper_Space
  0
ENDBLK
  5
1D
330
1B
100
AcDbEntity
 67
     1
  8
0
100
AcDbBlockEnd
  0
BLOCK
  5
24
330
23
100
AcDbEntity
  8
0
100
AcDbBlockBegin
  2
*Paper_Space0
 70
     0
 10
0.0
 20
0.0
 30
0.0
  3
*Paper_Space0
  1
*Paper_Space0
  0
ENDBLK
  5
25
330
23
100
AcDbEntity
  8
0
100
AcDbBlockEnd
  0
BLOCK
  5
7F
330
7E
100
AcDbEntity
  8
0
100
AcDbBlockBegin
  2
블럭10
 70
     2
 10
0.0
 20
0.0
 30
0.0
  3
블럭10
  1
블럭10
  0
ELLIPSE
  5
81
330
7E
100
AcDbEntity
  8
중심선
100
AcDbEllipse
 10
20.54032771741204
 20
12.0471743016438
 30
0.0
 11
6.600054785286829
 21
-1.261213355974178E-13
 31
0.0
210
0.0
220
0.0
230
1.0
 40
0.636358354079598
 41
0.9219305317359503
 42
6.513795318482858
  0
ELLIPSE
  5
82
330
7E
100
AcDbEntity
  8
중심선
100
AcDbEllipse
 10
20.54032771746488
 20
12.04717430159265
 30
0.0
 11
3.960054785062283
 21
1.540847449632565E-10
 31
0.0
210
0.0
220
0.0
230
1.0
 40
0.3939339440162632
 41
1.131841032648279
 42
5.62031148352944
  0
LINE
  5
83
330
7E
100
AcDbEntity
  8
중심선
100
AcDbLine
 10
2.268634060543552
 20
16.24717430164393
 30
0.0
 11
5.714909304380834
 21
16.24717430164393
 31
0.0
  0
LINE
  5
84
330
7E
100
AcDbEntity
  8
중심선
100
AcDbLine
 10
5.245725140726316
 20
7.84717430164391
 30
0.0
 11
8.692000384563599
 21
7.84717430164391
 31
0.0
  0
LINE
  5
85
330
7E
100
AcDbEntity
  8
중심선
100
AcDbLine
 10
15.74043728645272
 20
16.24717430164393
 30
0.0
 11
8.692000384563599
 21
7.84717430164391
 31
0.0
  0
LINE
  5
86
330
7E
100
AcDbEntity
  8
중심선
100
AcDbLine
 10
0.1404042013395286
 20
13.71084872107135
 30
0.0
 11
3.58671253028996
 21
13.71088815037384
 31
0.0
  0
LINE
  5
87
330
7E
100
AcDbEntity
  8
중심선
100
AcDbLine
 10
2.750260043222114
 20
10.84717430164391
 30
0.0
 11
6.196535287059397
 21
10.84717430164391
 31
0.0
  0
LINE
  5
88
330
7E
100
AcDbEntity
  8
중심선
100
AcDbLine
 10
12.29416204261559
 20
16.24717430164393
 30
0.0
 11
5.245725140726316
 21
7.84717430164391
 31
0.0
  0
LINE
  5
89
330
7E
100
AcDbEntity
  8
중심선
100
AcDbLine
 10
10.72767329541681
 20
16.24717430164393
 30
0.0
 11
6.196535287059397
 21
10.84717430164391
 31
0.0
  0
LINE
  5
8A
330
7E
100
AcDbEntity
  8
중심선
100
AcDbLine
 10
7.28139805157953
 20
16.24717430164393
 30
0.0
 11
2.750260043222114
 21
10.84717430164391
 31
0.0
  0
LINE
  5
8B
330
7E
100
AcDbEntity
  8
중심선
100
AcDbLine
 10
5.714909304380834
 20
16.24717430164393
 30
0.0
 11
3.58671253028996
 21
13.71088815037384
 31
0.0
  0
LINE
  5
8C
330
7E
100
AcDbEntity
  8
중심선
100
AcDbLine
 10
2.268634060543552
 20
16.24717430164393
 30
0.0
 11
0.1404042013395286
 21
13.71084872107135
 31
0.0
  0
LINE
  5
8D
330
7E
100
AcDbEntity
  8
중심선
100
AcDbLine
 10
7.28139805157953
 20
16.24717430164393
 30
0.0
 11
10.72767329541681
 21
16.24717430164393
 31
0.0
  0
LINE
  5
8E
330
7E
100
AcDbEntity
  8
중심선
100
AcDbLine
 10
12.29416204261559
 20
16.24717430164393
 30
0.0
 11
15.74043728645272
 21
16.24717430164393
 31
0.0
  0
LINE
  5
8F
330
7E
100
AcDbEntity
  8
중심선
100
AcDbLine
 10
19.22036997980202
 20
11.08717430171403
 30
0.0
 11
23.66174974927406
 21
11.08717430171406
 31
0.0
  0
LINE
  5
90
330
7E
100
AcDbEntity
  8
중심선
100
AcDbLine
 10
19.22039502424796
 20
13.00717430171391
 30
0.0
 11
19.22036997980202
 21
11.08717430171403
 31
0.0
  0
LINE
  5
91
330
7E
100
AcDbEntity
  8
중심선
100
AcDbLine
 10
19.22039502424796
 20
13.00717430171391
 30
0.0
 11
26.96566020931264
 21
13.00717430171391
 31
0.0
  0
LINE
  5
92
330
7E
100
AcDbEntity
  8
중심선
100
AcDbLine
 10
22.22332737316547
 20
13.45928029700563
 30
0.0
 11
24.52862924686651
 21
15.39360700705356
 31
0.0
  0
ATTDEF
  5
94
330
7E
100
AcDbEntity
  8
FORMAT
 62
     2
100
AcDbText
 10
-9.18129528874128
 20
2.075366912832191
 30
0.0
 40
4.233333333333333
  1
E5077158 [ 3 FLUTE ]
 41
0.75
  7
SLDTEXTSTYLE0
 11
-9.18129528874128
 21
-0.0412997538344756
 31
0.0
100
AcDbAttributeDefinition
  3

  2
AUTOATTR0
 70
     0
 74
     1
  0
ENDBLK
  5
80
330
7E
100
AcDbEntity
  8
0
100
AcDbBlockEnd
  0
BLOCK
  5
E8
330
E7
100
AcDbEntity
  8
0
100
AcDbBlockBegin
  2
_D
 70
     0
 10
0.0
 20
0.0
 30
0.0
  3
_D
  1
_D
  0
LINE
  5
EA
330
E7
100
AcDbEntity
  8
치수문자_일반주서
 62
     0
370
    -2
100
AcDbLine
 10
47.9749081826537
 20
1.644208435270851
 30
0.0
 11
47.9749081826537
 21
35.84993019885988
 31
0.0
  0
LINE
  5
EB
330
E7
100
AcDbEntity
  8
치수문자_일반주서
 62
     0
370
    -2
100
AcDbLine
 10
9.874908182653698
 20
2.652518763600117
 30
0.0
 11
9.874908182653698
 21
35.84993019885988
 31
0.0
  0
LINE
  5
EC
330
E7
100
AcDbEntity
  8
치수문자_일반주서
 62
     0
370
    -2
100
AcDbLine
 10
44.6729081826537
 20
35.84993019885988
 30
0.0
 11
13.1769081826537
 21
35.84993019885988
 31
0.0
  0
SOLID
  5
ED
330
E7
100
AcDbEntity
  8
치수문자_일반주서
 62
     0
100
AcDbTrace
 10
44.6729081826537
 20
35.29959686552655
 30
0.0
 11
44.6729081826537
 21
36.40026353219321
 31
0.0
 12
47.9749081826537
 22
35.84993019885988
 32
0.0
 13
47.9749081826537
 23
35.84993019885988
 33
0.0
  0
SOLID
  5
EE
330
E7
100
AcDbEntity
  8
치수문자_일반주서
 62
     0
100
AcDbTrace
 10
13.1769081826537
 20
36.40026353219321
 30
0.0
 11
13.1769081826537
 21
35.29959686552655
 31
0.0
 12
9.874908182653698
 22
35.84993019885988
 32
0.0
 13
9.874908182653698
 23
35.84993019885988
 33
0.0
  0
MTEXT
  5
EF
330
E7
100
AcDbEntity
  8
치수문자_일반주서
 62
     0
100
AcDbMText
 10
28.9249081826537
 20
40.22493019885988
 30
0.0
 40
3.5
 41
0.0
 71
     2
 72
     1
  1
\A1;38.1 [1 1/2]
  7
SLDTEXTSTYLE0
 73
     1
 44
1.0
  0
POINT
  5
F0
330
E7
100
AcDbEntity
  8
Defpoints
 62
     0
100
AcDbPoint
 10
47.9749081826537
 20
1.581708435270851
 30
0.0
  0
POINT
  5
F1
330
E7
100
AcDbEntity
  8
Defpoints
 62
     0
100
AcDbPoint
 10
9.874908182653698
 20
2.590018763600117
 30
0.0
  0
POINT
  5
F2
330
E7
100
AcDbEntity
  8
Defpoints
 62
     0
100
AcDbPoint
 10
9.874908182653698
 20
35.84993019885988
 30
0.0
  0
ENDBLK
  5
E9
330
E7
100
AcDbEntity
  8
0
100
AcDbBlockEnd
  0
BLOCK
  5
FE
330
FD
100
AcDbEntity
  8
0
100
AcDbBlockBegin
  2
_D_1
 70
     0
 10
0.0
 20
0.0
 30
0.0
  3
_D_1
  1
_D_1
  0
LINE
  5
100
330
FD
100
AcDbEntity
  8
치수문자_일반주서
 62
     0
370
    -2
100
AcDbLine
 10
47.9749081826537
 20
1.644208435270851
 30
0.0
 11
47.9749081826537
 21
49.1620225212
 31
0.0
  0
LINE
  5
101
330
FD
100
AcDbEntity
  8
치수문자_일반주서
 62
     0
370
    -2
100
AcDbLine
 10
-28.2250918173463
 20
2.43233515181409
 30
0.0
 11
-28.2250918173463
 21
49.1620225212
 31
0.0
  0
LINE
  5
102
330
FD
100
AcDbEntity
  8
치수문자_일반주서
 62
     0
370
    -2
100
AcDbLine
 10
44.6729081826537
 20
49.1620225212
 30
0.0
 11
-24.9230918173463
 21
49.1620225212
 31
0.0
  0
SOLID
  5
103
330
FD
100
AcDbEntity
  8
치수문자_일반주서
 62
     0
100
AcDbTrace
 10
44.6729081826537
 20
48.61168918786667
 30
0.0
 11
44.6729081826537
 21
49.71235585453334
 31
0.0
 12
47.9749081826537
 22
49.1620225212
 32
0.0
 13
47.9749081826537
 23
49.1620225212
 33
0.0
  0
SOLID
  5
104
330
FD
100
AcDbEntity
  8
치수문자_일반주서
 62
     0
100
AcDbTrace
 10
-24.9230918173463
 20
49.71235585453334
 30
0.0
 11
-24.9230918173463
 21
48.61168918786667
 31
0.0
 12
-28.2250918173463
 22
49.1620225212
 32
0.0
 13
-28.2250918173463
 23
49.1620225212
 33
0.0
  0
MTEXT
  5
105
330
FD
100
AcDbEntity
  8
치수문자_일반주서
 62
     0
100
AcDbMText
 10
12.77570150979431
 20
53.5370225212
 30
0.0
 40
3.5
 41
0.0
 71
     2
 72
     1
  1
\A1;76.20 [3]
  7
SLDTEXTSTYLE0
 73
     1
 44
1.0
  0
POINT
  5
106
330
FD
100
AcDbEntity
  8
Defpoints
 62
     0
100
AcDbPoint
 10
47.9749081826537
 20
1.581708435270851
 30
0.0
  0
POINT
  5
107
330
FD
100
AcDbEntity
  8
Defpoints
 62
     0
100
AcDbPoint
 10
-28.2250918173463
 20
2.36983515181409
 30
0.0
  0
POINT
  5
108
330
FD
100
AcDbEntity
  8
Defpoints
 62
     0
100
AcDbPoint
 10
-28.2250918173463
 20
49.1620225212
 30
0.0
  0
ENDBLK
  5
FF
330
FD
100
AcDbEntity
  8
0
100
AcDbBlockEnd
  0
BLOCK
  5
111
330
110
100
AcDbEntity
  8
0
100
AcDbBlockBegin
  2
_D_2
 70
     0
 10
0.0
 20
0.0
 30
0.0
  3
_D_2
  1
_D_2
  0
LINE
  5
113
330
110
100
AcDbEntity
  8
치수문자_일반주서
 62
     0
370
    -2
100
AcDbLine
 10
-27.47759181734629
 20
3.179835151814089
 30
0.0
 11
-41.22509181734626
 21
3.179835151814039
 31
0.0
  0
LINE
  5
114
330
110
100
AcDbEntity
  8
치수문자_일반주서
 62
     0
370
    -2
100
AcDbLine
 10
-27.47759181734629
 20
-3.170164848185907
 30
0.0
 11
-41.22509181734624
 21
-3.170164848185955
 31
0.0
  0
LINE
  5
115
330
110
100
AcDbEntity
  8
치수문자_일반주서
 62
     0
370
    -2
100
AcDbLine
 10
-41.22509181734626
 20
3.179835151814039
 30
0.0
 11
-41.22509181734637
 21
35.15883515181404
 31
0.0
  0
LINE
  5
116
330
110
100
AcDbEntity
  8
치수문자_일반주서
 62
     0
370
    -2
100
AcDbLine
 10
-41.22509181734625
 20
-0.1221648481859603
 30
0.0
 11
-41.22509181734625
 21
0.1318351518140446
 31
0.0
  0
SOLID
  5
117
330
110
100
AcDbEntity
  8
치수문자_일반주서
 62
     0
100
AcDbTrace
 10
-40.67475848401291
 20
-0.1221648481859584
 30
0.0
 11
-41.77542515067958
 21
-0.1221648481859621
 31
0.0
 12
-41.22509181734626
 22
3.179835151814039
 32
0.0
 13
-41.22509181734626
 23
3.179835151814039
 33
0.0
  0
SOLID
  5
118
330
110
100
AcDbEntity
  8
치수문자_일반주서
 62
     0
100
AcDbTrace
 10
-41.77542515067959
 20
0.1318351518140427
 30
0.0
 11
-40.67475848401292
 21
0.1318351518140465
 31
0.0
 12
-41.22509181734624
 22
-3.170164848185955
 32
0.0
 13
-41.22509181734624
 23
-3.170164848185955
 33
0.0
  0
MTEXT
  5
119
330
110
100
AcDbEntity
  8
치수문자_일반주서
 62
     0
100
AcDbMText
 10
-45.60009181734632
 20
22.47133515181402
 30
0.0
 40
3.5
 41
0.0
 71
     2
 72
     1
  1
\A1;%%c6.35 [1/4]
  7
SLDTEXTSTYLE0
 11
-3.356894814614648E-15
 21
1.0
 31
0.0
 73
     1
 44
1.0
  0
POINT
  5
11A
330
110
100
AcDbEntity
  8
Defpoints
 62
     0
100
AcDbPoint
 10
-27.41509181734629
 20
3.179835151814089
 30
0.0
  0
POINT
  5
11B
330
110
100
AcDbEntity
  8
Defpoints
 62
     0
100
AcDbPoint
 10
-27.41509181734629
 20
-3.170164848185907
 30
0.0
  0
POINT
  5
165
330
110
100
AcDbEntity
  8
Defpoints
 62
     0
100
AcDbPoint
 10
-41.22509181734624
 20
-3.170164848185955
 30
0.0
  0
ENDBLK
  5
112
330
110
100
AcDbEntity
  8
0
100
AcDbBlockEnd
  0
BLOCK
  5
124
330
123
100
AcDbEntity
  8
0
100
AcDbBlockBegin
  2
SW_DOWELSYMBOL_0
 70
     0
 10
0.0
 20
0.0
 30
0.0
  3
SW_DOWELSYMBOL_0
  1
SW_DOWELSYMBOL_0
  0
CIRCLE
  5
126
330
123
100
AcDbEntity
  8
외형선
 62
     0
100
AcDbCircle
 10
0.0
 20
0.0
 30
0.0
 40
3.000000000000004
  0
HATCH
  5
127
330
123
100
AcDbEntity
  8
0
  6
Continuous
 62
     0
370
    30
100
AcDbHatch
 10
0.0
 20
0.0
 30
0.0
210
0.0
220
0.0
230
1.0
  2
SOLID
 70
     1
 71
     0
 91
        1
 92
        0
 93
        3
 72
     2
 10
-0.0000000000000013
 20
-0.0000000000000039
 40
3.000000000000004
 50
0.0
 51
90.0
 73
     1
 72
     1
 10
-0.0000000000000013
 20
3.0
 11
-0.0000000000000013
 21
-0.000000000000004
 72
     1
 10
-0.0000000000000013
 20
-0.0000000000000039
 11
3.000000000000003
 21
-0.0000000000000039
 97
        0
 75
     0
 76
     1
 98
        1
 10
0.0
 20
0.0
  0
HATCH
  5
128
330
123
100
AcDbEntity
  8
0
  6
Continuous
 62
     0
370
    30
100
AcDbHatch
 10
0.0
 20
0.0
 30
0.0
210
0.0
220
0.0
230
1.0
  2
SOLID
 70
     1
 71
     0
 91
        1
 92
        0
 93
        3
 72
     2
 10
-0.0000000000000013
 20
-0.0000000000000039
 40
3.000000000000004
 50
180.0
 51
270.0000000000008
 73
     1
 72
     1
 10
-0.0000000000000013
 20
-3.000000000000008
 11
-0.0000000000000013
 21
-0.000000000000004
 72
     1
 10
-0.0000000000000013
 20
-0.0000000000000039
 11
-3.000000000000006
 21
-0.0000000000000039
 97
        0
 75
     0
 76
     1
 98
        1
 10
0.0
 20
0.0
  0
ENDBLK
  5
125
330
123
100
AcDbEntity
  8
0
100
AcDbBlockEnd
  0
BLOCK
  5
155
330
154
100
AcDbEntity
  8
0
100
AcDbBlockBegin
  2
*D6
 70
     1
 10
0.0
 20
0.0
 30
0.0
  3
*D6
  1
*D6
  0
LINE
  5
157
330
154
100
AcDbEntity
  8
치수문자_일반주서
 62
     0
370
    -2
100
AcDbLine
 10
48.0374081826537
 20
1.592335151814097
 30
0.0
 11
68.40600896291839
 21
1.592335151814098
 31
0.0
  0
LINE
  5
158
330
154
100
AcDbEntity
  8
치수문자_일반주서
 62
     0
370
    -2
100
AcDbLine
 10
48.0374081826537
 20
-1.582664848185908
 30
0.0
 11
68.40600896291839
 21
-1.582664848185907
 31
0.0
  0
LINE
  5
159
330
154
100
AcDbEntity
  8
치수문자_일반주서
 62
     0
370
    -2
100
AcDbLine
 10
68.40600896291839
 20
1.592335151814098
 30
0.0
 11
68.40600896291839
 21
35.10733687934415
 31
0.0
  0
LINE
  5
15A
330
154
100
AcDbEntity
  8
치수문자_일반주서
 62
     0
370
    -2
100
AcDbLine
 10
68.40600896291839
 20
1.592335151814098
 30
0.0
 11
68.40600896291839
 21
-1.582664848185907
 31
0.0
  0
LINE
  5
15B
330
154
100
AcDbEntity
  8
치수문자_일반주서
 62
     0
370
    -2
100
AcDbLine
 10
68.40600896291839
 20
4.894335151814097
 30
0.0
 11
68.40600896291839
 21
8.196335151814097
 31
0.0
  0
LINE
  5
15C
330
154
100
AcDbEntity
  8
치수문자_일반주서
 62
     0
370
    -2
100
AcDbLine
 10
68.40600896291839
 20
-4.884664848185906
 30
0.0
 11
68.40600896291839
 21
-8.186664848185906
 31
0.0
  0
SOLID
  5
15D
330
154
100
AcDbEntity
  8
치수문자_일반주서
 62
     0
100
AcDbTrace
 10
67.85567562958506
 20
4.894335151814097
 30
0.0
 11
68.95634229625172
 21
4.894335151814097
 31
0.0
 12
68.40600896291839
 22
1.592335151814098
 32
0.0
 13
68.40600896291839
 23
1.592335151814098
 33
0.0
  0
SOLID
  5
15E
330
154
100
AcDbEntity
  8
치수문자_일반주서
 62
     0
100
AcDbTrace
 10
68.95634229625172
 20
-4.884664848185906
 30
0.0
 11
67.85567562958506
 21
-4.884664848185906
 31
0.0
 12
68.40600896291839
 22
-1.582664848185907
 32
0.0
 13
68.40600896291839
 23
-1.582664848185907
 33
0.0
  0
MTEXT
  5
15F
330
154
100
AcDbEntity
  8
치수문자_일반주서
 62
     0
100
AcDbMText
 10
65.78100896291839
 20
22.85733687934415
 30
0.0
 40
3.5
 41
0.0
 71
     5
 72
     1
  1
\A1;{%%c3.18 [1/8]}
  7
SLDTEXTSTYLE0
 11
0.0
 21
1.0
 31
0.0
 73
     1
 44
1.0
  0
POINT
  5
160
330
154
100
AcDbEntity
  8
Defpoints
 62
     0
100
AcDbPoint
 10
47.9749081826537
 20
1.592335151814097
 30
0.0
  0
POINT
  5
161
330
154
100
AcDbEntity
  8
Defpoints
 62
     0
100
AcDbPoint
 10
47.9749081826537
 20
-1.582664848185908
 30
0.0
  0
POINT
  5
164
330
154
100
AcDbEntity
  8
Defpoints
 62
     0
100
AcDbPoint
 10
68.40600896291839
 20
-1.582664848185909
 30
0.0
  0
ENDBLK
  5
156
330
154
100
AcDbEntity
  8
0
100
AcDbBlockEnd
  0
BLOCK
  5
16B
330
16A
100
AcDbEntity
  8
0
100
AcDbBlockBegin
  2
*D7
 70
     1
 10
0.0
 20
0.0
 30
0.0
  3
*D7
  1
*D7
  0
LINE
  5
16D
330
16A
100
AcDbEntity
  8
치수문자_일반주서
 62
     0
370
    -2
100
AcDbLine
 10
28.32222052534601
 20
8.706319135202632
 30
0.0
 11
28.88797213002512
 21
13.92574679748544
 31
0.0
  0
LINE
  5
16E
330
16A
100
AcDbEntity
  8
치수문자_일반주서
 62
     0
370
    -2
100
AcDbLine
 10
14.81284317279389
 20
2.460714385234562
 30
0.0
 11
27.87967585836232
 21
2.118547329372579
 31
0.0
  0
ARC
  5
16F
330
16A
100
AcDbEntity
  8
치수문자_일반주서
 62
     0
370
    -2
100
AcDbCircle
 10
108.5990873166821
 20
0.0048351518140923
 30
0.0
 40
80.74708146643499
100
AcDbArc
 50
173.8136671882623
 51
176.1568335941312
  0
ARC
  5
170
330
16A
100
AcDbEntity
  8
치수문자_일반주서
 62
     0
370
    -2
100
AcDbCircle
 10
108.5990873166821
 20
0.0048351518140923
 30
0.0
 40
80.74708146643499
100
AcDbArc
 50
182.3431664058689
 51
184.6863328117377
  0
ARC
  5
171
330
16A
100
AcDbEntity
  8
치수문자_일반주서
 62
     0
370
    -2
100
AcDbCircle
 10
108.5990873166821
 20
0.0048351518140923
 30
0.0
 40
80.74708146643499
100
AcDbArc
 50
178.5
 51
180.0
  0
SOLID
  5
172
330
16A
100
AcDbEntity
  8
치수문자_일반주서
 62
     0
100
AcDbTrace
 10
27.4838502911507
 20
5.442610039087812
 30
0.0
 11
28.58332066009681
 21
5.391306833334001
 31
0.0
 12
27.87967585836232
 22
2.118547329372579
 32
0.0
 13
27.87967585836232
 23
2.118547329372579
 33
0.0
  0
SOLID
  5
173
330
16A
100
AcDbEntity
  8
치수문자_일반주서
 62
     0
100
AcDbTrace
 10
28.46973867412269
 20
-3.285222132806421
 30
0.0
 11
27.36930210484709
 21
-3.307726979219006
 31
0.0
 12
27.85200585024714
 22
0.0048351518140923
 32
0.0
 13
27.85200585024714
 23
0.0048351518140923
 33
0.0
  0
MTEXT
  5
174
330
16A
100
AcDbEntity
  8
치수문자_일반주서
 62
     0
100
AcDbMText
 10
25.99538249654416
 20
11.59890876868359
 30
0.0
 40
3.5
 41
0.0
 71
     5
 72
     1
  1
\A1;2%%d
  7
SLDTEXTSTYLE0
 11
0.1077622104150672
 21
0.9941766975776786
 31
0.0
 73
     1
 44
1.0
  0
POINT
  5
175
330
16A
100
AcDbEntity
  8
Defpoints
 62
     0
100
AcDbPoint
 10
27.85508045168648
 20
0.7094774246210283
 30
0.0
  0
POINT
  5
176
330
16A
100
AcDbEntity
  8
Defpoints
 62
     0
100
AcDbPoint
 10
14.75036458998292
 20
2.462350444503804
 30
0.0
  0
POINT
  5
177
330
16A
100
AcDbEntity
  8
Defpoints
 62
     0
100
AcDbPoint
 10
-31.22509181734629
 20
0.004835151814092
 30
0.0
  0
POINT
  5
178
330
16A
100
AcDbEntity
  8
Defpoints
 62
     0
100
AcDbPoint
 10
50.97490428620234
 20
0.004835151814092
 30
0.0
  0
POINT
  5
179
330
16A
100
AcDbEntity
  8
Defpoints
 62
     0
100
AcDbPoint
 10
11.93519054692398
 20
2.536068371198956
 30
0.0
  0
ENDBLK
  5
16C
330
16A
100
AcDbEntity
  8
0
100
AcDbBlockEnd
  0
ENDSEC
  0
SECTION
  2
ENTITIES
  0
LINE
  5
95
330
1F
100
AcDbEntity
  8
0
  6
Continuous
 62
     4
370
    15
100
AcDbLine
 10
-27.41509181734629
 20
3.179835151814089
 30
0.0
 11
-28.2250918173463
 21
2.369835151814089
 31
0.0
  0
LINE
  5
96
330
1F
100
AcDbEntity
  8
0
  6
Continuous
 62
     4
370
    15
100
AcDbLine
 10
-28.2250918173463
 20
-2.360164848185908
 30
0.0
 11
-27.41509181734629
 21
-3.170164848185907
 31
0.0
  0
LINE
  5
97
330
1F
100
AcDbEntity
  8
0
  6
Continuous
 62
     4
370
    15
100
AcDbLine
 10
8.334652707772067
 20
3.179835151814094
 30
0.0
 11
-27.41509181734629
 21
3.179835151814089
 31
0.0
  0
LINE
  5
98
330
1F
100
AcDbEntity
  8
0
  6
Continuous
 62
     4
370
    15
100
AcDbLine
 10
-27.41509181734629
 20
-3.170164848185907
 30
0.0
 11
8.334652707772067
 21
-3.170164848185902
 31
0.0
  0
LINE
  5
99
330
1F
100
AcDbEntity
  8
0
  6
Continuous
 62
     4
370
    15
100
AcDbLine
 10
8.334652707772067
 20
-3.170164848185899
 30
0.0
 11
8.858908182653703
 21
-2.617714848185904
 31
0.0
  0
LINE
  5
9A
330
1F
100
AcDbEntity
  8
0
  6
Continuous
 62
     4
370
    15
100
AcDbLine
 10
8.858908182653703
 20
2.627385151814096
 30
0.0
 11
8.334652707772067
 21
3.179835151814091
 31
0.0
  0
LINE
  5
9B
330
1F
100
AcDbEntity
  8
0
  6
Continuous
 62
     1
370
    15
100
AcDbLine
 10
40.97808009048212
 20
-1.765883239840591
 30
0.0
 11
43.14670090005878
 21
-1.70909590540771
 31
0.0
  0
LINE
  5
9C
330
1F
100
AcDbEntity
  8
0
  6
Continuous
 62
     1
370
    15
100
AcDbLine
 10
27.54245971757136
 20
-2.117707341159003
 30
0.0
 11
30.06526227105791
 21
-2.051645431358859
 31
0.0
  0
LINE
  5
9D
330
1F
100
AcDbEntity
  8
0
  6
Continuous
 62
     1
370
    15
100
AcDbLine
 10
14.16095318695767
 20
-2.468114421647216
 30
0.0
 11
16.94086158309464
 21
-2.395319958416449
 31
0.0
  0
LINE
  5
9E
330
1F
100
AcDbEntity
  8
0
  6
Continuous
 62
     1
370
    15
100
AcDbLine
 10
10.36735750351638
 20
2.577123524307207
 30
0.0
 11
9.8749081826537
 21
2.590018763600117
 31
0.0
  0
LINE
  5
9F
330
1F
100
AcDbEntity
  8
0
  6
Continuous
 62
     1
370
    15
100
AcDbLine
 10
23.50685986436336
 20
2.233053546027922
 30
0.0
 11
20.84609575796562
 21
2.302728106232161
 31
0.0
  0
LINE
  5
A0
330
1F
100
AcDbEntity
  8
0
  6
Continuous
 62
     1
370
    15
100
AcDbLine
 10
36.61247116302056
 20
1.889871036445036
 30
0.0
 11
34.25098148666113
 21
1.951708819896628
 31
0.0
  0
LINE
  5
A1
102
{ACAD_REACTORS
102
}
330
1F
100
AcDbEntity
  8
0
  6
Continuous
 62
     1
370
    15
100
AcDbLine
 10
47.9749081826537
 20
1.592335151814097
 30
0.0
 11
47.72662527565488
 21
1.598836668543738
 31
0.0
  0
LINE
  5
A2
330
1F
100
AcDbEntity
  8
0
  6
Continuous
 62
     1
370
    15
100
AcDbLine
 10
36.49137529563396
 20
-1.88337173970258
 30
0.0
 11
38.79239845379065
 21
-1.823117327754206
 31
0.0
  0
LINE
  5
A3
330
1F
100
AcDbEntity
  8
0
  6
Continuous
 62
     1
370
    15
100
AcDbLine
 10
23.07752438904522
 20
-2.23462578748328
 30
0.0
 11
25.69413102590789
 21
-2.16610753131298
 31
0.0
  0
LINE
  5
A4
330
1F
100
AcDbEntity
  8
0
  6
Continuous
 62
     1
370
    15
100
AcDbLine
 10
9.8749081826537
 20
-2.580348459971925
 30
0.0
 11
12.55856233422529
 21
-2.510074502840048
 31
0.0
  0
LINE
  5
A5
330
1F
100
AcDbEntity
  8
0
  6
Continuous
 62
     1
370
    15
100
AcDbLine
 10
19.12972620014322
 20
2.347672824857038
 30
0.0
 11
16.38892923103849
 21
2.41944311932708
 31
0.0
  0
LINE
  5
A6
330
1F
100
AcDbEntity
  8
0
  6
Continuous
 62
     1
370
    15
100
AcDbLine
 10
32.24826370517105
 20
2.004151830647944
 30
0.0
 11
29.77753449393902
 21
2.068850151991964
 31
0.0
  0
LINE
  5
A7
330
1F
100
AcDbEntity
  8
0
  6
Continuous
 62
     1
370
    15
100
AcDbLine
 10
45.32068446199113
 20
1.661838445990443
 30
0.0
 11
43.22466940855659
 21
1.716724531787515
 31
0.0
  0
LINE
  5
A8
330
1F
100
AcDbEntity
  8
0
  6
Continuous
 62
     1
370
    15
100
AcDbLine
 10
45.47361886257666
 20
-1.648163414143285
 30
0.0
 11
47.21735047582309
 21
-1.602502194881102
 31
0.0
  0
LINE
  5
A9
330
1F
100
AcDbEntity
  8
0
  6
Continuous
 62
     1
370
    15
100
AcDbLine
 10
32.01283095477391
 20
-2.000646550556468
 30
0.0
 11
34.43078870381497
 21
-1.93733009858247
 31
0.0
  0
LINE
  5
AA
330
1F
100
AcDbEntity
  8
0
  6
Continuous
 62
     1
370
    15
100
AcDbLine
 10
18.61736519608091
 20
-2.351419166296331
 30
0.0
 11
21.3191821254539
 21
-2.280669600089469
 31
0.0
  0
LINE
  5
AB
102
{ACAD_REACTORS
102
}
330
1F
100
AcDbEntity
  8
0
  6
Continuous
 62
     1
370
    15
100
AcDbLine
 10
14.75036458998292
 20
2.462350444503804
 30
0.0
 11
11.93519054692398
 21
2.536068371198956
 31
0.0
  0
LINE
  5
AC
330
1F
100
AcDbEntity
  8
0
  6
Continuous
 62
     1
370
    15
100
AcDbLine
 10
27.87967646583636
 20
2.118547313465312
 30
0.0
 11
25.30862003748026
 21
2.185872795448199
 31
0.0
  0
LINE
  5
AD
330
1F
100
AcDbEntity
  8
0
  6
Continuous
 62
     1
370
    15
100
AcDbLine
 10
40.9705038330148
 20
1.775751934752613
 30
0.0
 11
38.73374864321952
 21
1.834323430722064
 31
0.0
  0
LINE
  5
AE
330
1F
100
AcDbEntity
  8
0
  6
Continuous
 62
     4
370
    15
100
AcDbLine
 10
9.710062195782218
 20
-2.586411155976803
 30
0.0
 11
9.8749081826537
 21
-2.580348459971925
 31
0.0
  0
LINE
  5
AF
330
1F
100
AcDbEntity
  8
0
  6
Continuous
 62
     4
370
    15
100
AcDbLine
 10
8.858908182653703
 20
-2.617714848185904
 30
0.0
 11
8.984908182653697
 21
-2.613080827600312
 31
0.0
  0
LINE
  5
B0
330
1F
100
AcDbEntity
  8
0
  6
Continuous
 62
     4
370
    15
100
AcDbLine
 10
9.8749081826537
 20
2.590018763600117
 30
0.0
 11
8.858908182653703
 21
2.627385151814096
 31
0.0
  0
LINE
  5
B1
330
1F
100
AcDbEntity
  8
0
  6
Continuous
 62
     4
370
    15
100
AcDbLine
 10
-27.41509181734629
 20
3.179835151814089
 30
0.0
 11
-27.41509181734629
 21
-3.170164848185907
 31
0.0
  0
LINE
  5
B2
330
1F
100
AcDbEntity
  8
0
  6
Continuous
 62
     4
370
    15
100
AcDbLine
 10
-28.2250918173463
 20
-2.360164848185907
 30
0.0
 11
-28.2250918173463
 21
2.369835151814092
 31
0.0
  0
LINE
  5
B3
330
1F
100
AcDbEntity
  8
0
  6
Continuous
 62
     4
370
    15
100
AcDbLine
 10
8.334652707772067
 20
3.179835151814091
 30
0.0
 11
8.334652707772067
 21
-3.170164848185902
 31
0.0
  0
LINE
  5
B4
330
1F
100
AcDbEntity
  8
0
  6
Continuous
 62
     4
370
    15
100
AcDbLine
 10
8.858908182653703
 20
2.627385151814096
 30
0.0
 11
8.858908182653703
 21
-2.617714848185905
 31
0.0
  0
SPLINE
  5
B5
330
1F
100
AcDbEntity
  8
0
  6
Continuous
 62
     1
370
    15
100
AcDbSpline
210
0.0
220
0.0
230
1.0
 70
     8
 71
     3
 72
    17
 73
    13
 74
     0
 42
0.000000001
 43
0.00000001
 40
0.0
 40
0.0
 40
0.0
 40
0.0
 40
0.1124508188943855
 40
0.2204287917613307
 40
0.3315274553811567
 40
0.439639773410027
 40
0.5508951810075485
 40
0.6588392616243808
 40
0.7699210253105232
 40
0.8777048722347514
 40
0.9886212929136418
 40
0.9999999999999999
 40
0.9999999999999999
 40
0.9999999999999999
 40
0.9999999999999999
 10
9.8749081826537
 20
1.118634394108377
 30
0.0
 10
10.03360051710462
 20
0.937723136903592
 30
0.0
 10
10.34467303652892
 20
0.5830965522886088
 30
0.0
 10
10.81414761710391
 20
0.0122483607711159
 30
0.0
 10
11.2788154546744
 20
-0.5445556298671653
 30
0.0
 10
11.74942669916417
 20
-1.077156501717484
 30
0.0
 10
12.21698078542288
 20
-1.549262131620928
 30
0.0
 10
12.69005524164002
 20
-1.945351737345401
 30
0.0
 10
13.15958921905032
 20
-2.243346269971541
 30
0.0
 10
13.63482037730892
 20
-2.418780168230385
 30
0.0
 10
13.96705199148281
 20
-2.489063062985448
 30
0.0
 10
14.14431314437127
 20
-2.46475720757998
 30
0.0
 10
14.1608060560135
 20
-2.462495717574645
 30
0.0
  0
SPLINE
  5
B6
330
1F
100
AcDbEntity
  8
0
  6
Continuous
 62
     1
370
    15
100
AcDbSpline
210
0.0
220
0.0
230
1.0
 70
     8
 71
     3
 72
    23
 73
    19
 74
     0
 42
0.000000001
 43
0.00000001
 40
0.0
 40
0.0
 40
0.0
 40
0.0
 40
0.0516065998178196
 40
0.1187571445008656
 40
0.1839668661402603
 40
0.2510686266174975
 40
0.3162393675681373
 40
0.3833004215676436
 40
0.4484415288869316
 40
0.5154716853686114
 40
0.5805905092141234
 40
0.6475971044382467
 40
0.7127039974236962
 40
0.7796977102421359
 40
0.8448026127043473
 40
0.9117937250188696
 40
0.9769063894645081
 40
1.0
 40
1.0
 40
1.0
 40
1.0
 10
19.98658199714192
 20
2.129495207933226
 30
0.0
 10
20.11355759908576
 20
2.177792392730028
 30
0.0
 10
20.40575394531592
 20
2.288933909011797
 30
0.0
 10
20.86023448378347
 20
2.320596935292417
 30
0.0
 10
21.35423858912955
 20
2.244858078290322
 30
0.0
 10
21.84499167857416
 20
2.048725282147521
 30
0.0
 10
22.34176648294817
 20
1.743984362093427
 30
0.0
 10
22.83529031787536
 20
1.351495816040093
 30
0.0
 10
23.33491281844115
 20
0.8861041851508498
 30
0.0
 10
23.83131254106733
 20
0.3813149682680009
 30
0.0
 10
24.33387164184023
 20
-0.1440830640864336
 30
0.0
 10
24.83324727045292
 20
-0.6520314879029809
 30
0.0
 10
25.33885931459383
 20
-1.123670714151679
 30
0.0
 10
25.8413406640639
 20
-1.524027535617523
 30
0.0
 10
26.35010138010575
 20
-1.840807727416347
 30
0.0
 10
26.85587968433957
 20
-2.040452569785149
 30
0.0
 10
27.25476907451215
 20
-2.129756708107051
 30
0.0
 10
27.48247396909222
 20
-2.109024968267162
 30
0.0
 10
27.54209022829354
 20
-2.103597114912195
 30
0.0
  0
SPLINE
  5
B7
330
1F
100
AcDbEntity
  8
0
  6
Continuous
 62
     1
370
    15
100
AcDbSpline
210
0.0
220
0.0
230
1.0
 70
     8
 71
     3
 72
    22
 73
    18
 74
     0
 42
0.000000001
 43
0.00000001
 40
0.0
 40
0.0
 40
0.0
 40
0.0
 40
0.0501664469196521
 40
0.1216554634660634
 40
0.1912468045479196
 40
0.2628472050756634
 40
0.3325671142770283
 40
0.4042986423363543
 40
0.4741665922806492
 40
0.5440253722792703
 40
0.6158926053290777
 40
0.6860197897250457
 40
0.7581670711341555
 40
0.8284994139932806
 40
0.9008562925460057
 40
0.9714195519615436
 40
1.0
 40
1.0
 40
1.0
 40
1.0
 10
33.2427432838878
 20
1.751762624432913
 30
0.0
 10
33.36902090596492
 20
1.800688330809187
 30
0.0
 10
33.67524874513774
 20
1.919334953204894
 30
0.0
 10
34.15878279948546
 20
1.970453214457717
 30
0.0
 10
34.69797877041017
 20
1.918272009968542
 30
0.0
 10
35.23466017054606
 20
1.743725463024663
 30
0.0
 10
35.77850285358232
 20
1.460164638232422
 30
0.0
 10
36.31986047571756
 20
1.089282319126939
 30
0.0
 10
36.86334411506122
 20
0.6534942378490234
 30
0.0
 10
37.40901042148221
 20
0.1813015412233388
 30
0.0
 10
37.9572986146625
 20
-0.2975257897924712
 30
0.0
 10
38.51332138511472
 20
-0.7553911432661402
 30
0.0
 10
39.0673832633338
 20
-1.153703454062348
 30
0.0
 10
39.62906073393118
 20
-1.474716001466311
 30
0.0
 10
40.18877717496621
 20
-1.681836767842863
 30
0.0
 10
40.64002025011401
 20
-1.776835421163261
 30
0.0
 10
40.9021253781854
 20
-1.756568718998872
 30
0.0
 10
40.97768319406525
 20
-1.750726377180164
 30
0.0
  0
SPLINE
  5
B8
330
1F
100
AcDbEntity
  8
0
  6
Continuous
 62
     1
370
    15
100
AcDbSpline
210
0.0
220
0.0
230
1.0
 70
     8
 71
     3
 72
    11
 73
     7
 74
     0
 42
0.000000001
 43
0.00000001
 40
0.0
 40
0.0
 40
0.0
 40
0.0
 40
0.0560596574401124
 40
0.4577369363318525
 40
0.8708331011411783
 40
0.9999999999999999
 40
0.9999999999999999
 40
0.9999999999999999
 40
0.9999999999999999
 10
46.49541304504924
 20
1.366218560582561
 30
0.0
 10
46.52290054223192
 20
1.378858529775005
 30
0.0
 10
46.7473407782656
 20
1.482066095387745
 30
0.0
 10
47.17631415683041
 20
1.574578560614956
 30
0.0
 10
47.64273161635364
 20
1.612406981823664
 30
0.0
 10
47.9110054387531
 20
1.58761409375973
 30
0.0
 10
47.9749081826537
 20
1.581708435271193
 30
0.0
  0
SPLINE
  5
B9
330
1F
100
AcDbEntity
  8
0
  6
Continuous
 62
     1
370
    15
100
AcDbSpline
210
0.0
220
0.0
230
1.0
 70
     8
 71
     3
 72
    22
 73
    18
 74
     0
 42
0.000000001
 43
0.00000001
 40
0.0
 40
0.0
 40
0.0
 40
0.0
 40
0.0374500901644319
 40
0.1075433091350151
 40
0.1796789011476012
 40
0.2495601118374831
 40
0.3214762919723719
 40
0.3911693957099485
 40
0.4628908599356037
 40
0.5324177773704579
 40
0.6039671717420669
 40
0.6733478791494028
 40
0.7447458037564016
 40
0.8139988301262717
 40
0.8852644273395157
 40
0.9544079161558192
 40
1.0
 40
1.0
 40
1.0
 40
1.0
 10
44.28153453727934
 20
-1.420504116738607
 30
0.0
 10
44.1834926576489
 20
-1.466417305818223
 30
0.0
 10
43.90195132829612
 20
-1.598263618200486
 30
0.0
 10
43.43368794222643
 20
-1.701960618434215
 30
0.0
 10
42.88227348260374
 20
-1.723536256784231
 30
0.0
 10
42.32818606192774
 20
-1.61717638887157
 30
0.0
 10
41.78209596699551
 20
-1.398576418234169
 30
0.0
 10
41.23319987724385
 20
-1.077041795753888
 30
0.0
 10
40.69211971443308
 20
-0.6807638419804186
 30
0.0
 10
40.14818863083315
 20
-0.229355091466718
 30
0.0
 10
39.61188596014785
 20
0.2386709379540979
 30
0.0
 10
39.07269469232754
 20
0.700538289172232
 30
0.0
 10
38.54096082968177
 20
1.116938848940947
 30
0.0
 10
38.00628930957822
 20
1.469502757056323
 30
0.0
 10
37.47897517064136
 20
1.72266089223289
 30
0.0
 10
37.01254568189563
 20
1.867620717230627
 30
0.0
 10
36.72597395808728
 20
1.8733983161561
 30
0.0
 10
36.61209992794753
 20
1.87569414096893
 30
0.0
  0
SPLINE
  5
BA
330
1F
100
AcDbEntity
  8
0
  6
Continuous
 62
     1
370
    15
100
AcDbSpline
210
0.0
220
0.0
230
1.0
 70
     8
 71
     3
 72
    23
 73
    19
 74
     0
 42
0.000000001
 43
0.00000001
 40
0.0
 40
0.0
 40
0.0
 40
0.0
 40
0.0317691730220703
 40
0.0984695666621797
 40
0.1632795115375564
 40
0.2299675585868047
 40
0.2947760740311669
 40
0.3614621219522691
 40
0.4262789203398148
 40
0.4929730248067423
 40
0.5578073921947385
 40
0.6245191062305016
 40
0.6893796056807546
 40
0.7561177648342579
 40
0.8210131755961296
 40
0.8877868667692282
 40
0.9527247086737194
 40
1.0
 40
1.0
 40
1.0
 40
1.0
 10
31.01519140614137
 20
-1.806507193447977
 30
0.0
 10
30.933777315602
 20
-1.845842056161291
 30
0.0
 10
30.68143174116614
 20
-1.967761719710783
 30
0.0
 10
30.26461894335589
 20
-2.053338364464263
 30
0.0
 10
29.76002129736185
 20
-2.058603459418289
 30
0.0
 10
29.26176057129824
 20
-1.939573257348501
 30
0.0
 10
28.76036203815516
 20
-1.707618470439289
 30
0.0
 10
28.26512339267028
 20
-1.377804520199002
 30
0.0
 10
27.76675609872347
 20
-0.9633050960086829
 30
0.0
 10
27.27444887647979
 20
-0.4942689740671559
 30
0.0
 10
26.77900099859202
 20
0.0113072231768632
 30
0.0
 10
26.28952172714209
 20
0.5166322400446602
 30
0.0
 10
25.79688737736964
 20
1.002587050304734
 30
0.0
 10
25.31014070284261
 20
1.433605880908948
 30
0.0
 10
24.82021559094237
 20
1.794841572719359
 30
0.0
 10
24.33614456072696
 20
2.054756944450885
 30
0.0
 10
23.89668028133193
 20
2.207178455891003
 30
0.0
 10
23.62217659534571
 20
2.21647878651233
 30
0.0
 10
23.50652844123482
 20
2.220397007373784
 30
0.0
  0
SPLINE
  5
BB
330
1F
100
AcDbEntity
  8
0
  6
Continuous
 62
     1
370
    15
100
AcDbSpline
210
0.0
220
0.0
230
1.0
 70
     8
 71
     3
 72
    24
 73
    20
 74
     0
 42
0.000000001
 43
0.00000001
 40
0.0
 40
0.0
 40
0.0
 40
0.0
 40
0.0163689048823719
 40
0.0775429036958267
 40
0.1404849778709375
 40
0.201746644588877
 40
0.2647787005013497
 40
0.3261326315070183
 40
0.3892593593236436
 40
0.4507103699124142
 40
0.5139367858848768
 40
0.5754892104562177
 40
0.6388197331172726
 40
0.7004779295237157
 40
0.763917103076013
 40
0.8256851058809834
 40
0.889237039664131
 40
0.9511188612691577
 40
0.9999999999999999
 40
0.9999999999999999
 40
0.9999999999999999
 40
0.9999999999999999
 10
17.77386736141216
 20
-2.17630813085869
 30
0.0
 10
17.73248557023289
 20
-2.198719879447194
 30
0.0
 10
17.53645142676181
 20
-2.304888989411598
 30
0.0
 10
17.18269995324886
 20
-2.387337696187291
 30
0.0
 10
16.71674325581574
 20
-2.409031350657733
 30
0.0
 10
16.24766524031113
 20
-2.301173599786721
 30
0.0
 10
15.7837670147453
 20
-2.081353863631958
 30
0.0
 10
15.3166371522891
 20
-1.75340037687263
 30
0.0
 10
14.85466126325062
 20
-1.339465373076509
 30
0.0
 10
14.38944480036703
 20
-0.852299498408827
 30
0.0
 10
13.92933457639296
 20
-0.3238059624014798
 30
0.0
 10
13.46597539895246
 20
0.2294481903196453
 30
0.0
 10
13.00767265510738
 20
0.7712929199448453
 30
0.0
 10
12.54611934724966
 20
1.284833996568018
 30
0.0
 10
12.08958042527397
 20
1.736192044503342
 30
0.0
 10
11.62977320954779
 20
2.112506274009982
 30
0.0
 10
11.17497179728424
 20
2.384232344650868
 30
0.0
 10
10.7525908375753
 20
2.547305112092609
 30
0.0
 10
10.48510988961037
 20
2.560297985065624
 30
0.0
 10
10.36706705935661
 20
2.566031909333994
 30
0.0
  0
LINE
  5
BC
330
1F
100
AcDbEntity
  8
0
  6
Continuous
 62
     1
370
    15
100
AcDbLine
 10
47.9749081826537
 20
1.592335151814097
 30
0.0
 11
47.9749081826537
 21
1.581708435270851
 31
0.0
  0
SPLINE
  5
BD
330
1F
100
AcDbEntity
  8
0
  6
Continuous
 62
     4
370
    15
100
AcDbSpline
210
0.0
220
0.0
230
1.0
 70
     8
 71
     3
 72
     8
 73
     4
 74
     0
 42
0.000000001
 43
0.00000001
 40
0.0
 40
0.0
 40
0.0
 40
0.0
 40
1.0
 40
1.0
 40
1.0
 40
1.0
 10
9.8749081826537
 20
-0.7308884120050823
 30
0.0
 10
9.576423677338676
 20
-0.380985385434171
 30
0.0
 10
9.281132183547967
 20
-0.007971595376267
 30
0.0
 10
8.984908182653676
 20
0.3601569574458829
 30
0.0
  0
SPLINE
  5
BE
330
1F
100
AcDbEntity
  8
0
  6
Continuous
 62
     4
370
    15
100
AcDbSpline
210
0.0
220
0.0
230
1.0
 70
     8
 71
     3
 72
     8
 73
     4
 74
     0
 42
0.000000001
 43
0.00000001
 40
0.0
 40
0.0
 40
0.0
 40
0.0
 40
1.0
 40
1.0
 40
1.0
 40
1.0
 10
8.984908182702176
 20
1.996823612080072
 30
0.0
 10
9.281110100439376
 20
1.751487329292631
 30
0.0
 10
9.57644845288652
 20
1.451383923242858
 30
0.0
 10
9.874908182656466
 20
1.118634394105293
 30
0.0
  0
SPLINE
  5
BF
330
1F
100
AcDbEntity
  8
0
  6
Continuous
 62
     1
370
    15
100
AcDbSpline
210
0.0
220
0.0
230
1.0
 70
     8
 71
     3
 72
    14
 73
    10
 74
     0
 42
0.000000001
 43
0.00000001
 40
0.0
 40
0.0
 40
0.0
 40
0.0
 40
0.0716064649767197
 40
0.2456783713417466
 40
0.420571189575615
 40
0.5746740951713176
 40
0.722055641469048
 40
0.9301926293170713
 40
1.0
 40
1.0
 40
1.0
 40
1.0
 10
47.20114763353433
 20
0.7924449741926367
 30
0.0
 10
47.22647677807598
 20
0.7792352483866771
 30
0.0
 10
47.31337986679139
 20
0.7339133082108246
 30
0.0
 10
47.48578702476526
 20
0.7505182216118563
 30
0.0
 10
47.67778179558939
 20
0.8338267895947359
 30
0.0
 10
47.82630796495219
 20
0.9933375728355797
 30
0.0
 10
47.93210793824635
 20
1.211330135969568
 30
0.0
 10
47.97110746101831
 20
1.416023993677995
 30
0.0
 10
47.97414522919647
 20
1.54844908884916
 30
0.0
 10
47.9749081826537
 20
1.581708435270851
 30
0.0
  0
SPLINE
  5
C0
330
1F
100
AcDbEntity
  8
0
  6
Continuous
 62
     1
370
    15
100
AcDbSpline
210
0.0
220
0.0
230
1.0
 70
     8
 71
     3
 72
    11
 73
     7
 74
     0
 42
0.000000001
 43
0.00000001
 40
0.0
 40
0.0
 40
0.0
 40
0.0
 40
0.2609565571882891
 40
0.5281767821340719
 40
0.8138697667768083
 40
1.0
 40
1.0
 40
1.0
 40
1.0
 10
47.28289040436318
 20
0.9431726207378318
 30
0.0
 10
47.11132405836392
 20
1.048742952636595
 30
0.0
 10
46.76407330701758
 20
1.262417591786906
 30
0.0
 10
46.23113140613098
 20
1.495576718878314
 30
0.0
 10
45.7482897552984
 20
1.639142453699614
 30
0.0
 10
45.44137564510598
 20
1.644907073697571
 30
0.0
 10
45.32030064763556
 20
1.647181167095339
 30
0.0
  0
SPLINE
  5
C1
330
1F
100
AcDbEntity
  8
0
  6
Continuous
 62
     1
370
    15
100
AcDbSpline
210
0.0
220
0.0
230
1.0
 70
     8
 71
     3
 72
    23
 73
    19
 74
     0
 42
0.000000001
 43
0.00000001
 40
0.0
 40
0.0
 40
0.0
 40
0.0
 40
0.0335892255874907
 40
0.1015744724607597
 40
0.1715363640590665
 40
0.2393964979552916
 40
0.3092287236728555
 40
0.3769815231543792
 40
0.4467024450166598
 40
0.5143643485894428
 40
0.5839909384999663
 40
0.6515768434927153
 40
0.7211244543939371
 40
0.7886486543641735
 40
0.8581320712881947
 40
0.9256083765779112
 40
0.9950418441113228
 40
1.0
 40
1.0
 40
1.0
 40
1.0
 10
39.86871755375908
 20
-1.545769618479551
 30
0.0
 10
39.78132950937118
 20
-1.5878899562361
 30
0.0
 10
39.51706636091128
 20
-1.715262678073539
 30
0.0
 10
39.07275653756097
 20
-1.815457131914273
 30
0.0
 10
38.54094165485626
 20
-1.837573897962963
 30
0.0
 10
38.00630534147738
 20
-1.732764733868216
 30
0.0
 10
37.47892960565971
 20
-1.516471016948574
 30
0.0
 10
36.9486122638476
 20
-1.196688952603978
 30
0.0
 10
36.42542062924812
 20
-0.7998398374846629
 30
0.0
 10
35.89925395679634
 20
-0.3437966580016121
 30
0.0
 10
35.38006704712198
 20
0.1347708126565081
 30
0.0
 10
34.85787945780481
 20
0.6143684877121658
 30
0.0
 10
34.34253106243602
 20
1.057111946593428
 30
0.0
 10
33.82417156385059
 20
1.442287462525935
 30
0.0
 10
33.31247715958047
 20
1.743753748776925
 30
0.0
 10
32.79791032676366
 20
1.932233620607528
 30
0.0
 10
32.44480022201823
 20
2.015792706564573
 30
0.0
 10
32.26044745323547
 20
2.001182609206237
 30
0.0
 10
32.2481604547256
 20
2.000208855214602
 30
0.0
  0
SPLINE
  5
C2
330
1F
100
AcDbEntity
  8
0
  6
Continuous
 62
     1
370
    15
100
AcDbSpline
210
0.0
220
0.0
230
1.0
 70
     8
 71
     3
 72
    23
 73
    19
 74
     0
 42
0.000000001
 43
0.00000001
 40
0.0
 40
0.0
 40
0.0
 40
0.0
 40
0.0424265029526276
 40
0.10579853506875
 40
0.1710051369465313
 40
0.2344112792033377
 40
0.2996525976853088
 40
0.3631001973430854
 40
0.4283837707715766
 40
0.4918800972739484
 40
0.5572134631391804
 40
0.6207656030821279
 40
0.6861560374002926
 40
0.7497704863638223
 40
0.8152247075128872
 40
0.8789083163127622
 40
0.944433395355979
 40
1.0
 40
1.0
 40
1.0
 40
1.0
 10
26.60981122140322
 20
-1.926032085062713
 30
0.0
 10
26.5015420387242
 20
-1.976425213794404
 30
0.0
 10
26.23155228884258
 20
-2.102090041821756
 30
0.0
 10
25.79692548812226
 20
-2.177914813646835
 30
0.0
 10
25.31012845665972
 20
-2.160103341394922
 30
0.0
 10
24.82022707530907
 20
-2.018559358420145
 30
0.0
 10
24.33611034819887
 20
-1.768473292979842
 30
0.0
 10
23.84882268885161
 20
-1.417247293400855
 30
0.0
 10
23.36725622269391
 20
-0.9898845890472544
 30
0.0
 10
22.88250755439908
 20
-0.5015351234673477
 30
0.0
 10
22.40340831333812
 20
0.0136003608745751
 30
0.0
 10
21.92111669051475
 20
0.537186399950584
 30
0.0
 10
21.44440080998898
 20
1.032767878063283
 30
0.0
 10
20.96448570708311
 20
1.482518865902518
 30
0.0
 10
20.49007283495071
 20
1.856178259180417
 30
0.0
 10
20.01248386584712
 20
2.136630856478541
 30
0.0
 10
19.56026055491692
 20
2.311028327306167
 30
0.0
 10
19.26503126644694
 20
2.331699728740252
 30
0.0
 10
19.12955632174208
 20
2.341185430449483
 30
0.0
  0
SPLINE
  5
C3
330
1F
100
AcDbEntity
  8
0
  6
Continuous
 62
     1
370
    15
100
AcDbSpline
210
0.0
220
0.0
230
1.0
 70
     8
 71
     3
 72
    15
 73
    11
 74
     0
 42
0.000000001
 43
0.00000001
 40
0.0
 40
0.0
 40
0.0
 40
0.0
 40
0.1003874067230806
 40
0.229613624805645
 40
0.3625725005795424
 40
0.4920288562014764
 40
0.6252240602988107
 40
0.7549189628445149
 40
0.8883592731425646
 40
1.0
 40
1.0
 40
1.0
 40
1.0
 10
13.35681248539723
 20
-2.299270964437939
 30
0.0
 10
13.23907752438184
 20
-2.352374315380282
 30
0.0
 10
12.96978526903285
 20
-2.473836292506885
 30
0.0
 10
12.54614621377202
 20
-2.528284200967827
 30
0.0
 10
12.08957119799482
 20
-2.47973606745236
 30
0.0
 10
11.62978360536679
 20
-2.306926139662827
 30
0.0
 10
11.17493887099106
 20
-2.025481923549823
 30
0.0
 10
10.71687773538062
 20
-1.641525208931134
 30
0.0
 10
10.28470065081983
 20
-1.204148925357661
 30
0.0
 10
10.00315807829256
 20
-0.8790014598585102
 30
0.0
 10
9.8749081826537
 20
-0.7308884120050826
 30
0.0
  0
SPLINE
  5
C4
330
1F
100
AcDbEntity
  8
0
  6
Continuous
 62
     1
370
    15
100
AcDbSpline
210
0.0
220
0.0
230
1.0
 70
     8
 71
     3
 72
    23
 73
    19
 74
     0
 42
0.000000001
 43
0.00000001
 40
0.0
 40
0.0
 40
0.0
 40
0.0
 40
0.0636407146739666
 40
0.1275896278458334
 40
0.1933961206157052
 40
0.2572715246140347
 40
0.3230018816323598
 40
0.3868114006694072
 40
0.4524736967892505
 40
0.5162223929658513
 40
0.5818215794050899
 40
0.6455176625213903
 40
0.7110623182267426
 40
0.7747125652004675
 40
0.8402096033624529
 40
0.9038218018611334
 40
0.9692791070309227
 40
1.0
 40
1.0
 40
1.0
 40
1.0
 10
15.54898948700632
 20
2.252329350019957
 30
0.0
 10
15.70512771505026
 20
2.307404812731535
 30
0.0
 10
16.01816031549627
 20
2.41782245695202
 30
0.0
 10
16.49436783808521
 20
2.432621105766259
 30
0.0
 10
16.97255760400592
 20
2.334071565895948
 30
0.0
 10
17.4565274916403
 20
2.114254533350308
 30
0.0
 10
17.93708739994179
 20
1.791747496460243
 30
0.0
 10
18.42345131932448
 20
1.376848733178508
 30
0.0
 10
18.90643236036894
 20
0.8987987030723538
 30
0.0
 10
19.39526176745274
 20
0.3739673901139383
 30
0.0
 10
19.88074172193475
 20
-0.1609216565904817
 30
0.0
 10
20.37213622467363
 20
-0.6873673188788855
 30
0.0
 10
20.8602062526536
 20
-1.16864065068826
 30
0.0
 10
21.35424969858963
 20
-1.587440372256997
 30
0.0
 10
21.84497576685491
 20
-1.91659229729725
 30
0.0
 10
22.34181801889925
 20
-2.136464217973591
 30
0.0
 10
22.75095339015743
 20
-2.240834294965611
 30
0.0
 10
22.99817205195998
 20
-2.224937981404807
 30
0.0
 10
23.07713774476937
 20
-2.219860438292601
 30
0.0
  0
SPLINE
  5
C5
330
1F
100
AcDbEntity
  8
0
  6
Continuous
 62
     1
370
    15
100
AcDbSpline
210
0.0
220
0.0
230
1.0
 70
     8
 71
     3
 72
    23
 73
    19
 74
     0
 42
0.000000001
 43
0.00000001
 40
0.0
 40
0.0
 40
0.0
 40
0.0
 40
0.0119492438760597
 40
0.0798202973798931
 40
0.1496554976951421
 40
0.2175716577581777
 40
0.2874523900010877
 40
0.3554285025206249
 40
0.4253700114422868
 40
0.4934210044890743
 40
0.563438721997869
 40
0.631579173826753
 40
0.7016879079241063
 40
0.7699356061452526
 40
0.8401535736648471
 40
0.9085273576616772
 40
0.9788739209528824
 40
1.0
 40
1.0
 40
1.0
 40
1.0
 10
28.82059174026211
 20
1.879992465138067
 30
0.0
 10
28.85038238840879
 20
1.894450460452046
 30
0.0
 10
29.04938229324564
 20
1.991029080609847
 30
0.0
 10
29.42405000792305
 20
2.063846615146333
 30
0.0
 10
29.94004431420164
 20
2.080487476558559
 30
0.0
 10
30.46283331421029
 20
1.96457510200184
 30
0.0
 10
30.98270370731426
 20
1.738085362008243
 30
0.0
 10
31.50932512610422
 20
1.407522128116827
 30
0.0
 10
32.03313666585615
 20
0.999483378509959
 30
0.0
 10
32.56378933790186
 20
0.5316621881299698
 30
0.0
 10
33.09170162396387
 20
0.0405805060027992
 30
0.0
 10
33.62655606445978
 20
-0.4518414881284811
 30
0.0
 10
34.15874366793306
 20
-0.9071767239620424
 30
0.0
 10
34.69799479658298
 20
-1.30402955289585
 30
0.0
 10
35.23463555567805
 20
-1.614003989260491
 30
0.0
 10
35.77858387616241
 20
-1.811866665797121
 30
0.0
 10
36.19584142550056
 20
-1.897651459217656
 30
0.0
 10
36.43565647121702
 20
-1.875741808981851
 30
0.0
 10
36.49104299425804
 20
-1.87068166213418
 30
0.0
  0
SPLINE
  5
C6
330
1F
100
AcDbEntity
  8
0
  6
Continuous
 62
     1
370
    15
100
AcDbSpline
210
0.0
220
0.0
230
1.0
 70
     8
 71
     3
 72
    18
 73
    14
 74
     0
 42
0.000000001
 43
0.00000001
 40
0.0
 40
0.0
 40
0.0
 40
0.0
 40
0.0679426074366179
 40
0.16589550384668
 40
0.2666609144457914
 40
0.3650567965944082
 40
0.4662750904896089
 40
0.5651645994341808
 40
0.6668876428526729
 40
0.7663257419215607
 40
0.865761729451714
 40
0.9680244842833242
 40
1.0
 40
1.0
 40
1.0
 40
1.0
 10
42.07785540356988
 20
1.491744039434822
 30
0.0
 10
42.20903854649772
 20
1.542967075832855
 30
0.0
 10
42.52934850240437
 20
1.668038393411233
 30
0.0
 10
43.04650340897037
 20
1.733829959727055
 30
0.0
 10
43.62458867174657
 20
1.697700837326899
 30
0.0
 10
44.21109647256885
 20
1.533724456910487
 30
0.0
 10
44.79612518667227
 20
1.262056084256789
 30
0.0
 10
45.38971485863232
 20
0.8973947798681644
 30
0.0
 10
45.98203663095287
 20
0.4732997068334136
 30
0.0
 10
46.57754784875119
 20
0.0196008191760648
 30
0.0
 10
47.17618227441842
 20
-0.4280902030060241
 30
0.0
 10
47.64274023596504
 20
-0.7466238457961367
 30
0.0
 10
47.91100709695803
 20
-0.9047455530631363
 30
0.0
 10
47.9749081826537
 20
-0.9424100962311358
 30
0.0
  0
ELLIPSE
  5
C7
330
1F
100
AcDbEntity
  8
0
  6
Continuous
 62
     1
370
    15
100
AcDbEllipse
 10
44.97128386169314
 20
-0.0428968711652861
 30
0.0
 11
2.327658380364773
 21
1.47074232259205
 31
0.0
210
0.0
220
0.0
230
1.0
 40
0.3359197321950558
 41
5.60936174199237
 42
5.834559844149757
  0
LINE
  5
C8
330
1F
100
AcDbEntity
  8
0
  6
Continuous
 62
     1
370
    15
100
AcDbLine
 10
47.09849025970298
 20
0.6185095880862957
 30
0.0
 11
47.9749081826537
 21
0.0048351518140982
 31
0.0
  0
LINE
  5
C9
330
1F
100
AcDbEntity
  8
0
  6
Continuous
 62
     1
370
    15
100
AcDbLine
 10
47.9749081826537
 20
0.0048351518140973
 30
0.0
 11
47.9749081826537
 21
-0.942410096230931
 31
0.0
  0
SPLINE
  5
CA
330
1F
100
AcDbEntity
  8
0
  6
Continuous
 62
     1
370
    15
100
AcDbSpline
210
0.0
220
0.0
230
1.0
 70
     8
 71
     3
 72
    24
 73
    20
 74
     0
 42
0.000000001
 43
0.00000001
 40
0.0
 40
0.0
 40
0.0
 40
0.0
 40
0.0174962125061743
 40
0.0807069029972911
 40
0.1457552828982014
 40
0.2088676089922242
 40
0.2738144634449897
 40
0.3368331047255321
 40
0.4016832870705598
 40
0.4646130573368635
 40
0.5293714620282353
 40
0.5922176886309637
 40
0.656889750571919
 40
0.7196586482489019
 40
0.784250848589382
 40
0.846947593518754
 40
0.9114650630004694
 40
0.9740971387089262
 40
1.0
 40
1.0
 40
1.0
 40
1.0
 10
11.15578384385513
 20
2.375536220972508
 30
0.0
 10
11.19827000886892
 20
2.396221680013858
 30
0.0
 10
11.39425109890687
 20
2.491640007592782
 30
0.0
 10
11.74949111798873
 20
2.546328040563314
 30
0.0
 10
12.21696547103683
 20
2.52826859066194
 30
0.0
 10
12.69005376247459
 20
2.377909992833257
 30
0.0
 10
13.15961132387938
 20
2.117132489984463
 30
0.0
 10
13.63473558622656
 20
1.751357210744958
 30
0.0
 10
14.10636460068883
 20
1.306326990307132
 30
0.0
 10
14.583589860007
 20
0.7960720924078075
 30
0.0
 10
15.05734208228873
 20
0.2553404518766477
 30
0.0
 10
15.53674651714928
 20
-0.2985599600041049
 30
0.0
 10
16.01270009884962
 20
-0.8279180056114777
 30
0.0
 10
16.49434685720254
 20
-1.315894109078362
 30
0.0
 10
16.97256701269719
 20
-1.728597366969819
 30
0.0
 10
17.45651073762545
 20
-2.055330063313961
 30
0.0
 10
17.93714616058804
 20
-2.264272250212116
 30
0.0
 10
18.32544179510613
 20
-2.360676602023837
 30
0.0
 10
18.55098259461372
 20
-2.341825761502232
 30
0.0
 10
18.61696956250589
 20
-2.336310529619773
 30
0.0
  0
SPLINE
  5
CB
330
1F
100
AcDbEntity
  8
0
  6
Continuous
 62
     1
370
    15
100
AcDbSpline
210
0.0
220
0.0
230
1.0
 70
     8
 71
     3
 72
    22
 73
    18
 74
     0
 42
0.000000001
 43
0.00000001
 40
0.0
 40
0.0
 40
0.0
 40
0.0
 40
0.0590186712518237
 40
0.1254527697587327
 40
0.1938121509646283
 40
0.260244218371437
 40
0.3286009460620826
 40
0.3950409336805304
 40
0.4634050614996819
 40
0.5298652429859849
 40
0.5982494438169823
 40
0.6647415441832191
 40
0.7331578852997686
 40
0.7996941757839845
 40
0.8681551237446533
 40
0.934750148616345
 40
1.0
 40
1.0
 40
1.0
 40
1.0
 10
24.39900518878256
 20
2.005074011322156
 30
0.0
 10
24.54535134975678
 20
2.058691754261145
 30
0.0
 10
24.85643140032985
 20
2.172664065349054
 30
0.0
 10
25.33888803815302
 20
2.203347562733748
 30
0.0
 10
25.84132829702205
 20
2.12454366416776
 30
0.0
 10
26.35012230378879
 20
1.923979623326857
 30
0.0
 10
26.85580692693842
 20
1.620538194444594
 30
0.0
 10
27.36787768308224
 20
1.225389354366399
 30
0.0
 10
27.8769008342711
 20
0.768334191942351
 30
0.0
 10
28.39239557047762
 20
0.267718223440633
 30
0.0
 10
28.9048975104517
 20
-0.2389099871327043
 30
0.0
 10
29.42395316698784
 20
-0.7309736821344407
 30
0.0
 10
29.94007126079828
 20
-1.171189972024005
 30
0.0
 10
30.46282045065617
 20
-1.542303223722055
 30
0.0
 10
30.98272815014856
 20
-1.812935725866671
 30
0.0
 10
31.50078291632034
 20
-1.981599374749218
 30
0.0
 10
31.84326331469938
 20
-1.992436305343242
 30
0.0
 10
32.01275640180856
 20
-1.997799487673859
 30
0.0
  0
SPLINE
  5
CC
330
1F
100
AcDbEntity
  8
0
  6
Continuous
 62
     1
370
    15
100
AcDbSpline
210
0.0
220
0.0
230
1.0
 70
     8
 71
     3
 72
    22
 73
    18
 74
     0
 42
0.000000001
 43
0.00000001
 40
0.0
 40
0.0
 40
0.0
 40
0.0
 40
0.0396133274862204
 40
0.1109830166030639
 40
0.1844085945603856
 40
0.2559870771124907
 40
0.3296259658295186
 40
0.4014394562888294
 40
0.4753184879479213
 40
0.5473954875565303
 40
0.6215438811011278
 40
0.6939148212070307
 40
0.7683637427038116
 40
0.8410619757793726
 40
0.9158455028988303
 40
0.9889084442841423
 40
1.0
 40
1.0
 40
1.0
 40
1.0
 10
37.65991486959701
 20
1.620092665628698
 30
0.0
 10
37.76059457344379
 20
1.662031495496005
 30
0.0
 10
38.04266472388759
 20
1.779529775666876
 30
0.0
 10
38.51338158117728
 20
1.847750024609536
 30
0.0
 10
39.06736208412753
 20
1.824508834839982
 30
0.0
 10
39.62908595732353
 20
1.673167388106977
 30
0.0
 10
40.18869598913838
 20
1.413512165620417
 30
0.0
 10
40.75611744738655
 20
1.057506658843772
 30
0.0
 10
41.32158562327976
 20
0.6360802999553492
 30
0.0
 10
41.8950263135522
 20
0.1719090202913507
 30
0.0
 10
42.46666536792645
 20
-0.2947870137753278
 30
0.0
 10
43.04645080181009
 20
-0.7383970938006434
 30
0.0
 10
43.62461140108589
 20
-1.119015661576218
 30
0.0
 10
44.21105790836301
 20
-1.418994690142254
 30
0.0
 10
44.79625950760469
 20
-1.596623226766639
 30
0.0
 10
45.21887563892758
 20
-1.669033814949656
 30
0.0
 10
45.44376689648835
 20
-1.643463682731369
 30
0.0
 10
45.47340754552278
 20
-1.640093541432562
 30
0.0
  0
SPLINE
  5
CD
330
1F
100
AcDbEntity
  8
0
  6
Continuous
 62
     1
370
    15
100
AcDbSpline
210
0.0
220
0.0
230
1.0
 70
     8
 71
     3
 72
    19
 73
    15
 74
     0
 42
0.000000001
 43
0.00000001
 40
0.0
 40
0.0
 40
0.0
 40
0.0
 40
0.0800876876768319
 40
0.1620976978753873
 40
0.2497770065388732
 40
0.340014026396198
 40
0.4273732098297025
 40
0.5172795081666106
 40
0.6043438054039236
 40
0.6939449781936777
 40
0.7807459353784313
 40
0.8700745719483088
 40
0.9566418774353871
 40
1.0
 40
1.0
 40
1.0
 40
1.0
 10
47.28289040436579
 20
-1.592675946215249
 30
0.0
 10
47.11132767304498
 20
-1.574185166642352
 30
0.0
 10
46.76408423781764
 20
-1.536759778450566
 30
0.0
 10
46.23108515795502
 20
-1.350681590056125
 30
0.0
 10
45.67798624837491
 20
-1.066806752230503
 30
0.0
 10
45.11538299804766
 20
-0.690642526390859
 30
0.0
 10
44.55006384607314
 20
-0.2552200712929455
 30
0.0
 10
43.9932080618806
 20
0.2004793005401034
 30
0.0
 10
43.43362616019701
 20
0.6517424830449914
 30
0.0
 10
42.88229376265645
 20
1.057549969362154
 30
0.0
 10
42.32816560716488
 20
1.398625963482353
 30
0.0
 10
41.78215847545197
 20
1.636548392770282
 30
0.0
 10
41.32774951848872
 20
1.763302217417183
 30
0.0
 10
41.05958657096809
 20
1.760972248047844
 30
0.0
 10
40.97009645251907
 20
1.760194701273494
 30
0.0
  0
SPLINE
  5
CE
330
1F
100
AcDbEntity
  8
0
  6
Continuous
 62
     1
370
    15
100
AcDbSpline
210
0.0
220
0.0
230
1.0
 70
     8
 71
     3
 72
    23
 73
    19
 74
     0
 42
0.000000001
 43
0.00000001
 40
0.0
 40
0.0
 40
0.0
 40
0.0
 40
0.0102139344196215
 40
0.0763970754445986
 40
0.1445012066346674
 40
0.2106239233417728
 40
0.2786651929182189
 40
0.3447410090120151
 40
0.4127333659111336
 40
0.4787745813100647
 40
0.5467307010755612
 40
0.6127487564856058
 40
0.6806804725112456
 40
0.7466868411492859
 40
0.8146059826598667
 40
0.880610895478886
 40
0.9485280009564225
 40
1.0
 40
1.0
 40
1.0
 40
1.0
 10
35.45449144626482
 20
-1.677192102784137
 30
0.0
 10
35.42805554610349
 20
-1.691340470847281
 30
0.0
 10
35.23032317617648
 20
-1.797165895011107
 30
0.0
 10
34.85798200042982
 20
-1.898958810279193
 30
0.0
 10
34.34250613698922
 20
-1.959582096799234
 30
0.0
 10
33.82417126799535
 20
-1.890042230518863
 30
0.0
 10
33.31250449966233
 20
-1.707588575348769
 30
0.0
 10
32.79780389678387
 20
-1.41653664615359
 30
0.0
 10
32.28968744949523
 20
-1.040094713178674
 30
0.0
 10
31.77850610152877
 20
-0.5937133913144336
 30
0.0
 10
31.27379430880967
 20
-0.1115596100603077
 30
0.0
 10
30.76600105083573
 20
0.3864564883327922
 30
0.0
 10
30.26456726233309
 20
0.862623816400515
 30
0.0
 10
29.76003731071711
 20
1.29714643228638
 30
0.0
 10
29.26174916200933
 20
1.658489447177884
 30
0.0
 10
28.76039133901009
 20
1.927308574215201
 30
0.0
 10
28.30104413159787
 20
2.088108290595682
 30
0.0
 10
28.00643250144705
 20
2.102457808512904
 30
0.0
 10
27.87941714601595
 20
2.108644289058794
 30
0.0
  0
SPLINE
  5
CF
330
1F
100
AcDbEntity
  8
0
  6
Continuous
 62
     1
370
    15
100
AcDbSpline
210
0.0
220
0.0
230
1.0
 70
     8
 71
     3
 72
    24
 73
    20
 74
     0
 42
0.000000001
 43
0.00000001
 40
0.0
 40
0.0
 40
0.0
 40
0.0
 40
0.0343702834421856
 40
0.0983863151029143
 40
0.1606636897891667
 40
0.2247421675833252
 40
0.2870872484764458
 40
0.3512350948448111
 40
0.4136532271671085
 40
0.4778759344760739
 40
0.540373274523267
 40
0.6046772236742999
 40
0.6672587323108923
 40
0.7316489967205548
 40
0.7943201903512309
 40
0.8588025068252192
 40
0.9215680875881959
 40
0.9861472542060737
 40
1.0
 40
1.0
 40
1.0
 40
1.0
 10
22.18738059586261
 20
-2.05210023919276
 30
0.0
 10
22.10018104341361
 20
-2.094271912182589
 30
0.0
 10
21.8505688265545
 20
-2.214990017815139
 30
0.0
 10
21.44444282510507
 20
-2.290005666389478
 30
0.0
 10
20.96447282928391
 20
-2.277927974145729
 30
0.0
 10
20.49008152147184
 20
-2.142197993400865
 30
0.0
 10
20.01246219900016
 20
-1.893570159077495
 30
0.0
 10
19.54029186781236
 20
-1.54702059584544
 30
0.0
 10
19.06490280008904
 20
-1.114546415672899
 30
0.0
 10
18.59489746189893
 20
-0.6252249696189824
 30
0.0
 10
18.12167066916975
 20
-0.0954210959935847
 30
0.0
 10
17.65376545851549
 20
0.4391539142001648
 30
0.0
 10
17.18263136475873
 20
0.9606346985175777
 30
0.0
 10
16.71676004724087
 20
1.434158498550162
 30
0.0
 10
16.24766515787438
 20
1.843082338715558
 30
0.0
 10
15.78374972745518
 20
2.163242724241222
 30
0.0
 10
15.31670488629344
 20
2.371312776047127
 30
0.0
 10
14.97352543860304
 20
2.466963748441072
 30
0.0
 10
14.78363907998822
 20
2.454491290387633
 30
0.0
 10
14.75010110577927
 20
2.452288388717551
 30
0.0
  0
ELLIPSE
  5
D0
330
1F
100
AcDbEntity
  8
0
  6
Continuous
 62
     1
370
    15
100
AcDbEllipse
 10
44.97128386169314
 20
0.0633871459859902
 30
0.0
 11
2.364463576974444
 21
-1.619713463284906
 31
0.0
210
0.0
220
0.0
230
1.0
 40
0.1649633397708052
 41
6.059219830383812
 42
6.156234868652942
  0
ELLIPSE
  5
D1
330
1F
100
AcDbEntity
  8
0
  6
Continuous
 62
     1
370
    15
100
AcDbEllipse
 10
47.89000267824809
 20
-0.0248905852960495
 30
0.0
 11
2.196428509618308
 21
1.117208186127415
 31
0.0
210
0.0
220
0.0
230
1.0
 40
0.5143739000257483
 41
4.168492112953423
 42
4.493896086777532
  0
LINE
  5
D2
330
1F
100
AcDbEntity
  8
0
  6
Continuous
 62
     4
370
    15
100
AcDbLine
 10
8.984908182653697
 20
0.3601569574459761
 30
0.0
 11
8.984908182653697
 21
1.99682361212135
 31
0.0
  0
SPLINE
  5
D3
330
1F
100
AcDbEntity
  8
0
  6
Continuous
 62
     4
370
    15
100
AcDbSpline
210
0.0
220
0.0
230
1.0
 70
     8
 71
     3
 72
     9
 73
     5
 74
     0
 42
0.000000001
 43
0.00000001
 40
0.0
 40
0.0
 40
0.0
 40
0.0
 40
0.6530026783173316
 40
1.0
 40
1.0
 40
1.0
 40
1.0
 10
8.984908182702176
 20
-2.462246953691508
 30
0.0
 10
9.142280597661802
 20
-2.513821761185201
 30
0.0
 10
9.383278713267007
 20
-2.592802765714296
 30
0.0
 10
9.62555340978775
 20
-2.57917361102513
 30
0.0
 10
9.70962208059193
 20
-2.574444330851191
 30
0.0
  0
LINE
  5
D4
330
1F
100
AcDbEntity
  8
0
  6
Continuous
 62
     4
370
    15
100
AcDbLine
 10
8.984908182653697
 20
-2.613080827600312
 30
0.0
 11
8.984908182653697
 21
-2.462246953674326
 31
0.0
  0
SPLINE
  5
D5
330
1F
100
AcDbEntity
  8
0
  6
Continuous
 62
     1
370
    15
100
AcDbSpline
210
0.0
220
0.0
230
1.0
 70
     8
 71
     3
 72
    11
 73
     7
 74
     0
 42
0.000000001
 43
0.00000001
 40
0.0
 40
0.0
 40
0.0
 40
0.0
 40
0.1831754213882734
 40
0.5584002306701095
 40
0.8292817520082579
 40
0.9999999999999999
 40
0.9999999999999999
 40
0.9999999999999999
 40
0.9999999999999999
 10
46.9118235693813
 20
-1.226277158904949
 30
0.0
 10
46.94640030104891
 20
-1.184375300711009
 30
0.0
 10
47.05180557208735
 20
-1.056639783010706
 30
0.0
 10
47.24874769419011
 20
-0.8850448079941907
 30
0.0
 10
47.46065082154803
 20
-0.7501459313890949
 30
0.0
 10
47.56553482841572
 20
-0.7207097255849725
 30
0.0
 10
47.60608198250954
 20
-0.7093299699070433
 30
0.0
  0
SPLINE
  5
D6
330
1F
100
AcDbEntity
  8
0
  6
Continuous
 62
     1
370
    15
100
AcDbSpline
210
0.0
220
0.0
230
1.0
 70
     8
 71
     3
 72
     8
 73
     4
 74
     0
 42
0.000000001
 43
0.00000001
 40
0.0
 40
0.0
 40
0.0
 40
0.0
 40
1.0
 40
1.0
 40
1.0
 40
1.0
 10
46.91182356938128
 20
-1.226277158904953
 30
0.0
 10
47.03715697581843
 20
-1.348584153664634
 30
0.0
 10
47.16016540336322
 20
-1.470657502460866
 30
0.0
 10
47.2828904043658
 20
-1.592675946210706
 30
0.0
  0
LINE
  5
D7
330
1F
100
AcDbEntity
  8
0
  6
Continuous
 62
     1
370
    15
100
AcDbLine
 10
47.9749081826537
 20
0.0048351518141021
 30
0.0
 11
47.9749081826537
 21
1.581708435270851
 31
0.0
  0
LINE
  5
D8
330
1F
100
AcDbEntity
  8
0
  6
Continuous
 62
     1
370
    15
100
AcDbLine
 10
47.9749081826537
 20
-0.9424100962311343
 30
0.0
 11
47.9749081826537
 21
-1.369980176693691
 31
0.0
  0
LINE
  5
D9
330
1F
100
AcDbEntity
  8
0
  6
Continuous
 62
     4
370
    15
100
AcDbLine
 10
9.8749081826537
 20
2.590018763600117
 30
0.0
 11
9.8749081826537
 21
1.118634394104298
 31
0.0
  0
LINE
  5
DA
330
1F
100
AcDbEntity
  8
0
  6
Continuous
 62
     4
370
    15
100
AcDbLine
 10
9.8749081826537
 20
-0.7308884120050823
 30
0.0
 11
9.8749081826537
 21
-2.580348459971925
 31
0.0
  0
LINE
  5
DB
102
{ACAD_REACTORS
102
}
330
1F
100
AcDbEntity
  8
중심선
100
AcDbLine
 10
-31.22509181734629
 20
0.004835151814092
 30
0.0
 11
50.97490428620234
 21
0.004835151814092
 31
0.0
  0
CIRCLE
  5
DC
330
1F
100
AcDbEntity
  8
외형선
100
AcDbCircle
 10
-0.0000000000000013
 20
-0.0000000000000039
 30
0.0
 40
3.000000000000004
  0
INSERT
  5
DD
330
1F
100
AcDbEntity
  8
0
  6
Continuous
 62
     7
100
AcDbBlockReference
 66
     1
  2
블럭10
 10
-16.63945112874702
 20
-52.04717430164393
 30
0.0
  0
ATTRIB
  5
DE
330
DD
100
AcDbEntity
  8
FORMAT
 62
     2
100
AcDbText
 10
-25.8207464174883
 20
-49.97180738881174
 30
0.0
 40
4.233333333333333
  1
E5077158 [ 3 FLUTE ]
 41
0.75
  7
SLDTEXTSTYLE0
 11
-25.8207464174883
 21
-52.08847405547841
 31
0.0
100
AcDbAttribute
  2
AUTOATTR0
 70
     0
 74
     1
  0
SEQEND
  5
DF
330
DD
100
AcDbEntity
  8
0
  6
Continuous
 62
     7
  0
HATCH
  5
E0
330
1F
100
AcDbEntity
  8
중심선
100
AcDbHatch
 10
0.0
 20
0.0
 30
0.0
210
0.0
220
0.0
230
1.0
  2
SOLID
 70
     1
 71
     0
 91
        1
 92
        0
 93
        4
 72
     1
 10
-10.92454182436617
 20
-35.8
 11
-14.37081706820345
 21
-35.8
 72
     1
 10
-14.37081706820345
 20
-35.8
 11
-16.49904692740747
 21
-38.33632558057259
 72
     1
 10
-16.49904692740747
 20
-38.33632558057259
 11
-13.05273859845704
 21
-38.3362861512701
 72
     1
 10
-13.05273859845704
 20
-38.3362861512701
 11
-10.92454182436617
 21
-35.8
 97
        0
 75
     0
 76
     1
 98
        1
 10
0.0
 20
0.0
  0
HATCH
  5
E1
330
1F
100
AcDbEntity
  8
중심선
100
AcDbHatch
 10
0.0
 20
0.0
 30
0.0
210
0.0
220
0.0
230
1.0
  2
SOLID
 70
     1
 71
     0
 91
        1
 92
        0
 93
        4
 72
     1
 10
-5.911777833330217
 20
-35.8
 11
-9.358053077167499
 21
-35.8
 72
     1
 10
-9.358053077167499
 20
-35.8
 11
-13.88919108552489
 21
-41.20000000000002
 72
     1
 10
-13.88919108552489
 20
-41.20000000000002
 11
-10.44291584168761
 21
-41.20000000000002
 72
     1
 10
-10.44291584168761
 20
-41.20000000000002
 11
-5.911777833330217
 21
-35.8
 97
        0
 75
     0
 76
     1
 98
        1
 10
0.0
 20
0.0
  0
HATCH
  5
E2
330
1F
100
AcDbEntity
  8
중심선
100
AcDbHatch
 10
0.0
 20
0.0
 30
0.0
210
0.0
220
0.0
230
1.0
  2
SOLID
 70
     1
 71
     0
 91
        1
 92
        0
 93
        4
 72
     1
 10
-0.8990138422943217
 20
-35.80000000000003
 11
-4.345289086131437
 21
-35.8
 72
     1
 10
-4.345289086131437
 20
-35.8
 11
-11.39372598802069
 21
-44.20000000000002
 72
     1
 10
-11.39372598802069
 20
-44.20000000000002
 11
-7.947450744183405
 21
-44.20000000000002
 72
     1
 10
-7.947450744183405
 20
-44.20000000000002
 11
-0.8990138422943215
 21
-35.80000000000003
 97
        0
 75
     0
 76
     1
 98
        1
 10
0.0
 20
0.0
  0
HATCH
  5
E3
330
1F
100
AcDbEntity
  8
중심선
100
AcDbHatch
 10
0.0
 20
0.0
 30
0.0
210
0.0
220
0.0
230
1.0
  2
SOLID
 70
     1
 71
     0
 91
        1
 92
        0
 93
        6
 72
     3
 10
3.900876588717877
 20
-40.00000000005127
 11
3.960054785062284
 21
1.540850780301639E-10
 40
0.3939339440162633
 50
17.09539180608433
 51
320.0019657685079
 73
     0
 72
     1
 10
5.583876244418473
 20
-38.5878940046383
 11
7.889178118119511
 21
-36.65356729459038
 72
     3
 10
3.900876588665031
 20
-40.00000000000015
 11
6.600054785286829
 21
-1.249000902703301E-13
 40
0.6363583540795982
 50
39.99873849337408
 51
368.4976242363725
 73
     1
 72
     1
 10
10.32620908056564
 20
-39.03999999993002
 11
2.580943895500953
 21
-39.03999999992999
 72
     1
 10
2.580943895500953
 20
-39.03999999992999
 11
2.58091885105502
 21
-40.95999999992991
 72
     1
 10
2.58091885105502
 20
-40.95999999992991
 11
7.022298620527057
 21
-40.95999999992988
 97
        0
 75
     0
 76
     1
 98
        1
 10
0.0
 20
0.0
  0
POINT
  5
E4
330
1F
100
AcDbEntity
  8
치수문자_일반주서
100
AcDbPoint
 10
-0.0000000000000013
 20
-0.0000000000000039
 30
0.0
  0
DIMENSION
  5
E5
330
1F
100
AcDbEntity
  8
치수문자_일반주서
100
AcDbDimension
  2
_D
 10
9.874908182653698
 20
35.84993019885988
 30
0.0
 11
28.9249081826537
 21
35.84993019885988
 31
0.0
 70
   160
  1
<>
 71
     2
 42
38.1
  3
SLDDIMSTYLE0
100
AcDbAlignedDimension
 13
47.9749081826537
 23
1.581708435270851
 33
0.0
 14
9.874908182653698
 24
2.590018763600117
 34
0.0
 50
-0.0000000000000074
100
AcDbRotatedDimension
1001
ACAD
1000
DSTYLE
1002
{
1070
   171
1070
     6
1070
   273
1070
     7
1002
}
  0
DIMENSION
  5
FB
330
1F
100
AcDbEntity
  8
치수문자_일반주서
100
AcDbDimension
  2
_D_1
 10
-28.2250918173463
 20
49.1620225212
 30
0.0
 11
12.77570150979431
 21
49.1620225212
 31
0.0
 70
   160
  1
<>
 71
     2
 42
76.2
  3
SLDDIMSTYLE1
100
AcDbAlignedDimension
 13
47.9749081826537
 23
1.581708435270851
 33
0.0
 14
-28.2250918173463
 24
2.36983515181409
 34
0.0
 50
0.0000000000000053
100
AcDbRotatedDimension
1001
ACAD
1000
DSTYLE
1002
{
1070
   171
1070
     6
1070
   273
1070
     7
1002
}
  0
DIMENSION
  5
10F
330
1F
100
AcDbEntity
  8
치수문자_일반주서
100
AcDbDimension
  2
_D_2
 10
-41.22509181734624
 20
-3.170164848185955
 30
0.0
 11
-41.22509181734632
 21
22.47133515181404
 31
0.0
 70
   160
  1
%%c<>
 71
     2
 42
6.349999999999996
  3
SLDDIMSTYLE0
100
AcDbAlignedDimension
 13
-27.41509181734629
 23
3.179835151814089
 33
0.0
 14
-27.41509181734629
 24
-3.170164848185907
 34
0.0
 50
90.0000000000002
100
AcDbRotatedDimension
1001
ACAD
1000
DSTYLE
1002
{
1070
   171
1070
     6
1070
   273
1070
     7
1002
}
1001
ACAD_DSTYLE_DIMFLIPARROW_SYMBOL
1070
   385
1070
     0
1001
ACAD_DSTYLE_DIMFLIPARROW_WHICH_SYMBOL
1070
   386
1070
     3
  0
INSERT
  5
129
330
1F
100
AcDbEntity
  8
외형선
100
AcDbBlockReference
  2
SW_DOWELSYMBOL_0
 10
-0.0000000000000013
 20
-0.0000000000000039
 30
0.0
  0
DIMENSION
  5
151
102
{ACAD_REACTORS
102
}
102
{ACAD_XDICTIONARY
360
152
102
}
330
1F
100
AcDbEntity
  8
치수문자_일반주서
100
AcDbDimension
  2
*D6
 10
68.40600896291839
 20
-1.582664848185907
 30
0.0
 11
68.40600896291839
 21
22.85733687934415
 31
0.0
 70
   160
  1
{%%c<>[]}
 71
     5
 42
3.175000000000005
  3
SLDDIMSTYLE0
100
AcDbAlignedDimension
 13
47.9749081826537
 23
1.592335151814097
 33
0.0
 14
47.9749081826537
 24
-1.582664848185908
 34
0.0
 50
90.0
100
AcDbRotatedDimension
1001
ACAD
1000
DSTYLE
1002
{
1070
   171
1070
     6
1070
   273
1070
     7
1070
   283
1070
     1
1070
   170
1070
     1
1002
}
  0
DIMENSION
  5
167
102
{ACAD_REACTORS
102
}
102
{ACAD_XDICTIONARY
360
168
102
}
330
1F
100
AcDbEntity
  8
치수문자_일반주서
100
AcDbDimension
  2
*D7
 10
11.93519054692398
 20
2.536068371198956
 30
0.0
 11
25.99538249654416
 21
11.59890876868359
 31
0.0
 70
    34
  1
<>
 71
     5
 42
0.0261799387799149
  3
SLDDIMSTYLE0
100
AcDb2LineAngularDimension
 13
-31.22509181734629
 23
0.004835151814092
 33
0.0
 14
50.97490428620234
 24
0.004835151814092
 34
0.0
 15
14.75036458998292
 25
2.462350444503804
 35
0.0
 16
27.85508045168648
 26
0.7094774246210283
 36
0.0
1001
ACAD
1000
DSTYLE
1002
{
1070
   171
1070
     6
1070
   273
1070
     7
1002
}
  0
ENDSEC
  0
SECTION
  2
OBJECTS
  0
DICTIONARY
  5
C
330
0
100
AcDbDictionary
281
     1
  3
ACAD_GROUP
350
D
  3
ACAD_IMAGE_VARS
350
14D
  3
ACAD_LAYOUT
350
1A
  3
ACAD_MLINESTYLE
350
17
  3
ACAD_PLOTSETTINGS
350
19
  3
ACAD_PLOTSTYLENAME
350
E
  3
ACAD_SCALELIST
350
47
  3
APPDATA
350
14B
  3
DWGPROPS
350
17A
  0
DICTIONARY
  5
152
330
151
100
AcDbDictionary
280
     1
281
     1
  0
DICTIONARY
  5
168
330
167
100
AcDbDictionary
280
     1
281
     1
  0
DICTIONARY
  5
D
102
{ACAD_REACTORS
330
C
102
}
330
C
100
AcDbDictionary
281
     1
  0
RASTERVARIABLES
  5
14D
102
{ACAD_REACTORS
330
C
102
}
330
C
100
AcDbRasterVariables
 90
        0
 70
     1
 71
     1
 72
     1
  0
DICTIONARY
  5
1A
102
{ACAD_REACTORS
330
C
102
}
330
C
100
AcDbDictionary
281
     1
  3
Layout1
350
1E
  3
Layout2
350
26
  3
Model
350
22
  0
DICTIONARY
  5
17
102
{ACAD_REACTORS
330
C
102
}
330
C
100
AcDbDictionary
281
     1
  3
Standard
350
18
  0
DICTIONARY
  5
19
102
{ACAD_REACTORS
330
C
102
}
330
C
100
AcDbDictionary
281
     1
  0
ACDBDICTIONARYWDFLT
  5
E
102
{ACAD_REACTORS
330
C
102
}
330
C
100
AcDbDictionary
281
     1
  3
Normal
350
F
100
AcDbDictionaryWithDefault
340
F
  0
DICTIONARY
  5
47
102
{ACAD_REACTORS
330
C
102
}
330
C
100
AcDbDictionary
281
     1
  3
A0
350
48
  3
A1
350
49
  3
A2
350
4A
  3
A3
350
4B
  3
A4
350
4C
  3
A5
350
4D
  3
A6
350
4E
  3
A7
350
4F
  3
A8
350
50
  3
A9
350
51
  3
B0
350
52
  3
B1
350
53
  3
B2
350
54
  3
B3
350
55
  3
B4
350
56
  3
B5
350
57
  3
B6
350
58
  3
B7
350
59
  3
B8
350
5A
  3
B9
350
5B
  3
C0
350
5C
  3
C1
350
5D
  3
C2
350
5E
  3
C3
350
5F
  3
C4
350
60
  3
C5
350
61
  3
C6
350
62
  3
C7
350
63
  3
C8
350
64
  3
C9
350
65
  3
D0
350
66
  3
D1
350
67
  3
D2
350
68
  0
DICTIONARY
  5
14B
102
{ACAD_REACTORS
330
C
102
}
330
C
100
AcDbDictionary
281
     1
  0
XRECORD
  5
17A
102
{ACAD_REACTORS
330
C
102
}
330
C
100
AcDbXrecord
280
     1
  1
DWGPROPS COOKIE
  2

  3

  4

  6

  7

  8
12015048
  9

300
=
301
=
302
=
303
=
304
=
305
=
306
=
307
=
308
=
309
=
 40
0.0
 41
2458333.348283414
 42
2458340.065467627
  1

 90
        0
  0
LAYOUT
  5
1E
102
{ACAD_REACTORS
330
1A
102
}
330
1A
100
AcDbPlotSettings
  1

  2
none_device
  4

  6

 40
0.0
 41
0.0
 42
0.0
 43
0.0
 44
0.0
 45
0.0
 46
0.0
 47
0.0
 48
0.0
 49
0.0
140
0.0
141
0.0
142
1.0
143
1.0
 70
   688
 72
     1
 73
     0
 74
     5
  7

 75
    16
147
1.0
148
0.0
149
0.0
100
AcDbLayout
  1
Layout1
 70
     1
 71
     1
 10
0.0
 20
0.0
 11
420.0
 21
297.0
 12
0.0
 22
0.0
 32
0.0
 14
1.000000000000000E+20
 24
1.000000000000000E+20
 34
1.000000000000000E+20
 15
-1.000000000000000E+20
 25
-1.000000000000000E+20
 35
-1.000000000000000E+20
146
0.0
 13
0.0
 23
0.0
 33
0.0
 16
1.0
 26
0.0
 36
0.0
 17
0.0
 27
1.0
 37
0.0
 76
     0
330
1B
  0
LAYOUT
  5
26
102
{ACAD_REACTORS
330
1A
102
}
330
1A
100
AcDbPlotSettings
  1

  2
none_device
  4

  6

 40
0.0
 41
0.0
 42
0.0
 43
0.0
 44
0.0
 45
0.0
 46
0.0
 47
0.0
 48
0.0
 49
0.0
140
0.0
141
0.0
142
1.0
143
1.0
 70
   688
 72
     1
 73
     0
 74
     5
  7

 75
    16
147
1.0
148
0.0
149
0.0
100
AcDbLayout
  1
Layout2
 70
     1
 71
     2
 10
0.0
 20
0.0
 11
0.0
 21
0.0
 12
0.0
 22
0.0
 32
0.0
 14
0.0
 24
0.0
 34
0.0
 15
0.0
 25
0.0
 35
0.0
146
0.0
 13
0.0
 23
0.0
 33
0.0
 16
1.0
 26
0.0
 36
0.0
 17
0.0
 27
1.0
 37
0.0
 76
     0
330
23
  0
LAYOUT
  5
22
102
{ACAD_REACTORS
330
1A
102
}
330
1A
100
AcDbPlotSettings
  1

  2
none_device
  4
ANSI_A_(11.00_x_8.50_Inches)
  6

 40
6.35
 41
19.05
 42
6.35000508
 43
19.05000254
 44
279.4
 45
215.9
 46
130.5392679846251
 47
105.6119490946392
 48
0.0
 49
0.0
140
0.0
141
0.0
142
0.0959356527919581
143
1.0
 70
  1696
 72
     0
 73
     0
 74
     0
  7

 75
     0
147
0.0235690232323232
148
0.0
149
0.0
100
AcDbLayout
  1
Model
 70
     1
 71
     0
 10
0.0
 20
0.0
 11
420.0
 21
297.0
 12
0.0
 22
0.0
 32
0.0
 14
-45.60009181734635
 24
-49.97180738881174
 34
0.0
 15
68.95634229625173
 25
53.5370225212
 35
0.0
146
0.0
 13
0.0
 23
0.0
 33
0.0
 16
1.0
 26
0.0
 36
0.0
 17
0.0
 27
1.0
 37
0.0
 76
     0
330
1F
331
29
  0
MLINESTYLE
  5
18
102
{ACAD_REACTORS
330
17
102
}
330
17
100
AcDbMlineStyle
  2
Standard
 70
     0
  3

 62
   256
 51
90.0
 52
90.0
 71
     2
 49
0.5
 62
   256
  6
BYLAYER
 49
-0.5
 62
   256
  6
BYLAYER
  0
ACDBPLACEHOLDER
  5
F
102
{ACAD_REACTORS
330
E
102
}
330
E
  0
SCALE
  5
48
102
{ACAD_REACTORS
330
47
102
}
330
47
100
AcDbScale
 70
     0
300
1:1
140
1.0
141
1.0
290
     1
  0
SCALE
  5
49
102
{ACAD_REACTORS
330
47
102
}
330
47
100
AcDbScale
 70
     0
300
1:2
140
1.0
141
2.0
290
     0
  0
SCALE
  5
4A
102
{ACAD_REACTORS
330
47
102
}
330
47
100
AcDbScale
 70
     0
300
1:4
140
1.0
141
4.0
290
     0
  0
SCALE
  5
4B
102
{ACAD_REACTORS
330
47
102
}
330
47
100
AcDbScale
 70
     0
300
1:5
140
1.0
141
5.0
290
     0
  0
SCALE
  5
4C
102
{ACAD_REACTORS
330
47
102
}
330
47
100
AcDbScale
 70
     0
300
1:8
140
1.0
141
8.0
290
     0
  0
SCALE
  5
4D
102
{ACAD_REACTORS
330
47
102
}
330
47
100
AcDbScale
 70
     0
300
1:10
140
1.0
141
10.0
290
     0
  0
SCALE
  5
4E
102
{ACAD_REACTORS
330
47
102
}
330
47
100
AcDbScale
 70
     0
300
1:16
140
1.0
141
16.0
290
     0
  0
SCALE
  5
4F
102
{ACAD_REACTORS
330
47
102
}
330
47
100
AcDbScale
 70
     0
300
1:20
140
1.0
141
20.0
290
     0
  0
SCALE
  5
50
102
{ACAD_REACTORS
330
47
102
}
330
47
100
AcDbScale
 70
     0
300
1:30
140
1.0
141
30.0
290
     0
  0
SCALE
  5
51
102
{ACAD_REACTORS
330
47
102
}
330
47
100
AcDbScale
 70
     0
300
1:40
140
1.0
141
40.0
290
     0
  0
SCALE
  5
52
102
{ACAD_REACTORS
330
47
102
}
330
47
100
AcDbScale
 70
     0
300
1:50
140
1.0
141
50.0
290
     0
  0
SCALE
  5
53
102
{ACAD_REACTORS
330
47
102
}
330
47
100
AcDbScale
 70
     0
300
1:100
140
1.0
141
100.0
290
     0
  0
SCALE
  5
54
102
{ACAD_REACTORS
330
47
102
}
330
47
100
AcDbScale
 70
     0
300
2:1
140
2.0
141
1.0
290
     0
  0
SCALE
  5
55
102
{ACAD_REACTORS
330
47
102
}
330
47
100
AcDbScale
 70
     0
300
4:1
140
4.0
141
1.0
290
     0
  0
SCALE
  5
56
102
{ACAD_REACTORS
330
47
102
}
330
47
100
AcDbScale
 70
     0
300
8:1
140
8.0
141
1.0
290
     0
  0
SCALE
  5
57
102
{ACAD_REACTORS
330
47
102
}
330
47
100
AcDbScale
 70
     0
300
10:1
140
10.0
141
1.0
290
     0
  0
SCALE
  5
58
102
{ACAD_REACTORS
330
47
102
}
330
47
100
AcDbScale
 70
     0
300
100:1
140
100.0
141
1.0
290
     0
  0
SCALE
  5
59
102
{ACAD_REACTORS
330
47
102
}
330
47
100
AcDbScale
 70
     0
300
1/128" = 1'-0"
140
0.0078125
141
12.0
290
     0
  0
SCALE
  5
5A
102
{ACAD_REACTORS
330
47
102
}
330
47
100
AcDbScale
 70
     0
300
1/64" = 1'-0"
140
0.015625
141
12.0
290
     0
  0
SCALE
  5
5B
102
{ACAD_REACTORS
330
47
102
}
330
47
100
AcDbScale
 70
     0
300
1/32" = 1'-0"
140
0.03125
141
12.0
290
     0
  0
SCALE
  5
5C
102
{ACAD_REACTORS
330
47
102
}
330
47
100
AcDbScale
 70
     0
300
1/16" = 1'-0"
140
0.0625
141
12.0
290
     0
  0
SCALE
  5
5D
102
{ACAD_REACTORS
330
47
102
}
330
47
100
AcDbScale
 70
     0
300
3/32" = 1'-0"
140
0.09375
141
12.0
290
     0
  0
SCALE
  5
5E
102
{ACAD_REACTORS
330
47
102
}
330
47
100
AcDbScale
 70
     0
300
1/8" = 1'-0"
140
0.125
141
12.0
290
     0
  0
SCALE
  5
5F
102
{ACAD_REACTORS
330
47
102
}
330
47
100
AcDbScale
 70
     0
300
3/16" = 1'-0"
140
0.1875
141
12.0
290
     0
  0
SCALE
  5
60
102
{ACAD_REACTORS
330
47
102
}
330
47
100
AcDbScale
 70
     0
300
1/4" = 1'-0"
140
0.25
141
12.0
290
     0
  0
SCALE
  5
61
102
{ACAD_REACTORS
330
47
102
}
330
47
100
AcDbScale
 70
     0
300
3/8" = 1'-0"
140
0.375
141
12.0
290
     0
  0
SCALE
  5
62
102
{ACAD_REACTORS
330
47
102
}
330
47
100
AcDbScale
 70
     0
300
1/2" = 1'-0"
140
0.5
141
12.0
290
     0
  0
SCALE
  5
63
102
{ACAD_REACTORS
330
47
102
}
330
47
100
AcDbScale
 70
     0
300
3/4" = 1'-0"
140
0.75
141
12.0
290
     0
  0
SCALE
  5
64
102
{ACAD_REACTORS
330
47
102
}
330
47
100
AcDbScale
 70
     0
300
1" = 1'-0"
140
1.0
141
12.0
290
     0
  0
SCALE
  5
65
102
{ACAD_REACTORS
330
47
102
}
330
47
100
AcDbScale
 70
     0
300
1-1/2" = 1'-0"
140
1.5
141
12.0
290
     0
  0
SCALE
  5
66
102
{ACAD_REACTORS
330
47
102
}
330
47
100
AcDbScale
 70
     0
300
3" = 1'-0"
140
3.0
141
12.0
290
     0
  0
SCALE
  5
67
102
{ACAD_REACTORS
330
47
102
}
330
47
100
AcDbScale
 70
     0
300
6" = 1'-0"
140
6.0
141
12.0
290
     0
  0
SCALE
  5
68
102
{ACAD_REACTORS
330
47
102
}
330
47
100
AcDbScale
 70
     0
300
1'-0" = 1'-0"
140
12.0
141
12.0
290
     0
  0
ENDSEC
  0
EOF
