  0
SECTION
  2
HEADER
  9
$ACADVER
  1
AC1015
  9
$ACADMAINTVER
 70
     6
  9
$DWGCODEPAGE
  3
ANSI_949
  9
$INSBASE
 10
0.0
 20
0.0
 30
0.0
  9
$EXTMIN
 10
-51.95009181734637
 20
-49.97180738881174
 30
0.0
  9
$EXTMAX
 10
71.07152291554533
 20
62.52159252549421
 30
0.0
  9
$LIMMIN
 10
0.0
 20
0.0
  9
$LIMMAX
 10
420.0
 20
297.0
  9
$ORTHOMODE
 70
     1
  9
$REGENMODE
 70
     1
  9
$FILLMODE
 70
     1
  9
$QTEXTMODE
 70
     0
  9
$MIRRTEXT
 70
     1
  9
$LTSCALE
 40
1.0
  9
$ATTMODE
 70
     1
  9
$TEXTSIZE
 40
3.5
  9
$TRACEWID
 40
1.0
  9
$TEXTSTYLE
  7
Standard
  9
$CLAYER
  8
0
  9
$CELTYPE
  6
ByLayer
  9
$CECOLOR
 62
   256
  9
$CELTSCALE
 40
1.0
  9
$DISPSILH
 70
     0
  9
$DIMSCALE
 40
1.0
  9
$DIMASZ
 40
3.302
  9
$DIMEXO
 40
1.0
  9
$DIMDLI
 40
3.75
  9
$DIMRND
 40
0.0
  9
$DIMDLE
 40
0.0
  9
$DIMEXE
 40
1.0
  9
$DIMTP
 40
0.0
  9
$DIMTM
 40
0.0
  9
$DIMTXT
 40
3.5
  9
$DIMCEN
 40
2.5
  9
$DIMTSZ
 40
0.0
  9
$DIMTOL
 70
     0
  9
$DIMLIM
 70
     0
  9
$DIMTIH
 70
     1
  9
$DIMTOH
 70
     1
  9
$DIMSE1
 70
     0
  9
$DIMSE2
 70
     0
  9
$DIMTAD
 70
     1
  9
$DIMZIN
 70
     0
  9
$DIMBLK
  1

  9
$DIMASO
 70
     1
  9
$DIMSHO
 70
     1
  9
$DIMPOST
  1

  9
$DIMAPOST
  1

  9
$DIMALT
 70
     0
  9
$DIMALTD
 70
     3
  9
$DIMALTF
 40
0.0393700787401575
  9
$DIMLFAC
 40
1.0
  9
$DIMTOFL
 70
     1
  9
$DIMTVP
 40
0.0
  9
$DIMTIX
 70
     0
  9
$DIMSOXD
 70
     0
  9
$DIMSAH
 70
     0
  9
$DIMBLK1
  1

  9
$DIMBLK2
  1

  9
$DIMSTYLE
  2
ISO-25
  9
$DIMCLRD
 70
     0
  9
$DIMCLRE
 70
     0
  9
$DIMCLRT
 70
     0
  9
$DIMTFAC
 40
1.0
  9
$DIMGAP
 40
1.524
  9
$DIMJUST
 70
     0
  9
$DIMSD1
 70
     0
  9
$DIMSD2
 70
     0
  9
$DIMTOLJ
 70
     0
  9
$DIMTZIN
 70
     0
  9
$DIMALTZ
 70
     0
  9
$DIMALTTZ
 70
     0
  9
$DIMUPT
 70
     0
  9
$DIMDEC
 70
     2
  9
$DIMTDEC
 70
     2
  9
$DIMALTU
 70
     2
  9
$DIMALTTD
 70
     3
  9
$DIMTXSTY
  7
Standard
  9
$DIMAUNIT
 70
     0
  9
$DIMADEC
 70
     2
  9
$DIMALTRND
 40
0.0
  9
$DIMAZIN
 70
     0
  9
$DIMDSEP
 70
    44
  9
$DIMATFIT
 70
     3
  9
$DIMFRAC
 70
     0
  9
$DIMLDRBLK
  1

  9
$DIMLUNIT
 70
     2
  9
$DIMLWD
 70
    -2
  9
$DIMLWE
 70
    -2
  9
$DIMTMOVE
 70
     0
  9
$LUNITS
 70
     2
  9
$LUPREC
 70
     2
  9
$SKETCHINC
 40
1.0
  9
$FILLETRAD
 40
10.0
  9
$AUNITS
 70
     0
  9
$AUPREC
 70
     2
  9
$MENU
  1
.
  9
$ELEVATION
 40
0.0
  9
$PELEVATION
 40
0.0
  9
$THICKNESS
 40
0.0
  9
$LIMCHECK
 70
     0
  9
$CHAMFERA
 40
0.0
  9
$CHAMFERB
 40
0.0
  9
$CHAMFERC
 40
0.0
  9
$CHAMFERD
 40
0.0
  9
$SKPOLY
 70
     0
  9
$TDCREATE
 40
2458333.722889792
  9
$TDUCREATE
 40
2458333.347889792
  9
$TDUPDATE
 40
2458340.435679583
  9
$TDUUPDATE
 40
2458340.060679583
  9
$TDINDWG
 40
0.0050912153
  9
$TDUSRTIMER
 40
2458340.055588472
  9
$USRTIMER
 70
     1
  9
$ANGBASE
 50
0.0
  9
$ANGDIR
 70
     0
  9
$PDMODE
 70
     0
  9
$PDSIZE
 40
-1.0
  9
$PLINEWID
 40
0.0
  9
$SPLFRAME
 70
     0
  9
$SPLINETYPE
 70
     6
  9
$SPLINESEGS
 70
     8
  9
$HANDSEED
  5
173
  9
$SURFTAB1
 70
     6
  9
$SURFTAB2
 70
     6
  9
$SURFTYPE
 70
     6
  9
$SURFU
 70
     6
  9
$SURFV
 70
     6
  9
$UCSBASE
  2

  9
$UCSNAME
  2

  9
$UCSORG
 10
0.0
 20
0.0
 30
0.0
  9
$UCSXDIR
 10
1.0
 20
0.0
 30
0.0
  9
$UCSYDIR
 10
0.0
 20
1.0
 30
0.0
  9
$UCSORTHOREF
  2

  9
$UCSORTHOVIEW
 70
     0
  9
$UCSORGTOP
 10
0.0
 20
0.0
 30
0.0
  9
$UCSORGBOTTOM
 10
0.0
 20
0.0
 30
0.0
  9
$UCSORGLEFT
 10
0.0
 20
0.0
 30
0.0
  9
$UCSORGRIGHT
 10
0.0
 20
0.0
 30
0.0
  9
$UCSORGFRONT
 10
0.0
 20
0.0
 30
0.0
  9
$UCSORGBACK
 10
0.0
 20
0.0
 30
0.0
  9
$PUCSBASE
  2

  9
$PUCSNAME
  2

  9
$PUCSORG
 10
0.0
 20
0.0
 30
0.0
  9
$PUCSXDIR
 10
1.0
 20
0.0
 30
0.0
  9
$PUCSYDIR
 10
0.0
 20
1.0
 30
0.0
  9
$PUCSORTHOREF
  2

  9
$PUCSORTHOVIEW
 70
     0
  9
$PUCSORGTOP
 10
0.0
 20
0.0
 30
0.0
  9
$PUCSORGBOTTOM
 10
0.0
 20
0.0
 30
0.0
  9
$PUCSORGLEFT
 10
0.0
 20
0.0
 30
0.0
  9
$PUCSORGRIGHT
 10
0.0
 20
0.0
 30
0.0
  9
$PUCSORGFRONT
 10
0.0
 20
0.0
 30
0.0
  9
$PUCSORGBACK
 10
0.0
 20
0.0
 30
0.0
  9
$USERI1
 70
     0
  9
$USERI2
 70
     0
  9
$USERI3
 70
     0
  9
$USERI4
 70
     0
  9
$USERI5
 70
     0
  9
$USERR1
 40
0.0
  9
$USERR2
 40
0.0
  9
$USERR3
 40
0.0
  9
$USERR4
 40
0.0
  9
$USERR5
 40
0.0
  9
$WORLDVIEW
 70
     1
  9
$SHADEDGE
 70
     3
  9
$SHADEDIF
 70
    70
  9
$TILEMODE
 70
     1
  9
$MAXACTVP
 70
    64
  9
$PINSBASE
 10
0.0
 20
0.0
 30
0.0
  9
$PLIMCHECK
 70
     0
  9
$PEXTMIN
 10
1.000000000000000E+20
 20
1.000000000000000E+20
 30
1.000000000000000E+20
  9
$PEXTMAX
 10
-1.000000000000000E+20
 20
-1.000000000000000E+20
 30
-1.000000000000000E+20
  9
$PLIMMIN
 10
0.0
 20
0.0
  9
$PLIMMAX
 10
0.0
 20
0.0
  9
$UNITMODE
 70
     0
  9
$VISRETAIN
 70
     1
  9
$PLINEGEN
 70
     0
  9
$PSLTSCALE
 70
     1
  9
$TREEDEPTH
 70
  3020
  9
$CMLSTYLE
  2
Standard
  9
$CMLJUST
 70
     0
  9
$CMLSCALE
 40
20.0
  9
$PROXYGRAPHICS
 70
     1
  9
$MEASUREMENT
 70
     1
  9
$CELWEIGHT
370
    -1
  9
$ENDCAPS
280
     0
  9
$JOINSTYLE
280
     0
  9
$LWDISPLAY
290
     1
  9
$INSUNITS
 70
     4
  9
$HYPERLINKBASE
  1

  9
$STYLESHEET
  1

  9
$XEDIT
290
     1
  9
$CEPSNTYPE
380
     0
  9
$PSTYLEMODE
290
     1
  9
$FINGERPRINTGUID
  2
{36C55E5E-A7A0-4EFB-B6DA-17DAC7EEC420}
  9
$VERSIONGUID
  2
{FAEB1C32-E019-11D5-929B-00C0DF256EC4}
  9
$EXTNAMES
290
     1
  9
$PSVPSCALE
 40
0.0
  9
$OLESTARTUP
290
     0
  0
ENDSEC
  0
SECTION
  2
CLASSES
  0
CLASS
  1
ACDBDICTIONARYWDFLT
  2
AcDbDictionaryWithDefault
  3
ObjectDBX Classes
 90
        0
280
     0
281
     0
  0
CLASS
  1
VISUALSTYLE
  2
AcDbVisualStyle
  3
ObjectDBX Classes
 90
     4095
280
     0
281
     0
  0
CLASS
  1
MATERIAL
  2
AcDbMaterial
  3
ObjectDBX Classes
 90
     1153
280
     0
281
     0
  0
CLASS
  1
SCALE
  2
AcDbScale
  3
ObjectDBX Classes
 90
     1153
280
     0
281
     0
  0
CLASS
  1
SUN
  2
AcDbSun
  3
SCENEOE
 90
     1153
280
     0
281
     0
  0
CLASS
  1
ACDBPLACEHOLDER
  2
AcDbPlaceHolder
  3
ObjectDBX Classes
 90
        0
280
     0
281
     0
  0
CLASS
  1
LAYOUT
  2
AcDbLayout
  3
ObjectDBX Classes
 90
        0
280
     0
281
     0
  0
CLASS
  1
TABLESTYLE
  2
AcDbTableStyle
  3
ObjectDBX Classes
 90
     4095
280
     0
281
     0
  0
CLASS
  1
MLEADERSTYLE
  2
AcDbMLeaderStyle
  3
ACDB_MLEADERSTYLE_CLASS
 90
     4095
280
     0
281
     0
  0
CLASS
  1
RASTERVARIABLES
  2
AcDbRasterVariables
  3
ISM
 90
        0
280
     0
281
     0
  0
CLASS
  1
DIMASSOC
  2
AcDbDimAssoc
  3
"AcDbDimAssoc|Product Desc:     AcDim ARX App For Dimension|Company:          Autodesk, Inc.|WEB Address:      www.autodesk.com"
 90
        0
280
     0
281
     0
  0
ENDSEC
  0
SECTION
  2
TABLES
  0
TABLE
  2
VPORT
  5
8
330
0
100
AcDbSymbolTable
 70
     1
  0
VPORT
  5
29
330
8
100
AcDbSymbolTableRecord
100
AcDbViewportTableRecord
  2
*Active
 70
     0
 10
0.0
 20
0.0
 11
1.0
 21
1.0
 12
22.51971959138268
 22
18.40335861763216
 13
0.0
 23
0.0
 14
10.0
 24
10.0
 15
10.0
 25
10.0
 16
0.0
 26
0.0
 36
1.0
 17
0.0
 27
0.0
 37
0.0
 40
176.5807012491871
 41
1.444267515923567
 42
50.0
 43
0.0
 44
0.0
 50
0.0
 51
0.0
 71
    16
 72
  2000
 73
     1
 74
     3
 75
     0
 76
     0
 77
     0
 78
     0
281
     0
 65
     1
110
0.0
120
0.0
130
0.0
111
1.0
121
0.0
131
0.0
112
0.0
122
1.0
132
0.0
 79
     0
146
0.0
  0
ENDTAB
  0
TABLE
  2
LTYPE
  5
5
330
0
100
AcDbSymbolTable
 70
     6
  0
LTYPE
  5
14
330
5
100
AcDbSymbolTableRecord
100
AcDbLinetypeTableRecord
  2
ByBlock
 70
     0
  3

 72
    65
 73
     0
 40
0.0
  0
LTYPE
  5
15
330
5
100
AcDbSymbolTableRecord
100
AcDbLinetypeTableRecord
  2
ByLayer
 70
     0
  3

 72
    65
 73
     0
 40
0.0
  0
LTYPE
  5
16
330
5
100
AcDbSymbolTableRecord
100
AcDbLinetypeTableRecord
  2
Continuous
 70
     0
  3
Solid line
 72
    65
 73
     0
 40
0.0
  0
LTYPE
  5
6A
330
5
100
AcDbSymbolTableRecord
100
AcDbLinetypeTableRecord
  2
HIDDEN
 70
     0
  3
Hidden __ __ __ __ __ __ __ __ __ __ __ __ __ __
 72
    65
 73
     2
 40
1.905
 49
1.27
 74
     0
 49
-0.635
 74
     0
  0
LTYPE
  5
6B
330
5
100
AcDbSymbolTableRecord
100
AcDbLinetypeTableRecord
  2
PHANTOM
 70
     0
  3
Phantom ______  __  __  ______  __  __  ______
 72
    65
 73
     6
 40
12.7
 49
6.35
 74
     0
 49
-1.27
 74
     0
 49
1.27
 74
     0
 49
-1.27
 74
     0
 49
1.27
 74
     0
 49
-1.27
 74
     0
  0
LTYPE
  5
6C
330
5
100
AcDbSymbolTableRecord
100
AcDbLinetypeTableRecord
  2
CENTER
 70
     0
  3
Center ____ _ ____ _ ____ _ ____ _ ____ _ ____
 72
    65
 73
     4
 40
10.16
 49
6.35
 74
     0
 49
-1.27
 74
     0
 49
1.27
 74
     0
 49
-1.27
 74
     0
  0
LTYPE
  5
6D
330
5
100
AcDbSymbolTableRecord
100
AcDbLinetypeTableRecord
  2
CENTERX2
 70
     0
  3
Center (2x) ________  __  ________  __  _____
 72
    65
 73
     4
 40
20.32
 49
12.7
 74
     0
 49
-2.54
 74
     0
 49
2.54
 74
     0
 49
-2.54
 74
     0
  0
LTYPE
  5
6E
330
5
100
AcDbSymbolTableRecord
100
AcDbLinetypeTableRecord
  2
DOT2
 70
     0
  3
Dot (.5x) ........................................
 72
    65
 73
     2
 40
0.635
 49
0.0
 74
     0
 49
-0.635
 74
     0
  0
ENDTAB
  0
TABLE
  2
LAYER
  5
2
330
0
100
AcDbSymbolTable
 70
    17
  0
LAYER
  5
10
330
2
100
AcDbSymbolTableRecord
100
AcDbLayerTableRecord
  2
0
 70
     0
 62
     7
  6
Continuous
370
    -3
390
F
  0
LAYER
  5
6F
330
2
100
AcDbSymbolTableRecord
100
AcDbLayerTableRecord
  2
FORMAT
 70
     0
 62
     2
  6
Continuous
370
    -3
390
F
  0
LAYER
  5
70
330
2
100
AcDbSymbolTableRecord
100
AcDbLayerTableRecord
  2
외형선
 70
     0
 62
   100
  6
Continuous
370
    30
390
F
  0
LAYER
  5
71
330
2
100
AcDbSymbolTableRecord
100
AcDbLayerTableRecord
  2
숨은선
 70
     0
 62
     2
  6
HIDDEN
370
    15
390
F
  0
LAYER
  5
72
330
2
100
AcDbSymbolTableRecord
100
AcDbLayerTableRecord
  2
중심선
 70
     0
 62
     1
  6
CENTERX2
370
    -3
390
F
  0
LAYER
  5
73
330
2
100
AcDbSymbolTableRecord
100
AcDbLayerTableRecord
  2
파단선
 70
     0
 62
     4
  6
Continuous
370
    -3
390
F
  0
LAYER
  5
74
330
2
100
AcDbSymbolTableRecord
100
AcDbLayerTableRecord
  2
해칭선
 70
     0
 62
     4
  6
Continuous
370
    -3
390
F
  0
LAYER
  5
75
330
2
100
AcDbSymbolTableRecord
100
AcDbLayerTableRecord
  2
가는실선
 70
     0
 62
     4
  6
Continuous
370
    -3
390
F
  0
LAYER
  5
76
330
2
100
AcDbSymbolTableRecord
100
AcDbLayerTableRecord
  2
치수_보조선
 70
     0
 62
     4
  6
Continuous
370
    -3
390
F
  0
LAYER
  5
77
330
2
100
AcDbSymbolTableRecord
100
AcDbLayerTableRecord
  2
치수문자_일반주서
 70
     0
 62
     7
  6
Continuous
370
    15
390
F
  0
LAYER
  5
78
330
2
100
AcDbSymbolTableRecord
100
AcDbLayerTableRecord
  2
개별주서
 70
     0
 62
   100
  6
Continuous
370
    30
390
F
  0
LAYER
  5
79
330
2
100
AcDbSymbolTableRecord
100
AcDbLayerTableRecord
  2
중간선
 70
     0
 62
     2
  6
Continuous
370
    15
390
F
  0
LAYER
  5
7A
330
2
100
AcDbSymbolTableRecord
100
AcDbLayerTableRecord
  2
윤곽선
 70
     0
 62
     3
  6
Continuous
370
    40
390
F
  0
LAYER
  5
7B
330
2
100
AcDbSymbolTableRecord
100
AcDbLayerTableRecord
  2
중심마크
 70
     0
 62
   100
  6
Continuous
370
    30
390
F
  0
LAYER
  5
7C
330
2
100
AcDbSymbolTableRecord
100
AcDbLayerTableRecord
  2
가상선
 70
     0
 62
     4
  6
PHANTOM
370
    -3
390
F
  0
LAYER
  5
7D
330
2
100
AcDbSymbolTableRecord
100
AcDbLayerTableRecord
  2
특수지정선
 70
     0
 62
     5
  6
CENTERX2
370
    60
390
F
  0
LAYER
  5
147
330
2
100
AcDbSymbolTableRecord
100
AcDbLayerTableRecord
  2
Defpoints
 70
     0
 62
     7
  6
Continuous
290
     0
370
    -3
390
F
  0
ENDTAB
  0
TABLE
  2
STYLE
  5
3
330
0
100
AcDbSymbolTable
 70
     2
  0
STYLE
  5
11
330
3
100
AcDbSymbolTableRecord
100
AcDbTextStyleTableRecord
  2
Standard
 70
     0
 40
0.0
 41
1.0
 50
0.0
 71
     0
 42
3.5
  3
txt
  4

  0
STYLE
  5
93
330
3
100
AcDbSymbolTableRecord
100
AcDbTextStyleTableRecord
  2
SLDTEXTSTYLE0
 70
     0
 40
0.0
 41
0.75
 50
0.0
 71
     0
 42
3.5
  3
TXT
  4

  0
ENDTAB
  0
TABLE
  2
VIEW
  5
6
330
0
100
AcDbSymbolTable
 70
     0
  0
ENDTAB
  0
TABLE
  2
UCS
  5
7
330
0
100
AcDbSymbolTable
 70
     0
  0
ENDTAB
  0
TABLE
  2
APPID
  5
9
330
0
100
AcDbSymbolTable
 70
     2
  0
APPID
  5
12
330
9
100
AcDbSymbolTableRecord
100
AcDbRegAppTableRecord
  2
ACAD
 70
     0
  0
APPID
  5
15C
330
9
100
AcDbSymbolTableRecord
100
AcDbRegAppTableRecord
  2
PE_DIMMEASUREMENT
 70
     0
  0
ENDTAB
  0
TABLE
  2
DIMSTYLE
  5
A
330
0
100
AcDbSymbolTable
 70
     3
100
AcDbDimStyleTable
  0
DIMSTYLE
105
27
330
A
100
AcDbSymbolTableRecord
100
AcDbDimStyleTableRecord
  2
ISO-25
 70
     0
 41
2.5
 42
0.625
 43
3.75
 44
1.25
 73
     0
 74
     0
 77
     1
 78
     8
140
2.5
141
2.5
143
0.03937007874016
147
0.625
171
     3
172
     1
178
     0
271
     2
272
     2
274
     3
278
    44
283
     0
284
     8
340
11
  0
DIMSTYLE
105
DF
102
{ACAD_REACTORS
330
DE
330
108
330
14A
330
15E
102
}
330
A
100
AcDbSymbolTableRecord
100
AcDbDimStyleTableRecord
  2
SLDDIMSTYLE0
 70
     0
 41
3.302
 44
0.0
 45
0.000000001
 73
     0
 74
     0
 77
     1
 78
    12
 79
     3
140
3.5
143
0.0393700787401575
147
0.875
148
0.000000001
170
     1
172
     1
173
     1
178
     0
271
     2
272
     2
276
     2
284
    12
289
     0
340
93
  0
DIMSTYLE
105
F5
102
{ACAD_REACTORS
330
F4
102
}
330
A
100
AcDbSymbolTableRecord
100
AcDbDimStyleTableRecord
  2
SLDDIMSTYLE1
 70
     0
 41
3.302
 44
0.0
 45
0.000000001
 73
     0
 74
     0
 77
     1
 78
     4
 79
     1
140
3.5
143
0.0393700787401575
147
0.875
148
0.000000001
170
     1
173
     1
178
     0
271
     2
272
     2
276
     2
284
    12
340
93
  0
ENDTAB
  0
TABLE
  2
BLOCK_RECORD
  5
1
330
0
100
AcDbSymbolTable
 70
     8
  0
BLOCK_RECORD
  5
1F
330
1
100
AcDbSymbolTableRecord
100
AcDbBlockTableRecord
  2
*Model_Space
340
22
  0
BLOCK_RECORD
  5
1B
330
1
100
AcDbSymbolTableRecord
100
AcDbBlockTableRecord
  2
*Paper_Space
340
1E
  0
BLOCK_RECORD
  5
23
330
1
100
AcDbSymbolTableRecord
100
AcDbBlockTableRecord
  2
*Paper_Space0
340
26
  0
BLOCK_RECORD
  5
7E
330
1
100
AcDbSymbolTableRecord
100
AcDbBlockTableRecord
  2
블럭10
340
0
102
{BLKREFS
331
D6
102
}
  0
BLOCK_RECORD
  5
E0
330
1
100
AcDbSymbolTableRecord
100
AcDbBlockTableRecord
  2
_D
340
0
  0
BLOCK_RECORD
  5
F6
330
1
100
AcDbSymbolTableRecord
100
AcDbBlockTableRecord
  2
_D_1
340
0
  0
BLOCK_RECORD
  5
109
330
1
100
AcDbSymbolTableRecord
100
AcDbBlockTableRecord
  2
_D_2
340
0
  0
BLOCK_RECORD
  5
11C
330
1
100
AcDbSymbolTableRecord
100
AcDbBlockTableRecord
  2
SW_DOWELSYMBOL_0
340
0
102
{BLKREFS
331
122
102
}
  0
BLOCK_RECORD
  5
14D
330
1
100
AcDbSymbolTableRecord
100
AcDbBlockTableRecord
  2
*D6
340
0
  0
BLOCK_RECORD
  5
161
330
1
100
AcDbSymbolTableRecord
100
AcDbBlockTableRecord
  2
*D7
340
0
  0
ENDTAB
  0
ENDSEC
  0
SECTION
  2
BLOCKS
  0
BLOCK
  5
20
330
1F
100
AcDbEntity
  8
0
100
AcDbBlockBegin
  2
*Model_Space
 70
     0
 10
0.0
 20
0.0
 30
0.0
  3
*Model_Space
  1
*Model_Space
  0
ENDBLK
  5
21
330
1F
100
AcDbEntity
  8
0
100
AcDbBlockEnd
  0
BLOCK
  5
1C
330
1B
100
AcDbEntity
 67
     1
  8
0
100
AcDbBlockBegin
  2
*Paper_Space
 70
     0
 10
0.0
 20
0.0
 30
0.0
  3
*Paper_Space
  1
*Paper_Space
  0
ENDBLK
  5
1D
330
1B
100
AcDbEntity
 67
     1
  8
0
100
AcDbBlockEnd
  0
BLOCK
  5
24
330
23
100
AcDbEntity
  8
0
100
AcDbBlockBegin
  2
*Paper_Space0
 70
     0
 10
0.0
 20
0.0
 30
0.0
  3
*Paper_Space0
  1
*Paper_Space0
  0
ENDBLK
  5
25
330
23
100
AcDbEntity
  8
0
100
AcDbBlockEnd
  0
BLOCK
  5
7F
330
7E
100
AcDbEntity
  8
0
100
AcDbBlockBegin
  2
블럭10
 70
     2
 10
0.0
 20
0.0
 30
0.0
  3
블럭10
  1
블럭10
  0
ELLIPSE
  5
81
330
7E
100
AcDbEntity
  8
중심선
100
AcDbEllipse
 10
20.54032771741204
 20
12.0471743016438
 30
0.0
 11
6.600054785286829
 21
-1.261213355974178E-13
 31
0.0
210
0.0
220
0.0
230
1.0
 40
0.636358354079598
 41
0.9219305317359503
 42
6.513795318482858
  0
ELLIPSE
  5
82
330
7E
100
AcDbEntity
  8
중심선
100
AcDbEllipse
 10
20.54032771746488
 20
12.04717430159265
 30
0.0
 11
3.960054785062283
 21
1.540847449632565E-10
 31
0.0
210
0.0
220
0.0
230
1.0
 40
0.3939339440162632
 41
1.131841032648279
 42
5.62031148352944
  0
LINE
  5
83
330
7E
100
AcDbEntity
  8
중심선
100
AcDbLine
 10
2.268634060543552
 20
16.24717430164393
 30
0.0
 11
5.714909304380834
 21
16.24717430164393
 31
0.0
  0
LINE
  5
84
330
7E
100
AcDbEntity
  8
중심선
100
AcDbLine
 10
5.245725140726316
 20
7.84717430164391
 30
0.0
 11
8.692000384563599
 21
7.84717430164391
 31
0.0
  0
LINE
  5
85
330
7E
100
AcDbEntity
  8
중심선
100
AcDbLine
 10
15.74043728645272
 20
16.24717430164393
 30
0.0
 11
8.692000384563599
 21
7.84717430164391
 31
0.0
  0
LINE
  5
86
330
7E
100
AcDbEntity
  8
중심선
100
AcDbLine
 10
0.1404042013395286
 20
13.71084872107135
 30
0.0
 11
3.58671253028996
 21
13.71088815037384
 31
0.0
  0
LINE
  5
87
330
7E
100
AcDbEntity
  8
중심선
100
AcDbLine
 10
2.750260043222114
 20
10.84717430164391
 30
0.0
 11
6.196535287059397
 21
10.84717430164391
 31
0.0
  0
LINE
  5
88
330
7E
100
AcDbEntity
  8
중심선
100
AcDbLine
 10
12.29416204261559
 20
16.24717430164393
 30
0.0
 11
5.245725140726316
 21
7.84717430164391
 31
0.0
  0
LINE
  5
89
330
7E
100
AcDbEntity
  8
중심선
100
AcDbLine
 10
10.72767329541681
 20
16.24717430164393
 30
0.0
 11
6.196535287059397
 21
10.84717430164391
 31
0.0
  0
LINE
  5
8A
330
7E
100
AcDbEntity
  8
중심선
100
AcDbLine
 10
7.28139805157953
 20
16.24717430164393
 30
0.0
 11
2.750260043222114
 21
10.84717430164391
 31
0.0
  0
LINE
  5
8B
330
7E
100
AcDbEntity
  8
중심선
100
AcDbLine
 10
5.714909304380834
 20
16.24717430164393
 30
0.0
 11
3.58671253028996
 21
13.71088815037384
 31
0.0
  0
LINE
  5
8C
330
7E
100
AcDbEntity
  8
중심선
100
AcDbLine
 10
2.268634060543552
 20
16.24717430164393
 30
0.0
 11
0.1404042013395286
 21
13.71084872107135
 31
0.0
  0
LINE
  5
8D
330
7E
100
AcDbEntity
  8
중심선
100
AcDbLine
 10
7.28139805157953
 20
16.24717430164393
 30
0.0
 11
10.72767329541681
 21
16.24717430164393
 31
0.0
  0
LINE
  5
8E
330
7E
100
AcDbEntity
  8
중심선
100
AcDbLine
 10
12.29416204261559
 20
16.24717430164393
 30
0.0
 11
15.74043728645272
 21
16.24717430164393
 31
0.0
  0
LINE
  5
8F
330
7E
100
AcDbEntity
  8
중심선
100
AcDbLine
 10
19.22036997980202
 20
11.08717430171403
 30
0.0
 11
23.66174974927406
 21
11.08717430171406
 31
0.0
  0
LINE
  5
90
330
7E
100
AcDbEntity
  8
중심선
100
AcDbLine
 10
19.22039502424796
 20
13.00717430171391
 30
0.0
 11
19.22036997980202
 21
11.08717430171403
 31
0.0
  0
LINE
  5
91
330
7E
100
AcDbEntity
  8
중심선
100
AcDbLine
 10
19.22039502424796
 20
13.00717430171391
 30
0.0
 11
26.96566020931264
 21
13.00717430171391
 31
0.0
  0
LINE
  5
92
330
7E
100
AcDbEntity
  8
중심선
100
AcDbLine
 10
22.22332737316547
 20
13.45928029700563
 30
0.0
 11
24.52862924686651
 21
15.39360700705356
 31
0.0
  0
ATTDEF
  5
94
330
7E
100
AcDbEntity
  8
FORMAT
 62
     2
100
AcDbText
 10
-9.18129528874128
 20
2.075366912832191
 30
0.0
 40
4.233333333333333
  1
E5077112 [ 3 FLUTE ]
 41
0.75
  7
SLDTEXTSTYLE0
 11
-9.18129528874128
 21
-0.0412997538344756
 31
0.0
100
AcDbAttributeDefinition
  3

  2
AUTOATTR0
 70
     0
 74
     1
  0
ENDBLK
  5
80
330
7E
100
AcDbEntity
  8
0
100
AcDbBlockEnd
  0
BLOCK
  5
E1
330
E0
100
AcDbEntity
  8
0
100
AcDbBlockBegin
  2
_D
 70
     0
 10
0.0
 20
0.0
 30
0.0
  3
_D
  1
_D
  0
LINE
  5
E3
330
E0
100
AcDbEntity
  8
치수문자_일반주서
 62
     0
370
    -2
100
AcDbLine
 10
54.3249081826537
 20
2.432645076999226
 30
0.0
 11
54.3249081826537
 21
41.79853029772466
 31
0.0
  0
LINE
  5
E4
330
E0
100
AcDbEntity
  8
치수문자_일반주서
 62
     0
370
    -2
100
AcDbLine
 10
9.874908182653684
 20
3.224462787873366
 30
0.0
 11
9.874908182653684
 21
41.79853029772466
 31
0.0
  0
LINE
  5
E5
330
E0
100
AcDbEntity
  8
치수문자_일반주서
 62
     0
370
    -2
100
AcDbLine
 10
51.0229081826537
 20
41.79853029772466
 30
0.0
 11
13.17690818265368
 21
41.79853029772466
 31
0.0
  0
SOLID
  5
E6
330
E0
100
AcDbEntity
  8
치수문자_일반주서
 62
     0
100
AcDbTrace
 10
51.0229081826537
 20
41.24819696439133
 30
0.0
 11
51.0229081826537
 21
42.34886363105799
 31
0.0
 12
54.3249081826537
 22
41.79853029772466
 32
0.0
 13
54.3249081826537
 23
41.79853029772466
 33
0.0
  0
SOLID
  5
E7
330
E0
100
AcDbEntity
  8
치수문자_일반주서
 62
     0
100
AcDbTrace
 10
13.17690818265368
 20
42.34886363105799
 30
0.0
 11
13.17690818265368
 21
41.24819696439133
 31
0.0
 12
9.874908182653684
 22
41.79853029772466
 32
0.0
 13
9.874908182653684
 23
41.79853029772466
 33
0.0
  0
MTEXT
  5
E8
330
E0
100
AcDbEntity
  8
치수문자_일반주서
 62
     0
100
AcDbMText
 10
32.09990818265369
 20
46.17353029772466
 30
0.0
 40
3.5
 41
0.0
 71
     2
 72
     1
  1
\A1;44.45 [1 3/4]
  7
SLDTEXTSTYLE0
 73
     1
 44
1.0
  0
POINT
  5
E9
330
E0
100
AcDbEntity
  8
Defpoints
 62
     0
100
AcDbPoint
 10
54.3249081826537
 20
2.370145076999226
 30
0.0
  0
POINT
  5
EA
330
E0
100
AcDbEntity
  8
Defpoints
 62
     0
100
AcDbPoint
 10
9.874908182653684
 20
3.161962787873366
 30
0.0
  0
POINT
  5
EB
330
E0
100
AcDbEntity
  8
Defpoints
 62
     0
100
AcDbPoint
 10
9.874908182653684
 20
41.79853029772466
 30
0.0
  0
ENDBLK
  5
E2
330
E0
100
AcDbEntity
  8
0
100
AcDbBlockEnd
  0
BLOCK
  5
F7
330
F6
100
AcDbEntity
  8
0
100
AcDbBlockBegin
  2
_D_1
 70
     0
 10
0.0
 20
0.0
 30
0.0
  3
_D_1
  1
_D_1
  0
LINE
  5
F9
330
F6
100
AcDbEntity
  8
치수문자_일반주서
 62
     0
370
    -2
100
AcDbLine
 10
54.3249081826537
 20
2.432645076999226
 30
0.0
 11
54.3249081826537
 21
58.14659252549421
 31
0.0
  0
LINE
  5
FA
330
F6
100
AcDbEntity
  8
치수문자_일반주서
 62
     0
370
    -2
100
AcDbLine
 10
-34.5750918173463
 20
4.019835151814108
 30
0.0
 11
-34.5750918173463
 21
58.14659252549421
 31
0.0
  0
LINE
  5
FB
330
F6
100
AcDbEntity
  8
치수문자_일반주서
 62
     0
370
    -2
100
AcDbLine
 10
51.0229081826537
 20
58.14659252549421
 30
0.0
 11
-31.27309181734631
 21
58.14659252549421
 31
0.0
  0
SOLID
  5
FC
330
F6
100
AcDbEntity
  8
치수문자_일반주서
 62
     0
100
AcDbTrace
 10
51.0229081826537
 20
57.59625919216088
 30
0.0
 11
51.0229081826537
 21
58.69692585882755
 31
0.0
 12
54.3249081826537
 22
58.14659252549421
 32
0.0
 13
54.3249081826537
 23
58.14659252549421
 33
0.0
  0
SOLID
  5
FD
330
F6
100
AcDbEntity
  8
치수문자_일반주서
 62
     0
100
AcDbTrace
 10
-31.27309181734631
 20
58.69692585882755
 30
0.0
 11
-31.27309181734631
 21
57.59625919216088
 31
0.0
 12
-34.5750918173463
 22
58.14659252549421
 32
0.0
 13
-34.5750918173463
 23
58.14659252549421
 33
0.0
  0
MTEXT
  5
FE
330
F6
100
AcDbEntity
  8
치수문자_일반주서
 62
     0
100
AcDbMText
 10
13.25916706431774
 20
62.52159252549421
 30
0.0
 40
3.5
 41
0.0
 71
     2
 72
     1
  1
\A1;88.90 [3 1/2]
  7
SLDTEXTSTYLE0
 73
     1
 44
1.0
  0
POINT
  5
FF
330
F6
100
AcDbEntity
  8
Defpoints
 62
     0
100
AcDbPoint
 10
54.3249081826537
 20
2.370145076999226
 30
0.0
  0
POINT
  5
100
330
F6
100
AcDbEntity
  8
Defpoints
 62
     0
100
AcDbPoint
 10
-34.5750918173463
 20
3.957335151814108
 30
0.0
  0
POINT
  5
101
330
F6
100
AcDbEntity
  8
Defpoints
 62
     0
100
AcDbPoint
 10
-34.5750918173463
 20
58.14659252549421
 30
0.0
  0
ENDBLK
  5
F8
330
F6
100
AcDbEntity
  8
0
100
AcDbBlockEnd
  0
BLOCK
  5
10A
330
109
100
AcDbEntity
  8
0
100
AcDbBlockBegin
  2
_D_2
 70
     0
 10
0.0
 20
0.0
 30
0.0
  3
_D_2
  1
_D_2
  0
LINE
  5
10C
330
109
100
AcDbEntity
  8
치수문자_일반주서
 62
     0
370
    -2
100
AcDbLine
 10
-33.82759181734631
 20
4.767335151814089
 30
0.0
 11
-47.57509181734635
 21
4.76733515181404
 31
0.0
  0
LINE
  5
10D
330
109
100
AcDbEntity
  8
치수문자_일반주서
 62
     0
370
    -2
100
AcDbLine
 10
-33.82759181734631
 20
-4.757664848185907
 30
0.0
 11
-47.57509181734631
 21
-4.757664848185954
 31
0.0
  0
LINE
  5
10E
330
109
100
AcDbEntity
  8
치수문자_일반주서
 62
     0
370
    -2
100
AcDbLine
 10
-47.57509181734633
 20
1.46533515181404
 30
0.0
 11
-47.57509181734633
 21
-1.455664848185955
 31
0.0
  0
SOLID
  5
10F
330
109
100
AcDbEntity
  8
치수문자_일반주서
 62
     0
100
AcDbTrace
 10
-47.024758484013
 20
1.465335151814042
 30
0.0
 11
-48.12542515067967
 21
1.465335151814038
 31
0.0
 12
-47.57509181734635
 22
4.76733515181404
 32
0.0
 13
-47.57509181734635
 23
4.76733515181404
 33
0.0
  0
SOLID
  5
110
330
109
100
AcDbEntity
  8
치수문자_일반주서
 62
     0
100
AcDbTrace
 10
-48.12542515067966
 20
-1.455664848185957
 30
0.0
 11
-47.02475848401299
 21
-1.455664848185953
 31
0.0
 12
-47.57509181734631
 22
-4.757664848185954
 32
0.0
 13
-47.57509181734631
 23
-4.757664848185954
 33
0.0
  0
MTEXT
  5
111
330
109
100
AcDbEntity
  8
치수문자_일반주서
 62
     0
100
AcDbMText
 10
-51.95009181734633
 20
-1.035359297548723
 30
0.0
 40
3.5
 41
0.0
 71
     2
 72
     1
  1
\A1;%%c9.53 [3/8]
  7
SLDTEXTSTYLE0
 11
-3.729883127349610E-15
 21
1.0
 31
0.0
 73
     1
 44
1.0
  0
POINT
  5
112
330
109
100
AcDbEntity
  8
Defpoints
 62
     0
100
AcDbPoint
 10
-33.76509181734631
 20
4.767335151814089
 30
0.0
  0
POINT
  5
113
330
109
100
AcDbEntity
  8
Defpoints
 62
     0
100
AcDbPoint
 10
-33.76509181734631
 20
-4.757664848185907
 30
0.0
  0
POINT
  5
114
330
109
100
AcDbEntity
  8
Defpoints
 62
     0
100
AcDbPoint
 10
-47.57509181734633
 20
-4.757664848185954
 30
0.0
  0
ENDBLK
  5
10B
330
109
100
AcDbEntity
  8
0
100
AcDbBlockEnd
  0
BLOCK
  5
11D
330
11C
100
AcDbEntity
  8
0
100
AcDbBlockBegin
  2
SW_DOWELSYMBOL_0
 70
     0
 10
0.0
 20
0.0
 30
0.0
  3
SW_DOWELSYMBOL_0
  1
SW_DOWELSYMBOL_0
  0
CIRCLE
  5
11F
330
11C
100
AcDbEntity
  8
외형선
 62
     0
100
AcDbCircle
 10
0.0
 20
0.0
 30
0.0
 40
3.000000000000004
  0
HATCH
  5
120
330
11C
100
AcDbEntity
  8
0
  6
Continuous
 62
     0
370
    30
100
AcDbHatch
 10
0.0
 20
0.0
 30
0.0
210
0.0
220
0.0
230
1.0
  2
SOLID
 70
     1
 71
     0
 91
        1
 92
        0
 93
        3
 72
     2
 10
-0.0000000000000013
 20
-0.0000000000000039
 40
3.000000000000004
 50
0.0
 51
90.0
 73
     1
 72
     1
 10
-0.0000000000000013
 20
3.0
 11
-0.0000000000000013
 21
-0.000000000000004
 72
     1
 10
-0.0000000000000013
 20
-0.0000000000000039
 11
3.000000000000003
 21
-0.0000000000000039
 97
        0
 75
     0
 76
     1
 98
        1
 10
0.0
 20
0.0
  0
HATCH
  5
121
330
11C
100
AcDbEntity
  8
0
  6
Continuous
 62
     0
370
    30
100
AcDbHatch
 10
0.0
 20
0.0
 30
0.0
210
0.0
220
0.0
230
1.0
  2
SOLID
 70
     1
 71
     0
 91
        1
 92
        0
 93
        3
 72
     2
 10
-0.0000000000000013
 20
-0.0000000000000039
 40
3.000000000000004
 50
180.0
 51
270.0000000000008
 73
     1
 72
     1
 10
-0.0000000000000013
 20
-3.000000000000008
 11
-0.0000000000000013
 21
-0.000000000000004
 72
     1
 10
-0.0000000000000013
 20
-0.0000000000000039
 11
-3.000000000000006
 21
-0.0000000000000039
 97
        0
 75
     0
 76
     1
 98
        1
 10
0.0
 20
0.0
  0
ENDBLK
  5
11E
330
11C
100
AcDbEntity
  8
0
100
AcDbBlockEnd
  0
BLOCK
  5
14E
330
14D
100
AcDbEntity
  8
0
100
AcDbBlockBegin
  2
*D6
 70
     1
 10
0.0
 20
0.0
 30
0.0
  3
*D6
  1
*D6
  0
LINE
  5
150
330
14D
100
AcDbEntity
  8
치수문자_일반주서
 62
     0
370
    -2
100
AcDbLine
 10
54.3874081826537
 20
2.386085151814097
 30
0.0
 11
70.52118958221199
 21
2.386085151814097
 31
0.0
  0
LINE
  5
151
330
14D
100
AcDbEntity
  8
치수문자_일반주서
 62
     0
370
    -2
100
AcDbLine
 10
54.38740818265369
 20
-2.376414848185909
 30
0.0
 11
70.52118958221199
 21
-2.37641484818591
 31
0.0
  0
LINE
  5
152
330
14D
100
AcDbEntity
  8
치수문자_일반주서
 62
     0
370
    -2
100
AcDbLine
 10
70.52118958221199
 20
2.386085151814097
 30
0.0
 11
70.52118958221199
 21
36.9900851518141
 31
0.0
  0
LINE
  5
153
330
14D
100
AcDbEntity
  8
치수문자_일반주서
 62
     0
370
    -2
100
AcDbLine
 10
70.52118958221199
 20
2.386085151814097
 30
0.0
 11
70.52118958221199
 21
-2.37641484818591
 31
0.0
  0
LINE
  5
154
330
14D
100
AcDbEntity
  8
치수문자_일반주서
 62
     0
370
    -2
100
AcDbLine
 10
70.52118958221199
 20
5.688085151814096
 30
0.0
 11
70.52118958221199
 21
8.990085151814096
 31
0.0
  0
LINE
  5
155
330
14D
100
AcDbEntity
  8
치수문자_일반주서
 62
     0
370
    -2
100
AcDbLine
 10
70.52118958221199
 20
-5.678414848185909
 30
0.0
 11
70.52118958221199
 21
-8.980414848185909
 31
0.0
  0
SOLID
  5
156
330
14D
100
AcDbEntity
  8
치수문자_일반주서
 62
     0
100
AcDbTrace
 10
69.97085624887866
 20
5.688085151814096
 30
0.0
 11
71.07152291554532
 21
5.688085151814096
 31
0.0
 12
70.52118958221199
 22
2.386085151814097
 32
0.0
 13
70.52118958221199
 23
2.386085151814097
 33
0.0
  0
SOLID
  5
157
330
14D
100
AcDbEntity
  8
치수문자_일반주서
 62
     0
100
AcDbTrace
 10
71.07152291554532
 20
-5.678414848185909
 30
0.0
 11
69.97085624887866
 21
-5.678414848185909
 31
0.0
 12
70.52118958221199
 22
-2.37641484818591
 32
0.0
 13
70.52118958221199
 23
-2.37641484818591
 33
0.0
  0
MTEXT
  5
158
330
14D
100
AcDbEntity
  8
치수문자_일반주서
 62
     0
100
AcDbMText
 10
67.89618958221199
 20
22.9900851518141
 30
0.0
 40
3.5
 41
0.0
 71
     5
 72
     1
  1
\A1;{%%c4.76 [3/16]}
  7
SLDTEXTSTYLE0
 11
0.0
 21
1.0
 31
0.0
 73
     1
 44
1.0
  0
POINT
  5
159
330
14D
100
AcDbEntity
  8
Defpoints
 62
     0
100
AcDbPoint
 10
54.3249081826537
 20
2.386085151814097
 30
0.0
  0
POINT
  5
15A
330
14D
100
AcDbEntity
  8
Defpoints
 62
     0
100
AcDbPoint
 10
54.32490818265369
 20
-2.376414848185909
 30
0.0
  0
POINT
  5
15D
330
14D
100
AcDbEntity
  8
Defpoints
 62
     0
100
AcDbPoint
 10
70.52118958221199
 20
-2.37641484818591
 30
0.0
  0
ENDBLK
  5
14F
330
14D
100
AcDbEntity
  8
0
100
AcDbBlockEnd
  0
BLOCK
  5
162
330
161
100
AcDbEntity
  8
0
100
AcDbBlockBegin
  2
*D7
 70
     1
 10
0.0
 20
0.0
 30
0.0
  3
*D7
  1
*D7
  0
LINE
  5
164
330
161
100
AcDbEntity
  8
치수문자_일반주서
 62
     0
370
    -2
100
AcDbLine
 10
34.28061068723201
 20
-3.865741425077267
 30
0.0
 11
33.95695500018491
 21
-8.228753228435364
 31
0.0
  0
LINE
  5
165
330
161
100
AcDbEntity
  8
치수문자_일반주서
 62
     0
370
    -2
100
AcDbLine
 10
10.99627290228364
 20
3.142389293884012
 30
0.0
 11
34.58260602907754
 21
2.730688317737251
 31
0.0
  0
LINE
  5
166
330
161
100
AcDbEntity
  8
치수문자_일반주서
 62
     0
370
    -2
100
AcDbLine
 10
7.401867924831516
 20
4.767335151814094
 30
0.0
 11
34.60037957673502
 21
4.767335151814097
 31
0.0
  0
ARC
  5
167
330
161
100
AcDbEntity
  8
치수문자_일반주서
 62
     0
370
    -2
100
AcDbCircle
 10
-82.09681295059048
 20
4.767335151814082
 30
0.0
 40
116.6971925273255
100
AcDbArc
 50
355.7574716792024
 51
357.3787358396012
  0
ARC
  5
168
330
161
100
AcDbEntity
  8
치수문자_일반주서
 62
     0
370
    -2
100
AcDbCircle
 10
-82.09681295059048
 20
4.767335151814082
 30
0.0
 40
116.6971925273255
100
AcDbArc
 50
1.621264160398786
 51
3.242528320797566
  0
ARC
  5
169
330
161
100
AcDbEntity
  8
치수문자_일반주서
 62
     0
370
    -2
100
AcDbCircle
 10
-82.09681295059048
 20
4.767335151814082
 30
0.0
 40
116.6971925273255
100
AcDbArc
 50
359.0
 51
0.0000000000000074
  0
SOLID
  5
16A
330
161
100
AcDbEntity
  8
치수문자_일반주서
 62
     0
100
AcDbTrace
 10
35.02833383158868
 20
-0.5870515008510554
 30
0.0
 11
33.92821671191079
 21
-0.552274581741787
 31
0.0
 12
34.58260602907754
 22
2.730688317737251
 32
0.0
 13
34.58260602907754
 23
2.730688317737251
 33
0.0
  0
SOLID
  5
16B
330
161
100
AcDbEntity
  8
치수문자_일반주서
 62
     0
100
AcDbTrace
 10
34.00338552907112
 20
8.061218708473568
 30
0.0
 11
35.10394203651007
 21
8.076790639788378
 31
0.0
 12
34.60037957673502
 22
4.767335151814097
 32
0.0
 13
34.60037957673502
 23
4.767335151814097
 33
0.0
  0
MTEXT
  5
16C
330
161
100
AcDbEntity
  8
치수문자_일반주서
 62
     0
100
AcDbMText
 10
31.5009757616936
 20
-5.853053914528053
 30
0.0
 40
3.5
 41
0.0
 71
     5
 72
     1
  1
\A1;1%%d
  7
SLDTEXTSTYLE0
 11
0.07397844275362367
 21
0.9972598407675649
 31
0.0
 73
     1
 44
1.0
  0
POINT
  5
16D
330
161
100
AcDbEntity
  8
Defpoints
 62
     0
100
AcDbPoint
 10
34.59840469354504
 20
4.088422235808111
 30
0.0
  0
POINT
  5
16E
330
161
100
AcDbEntity
  8
Defpoints
 62
     0
100
AcDbPoint
 10
7.339367924831516
 20
4.767335151814094
 30
0.0
  0
POINT
  5
16F
330
161
100
AcDbEntity
  8
Defpoints
 62
     0
100
AcDbPoint
 10
10.93378242133636
 20
3.143480069286342
 30
0.0
  0
POINT
  5
170
330
161
100
AcDbEntity
  8
Defpoints
 62
     0
100
AcDbPoint
 10
9.874908182653686
 20
3.161962787873366
 30
0.0
  0
POINT
  5
171
330
161
100
AcDbEntity
  8
Defpoints
 62
     0
100
AcDbPoint
 10
-33.76509181734631
 20
4.767335151814089
 30
0.0
  0
ENDBLK
  5
163
330
161
100
AcDbEntity
  8
0
100
AcDbBlockEnd
  0
ENDSEC
  0
SECTION
  2
ENTITIES
  0
LINE
  5
95
330
1F
100
AcDbEntity
  8
0
  6
Continuous
 62
     4
370
    15
100
AcDbLine
 10
-33.76509181734631
 20
4.767335151814088
 30
0.0
 11
-34.5750918173463
 21
3.957335151814108
 31
0.0
  0
LINE
  5
96
330
1F
100
AcDbEntity
  8
0
  6
Continuous
 62
     4
370
    15
100
AcDbLine
 10
-34.5750918173463
 20
-3.947664848185928
 30
0.0
 11
-33.76509181734631
 21
-4.757664848185907
 31
0.0
  0
LINE
  5
97
102
{ACAD_REACTORS
102
}
330
1F
100
AcDbEntity
  8
0
  6
Continuous
 62
     4
370
    15
100
AcDbLine
 10
7.339367924831516
 20
4.767335151814094
 30
0.0
 11
-33.76509181734631
 21
4.767335151814089
 31
0.0
  0
LINE
  5
98
330
1F
100
AcDbEntity
  8
0
  6
Continuous
 62
     4
370
    15
100
AcDbLine
 10
-33.76509181734631
 20
-4.757664848185907
 30
0.0
 11
7.339367924831516
 21
-4.757664848185902
 31
0.0
  0
LINE
  5
99
330
1F
100
AcDbEntity
  8
0
  6
Continuous
 62
     4
370
    15
100
AcDbLine
 10
7.339367924831516
 20
-4.7576648481859
 30
0.0
 11
8.858908182653705
 21
-3.184134848185904
 31
0.0
  0
LINE
  5
9A
330
1F
100
AcDbEntity
  8
0
  6
Continuous
 62
     4
370
    15
100
AcDbLine
 10
8.858908182653703
 20
3.193805151814095
 30
0.0
 11
7.339367924831516
 21
4.767335151814092
 31
0.0
  0
LINE
  5
9B
330
1F
100
AcDbEntity
  8
0
  6
Continuous
 62
     1
370
    15
100
AcDbLine
 10
50.59925701142625
 20
-2.441446331279568
 30
0.0
 11
53.1755619359691
 21
-2.396476761546786
 31
0.0
  0
LINE
  5
9C
330
1F
100
AcDbEntity
  8
0
  6
Continuous
 62
     1
370
    15
100
AcDbLine
 10
30.50207107482088
 20
-2.792244016677476
 30
0.0
 11
33.92925847248598
 21
-2.732422238130062
 31
0.0
  0
LINE
  5
9D
330
1F
100
AcDbEntity
  8
0
  6
Continuous
 62
     1
370
    15
100
AcDbLine
 10
10.45610270710629
 20
-3.142147696084929
 30
0.0
 11
14.22187525273639
 21
-3.076415891796056
 31
0.0
  0
LINE
  5
9E
330
1F
100
AcDbEntity
  8
0
  6
Continuous
 62
     1
370
    15
100
AcDbLine
 10
24.08007861515538
 20
2.914010615657653
 30
0.0
 11
20.47410962561126
 21
2.976953038499285
 31
0.0
  0
LINE
  5
9F
330
1F
100
AcDbEntity
  8
0
  6
Continuous
 62
     1
370
    15
100
AcDbLine
 10
43.76929509843676
 20
2.570334063556246
 30
0.0
 11
40.54272054645236
 21
2.626654131856868
 31
0.0
  0
LINE
  5
A0
330
1F
100
AcDbEntity
  8
0
  6
Continuous
 62
     1
370
    15
100
AcDbLine
 10
37.19388240739042
 20
-2.675438015380092
 30
0.0
 11
40.49015459380472
 21
-2.617901370345153
 31
0.0
  0
LINE
  5
A1
330
1F
100
AcDbEntity
  8
0
  6
Continuous
 62
     1
370
    15
100
AcDbLine
 10
17.13319623321302
 20
-3.025598595054955
 30
0.0
 11
20.79423882623861
 21
-2.961694858888723
 31
0.0
  0
LINE
  5
A2
102
{ACAD_REACTORS
102
}
330
1F
100
AcDbEntity
  8
0
  6
Continuous
 62
     1
370
    15
100
AcDbLine
 10
10.93378242133636
 20
3.143480069286342
 30
0.0
 11
9.874908182653686
 21
3.161962787873366
 31
0.0
  0
LINE
  5
A3
330
1F
100
AcDbEntity
  8
0
  6
Continuous
 62
     1
370
    15
100
AcDbLine
 10
30.6475075154405
 20
2.799375717791724
 30
0.0
 11
27.15845834988506
 21
2.860277297514237
 31
0.0
  0
LINE
  5
A4
330
1F
100
AcDbEntity
  8
0
  6
Continuous
 62
     1
370
    15
100
AcDbLine
 10
50.323287085377
 20
2.455933707885187
 30
0.0
 11
47.24571928161409
 21
2.50965285372086
 31
0.0
  0
LINE
  5
A5
330
1F
100
AcDbEntity
  8
0
  6
Continuous
 62
     1
370
    15
100
AcDbLine
 10
43.89339922281629
 20
-2.558497514379149
 30
0.0
 11
47.04720990802292
 21
-2.503447544097561
 31
0.0
  0
LINE
  5
A6
330
1F
100
AcDbEntity
  8
0
  6
Continuous
 62
     1
370
    15
100
AcDbLine
 10
23.81589866831037
 20
-2.908951590154373
 30
0.0
 11
27.36451085798014
 21
-2.847010333978623
 31
0.0
  0
LINE
  5
A7
330
1F
100
AcDbEntity
  8
0
  6
Continuous
 62
     1
370
    15
100
AcDbLine
 10
17.5075004475612
 20
3.028735394318794
 30
0.0
 11
13.79486884859946
 21
3.093539619933223
 31
0.0
  0
LINE
  5
A8
330
1F
100
AcDbEntity
  8
0
  6
Continuous
 62
     1
370
    15
100
AcDbLine
 10
37.21009128463758
 20
2.684825392003523
 30
0.0
 11
33.84707831965808
 21
2.743527001661677
 31
0.0
  0
LINE
  5
A9
102
{ACAD_REACTORS
102
}
330
1F
100
AcDbEntity
  8
0
  6
Continuous
 62
     1
370
    15
100
AcDbLine
 10
54.3249081826537
 20
2.386085151814097
 30
0.0
 11
53.95413336094804
 21
2.392557050400717
 31
0.0
  0
LINE
  5
AA
330
1F
100
AcDbEntity
  8
0
  6
Continuous
 62
     4
370
    15
100
AcDbLine
 10
8.858908182653705
 20
-3.184134848185904
 30
0.0
 11
8.984908182653697
 21
-3.180185893602703
 31
0.0
  0
LINE
  5
AB
330
1F
100
AcDbEntity
  8
0
  6
Continuous
 62
     4
370
    15
100
AcDbLine
 10
9.874908182653686
 20
3.161962787873366
 30
0.0
 11
8.858908182653703
 21
3.193805151814095
 31
0.0
  0
LINE
  5
AC
330
1F
100
AcDbEntity
  8
0
  6
Continuous
 62
     4
370
    15
100
AcDbLine
 10
-33.76509181734631
 20
4.767335151814088
 30
0.0
 11
-33.76509181734631
 21
-4.757664848185907
 31
0.0
  0
LINE
  5
AD
330
1F
100
AcDbEntity
  8
0
  6
Continuous
 62
     4
370
    15
100
AcDbLine
 10
-34.5750918173463
 20
-3.947664848185927
 30
0.0
 11
-34.5750918173463
 21
3.957335151814106
 31
0.0
  0
LINE
  5
AE
330
1F
100
AcDbEntity
  8
0
  6
Continuous
 62
     4
370
    15
100
AcDbLine
 10
7.339367924831516
 20
4.767335151814092
 30
0.0
 11
7.339367924831516
 21
-4.757664848185902
 31
0.0
  0
LINE
  5
AF
330
1F
100
AcDbEntity
  8
0
  6
Continuous
 62
     4
370
    15
100
AcDbLine
 10
8.858908182653703
 20
3.193805151814095
 30
0.0
 11
8.858908182653705
 21
-3.184134848185904
 31
0.0
  0
SPLINE
  5
B0
330
1F
100
AcDbEntity
  8
0
  6
Continuous
 62
     1
370
    15
100
AcDbSpline
210
0.0
220
0.0
230
1.0
 70
     8
 71
     3
 72
     9
 73
     5
 74
     0
 42
0.000000001
 43
0.00000001
 40
0.0
 40
0.0
 40
0.0
 40
0.0
 40
0.8130560457280408
 40
1.0
 40
1.0
 40
1.0
 40
1.0
 10
9.8749081826537
 20
-3.099981064394039
 30
0.0
 10
10.03226168785203
 20
-3.123484846929147
 30
0.0
 10
10.22579509311368
 20
-3.152392795721365
 30
0.0
 10
10.41973792749802
 20
-3.138532115265967
 30
0.0
 10
10.45599436786054
 20
-3.135940944852734
 30
0.0
  0
SPLINE
  5
B1
330
1F
100
AcDbEntity
  8
0
  6
Continuous
 62
     1
370
    15
100
AcDbSpline
210
0.0
220
0.0
230
1.0
 70
     8
 71
     3
 72
    22
 73
    18
 74
     0
 42
0.000000001
 43
0.00000001
 40
0.0
 40
0.0
 40
0.0
 40
0.0
 40
0.032743632360421
 40
0.1032918971940143
 40
0.1719107419418307
 40
0.2425143269037815
 40
0.3111944608928087
 40
0.3818606559818045
 40
0.4506101630006846
 40
0.5213472047936025
 40
0.5901736387038633
 40
0.660989540310012
 40
0.7298971050639825
 40
0.8007960283985891
 40
0.8697924000608369
 40
0.940782103506898
 40
1.0
 40
1.0
 40
1.0
 40
1.0
 10
18.99765930477892
 20
2.667594103946783
 30
0.0
 10
19.12119629857134
 20
2.721619170324041
 30
0.0
 10
19.51090170211381
 20
2.892044721793545
 30
0.0
 10
20.16136102918415
 20
2.993302342008008
 30
0.0
 10
20.95643169233383
 20
2.966219715415397
 30
0.0
 10
21.74628955802874
 20
2.750295675009053
 30
0.0
 10
22.545599641864
 20
2.366725113091128
 30
0.0
 10
23.33971304657108
 20
1.842911589015717
 30
0.0
 10
24.14330301389334
 20
1.203600184591321
 30
0.0
 10
24.94182967275146
 20
0.4994903939966304
 30
0.0
 10
25.7498321975792
 20
-0.2370209691192968
 30
0.0
 10
26.55286246557013
 20
-0.9469464033151732
 30
0.0
 10
27.3654192587691
 20
-1.596989285533234
 30
0.0
 10
28.17300762446978
 20
-2.136302361671757
 30
0.0
 10
28.99030996089513
 20
-2.533525704717034
 30
0.0
 10
29.76407447352218
 20
-2.767777364197214
 30
0.0
 10
30.27122849453191
 20
-2.777075401280415
 30
0.0
 10
30.50188011806424
 20
-2.781304111415916
 30
0.0
  0
SPLINE
  5
B2
330
1F
100
AcDbEntity
  8
0
  6
Continuous
 62
     1
370
    15
100
AcDbSpline
210
0.0
220
0.0
230
1.0
 70
     8
 71
     3
 72
    22
 73
    18
 74
     0
 42
0.000000001
 43
0.00000001
 40
0.0
 40
0.0
 40
0.0
 40
0.0
 40
0.0071330295759054
 40
0.081455025363212
 40
0.1538634105209338
 40
0.2283587879784685
 40
0.3009538917097195
 40
0.3756405060101796
 40
0.448437537707333
 40
0.5233310504571341
 40
0.5963424100658943
 40
0.6714558745172918
 40
0.7446917503271385
 40
0.8200350591892375
 40
0.893516838137602
 40
0.9691118608148991
 40
1.0
 40
1.0
 40
1.0
 40
1.0
 10
38.86260414588821
 20
2.292054281183912
 30
0.0
 10
38.89003797700335
 20
2.305263752781628
 30
0.0
 10
39.20331628119585
 20
2.456108191680505
 30
0.0
 10
39.79700262725358
 20
2.589263781796936
 30
0.0
 10
40.65171266688889
 20
2.65707612614167
 30
0.0
 10
41.50202141457086
 20
2.522067438032777
 30
0.0
 10
42.36301240945512
 20
2.21210491795469
 30
0.0
 10
43.21956522752582
 20
1.749005958661528
 30
0.0
 10
44.08691276794779
 20
1.16016484628079
 30
0.0
 10
44.94998036697885
 20
0.4974399133895297
 30
0.0
 10
45.82393048573292
 20
-0.2013911392911612
 30
0.0
 10
46.69365486920398
 20
-0.8739427631188827
 30
0.0
 10
47.57446996436181
 20
-1.480265303150614
 30
0.0
 10
48.45103624417781
 20
-1.969346978764766
 30
0.0
 10
49.33905016841206
 20
-2.298181831105475
 30
0.0
 10
50.05257558228283
 20
-2.452548698794724
 30
0.0
 10
50.47603215758593
 20
-2.426599322293603
 30
0.0
 10
50.59886646686115
 20
-2.419072048130117
 30
0.0
  0
LINE
  5
B3
330
1F
100
AcDbEntity
  8
0
  6
Continuous
 62
     4
370
    15
100
AcDbLine
 10
9.874908182653686
 20
-0.5810423321067518
 30
0.0
 11
9.874908182653686
 21
-3.099981064394029
 31
0.0
  0
SPLINE
  5
B4
330
1F
100
AcDbEntity
  8
0
  6
Continuous
 62
     1
370
    15
100
AcDbSpline
210
0.0
220
0.0
230
1.0
 70
     8
 71
     3
 72
    20
 73
    16
 74
     0
 42
0.000000001
 43
0.00000001
 40
0.0
 40
0.0
 40
0.0
 40
0.0
 40
0.0012754324867132
 40
0.0899673218460483
 40
0.1812111587686748
 40
0.2701603003221338
 40
0.3616997549326028
 40
0.4503981815201933
 40
0.5416791656327176
 40
0.6301361512633809
 40
0.7211678626315532
 40
0.8094027658343269
 40
0.9002050058529469
 40
0.9882385617022587
 40
0.9999999999999999
 40
0.9999999999999999
 40
0.9999999999999999
 40
0.9999999999999999
 10
53.27603219517069
 20
-2.382188175894585
 30
0.0
 10
53.27194376417334
 20
-2.381934775359219
 30
0.0
 10
52.98355124538778
 20
-2.364060236519406
 30
0.0
 10
52.40222385148002
 20
-2.265379099938167
 30
0.0
 10
51.54235721410102
 20
-1.94496841903556
 30
0.0
 10
50.6753143041286
 20
-1.468678865092086
 30
0.0
 10
49.8181825919221
 20
-0.8803087734637407
 30
0.0
 10
48.95583322713971
 20
-0.2143957802009337
 30
0.0
 10
48.10498860580378
 20
0.4671041952232296
 30
0.0
 10
47.24889018514954
 20
1.126290027643998
 30
0.0
 10
46.40420632215265
 20
1.701145798991519
 30
0.0
 10
45.55412052730707
 20
2.165948585389966
 30
0.0
 10
44.71544485003044
 20
2.455517229325392
 30
0.0
 10
44.11786270574759
 20
2.586265038491794
 30
0.0
 10
43.80587799002043
 20
2.562461856647871
 30
0.0
 10
43.76910872102827
 20
2.559656508975475
 30
0.0
  0
SPLINE
  5
B5
330
1F
100
AcDbEntity
  8
0
  6
Continuous
 62
     1
370
    15
100
AcDbSpline
210
0.0
220
0.0
230
1.0
 70
     8
 71
     3
 72
    22
 73
    18
 74
     0
 42
0.000000001
 43
0.00000001
 40
0.0
 40
0.0
 40
0.0
 40
0.0
 40
0.0632955747836217
 40
0.1319817658262454
 40
0.2026629901824051
 40
0.2712591228722719
 40
0.3418473132706099
 40
0.410359362973716
 40
0.4808605823147769
 40
0.5492967811218736
 40
0.6197195513597173
 40
0.6880864627124047
 40
0.7584375848769298
 40
0.826742098959964
 40
0.8970286423350382
 40
0.9652787411705366
 40
1.0
 40
1.0
 40
1.0
 40
1.0
 10
35.53965978251577
 20
-2.34616183316715
 30
0.0
 10
35.29415859128792
 20
-2.445175446212551
 30
0.0
 10
34.78224791125279
 20
-2.651635242734536
 30
0.0
 10
33.99846545255708
 20
-2.758504381060145
 30
0.0
 10
33.19566719885807
 20
-2.700918581819182
 30
0.0
 10
32.38749301957294
 20
-2.459117996776943
 30
0.0
 10
31.58922693656017
 20
-2.057875506412371
 30
0.0
 10
30.78560187857482
 20
-1.514676152985682
 30
0.0
 10
29.99172523084177
 20
-0.8745139170424221
 30
0.0
 10
29.19251963801385
 20
-0.1669700575825077
 30
0.0
 10
28.40292466599537
 20
0.5500466462452404
 30
0.0
 10
27.60799301223912
 20
1.243871027973814
 30
0.0
 10
26.82259518771319
 20
1.857333694564792
 30
0.0
 10
26.03178975927491
 20
2.365750287538085
 30
0.0
 10
25.25053979188272
 20
2.716033368899857
 30
0.0
 10
24.59737900657271
 20
2.899836201268422
 30
0.0
 10
24.21022122854587
 20
2.893109518109237
 30
0.0
 10
24.07967419368548
 20
2.890841325163839
 30
0.0
  0
SPLINE
  5
B6
330
1F
100
AcDbEntity
  8
0
  6
Continuous
 62
     1
370
    15
100
AcDbSpline
210
0.0
220
0.0
230
1.0
 70
     8
 71
     3
 72
    15
 73
    11
 74
     0
 42
0.000000001
 43
0.00000001
 40
0.0
 40
0.0
 40
0.0
 40
0.0
 40
0.0757635777623797
 40
0.2081492710996418
 40
0.3367835030945453
 40
0.4691459211517737
 40
0.5977655904926592
 40
0.7301125555592676
 40
0.8629950002230528
 40
1.0
 40
1.0
 40
1.0
 40
1.0
 10
15.66185955882856
 20
-2.716018304923508
 30
0.0
 10
15.51454400256261
 20
-2.784037518157715
 30
0.0
 10
15.10981620902351
 20
-2.970910288341245
 30
0.0
 10
14.45659335387877
 20
-3.089208233202199
 30
0.0
 10
13.69513262810634
 20
-3.073483325134302
 30
0.0
 10
12.94236577980248
 20
-2.872715662356927
 30
0.0
 10
12.18421169228651
 20
-2.503773377574586
 30
0.0
 10
11.42643894317396
 20
-1.985153857033909
 30
0.0
 10
10.65417487590325
 20
-1.335877810896095
 30
0.0
 10
10.13729553993213
 20
-0.8352034404605946
 30
0.0
 10
9.8749081826537
 20
-0.5810423321067659
 30
0.0
  0
ELLIPSE
  5
B7
330
1F
100
AcDbEntity
  8
0
  6
Continuous
 62
     1
370
    15
100
AcDbEllipse
 10
49.86540573195515
 20
0.062439476107653
 30
0.0
 11
3.489716671397098
 21
-2.390613943491266
 31
0.0
210
0.0
220
0.0
230
1.0
 40
0.1650258973008266
 41
6.055120281731941
 42
6.154968435033448
  0
ELLIPSE
  5
B8
330
1F
100
AcDbEntity
  8
0
  6
Continuous
 62
     1
370
    15
100
AcDbEllipse
 10
54.24007947249086
 20
-0.0248636993422128
 30
0.0
 11
3.291939602513622
 21
1.674989762953884
 31
0.0
210
0.0
220
0.0
230
1.0
 40
0.5145483491299382
 41
4.152971190293703
 42
4.481257132704545
  0
SPLINE
  5
B9
330
1F
100
AcDbEntity
  8
0
  6
Continuous
 62
     1
370
    15
100
AcDbSpline
210
0.0
220
0.0
230
1.0
 70
     8
 71
     3
 72
    18
 73
    14
 74
     0
 42
0.000000001
 43
0.00000001
 40
0.0
 40
0.0
 40
0.0
 40
0.0
 40
0.0657372415558772
 40
0.1322006244050223
 40
0.2370853829807364
 40
0.3449958342315727
 40
0.4501048633243808
 40
0.5582572435207876
 40
0.6634064614964948
 40
0.7715996940335789
 40
0.8767974994572617
 40
0.9850400925738526
 40
1.0
 40
1.0
 40
1.0
 40
1.0
 10
9.8749081826537
 20
2.052902800787854
 30
0.0
 10
10.03230972685589
 20
1.928272725908128
 30
0.0
 10
10.34885149120961
 20
1.677635897699577
 30
0.0
 10
10.91744758055902
 20
1.17201651282216
 30
0.0
 10
11.58890414834223
 20
0.5323699155896747
 30
0.0
 10
12.35491930065871
 20
-0.2231985457334486
 30
0.0
 10
13.13025429957669
 20
-0.9674330046589346
 30
0.0
 10
13.90084769007868
 20
-1.644731647952183
 30
0.0
 10
14.68031506175796
 20
-2.225251809543141
 30
0.0
 10
15.45450854912171
 20
-2.670694611317737
 30
0.0
 10
16.23784175762008
 20
-2.941047139336967
 30
0.0
 10
16.79502835549435
 20
-3.052622229433648
 30
0.0
 10
17.09641264602998
 20
-3.018925834036043
 30
0.0
 10
17.13300834064855
 20
-3.014834237246023
 30
0.0
  0
SPLINE
  5
BA
330
1F
100
AcDbEntity
  8
0
  6
Continuous
 62
     1
370
    15
100
AcDbSpline
210
0.0
220
0.0
230
1.0
 70
     8
 71
     3
 72
    22
 73
    18
 74
     0
 42
0.000000001
 43
0.00000001
 40
0.0
 40
0.0
 40
0.0
 40
0.0
 40
0.0129348583688286
 40
0.0844767624697921
 40
0.1540907655065251
 40
0.2257165424722115
 40
0.2954202628629775
 40
0.3671377506150914
 40
0.4369419000689733
 40
0.5087620392498207
 40
0.5786787378452364
 40
0.650614018623874
 40
0.720654335839688
 40
0.7927161774686299
 40
0.8628909453820266
 40
0.9350904902708311
 40
0.9999999999999999
 40
0.9999999999999999
 40
0.9999999999999999
 40
0.9999999999999999
 10
25.59498587254984
 20
2.537472194475519
 30
0.0
 10
25.64415759590556
 20
2.561279614453807
 30
0.0
 10
25.96529508931346
 20
2.716764406414977
 30
0.0
 10
26.55296468386045
 20
2.841391881326452
 30
0.0
 10
27.36538924077421
 20
2.883603685952291
 30
0.0
 10
28.17302337508848
 20
2.72832157486664
 30
0.0
 10
28.99027704740854
 20
2.40097200151977
 30
0.0
 10
29.80256133972638
 20
1.923649621707618
 30
0.0
 10
30.62470858274865
 20
1.3209088781285
 30
0.0
 10
31.44185011397978
 20
0.6418147843681563
 30
0.0
 10
32.26903344478251
 20
-0.0799402925123594
 30
0.0
 10
33.09126032078215
 20
-0.7850243592583552
 30
0.0
 10
33.92361872775109
 20
-1.4377238257822
 30
0.0
 10
34.75114826730077
 20
-1.985246254782671
 30
0.0
 10
35.58886795127825
 20
-2.394579979242882
 30
0.0
 10
36.4005598533619
 20
-2.644800866040095
 30
0.0
 10
36.93890854416317
 20
-2.661262140826839
 30
0.0
 10
37.19377099420788
 20
-2.669055158428061
 30
0.0
  0
SPLINE
  5
BB
330
1F
100
AcDbEntity
  8
0
  6
Continuous
 62
     1
370
    15
100
AcDbSpline
210
0.0
220
0.0
230
1.0
 70
     8
 71
     3
 72
    18
 73
    14
 74
     0
 42
0.000000001
 43
0.00000001
 40
0.0
 40
0.0
 40
0.0
 40
0.0
 40
0.0360590395927203
 40
0.1373798949486227
 40
0.2361680634080021
 40
0.3377989568171483
 40
0.4369188250125373
 40
0.5388892562029198
 40
0.6383709339446599
 40
0.7407121566592126
 40
0.8405777143027046
 40
0.9433128723504005
 40
1.0
 40
1.0
 40
1.0
 40
1.0
 10
45.5017665562183
 20
2.155591618363419
 30
0.0
 10
45.60650160105844
 20
2.201769617858215
 30
0.0
 10
46.00552746586496
 20
2.377701334043282
 30
0.0
 10
46.69374011026968
 20
2.507041664630658
 30
0.0
 10
47.57444140067751
 20
2.523650758537431
 30
0.0
 10
48.45106382048635
 20
2.342521688416907
 30
0.0
 10
49.33896946217777
 20
1.987869241571496
 30
0.0
 10
50.22281641621887
 20
1.488571065269331
 30
0.0
 10
51.11811259401836
 20
0.8760742164627966
 30
0.0
 10
52.0095739909839
 20
0.2063731952146294
 30
0.0
 10
52.91251997889878
 20
-0.4769330318075926
 30
0.0
 10
53.68256915827089
 20
-1.025480462417439
 30
0.0
 10
54.1564178161047
 20
-1.313587919951151
 30
0.0
 10
54.32490818265371
 20
-1.416032720253573
 30
0.0
  0
SPLINE
  5
BC
330
1F
100
AcDbEntity
  8
0
  6
Continuous
 62
     1
370
    15
100
AcDbSpline
210
0.0
220
0.0
230
1.0
 70
     8
 71
     3
 72
    12
 73
     8
 74
     0
 42
0.000000001
 43
0.00000001
 40
0.0
 40
0.0
 40
0.0
 40
0.0
 40
0.0041416403363046
 40
0.2921458348598197
 40
0.588436825478677
 40
0.8772763806140054
 40
0.9999999999999999
 40
0.9999999999999999
 40
0.9999999999999999
 40
0.9999999999999999
 10
53.27603219518632
 20
1.410477401830726
 30
0.0
 10
53.27194376490662
 20
1.41306010281132
 30
0.0
 10
52.98355129710645
 20
1.595240416141504
 30
0.0
 10
52.40220227202828
 20
1.929857979259542
 30
0.0
 10
51.54243439036069
 20
2.272797379025788
 30
0.0
 10
50.84659692629393
 20
2.448141538429281
 30
0.0
 10
50.44317748235737
 20
2.436277511139867
 30
0.0
 10
50.3228822340078
 20
2.432739788477618
 30
0.0
  0
SPLINE
  5
BD
330
1F
100
AcDbEntity
  8
0
  6
Continuous
 62
     1
370
    15
100
AcDbSpline
210
0.0
220
0.0
230
1.0
 70
     8
 71
     3
 72
    22
 73
    18
 74
     0
 42
0.000000001
 43
0.00000001
 40
0.0
 40
0.0
 40
0.0
 40
0.0
 40
0.0701335889741341
 40
0.1400589470476513
 40
0.2120172627112495
 40
0.2818102188048222
 40
0.353631822155967
 40
0.4233023303349494
 40
0.4949973885500127
 40
0.5645577326927848
 40
0.6361389259684659
 40
0.7056003569424677
 40
0.7770793385579524
 40
0.8464496947182453
 40
0.9178345923302144
 40
0.9871199164849129
 40
0.9999999999999999
 40
0.9999999999999999
 40
0.9999999999999999
 40
0.9999999999999999
 10
42.18453996896744
 20
-2.215339684679063
 30
0.0
 10
41.91071323002794
 20
-2.322770850758908
 30
0.0
 10
41.36387276042782
 20
-2.537314213238103
 30
0.0
 10
40.53861852292312
 20
-2.645397569577193
 30
0.0
 10
39.71615249174948
 20
-2.582016849827073
 30
0.0
 10
38.888428726985
 20
-2.33418583868292
 30
0.0
 10
38.07118589032638
 20
-1.927182323624058
 30
0.0
 10
37.24857555272895
 20
-1.380379171538748
 30
0.0
 10
36.43635901112518
 20
-0.7406568813747584
 30
0.0
 10
35.61869640517528
 20
-0.0397955756556606
 30
0.0
 10
34.81130126335327
 20
0.6629283106003421
 30
0.0
 10
33.99843666674729
 20
1.333287769762849
 30
0.0
 10
33.19568126735889
 20
1.913617422121848
 30
0.0
 10
32.38746550877468
 20
2.381286202227667
 30
0.0
 10
31.58932486571559
 20
2.676413456292122
 30
0.0
 10
31.00684527251184
 20
2.811364264681945
 30
0.0
 10
30.6959951944873
 20
2.789086692541642
 30
0.0
 10
30.6472669634814
 20
2.785594505284036
 30
0.0
  0
SPLINE
  5
BE
330
1F
100
AcDbEntity
  8
0
  6
Continuous
 62
     1
370
    15
100
AcDbSpline
210
0.0
220
0.0
230
1.0
 70
     8
 71
     3
 72
    23
 73
    19
 74
     0
 42
0.000000001
 43
0.00000001
 40
0.0
 40
0.0
 40
0.0
 40
0.0
 40
0.0149499309543979
 40
0.0812669821764596
 40
0.1495074546450836
 40
0.2157923190403792
 40
0.2839994036264999
 40
0.3502570369682869
 40
0.4184358388718872
 40
0.4846702080928742
 40
0.5528247824527233
 40
0.6190422546516428
 40
0.6871791280070955
 40
0.7533851821030152
 40
0.8215100760310238
 40
0.8877086349536547
 40
0.9558255754658648
 40
1.0
 40
1.0
 40
1.0
 40
1.0
 10
22.29531364575208
 20
-2.591610257064407
 30
0.0
 10
22.23775697200556
 20
-2.621465573550188
 30
0.0
 10
21.92488213708069
 20
-2.783757391493914
 30
0.0
 10
21.35095177699855
 20
-2.926649118551295
 30
0.0
 10
20.58099020092634
 20
-2.990952952277129
 30
0.0
 10
19.80565099786725
 20
-2.860728600068036
 30
0.0
 10
19.0393824914809
 20
-2.562295302184388
 30
0.0
 10
18.26763773307172
 20
-2.103610295935421
 30
0.0
 10
17.50487714159668
 20
-1.520898428899412
 30
0.0
 10
16.73667311489648
 20
-0.8380649970158376
 30
0.0
 10
15.9773302739201
 20
-0.1072515124709204
 30
0.0
 10
15.21257397181343
 20
0.6414010669127027
 30
0.0
 10
14.45654869337837
 20
1.351163388408928
 30
0.0
 10
13.69514770337504
 20
1.992384113348558
 30
0.0
 10
12.94235085270346
 20
2.518929142550776
 30
0.0
 10
12.18425562625838
 20
2.900187052507683
 30
0.0
 10
11.51683078916913
 20
3.115116350411112
 30
0.0
 10
11.09812603533179
 20
3.120213743893593
 30
0.0
 10
10.93341130822131
 20
3.122219013164474
 30
0.0
  0
ELLIPSE
  5
BF
330
1F
100
AcDbEntity
  8
0
  6
Continuous
 62
     1
370
    15
100
AcDbEllipse
 10
49.86540573195515
 20
-0.0421243236022281
 30
0.0
 11
3.435341307497886
 21
2.170924905872429
 31
0.0
210
0.0
220
0.0
230
1.0
 40
0.3360391427915319
 41
5.607860990340386
 42
5.833148446516264
  0
LINE
  5
C0
330
1F
100
AcDbEntity
  8
0
  6
Continuous
 62
     1
370
    15
100
AcDbLine
 10
53.00276132469995
 20
0.9306123483735982
 30
0.0
 11
54.3249081826537
 21
0.0048351518140966
 31
0.0
  0
LINE
  5
C1
330
1F
100
AcDbEntity
  8
0
  6
Continuous
 62
     1
370
    15
100
AcDbLine
 10
54.3249081826537
 20
0.0048351518140964
 30
0.0
 11
54.3249081826537
 21
-1.416032720253446
 31
0.0
  0
SPLINE
  5
C2
330
1F
100
AcDbEntity
  8
0
  6
Continuous
 62
     1
370
    15
100
AcDbSpline
210
0.0
220
0.0
230
1.0
 70
     8
 71
     3
 72
    23
 73
    19
 74
     0
 42
0.000000001
 43
0.00000001
 40
0.0
 40
0.0
 40
0.0
 40
0.0
 40
0.0018558738081581
 40
0.0691972446951216
 40
0.1384884331874378
 40
0.2058555523330637
 40
0.2751729141489174
 40
0.3425711623553177
 40
0.4119201485627242
 40
0.4793565520211618
 40
0.5487443653415829
 40
0.6162264980037162
 40
0.685660919237423
 40
0.7531963828243525
 40
0.8226852507705921
 40
0.8902810359402186
 40
0.959831525500328
 40
1.0
 40
1.0
 40
1.0
 40
1.0
 10
12.34097704581475
 20
2.798899039134964
 30
0.0
 10
12.34795643518478
 20
2.802501947208293
 30
0.0
 10
12.60818669003172
 20
2.936838296192942
 30
0.0
 10
13.1303683837426
 20
3.056257583523178
 30
0.0
 10
13.9008194997161
 20
3.123621160120984
 30
0.0
 10
14.68031635683463
 20
2.98827669440356
 30
0.0
 10
15.45453281441509
 20
2.684980979475687
 30
0.0
 10
16.23774567655844
 20
2.220292535247017
 30
0.0
 10
17.01567884199722
 20
1.631820055424598
 30
0.0
 10
17.80276236562987
 20
0.9444131042451696
 30
0.0
 10
18.58451775169284
 20
0.2112163989629379
 30
0.0
 10
19.37558291360982
 20
-0.5358237635790494
 30
0.0
 10
20.16130302760579
 20
-1.239146604828124
 30
0.0
 10
20.95645083592369
 20
-1.86702343372686
 30
0.0
 10
21.74627196589447
 20
-2.373452818165774
 30
0.0
 10
22.54565014633172
 20
-2.725806268231588
 30
0.0
 10
23.2329476682096
 20
-2.906430450284633
 30
0.0
 10
23.65939902352388
 20
-2.892574923429903
 30
0.0
 10
23.81552427076883
 20
-2.88750236936495
 30
0.0
  0
SPLINE
  5
C3
330
1F
100
AcDbEntity
  8
0
  6
Continuous
 62
     1
370
    15
100
AcDbSpline
210
0.0
220
0.0
230
1.0
 70
     8
 71
     3
 72
    22
 73
    18
 74
     0
 42
0.000000001
 43
0.00000001
 40
0.0
 40
0.0
 40
0.0
 40
0.0
 40
0.0037036634356538
 40
0.0764984996821845
 40
0.1473757294252614
 40
0.2202986387991006
 40
0.2913119257926369
 40
0.3643741838441182
 40
0.4355324878286166
 40
0.5087435207375344
 40
0.5800542174138196
 40
0.6534212339233467
 40
0.7248992281970423
 40
0.7984373985584984
 40
0.8700997122186912
 40
0.9438266621798272
 40
1.0
 40
1.0
 40
1.0
 40
1.0
 10
32.21902649045396
 20
2.416901456554007
 30
0.0
 10
32.2331947584689
 20
2.42392179601328
 30
0.0
 10
32.52583777667743
 20
2.568925640240616
 30
0.0
 10
33.09139065029734
 20
2.69988103827412
 30
0.0
 10
33.92358108327681
 20
2.775244078330151
 30
0.0
 10
34.75116575255957
 20
2.647917693393864
 30
0.0
 10
35.58883554843354
 20
2.346459233526551
 30
0.0
 10
36.42185343327055
 20
1.890645686107522
 30
0.0
 10
37.2650599070502
 20
1.305679390632413
 30
0.0
 10
38.10364775335464
 20
0.6411058344607579
 30
0.0
 10
38.9525817269452
 20
-0.0679641343252973
 30
0.0
 10
39.7968760053489
 20
-0.7608178404062557
 30
0.0
 10
40.65175001778104
 20
-1.399755849686247
 30
0.0
 10
41.50200125735056
 20
-1.931577407101017
 30
0.0
 10
42.36305556147559
 20
-2.319958087495108
 30
0.0
 10
43.15756970529254
 20
-2.540970129609289
 30
0.0
 10
43.67107243099095
 20
-2.542383261522613
 30
0.0
 10
43.8931286140442
 20
-2.542994348208466
 30
0.0
  0
SPLINE
  5
C4
330
1F
100
AcDbEntity
  8
0
  6
Continuous
 62
     1
370
    15
100
AcDbSpline
210
0.0
220
0.0
230
1.0
 70
     8
 71
     3
 72
    10
 73
     6
 74
     0
 42
0.000000001
 43
0.00000001
 40
0.0
 40
0.0
 40
0.0
 40
0.0
 40
0.3616392205206213
 40
0.7730126698750527
 40
1.0
 40
1.0
 40
1.0
 40
1.0
 10
52.10206135331013
 20
2.024956676799575
 30
0.0
 10
52.36937850708512
 20
2.121161502624428
 30
0.0
 10
52.94077545469914
 20
2.326801668419149
 30
0.0
 10
53.68258355189099
 20
2.412831764290585
 30
0.0
 10
54.15642159165972
 20
2.381342116748593
 30
0.0
 10
54.32490818265371
 20
2.370145076999438
 30
0.0
  0
SPLINE
  5
C5
330
1F
100
AcDbEntity
  8
0
  6
Continuous
 62
     1
370
    15
100
AcDbSpline
210
0.0
220
0.0
230
1.0
 70
     8
 71
     3
 72
    22
 73
    18
 74
     0
 42
0.000000001
 43
0.00000001
 40
0.0
 40
0.0
 40
0.0
 40
0.0
 40
0.0605811724063574
 40
0.1320186072029828
 40
0.2055353780823512
 40
0.2767934601817452
 40
0.3501249111063982
 40
0.4212203860546226
 40
0.4943839072575404
 40
0.5653263668663313
 40
0.6383319432521518
 40
0.7091304706845116
 40
0.7819873415801796
 40
0.8526518137074611
 40
0.9253702651417177
 40
0.9959107603273147
 40
1.0
 40
1.0
 40
1.0
 40
1.0
 10
48.80964898238248
 20
-2.077185134556077
 30
0.0
 10
48.57178918337305
 20
-2.175963861750579
 30
0.0
 10
48.05344465276254
 20
-2.391222653674077
 30
0.0
 10
47.24892576130262
 20
-2.52267180099614
 30
0.0
 10
46.40418912513004
 20
-2.493275728661378
 30
0.0
 10
45.55415378696153
 20
-2.275064076020877
 30
0.0
 10
44.71532668130372
 20
-1.893204190781615
 30
0.0
 10
43.87112575065048
 20
-1.366838786189176
 30
0.0
 10
43.03791199587072
 20
-0.7432605262514208
 30
0.0
 10
42.19938857364195
 20
-0.0554934179454107
 30
0.0
 10
41.37162647569856
 20
0.6354654290837951
 30
0.0
 10
40.53859458524524
 20
1.294039633044271
 30
0.0
 10
39.71616725004134
 20
1.860578313935359
 30
0.0
 10
38.8883939261589
 20
2.312938689025223
 30
0.0
 10
38.07131293785609
 20
2.585640754336676
 30
0.0
 10
37.50936076386834
 20
2.706281628042689
 30
0.0
 10
37.22555517752647
 20
2.681221917963412
 30
0.0
 10
37.21000441796392
 20
2.679848803603074
 30
0.0
  0
SPLINE
  5
C6
330
1F
100
AcDbEntity
  8
0
  6
Continuous
 62
     1
370
    15
100
AcDbSpline
210
0.0
220
0.0
230
1.0
 70
     8
 71
     3
 72
    22
 73
    18
 74
     0
 42
0.000000001
 43
0.00000001
 40
0.0
 40
0.0
 40
0.0
 40
0.0
 40
0.0438952597990809
 40
0.1114202017262562
 40
0.1809049180119571
 40
0.2483682311200678
 40
0.3177891639333096
 40
0.3851987319422615
 40
0.4545640057886536
 40
0.5219276563294862
 40
0.5912453685082019
 40
0.6585702282286231
 40
0.7278477390881078
 40
0.7951399228442494
 40
0.8643835384314856
 40
0.9316480773086145
 40
1.0
 40
1.0
 40
1.0
 40
1.0
 10
28.90339409896166
 20
-2.467101877584219
 30
0.0
 10
28.73400442719235
 20
-2.54299614434198
 30
0.0
 10
28.30403929006207
 20
-2.735640055113254
 30
0.0
 10
27.60803828533997
 20
-2.860013922182202
 30
0.0
 10
26.82257957627509
 20
-2.84520409772458
 30
0.0
 10
26.0318076048178
 20
-2.642886798353551
 30
0.0
 10
25.25048305941476
 20
-2.277312772370216
 30
0.0
 10
24.46371916920399
 20
-1.762399265715404
 30
0.0
 10
23.68634847826547
 20
-1.139395723989324
 30
0.0
 10
22.90348179523053
 20
-0.4356003411721386
 30
0.0
 10
22.12993547340701
 20
0.2936885550028202
 30
0.0
 10
21.35086137901871
 20
1.016631935371185
 30
0.0
 10
20.58101538457954
 20
1.676493267124301
 30
0.0
 10
19.80563876993226
 20
2.245819231673784
 30
0.0
 10
19.03940617882002
 20
2.675826331613264
 30
0.0
 10
18.27079469619143
 20
2.963641203496792
 30
0.0
 10
17.76327514171492
 20
3.006169363082141
 30
0.0
 10
17.50748069795251
 20
3.02760393999533
 30
0.0
  0
LINE
  5
C7
330
1F
100
AcDbEntity
  8
0
  6
Continuous
 62
     1
370
    15
100
AcDbLine
 10
54.3249081826537
 20
2.386085151814097
 30
0.0
 11
54.3249081826537
 21
2.370145076999226
 31
0.0
  0
SPLINE
  5
C8
330
1F
100
AcDbEntity
  8
0
  6
Continuous
 62
     4
370
    15
100
AcDbSpline
210
0.0
220
0.0
230
1.0
 70
     8
 71
     3
 72
     8
 73
     4
 74
     0
 42
0.000000001
 43
0.00000001
 40
0.0
 40
0.0
 40
0.0
 40
0.0
 40
1.0
 40
1.0
 40
1.0
 40
1.0
 10
8.984908182672553
 20
2.659606052855465
 30
0.0
 10
9.281887581846942
 20
2.487695321298576
 30
0.0
 10
9.576644564108166
 20
2.284097450284788
 30
0.0
 10
9.874908182653643
 20
2.0529028007879
 30
0.0
  0
LINE
  5
C9
330
1F
100
AcDbEntity
  8
0
  6
Continuous
 62
     4
370
    15
100
AcDbLine
 10
8.984908182653697
 20
0.311686609186305
 30
0.0
 11
8.984908182653697
 21
2.65960605286638
 31
0.0
  0
SPLINE
  5
CA
330
1F
100
AcDbEntity
  8
0
  6
Continuous
 62
     4
370
    15
100
AcDbSpline
210
0.0
220
0.0
230
1.0
 70
     8
 71
     3
 72
     8
 73
     4
 74
     0
 42
0.000000001
 43
0.00000001
 40
0.0
 40
0.0
 40
0.0
 40
0.0
 40
1.0
 40
1.0
 40
1.0
 40
1.0
 10
9.874908182653686
 20
-0.5810423321067518
 30
0.0
 10
9.576578387129189
 20
-0.2883311439096227
 30
0.0
 10
9.281919952012842
 20
0.0112311417858944
 30
0.0
 10
8.984908182653689
 20
0.3116866091862696
 30
0.0
  0
SPLINE
  5
CB
330
1F
100
AcDbEntity
  8
0
  6
Continuous
 62
     4
370
    15
100
AcDbSpline
210
0.0
220
0.0
230
1.0
 70
     8
 71
     3
 72
     8
 73
     4
 74
     0
 42
0.000000001
 43
0.00000001
 40
0.0
 40
0.0
 40
0.0
 40
0.0
 40
1.0
 40
1.0
 40
1.0
 40
1.0
 10
8.984908182672553
 20
-2.846496784658812
 30
0.0
 10
9.281887581846943
 20
-2.970557992111127
 30
0.0
 10
9.576644564108168
 20
-3.055546067104846
 30
0.0
 10
9.874908182653645
 20
-3.099981064394033
 30
0.0
  0
LINE
  5
CC
330
1F
100
AcDbEntity
  8
0
  6
Continuous
 62
     4
370
    15
100
AcDbLine
 10
8.984908182653697
 20
-3.180185893602703
 30
0.0
 11
8.984908182653697
 21
-2.846496784650935
 31
0.0
  0
LINE
  5
CD
330
1F
100
AcDbEntity
  8
0
  6
Continuous
 62
     1
370
    15
100
AcDbLine
 10
9.040055785884745
 20
-2.865935754196756
 30
0.0
 11
8.984908182653689
 21
-2.894068847071848
 31
0.0
  0
SPLINE
  5
CE
330
1F
100
AcDbEntity
  8
0
  6
Continuous
 62
     1
370
    15
100
AcDbSpline
210
0.0
220
0.0
230
1.0
 70
     8
 71
     3
 72
    11
 73
     7
 74
     0
 42
0.000000001
 43
0.00000001
 40
0.0
 40
0.0
 40
0.0
 40
0.0
 40
0.1830231605284389
 40
0.5560511711643265
 40
0.8279419074032083
 40
0.9999999999999999
 40
0.9999999999999999
 40
0.9999999999999999
 40
0.9999999999999999
 10
52.72540835490691
 20
-1.840792869007658
 30
0.0
 10
52.77708702735117
 20
-1.778019456601053
 30
0.0
 10
52.93409440419833
 20
-1.587304634575834
 30
0.0
 10
53.22838314181809
 20
-1.330235297426806
 30
0.0
 10
53.54587985261109
 20
-1.127263795392221
 30
0.0
 10
53.70416535784216
 20
-1.082275638066262
 30
0.0
 10
53.7655109462227
 20
-1.064839897647146
 30
0.0
  0
SPLINE
  5
CF
330
1F
100
AcDbEntity
  8
0
  6
Continuous
 62
     1
370
    15
100
AcDbSpline
210
0.0
220
0.0
230
1.0
 70
     8
 71
     3
 72
     8
 73
     4
 74
     0
 42
0.000000001
 43
0.00000001
 40
0.0
 40
0.0
 40
0.0
 40
0.0
 40
1.0
 40
1.0
 40
1.0
 40
1.0
 10
52.72540835490691
 20
-1.840792869007664
 30
0.0
 10
52.91151475949407
 20
-2.02151896027022
 30
0.0
 10
53.09406498206933
 20
-2.201889038121587
 30
0.0
 10
53.2760321951808
 20
-2.382188175904617
 30
0.0
  0
SPLINE
  5
D0
330
1F
100
AcDbEntity
  8
0
  6
Continuous
 62
     1
370
    15
100
AcDbSpline
210
0.0
220
0.0
230
1.0
 70
     8
 71
     3
 72
    14
 73
    10
 74
     0
 42
0.000000001
 43
0.00000001
 40
0.0
 40
0.0
 40
0.0
 40
0.0
 40
0.0710308347109489
 40
0.2444057270412547
 40
0.4185796222466517
 40
0.5724396015426751
 40
0.7197447327743863
 40
0.926890740569062
 40
1.0
 40
1.0
 40
1.0
 40
1.0
 10
53.15603246946309
 20
1.179551857400751
 30
0.0
 10
53.19392979803697
 20
1.159642590963664
 30
0.0
 10
53.32432843661012
 20
1.091137993513618
 30
0.0
 10
53.58346496126772
 20
1.114749391345568
 30
0.0
 10
53.87280272554214
 20
1.238773597348416
 30
0.0
 10
54.09758038544972
 20
1.477797033979278
 30
0.0
 10
54.25830996556621
 20
1.805316633039775
 30
0.0
 10
54.31882961502981
 20
2.115841610869258
 30
0.0
 10
54.32365055902751
 20
2.31753102924691
 30
0.0
 10
54.3249081826537
 20
2.370145076999226
 30
0.0
  0
LINE
  5
D1
330
1F
100
AcDbEntity
  8
0
  6
Continuous
 62
     1
370
    15
100
AcDbLine
 10
54.3249081826537
 20
0.0048351518141037
 30
0.0
 11
54.3249081826537
 21
2.370145076999226
 31
0.0
  0
LINE
  5
D2
330
1F
100
AcDbEntity
  8
0
  6
Continuous
 62
     1
370
    15
100
AcDbLine
 10
54.3249081826537
 20
-1.416032720253566
 30
0.0
 11
54.3249081826537
 21
-2.057387840947586
 31
0.0
  0
LINE
  5
D3
330
1F
100
AcDbEntity
  8
0
  6
Continuous
 62
     4
370
    15
100
AcDbLine
 10
9.874908182653686
 20
3.161962787873366
 30
0.0
 11
9.874908182653686
 21
2.052902800787896
 31
0.0
  0
LINE
  5
D4
330
1F
100
AcDbEntity
  8
중심선
100
AcDbLine
 10
-37.57509181734629
 20
0.0048351518140911
 30
0.0
 11
57.32490428620234
 21
0.0048351518140911
 31
0.0
  0
CIRCLE
  5
D5
330
1F
100
AcDbEntity
  8
외형선
100
AcDbCircle
 10
-0.0000000000000013
 20
-0.0000000000000039
 30
0.0
 40
3.000000000000004
  0
INSERT
  5
D6
330
1F
100
AcDbEntity
  8
0
  6
Continuous
 62
     7
100
AcDbBlockReference
 66
     1
  2
블럭10
 10
-16.63945112874702
 20
-52.04717430164393
 30
0.0
  0
ATTRIB
  5
D7
330
D6
100
AcDbEntity
  8
FORMAT
 62
     2
100
AcDbText
 10
-25.8207464174883
 20
-49.97180738881174
 30
0.0
 40
4.233333333333333
  1
E5077112 [ 3 FLUTE ]
 41
0.75
  7
SLDTEXTSTYLE0
 11
-25.8207464174883
 21
-52.08847405547841
 31
0.0
100
AcDbAttribute
  2
AUTOATTR0
 70
     0
 74
     1
  0
SEQEND
  5
D8
330
D6
100
AcDbEntity
  8
0
  6
Continuous
 62
     7
  0
HATCH
  5
D9
330
1F
100
AcDbEntity
  8
중심선
100
AcDbHatch
 10
0.0
 20
0.0
 30
0.0
210
0.0
220
0.0
230
1.0
  2
SOLID
 70
     1
 71
     0
 91
        1
 92
        0
 93
        4
 72
     1
 10
-10.92454182436617
 20
-35.8
 11
-14.37081706820345
 21
-35.8
 72
     1
 10
-14.37081706820345
 20
-35.8
 11
-16.49904692740747
 21
-38.33632558057259
 72
     1
 10
-16.49904692740747
 20
-38.33632558057259
 11
-13.05273859845704
 21
-38.3362861512701
 72
     1
 10
-13.05273859845704
 20
-38.3362861512701
 11
-10.92454182436617
 21
-35.8
 97
        0
 75
     0
 76
     1
 98
        1
 10
0.0
 20
0.0
  0
HATCH
  5
DA
330
1F
100
AcDbEntity
  8
중심선
100
AcDbHatch
 10
0.0
 20
0.0
 30
0.0
210
0.0
220
0.0
230
1.0
  2
SOLID
 70
     1
 71
     0
 91
        1
 92
        0
 93
        4
 72
     1
 10
-5.911777833330217
 20
-35.8
 11
-9.358053077167499
 21
-35.8
 72
     1
 10
-9.358053077167499
 20
-35.8
 11
-13.88919108552489
 21
-41.20000000000002
 72
     1
 10
-13.88919108552489
 20
-41.20000000000002
 11
-10.44291584168761
 21
-41.20000000000002
 72
     1
 10
-10.44291584168761
 20
-41.20000000000002
 11
-5.911777833330217
 21
-35.8
 97
        0
 75
     0
 76
     1
 98
        1
 10
0.0
 20
0.0
  0
HATCH
  5
DB
330
1F
100
AcDbEntity
  8
중심선
100
AcDbHatch
 10
0.0
 20
0.0
 30
0.0
210
0.0
220
0.0
230
1.0
  2
SOLID
 70
     1
 71
     0
 91
        1
 92
        0
 93
        4
 72
     1
 10
-0.8990138422943217
 20
-35.80000000000003
 11
-4.345289086131437
 21
-35.8
 72
     1
 10
-4.345289086131437
 20
-35.8
 11
-11.39372598802069
 21
-44.20000000000002
 72
     1
 10
-11.39372598802069
 20
-44.20000000000002
 11
-7.947450744183405
 21
-44.20000000000002
 72
     1
 10
-7.947450744183405
 20
-44.20000000000002
 11
-0.8990138422943215
 21
-35.80000000000003
 97
        0
 75
     0
 76
     1
 98
        1
 10
0.0
 20
0.0
  0
HATCH
  5
DC
330
1F
100
AcDbEntity
  8
중심선
100
AcDbHatch
 10
0.0
 20
0.0
 30
0.0
210
0.0
220
0.0
230
1.0
  2
SOLID
 70
     1
 71
     0
 91
        1
 92
        0
 93
        6
 72
     3
 10
3.900876588717877
 20
-40.00000000005127
 11
3.960054785062284
 21
1.540850780301639E-10
 40
0.3939339440162633
 50
17.09539180608433
 51
320.0019657685079
 73
     0
 72
     1
 10
5.583876244418473
 20
-38.5878940046383
 11
7.889178118119511
 21
-36.65356729459038
 72
     3
 10
3.900876588665031
 20
-40.00000000000015
 11
6.600054785286829
 21
-1.249000902703301E-13
 40
0.6363583540795982
 50
39.99873849337408
 51
368.4976242363725
 73
     1
 72
     1
 10
10.32620908056564
 20
-39.03999999993002
 11
2.580943895500953
 21
-39.03999999992999
 72
     1
 10
2.580943895500953
 20
-39.03999999992999
 11
2.58091885105502
 21
-40.95999999992991
 72
     1
 10
2.58091885105502
 20
-40.95999999992991
 11
7.022298620527057
 21
-40.95999999992988
 97
        0
 75
     0
 76
     1
 98
        1
 10
0.0
 20
0.0
  0
POINT
  5
DD
330
1F
100
AcDbEntity
  8
치수문자_일반주서
100
AcDbPoint
 10
-0.0000000000000013
 20
-0.0000000000000039
 30
0.0
  0
DIMENSION
  5
DE
330
1F
100
AcDbEntity
  8
치수문자_일반주서
100
AcDbDimension
  2
_D
 10
9.874908182653684
 20
41.79853029772466
 30
0.0
 11
32.09990818265369
 21
41.79853029772466
 31
0.0
 70
   160
  1
<>
 71
     2
 42
44.45000000000002
  3
SLDDIMSTYLE0
100
AcDbAlignedDimension
 13
54.3249081826537
 23
2.370145076999226
 33
0.0
 14
9.874908182653684
 24
3.161962787873366
 34
0.0
 50
-0.000000000000005
100
AcDbRotatedDimension
1001
ACAD
1000
DSTYLE
1002
{
1070
   171
1070
     6
1070
   273
1070
     7
1002
}
  0
DIMENSION
  5
F4
330
1F
100
AcDbEntity
  8
치수문자_일반주서
100
AcDbDimension
  2
_D_1
 10
-34.5750918173463
 20
58.14659252549421
 30
0.0
 11
13.25916706431774
 21
58.14659252549421
 31
0.0
 70
   160
  1
<>
 71
     2
 42
88.9
  3
SLDDIMSTYLE1
100
AcDbAlignedDimension
 13
54.3249081826537
 23
2.370145076999226
 33
0.0
 14
-34.5750918173463
 24
3.957335151814108
 34
0.0
 50
0.0000000000000046
100
AcDbRotatedDimension
1001
ACAD
1000
DSTYLE
1002
{
1070
   171
1070
     6
1070
   273
1070
     7
1002
}
  0
DIMENSION
  5
108
330
1F
100
AcDbEntity
  8
치수문자_일반주서
100
AcDbDimension
  2
_D_2
 10
-47.57509181734631
 20
-4.757664848185954
 30
0.0
 11
-47.57509181734633
 21
-1.035359297548707
 31
0.0
 70
   160
  1
%%c<>
 71
     2
 42
9.524999999999995
  3
SLDDIMSTYLE0
100
AcDbAlignedDimension
 13
-33.76509181734631
 23
4.767335151814089
 33
0.0
 14
-33.76509181734631
 24
-4.757664848185907
 34
0.0
 50
90.0000000000002
100
AcDbRotatedDimension
1001
ACAD
1000
DSTYLE
1002
{
1070
   171
1070
     6
1070
   273
1070
     7
1002
}
  0
INSERT
  5
122
330
1F
100
AcDbEntity
  8
외형선
100
AcDbBlockReference
  2
SW_DOWELSYMBOL_0
 10
-0.0000000000000013
 20
-0.0000000000000039
 30
0.0
  0
DIMENSION
  5
14A
102
{ACAD_REACTORS
102
}
102
{ACAD_XDICTIONARY
360
14B
102
}
330
1F
100
AcDbEntity
  8
치수문자_일반주서
100
AcDbDimension
  2
*D6
 10
70.52118958221199
 20
-2.37641484818591
 30
0.0
 11
70.52118958221199
 21
22.9900851518141
 31
0.0
 70
   160
  1
{%%c<>[]}
 71
     5
 42
4.762500000000006
  3
SLDDIMSTYLE0
100
AcDbAlignedDimension
 13
54.3249081826537
 23
2.386085151814097
 33
0.0
 14
54.32490818265369
 24
-2.376414848185909
 34
0.0
 50
90.0
100
AcDbRotatedDimension
1001
ACAD
1000
DSTYLE
1002
{
1070
   283
1070
     1
1070
   170
1070
     1
1070
   171
1070
     6
1070
   273
1070
     7
1002
}
  0
DIMENSION
  5
15E
102
{ACAD_REACTORS
102
}
102
{ACAD_XDICTIONARY
360
15F
102
}
330
1F
100
AcDbEntity
  8
치수문자_일반주서
100
AcDbDimension
  2
*D7
 10
-33.76509181734631
 20
4.767335151814089
 30
0.0
 11
31.5009757616936
 21
-5.853053914528053
 31
0.0
 70
    34
  1
<>
 71
     5
 42
0.0174532925199436
  3
SLDDIMSTYLE0
100
AcDb2LineAngularDimension
 13
10.93378242133636
 23
3.143480069286342
 33
0.0
 14
9.874908182653686
 24
3.161962787873366
 34
0.0
 15
7.339367924831516
 25
4.767335151814094
 35
0.0
 16
34.59840469354504
 26
4.088422235808111
 36
0.0
1001
ACAD
1000
DSTYLE
1002
{
1070
   171
1070
     6
1070
   273
1070
     7
1002
}
  0
ENDSEC
  0
SECTION
  2
OBJECTS
  0
DICTIONARY
  5
C
330
0
100
AcDbDictionary
281
     1
  3
ACAD_GROUP
350
D
  3
ACAD_IMAGE_VARS
350
146
  3
ACAD_LAYOUT
350
1A
  3
ACAD_MLINESTYLE
350
17
  3
ACAD_PLOTSETTINGS
350
19
  3
ACAD_PLOTSTYLENAME
350
E
  3
ACAD_SCALELIST
350
47
  3
APPDATA
350
144
  3
DWGPROPS
350
172
  0
DICTIONARY
  5
14B
330
14A
100
AcDbDictionary
280
     1
281
     1
  0
DICTIONARY
  5
15F
330
15E
100
AcDbDictionary
280
     1
281
     1
  0
DICTIONARY
  5
D
102
{ACAD_REACTORS
330
C
102
}
330
C
100
AcDbDictionary
281
     1
  0
RASTERVARIABLES
  5
146
102
{ACAD_REACTORS
330
C
102
}
330
C
100
AcDbRasterVariables
 90
        0
 70
     1
 71
     1
 72
     1
  0
DICTIONARY
  5
1A
102
{ACAD_REACTORS
330
C
102
}
330
C
100
AcDbDictionary
281
     1
  3
Layout1
350
1E
  3
Layout2
350
26
  3
Model
350
22
  0
DICTIONARY
  5
17
102
{ACAD_REACTORS
330
C
102
}
330
C
100
AcDbDictionary
281
     1
  3
Standard
350
18
  0
DICTIONARY
  5
19
102
{ACAD_REACTORS
330
C
102
}
330
C
100
AcDbDictionary
281
     1
  0
ACDBDICTIONARYWDFLT
  5
E
102
{ACAD_REACTORS
330
C
102
}
330
C
100
AcDbDictionary
281
     1
  3
Normal
350
F
100
AcDbDictionaryWithDefault
340
F
  0
DICTIONARY
  5
47
102
{ACAD_REACTORS
330
C
102
}
330
C
100
AcDbDictionary
281
     1
  3
A0
350
48
  3
A1
350
49
  3
A2
350
4A
  3
A3
350
4B
  3
A4
350
4C
  3
A5
350
4D
  3
A6
350
4E
  3
A7
350
4F
  3
A8
350
50
  3
A9
350
51
  3
B0
350
52
  3
B1
350
53
  3
B2
350
54
  3
B3
350
55
  3
B4
350
56
  3
B5
350
57
  3
B6
350
58
  3
B7
350
59
  3
B8
350
5A
  3
B9
350
5B
  3
C0
350
5C
  3
C1
350
5D
  3
C2
350
5E
  3
C3
350
5F
  3
C4
350
60
  3
C5
350
61
  3
C6
350
62
  3
C7
350
63
  3
C8
350
64
  3
C9
350
65
  3
D0
350
66
  3
D1
350
67
  3
D2
350
68
  0
DICTIONARY
  5
144
102
{ACAD_REACTORS
330
C
102
}
330
C
100
AcDbDictionary
281
     1
  0
XRECORD
  5
172
102
{ACAD_REACTORS
330
C
102
}
330
C
100
AcDbXrecord
280
     1
  1
DWGPROPS COOKIE
  2

  3

  4

  6

  7

  8
12015048
  9

300
=
301
=
302
=
303
=
304
=
305
=
306
=
307
=
308
=
309
=
 40
0.0
 41
2458333.347889792
 42
2458340.060679583
  1

 90
        0
  0
LAYOUT
  5
1E
102
{ACAD_REACTORS
330
1A
102
}
330
1A
100
AcDbPlotSettings
  1

  2
none_device
  4

  6

 40
0.0
 41
0.0
 42
0.0
 43
0.0
 44
0.0
 45
0.0
 46
0.0
 47
0.0
 48
0.0
 49
0.0
140
0.0
141
0.0
142
1.0
143
1.0
 70
   688
 72
     1
 73
     0
 74
     5
  7

 75
    16
147
1.0
148
0.0
149
0.0
100
AcDbLayout
  1
Layout1
 70
     1
 71
     1
 10
0.0
 20
0.0
 11
420.0
 21
297.0
 12
0.0
 22
0.0
 32
0.0
 14
1.000000000000000E+20
 24
1.000000000000000E+20
 34
1.000000000000000E+20
 15
-1.000000000000000E+20
 25
-1.000000000000000E+20
 35
-1.000000000000000E+20
146
0.0
 13
0.0
 23
0.0
 33
0.0
 16
1.0
 26
0.0
 36
0.0
 17
0.0
 27
1.0
 37
0.0
 76
     0
330
1B
  0
LAYOUT
  5
26
102
{ACAD_REACTORS
330
1A
102
}
330
1A
100
AcDbPlotSettings
  1

  2
none_device
  4

  6

 40
0.0
 41
0.0
 42
0.0
 43
0.0
 44
0.0
 45
0.0
 46
0.0
 47
0.0
 48
0.0
 49
0.0
140
0.0
141
0.0
142
1.0
143
1.0
 70
   688
 72
     1
 73
     0
 74
     5
  7

 75
    16
147
1.0
148
0.0
149
0.0
100
AcDbLayout
  1
Layout2
 70
     1
 71
     2
 10
0.0
 20
0.0
 11
0.0
 21
0.0
 12
0.0
 22
0.0
 32
0.0
 14
0.0
 24
0.0
 34
0.0
 15
0.0
 25
0.0
 35
0.0
146
0.0
 13
0.0
 23
0.0
 33
0.0
 16
1.0
 26
0.0
 36
0.0
 17
0.0
 27
1.0
 37
0.0
 76
     0
330
23
  0
LAYOUT
  5
22
102
{ACAD_REACTORS
330
1A
102
}
330
1A
100
AcDbPlotSettings
  1

  2
none_device
  4
ANSI_A_(11.00_x_8.50_Inches)
  6

 40
6.35
 41
19.05
 42
6.35000508
 43
19.05000254
 44
279.4
 45
215.9
 46
130.6698205506549
 47
103.9197146583791
 48
0.0
 49
0.0
140
0.0
141
0.0
142
0.0914796403028641
143
1.0
 70
  1696
 72
     0
 73
     0
 74
     0
  7

 75
     0
147
0.0235690232323232
148
0.0
149
0.0
100
AcDbLayout
  1
Model
 70
     1
 71
     0
 10
0.0
 20
0.0
 11
420.0
 21
297.0
 12
0.0
 22
0.0
 32
0.0
 14
-51.95009181734637
 24
-49.97180738881174
 34
0.0
 15
71.07152291554533
 25
62.52159252549421
 35
0.0
146
0.0
 13
0.0
 23
0.0
 33
0.0
 16
1.0
 26
0.0
 36
0.0
 17
0.0
 27
1.0
 37
0.0
 76
     0
330
1F
331
29
  0
MLINESTYLE
  5
18
102
{ACAD_REACTORS
330
17
102
}
330
17
100
AcDbMlineStyle
  2
Standard
 70
     0
  3

 62
   256
 51
90.0
 52
90.0
 71
     2
 49
0.5
 62
   256
  6
BYLAYER
 49
-0.5
 62
   256
  6
BYLAYER
  0
ACDBPLACEHOLDER
  5
F
102
{ACAD_REACTORS
330
E
102
}
330
E
  0
SCALE
  5
48
102
{ACAD_REACTORS
330
47
102
}
330
47
100
AcDbScale
 70
     0
300
1:1
140
1.0
141
1.0
290
     1
  0
SCALE
  5
49
102
{ACAD_REACTORS
330
47
102
}
330
47
100
AcDbScale
 70
     0
300
1:2
140
1.0
141
2.0
290
     0
  0
SCALE
  5
4A
102
{ACAD_REACTORS
330
47
102
}
330
47
100
AcDbScale
 70
     0
300
1:4
140
1.0
141
4.0
290
     0
  0
SCALE
  5
4B
102
{ACAD_REACTORS
330
47
102
}
330
47
100
AcDbScale
 70
     0
300
1:5
140
1.0
141
5.0
290
     0
  0
SCALE
  5
4C
102
{ACAD_REACTORS
330
47
102
}
330
47
100
AcDbScale
 70
     0
300
1:8
140
1.0
141
8.0
290
     0
  0
SCALE
  5
4D
102
{ACAD_REACTORS
330
47
102
}
330
47
100
AcDbScale
 70
     0
300
1:10
140
1.0
141
10.0
290
     0
  0
SCALE
  5
4E
102
{ACAD_REACTORS
330
47
102
}
330
47
100
AcDbScale
 70
     0
300
1:16
140
1.0
141
16.0
290
     0
  0
SCALE
  5
4F
102
{ACAD_REACTORS
330
47
102
}
330
47
100
AcDbScale
 70
     0
300
1:20
140
1.0
141
20.0
290
     0
  0
SCALE
  5
50
102
{ACAD_REACTORS
330
47
102
}
330
47
100
AcDbScale
 70
     0
300
1:30
140
1.0
141
30.0
290
     0
  0
SCALE
  5
51
102
{ACAD_REACTORS
330
47
102
}
330
47
100
AcDbScale
 70
     0
300
1:40
140
1.0
141
40.0
290
     0
  0
SCALE
  5
52
102
{ACAD_REACTORS
330
47
102
}
330
47
100
AcDbScale
 70
     0
300
1:50
140
1.0
141
50.0
290
     0
  0
SCALE
  5
53
102
{ACAD_REACTORS
330
47
102
}
330
47
100
AcDbScale
 70
     0
300
1:100
140
1.0
141
100.0
290
     0
  0
SCALE
  5
54
102
{ACAD_REACTORS
330
47
102
}
330
47
100
AcDbScale
 70
     0
300
2:1
140
2.0
141
1.0
290
     0
  0
SCALE
  5
55
102
{ACAD_REACTORS
330
47
102
}
330
47
100
AcDbScale
 70
     0
300
4:1
140
4.0
141
1.0
290
     0
  0
SCALE
  5
56
102
{ACAD_REACTORS
330
47
102
}
330
47
100
AcDbScale
 70
     0
300
8:1
140
8.0
141
1.0
290
     0
  0
SCALE
  5
57
102
{ACAD_REACTORS
330
47
102
}
330
47
100
AcDbScale
 70
     0
300
10:1
140
10.0
141
1.0
290
     0
  0
SCALE
  5
58
102
{ACAD_REACTORS
330
47
102
}
330
47
100
AcDbScale
 70
     0
300
100:1
140
100.0
141
1.0
290
     0
  0
SCALE
  5
59
102
{ACAD_REACTORS
330
47
102
}
330
47
100
AcDbScale
 70
     0
300
1/128" = 1'-0"
140
0.0078125
141
12.0
290
     0
  0
SCALE
  5
5A
102
{ACAD_REACTORS
330
47
102
}
330
47
100
AcDbScale
 70
     0
300
1/64" = 1'-0"
140
0.015625
141
12.0
290
     0
  0
SCALE
  5
5B
102
{ACAD_REACTORS
330
47
102
}
330
47
100
AcDbScale
 70
     0
300
1/32" = 1'-0"
140
0.03125
141
12.0
290
     0
  0
SCALE
  5
5C
102
{ACAD_REACTORS
330
47
102
}
330
47
100
AcDbScale
 70
     0
300
1/16" = 1'-0"
140
0.0625
141
12.0
290
     0
  0
SCALE
  5
5D
102
{ACAD_REACTORS
330
47
102
}
330
47
100
AcDbScale
 70
     0
300
3/32" = 1'-0"
140
0.09375
141
12.0
290
     0
  0
SCALE
  5
5E
102
{ACAD_REACTORS
330
47
102
}
330
47
100
AcDbScale
 70
     0
300
1/8" = 1'-0"
140
0.125
141
12.0
290
     0
  0
SCALE
  5
5F
102
{ACAD_REACTORS
330
47
102
}
330
47
100
AcDbScale
 70
     0
300
3/16" = 1'-0"
140
0.1875
141
12.0
290
     0
  0
SCALE
  5
60
102
{ACAD_REACTORS
330
47
102
}
330
47
100
AcDbScale
 70
     0
300
1/4" = 1'-0"
140
0.25
141
12.0
290
     0
  0
SCALE
  5
61
102
{ACAD_REACTORS
330
47
102
}
330
47
100
AcDbScale
 70
     0
300
3/8" = 1'-0"
140
0.375
141
12.0
290
     0
  0
SCALE
  5
62
102
{ACAD_REACTORS
330
47
102
}
330
47
100
AcDbScale
 70
     0
300
1/2" = 1'-0"
140
0.5
141
12.0
290
     0
  0
SCALE
  5
63
102
{ACAD_REACTORS
330
47
102
}
330
47
100
AcDbScale
 70
     0
300
3/4" = 1'-0"
140
0.75
141
12.0
290
     0
  0
SCALE
  5
64
102
{ACAD_REACTORS
330
47
102
}
330
47
100
AcDbScale
 70
     0
300
1" = 1'-0"
140
1.0
141
12.0
290
     0
  0
SCALE
  5
65
102
{ACAD_REACTORS
330
47
102
}
330
47
100
AcDbScale
 70
     0
300
1-1/2" = 1'-0"
140
1.5
141
12.0
290
     0
  0
SCALE
  5
66
102
{ACAD_REACTORS
330
47
102
}
330
47
100
AcDbScale
 70
     0
300
3" = 1'-0"
140
3.0
141
12.0
290
     0
  0
SCALE
  5
67
102
{ACAD_REACTORS
330
47
102
}
330
47
100
AcDbScale
 70
     0
300
6" = 1'-0"
140
6.0
141
12.0
290
     0
  0
SCALE
  5
68
102
{ACAD_REACTORS
330
47
102
}
330
47
100
AcDbScale
 70
     0
300
1'-0" = 1'-0"
140
12.0
141
12.0
290
     0
  0
ENDSEC
  0
EOF
