  0
SECTION
  2
HEADER
  9
$ACADVER
  1
AC1015
  9
$ACADMAINTVER
 70
     6
  9
$DWGCODEPAGE
  3
ANSI_949
  9
$INSBASE
 10
0.0
 20
0.0
 30
0.0
  9
$EXTMIN
 10
-45.60009181734635
 20
-49.97180738881174
 30
0.0
  9
$EXTMAX
 10
60.82269906235312
 20
47.82581795083671
 30
0.0
  9
$LIMMIN
 10
0.0
 20
0.0
  9
$LIMMAX
 10
420.0
 20
297.0
  9
$ORTHOMODE
 70
     1
  9
$REGENMODE
 70
     1
  9
$FILLMODE
 70
     1
  9
$QTEXTMODE
 70
     0
  9
$MIRRTEXT
 70
     1
  9
$LTSCALE
 40
1.0
  9
$ATTMODE
 70
     1
  9
$TEXTSIZE
 40
3.5
  9
$TRACEWID
 40
1.0
  9
$TEXTSTYLE
  7
Standard
  9
$CLAYER
  8
0
  9
$CELTYPE
  6
ByLayer
  9
$CECOLOR
 62
   256
  9
$CELTSCALE
 40
1.0
  9
$DISPSILH
 70
     0
  9
$DIMSCALE
 40
1.0
  9
$DIMASZ
 40
3.302
  9
$DIMEXO
 40
1.0
  9
$DIMDLI
 40
3.75
  9
$DIMRND
 40
0.0
  9
$DIMDLE
 40
0.0
  9
$DIMEXE
 40
1.0
  9
$DIMTP
 40
0.0
  9
$DIMTM
 40
0.0
  9
$DIMTXT
 40
3.5
  9
$DIMCEN
 40
2.5
  9
$DIMTSZ
 40
0.0
  9
$DIMTOL
 70
     0
  9
$DIMLIM
 70
     0
  9
$DIMTIH
 70
     1
  9
$DIMTOH
 70
     1
  9
$DIMSE1
 70
     0
  9
$DIMSE2
 70
     0
  9
$DIMTAD
 70
     1
  9
$DIMZIN
 70
     0
  9
$DIMBLK
  1

  9
$DIMASO
 70
     1
  9
$DIMSHO
 70
     1
  9
$DIMPOST
  1

  9
$DIMAPOST
  1

  9
$DIMALT
 70
     0
  9
$DIMALTD
 70
     3
  9
$DIMALTF
 40
0.0393700787401575
  9
$DIMLFAC
 40
1.0
  9
$DIMTOFL
 70
     1
  9
$DIMTVP
 40
0.0
  9
$DIMTIX
 70
     0
  9
$DIMSOXD
 70
     0
  9
$DIMSAH
 70
     0
  9
$DIMBLK1
  1

  9
$DIMBLK2
  1

  9
$DIMSTYLE
  2
ISO-25
  9
$DIMCLRD
 70
     0
  9
$DIMCLRE
 70
     0
  9
$DIMCLRT
 70
     0
  9
$DIMTFAC
 40
1.0
  9
$DIMGAP
 40
1.524
  9
$DIMJUST
 70
     0
  9
$DIMSD1
 70
     0
  9
$DIMSD2
 70
     0
  9
$DIMTOLJ
 70
     0
  9
$DIMTZIN
 70
     0
  9
$DIMALTZ
 70
     0
  9
$DIMALTTZ
 70
     0
  9
$DIMUPT
 70
     0
  9
$DIMDEC
 70
     2
  9
$DIMTDEC
 70
     2
  9
$DIMALTU
 70
     2
  9
$DIMALTTD
 70
     3
  9
$DIMTXSTY
  7
Standard
  9
$DIMAUNIT
 70
     0
  9
$DIMADEC
 70
     2
  9
$DIMALTRND
 40
0.0
  9
$DIMAZIN
 70
     0
  9
$DIMDSEP
 70
    44
  9
$DIMATFIT
 70
     3
  9
$DIMFRAC
 70
     0
  9
$DIMLDRBLK
  1

  9
$DIMLUNIT
 70
     2
  9
$DIMLWD
 70
    -2
  9
$DIMLWE
 70
    -2
  9
$DIMTMOVE
 70
     0
  9
$LUNITS
 70
     2
  9
$LUPREC
 70
     2
  9
$SKETCHINC
 40
1.0
  9
$FILLETRAD
 40
10.0
  9
$AUNITS
 70
     0
  9
$AUPREC
 70
     2
  9
$MENU
  1
.
  9
$ELEVATION
 40
0.0
  9
$PELEVATION
 40
0.0
  9
$THICKNESS
 40
0.0
  9
$LIMCHECK
 70
     0
  9
$CHAMFERA
 40
0.0
  9
$CHAMFERB
 40
0.0
  9
$CHAMFERC
 40
0.0
  9
$CHAMFERD
 40
0.0
  9
$SKPOLY
 70
     0
  9
$TDCREATE
 40
2458333.722797951
  9
$TDUCREATE
 40
2458333.347797951
  9
$TDUPDATE
 40
2458339.749233947
  9
$TDUUPDATE
 40
2458339.374233947
  9
$TDINDWG
 40
0.0040203819
  9
$TDUSRTIMER
 40
2458339.252270544
  9
$USRTIMER
 70
     1
  9
$ANGBASE
 50
0.0
  9
$ANGDIR
 70
     0
  9
$PDMODE
 70
     0
  9
$PDSIZE
 40
-1.0
  9
$PLINEWID
 40
0.0
  9
$SPLFRAME
 70
     0
  9
$SPLINETYPE
 70
     6
  9
$SPLINESEGS
 70
     8
  9
$HANDSEED
  5
19C
  9
$SURFTAB1
 70
     6
  9
$SURFTAB2
 70
     6
  9
$SURFTYPE
 70
     6
  9
$SURFU
 70
     6
  9
$SURFV
 70
     6
  9
$UCSBASE
  2

  9
$UCSNAME
  2

  9
$UCSORG
 10
0.0
 20
0.0
 30
0.0
  9
$UCSXDIR
 10
1.0
 20
0.0
 30
0.0
  9
$UCSYDIR
 10
0.0
 20
1.0
 30
0.0
  9
$UCSORTHOREF
  2

  9
$UCSORTHOVIEW
 70
     0
  9
$UCSORGTOP
 10
0.0
 20
0.0
 30
0.0
  9
$UCSORGBOTTOM
 10
0.0
 20
0.0
 30
0.0
  9
$UCSORGLEFT
 10
0.0
 20
0.0
 30
0.0
  9
$UCSORGRIGHT
 10
0.0
 20
0.0
 30
0.0
  9
$UCSORGFRONT
 10
0.0
 20
0.0
 30
0.0
  9
$UCSORGBACK
 10
0.0
 20
0.0
 30
0.0
  9
$PUCSBASE
  2

  9
$PUCSNAME
  2

  9
$PUCSORG
 10
0.0
 20
0.0
 30
0.0
  9
$PUCSXDIR
 10
1.0
 20
0.0
 30
0.0
  9
$PUCSYDIR
 10
0.0
 20
1.0
 30
0.0
  9
$PUCSORTHOREF
  2

  9
$PUCSORTHOVIEW
 70
     0
  9
$PUCSORGTOP
 10
0.0
 20
0.0
 30
0.0
  9
$PUCSORGBOTTOM
 10
0.0
 20
0.0
 30
0.0
  9
$PUCSORGLEFT
 10
0.0
 20
0.0
 30
0.0
  9
$PUCSORGRIGHT
 10
0.0
 20
0.0
 30
0.0
  9
$PUCSORGFRONT
 10
0.0
 20
0.0
 30
0.0
  9
$PUCSORGBACK
 10
0.0
 20
0.0
 30
0.0
  9
$USERI1
 70
     0
  9
$USERI2
 70
     0
  9
$USERI3
 70
     0
  9
$USERI4
 70
     0
  9
$USERI5
 70
     0
  9
$USERR1
 40
0.0
  9
$USERR2
 40
0.0
  9
$USERR3
 40
0.0
  9
$USERR4
 40
0.0
  9
$USERR5
 40
0.0
  9
$WORLDVIEW
 70
     1
  9
$SHADEDGE
 70
     3
  9
$SHADEDIF
 70
    70
  9
$TILEMODE
 70
     1
  9
$MAXACTVP
 70
    64
  9
$PINSBASE
 10
0.0
 20
0.0
 30
0.0
  9
$PLIMCHECK
 70
     0
  9
$PEXTMIN
 10
1.000000000000000E+20
 20
1.000000000000000E+20
 30
1.000000000000000E+20
  9
$PEXTMAX
 10
-1.000000000000000E+20
 20
-1.000000000000000E+20
 30
-1.000000000000000E+20
  9
$PLIMMIN
 10
0.0
 20
0.0
  9
$PLIMMAX
 10
0.0
 20
0.0
  9
$UNITMODE
 70
     0
  9
$VISRETAIN
 70
     1
  9
$PLINEGEN
 70
     0
  9
$PSLTSCALE
 70
     1
  9
$TREEDEPTH
 70
  3020
  9
$CMLSTYLE
  2
Standard
  9
$CMLJUST
 70
     0
  9
$CMLSCALE
 40
20.0
  9
$PROXYGRAPHICS
 70
     1
  9
$MEASUREMENT
 70
     1
  9
$CELWEIGHT
370
    -1
  9
$ENDCAPS
280
     0
  9
$JOINSTYLE
280
     0
  9
$LWDISPLAY
290
     1
  9
$INSUNITS
 70
     4
  9
$HYPERLINKBASE
  1

  9
$STYLESHEET
  1

  9
$XEDIT
290
     1
  9
$CEPSNTYPE
380
     0
  9
$PSTYLEMODE
290
     1
  9
$FINGERPRINTGUID
  2
{65500681-0D89-4307-A491-3AAC25BB10C3}
  9
$VERSIONGUID
  2
{FAEB1C32-E019-11D5-929B-00C0DF256EC4}
  9
$EXTNAMES
290
     1
  9
$PSVPSCALE
 40
0.0
  9
$OLESTARTUP
290
     0
  0
ENDSEC
  0
SECTION
  2
CLASSES
  0
CLASS
  1
ACDBDICTIONARYWDFLT
  2
AcDbDictionaryWithDefault
  3
ObjectDBX Classes
 90
        0
280
     0
281
     0
  0
CLASS
  1
VISUALSTYLE
  2
AcDbVisualStyle
  3
ObjectDBX Classes
 90
     4095
280
     0
281
     0
  0
CLASS
  1
MATERIAL
  2
AcDbMaterial
  3
ObjectDBX Classes
 90
     1153
280
     0
281
     0
  0
CLASS
  1
SCALE
  2
AcDbScale
  3
ObjectDBX Classes
 90
     1153
280
     0
281
     0
  0
CLASS
  1
SUN
  2
AcDbSun
  3
SCENEOE
 90
     1153
280
     0
281
     0
  0
CLASS
  1
ACDBPLACEHOLDER
  2
AcDbPlaceHolder
  3
ObjectDBX Classes
 90
        0
280
     0
281
     0
  0
CLASS
  1
LAYOUT
  2
AcDbLayout
  3
ObjectDBX Classes
 90
        0
280
     0
281
     0
  0
CLASS
  1
TABLESTYLE
  2
AcDbTableStyle
  3
ObjectDBX Classes
 90
     4095
280
     0
281
     0
  0
CLASS
  1
MLEADERSTYLE
  2
AcDbMLeaderStyle
  3
ACDB_MLEADERSTYLE_CLASS
 90
     4095
280
     0
281
     0
  0
CLASS
  1
RASTERVARIABLES
  2
AcDbRasterVariables
  3
ISM
 90
        0
280
     0
281
     0
  0
CLASS
  1
DIMASSOC
  2
AcDbDimAssoc
  3
"AcDbDimAssoc|Product Desc:     AcDim ARX App For Dimension|Company:          Autodesk, Inc.|WEB Address:      www.autodesk.com"
 90
        0
280
     0
281
     0
  0
CLASS
  1
DICTIONARYVAR
  2
AcDbDictionaryVar
  3
ObjectDBX Classes
 90
        0
280
     0
281
     0
  0
ENDSEC
  0
SECTION
  2
TABLES
  0
TABLE
  2
VPORT
  5
8
330
0
100
AcDbSymbolTable
 70
     1
  0
VPORT
  5
29
330
8
100
AcDbSymbolTableRecord
100
AcDbViewportTableRecord
  2
*Active
 70
     0
 10
0.0
 20
0.0
 11
1.0
 21
1.0
 12
13.57165755998989
 22
15.56818842224369
 13
0.0
 23
0.0
 14
10.0
 24
10.0
 15
10.0
 25
10.0
 16
0.0
 26
0.0
 36
1.0
 17
0.0
 27
0.0
 37
0.0
 40
141.9835933836543
 41
2.213513513513513
 42
50.0
 43
0.0
 44
0.0
 50
0.0
 51
0.0
 71
    16
 72
  2000
 73
     1
 74
     3
 75
     0
 76
     0
 77
     0
 78
     0
281
     0
 65
     1
110
0.0
120
0.0
130
0.0
111
1.0
121
0.0
131
0.0
112
0.0
122
1.0
132
0.0
 79
     0
146
0.0
  0
ENDTAB
  0
TABLE
  2
LTYPE
  5
5
330
0
100
AcDbSymbolTable
 70
     6
  0
LTYPE
  5
14
330
5
100
AcDbSymbolTableRecord
100
AcDbLinetypeTableRecord
  2
ByBlock
 70
     0
  3

 72
    65
 73
     0
 40
0.0
  0
LTYPE
  5
15
330
5
100
AcDbSymbolTableRecord
100
AcDbLinetypeTableRecord
  2
ByLayer
 70
     0
  3

 72
    65
 73
     0
 40
0.0
  0
LTYPE
  5
16
330
5
100
AcDbSymbolTableRecord
100
AcDbLinetypeTableRecord
  2
Continuous
 70
     0
  3
Solid line
 72
    65
 73
     0
 40
0.0
  0
LTYPE
  5
6A
330
5
100
AcDbSymbolTableRecord
100
AcDbLinetypeTableRecord
  2
HIDDEN
 70
     0
  3
Hidden __ __ __ __ __ __ __ __ __ __ __ __ __ __
 72
    65
 73
     2
 40
1.905
 49
1.27
 74
     0
 49
-0.635
 74
     0
  0
LTYPE
  5
6B
330
5
100
AcDbSymbolTableRecord
100
AcDbLinetypeTableRecord
  2
PHANTOM
 70
     0
  3
Phantom ______  __  __  ______  __  __  ______
 72
    65
 73
     6
 40
12.7
 49
6.35
 74
     0
 49
-1.27
 74
     0
 49
1.27
 74
     0
 49
-1.27
 74
     0
 49
1.27
 74
     0
 49
-1.27
 74
     0
  0
LTYPE
  5
6C
330
5
100
AcDbSymbolTableRecord
100
AcDbLinetypeTableRecord
  2
CENTER
 70
     0
  3
Center ____ _ ____ _ ____ _ ____ _ ____ _ ____
 72
    65
 73
     4
 40
10.16
 49
6.35
 74
     0
 49
-1.27
 74
     0
 49
1.27
 74
     0
 49
-1.27
 74
     0
  0
LTYPE
  5
6D
330
5
100
AcDbSymbolTableRecord
100
AcDbLinetypeTableRecord
  2
CENTERX2
 70
     0
  3
Center (2x) ________  __  ________  __  _____
 72
    65
 73
     4
 40
20.32
 49
12.7
 74
     0
 49
-2.54
 74
     0
 49
2.54
 74
     0
 49
-2.54
 74
     0
  0
LTYPE
  5
6E
330
5
100
AcDbSymbolTableRecord
100
AcDbLinetypeTableRecord
  2
DOT2
 70
     0
  3
Dot (.5x) ........................................
 72
    65
 73
     2
 40
0.635
 49
0.0
 74
     0
 49
-0.635
 74
     0
  0
ENDTAB
  0
TABLE
  2
LAYER
  5
2
330
0
100
AcDbSymbolTable
 70
    17
  0
LAYER
  5
10
330
2
100
AcDbSymbolTableRecord
100
AcDbLayerTableRecord
  2
0
 70
     0
 62
     7
  6
Continuous
370
    -3
390
F
  0
LAYER
  5
6F
330
2
100
AcDbSymbolTableRecord
100
AcDbLayerTableRecord
  2
FORMAT
 70
     0
 62
     2
  6
Continuous
370
    -3
390
F
  0
LAYER
  5
70
330
2
100
AcDbSymbolTableRecord
100
AcDbLayerTableRecord
  2
외형선
 70
     0
 62
   100
  6
Continuous
370
    30
390
F
  0
LAYER
  5
71
330
2
100
AcDbSymbolTableRecord
100
AcDbLayerTableRecord
  2
숨은선
 70
     0
 62
     2
  6
HIDDEN
370
    15
390
F
  0
LAYER
  5
72
330
2
100
AcDbSymbolTableRecord
100
AcDbLayerTableRecord
  2
중심선
 70
     0
 62
     1
  6
CENTERX2
370
    -3
390
F
  0
LAYER
  5
73
330
2
100
AcDbSymbolTableRecord
100
AcDbLayerTableRecord
  2
파단선
 70
     0
 62
     4
  6
Continuous
370
    -3
390
F
  0
LAYER
  5
74
330
2
100
AcDbSymbolTableRecord
100
AcDbLayerTableRecord
  2
해칭선
 70
     0
 62
     4
  6
Continuous
370
    -3
390
F
  0
LAYER
  5
75
330
2
100
AcDbSymbolTableRecord
100
AcDbLayerTableRecord
  2
가는실선
 70
     0
 62
     4
  6
Continuous
370
    -3
390
F
  0
LAYER
  5
76
330
2
100
AcDbSymbolTableRecord
100
AcDbLayerTableRecord
  2
치수_보조선
 70
     0
 62
     4
  6
Continuous
370
    -3
390
F
  0
LAYER
  5
77
330
2
100
AcDbSymbolTableRecord
100
AcDbLayerTableRecord
  2
치수문자_일반주서
 70
     0
 62
     7
  6
Continuous
370
    15
390
F
  0
LAYER
  5
78
330
2
100
AcDbSymbolTableRecord
100
AcDbLayerTableRecord
  2
개별주서
 70
     0
 62
   100
  6
Continuous
370
    30
390
F
  0
LAYER
  5
79
330
2
100
AcDbSymbolTableRecord
100
AcDbLayerTableRecord
  2
중간선
 70
     0
 62
     2
  6
Continuous
370
    15
390
F
  0
LAYER
  5
7A
330
2
100
AcDbSymbolTableRecord
100
AcDbLayerTableRecord
  2
윤곽선
 70
     0
 62
     3
  6
Continuous
370
    40
390
F
  0
LAYER
  5
7B
330
2
100
AcDbSymbolTableRecord
100
AcDbLayerTableRecord
  2
중심마크
 70
     0
 62
   100
  6
Continuous
370
    30
390
F
  0
LAYER
  5
7C
330
2
100
AcDbSymbolTableRecord
100
AcDbLayerTableRecord
  2
가상선
 70
     0
 62
     4
  6
PHANTOM
370
    -3
390
F
  0
LAYER
  5
7D
330
2
100
AcDbSymbolTableRecord
100
AcDbLayerTableRecord
  2
특수지정선
 70
     0
 62
     5
  6
CENTERX2
370
    60
390
F
  0
LAYER
  5
14E
330
2
100
AcDbSymbolTableRecord
100
AcDbLayerTableRecord
  2
Defpoints
 70
     0
 62
     7
  6
Continuous
290
     0
370
    -3
390
F
  0
ENDTAB
  0
TABLE
  2
STYLE
  5
3
330
0
100
AcDbSymbolTable
 70
     2
  0
STYLE
  5
11
330
3
100
AcDbSymbolTableRecord
100
AcDbTextStyleTableRecord
  2
Standard
 70
     0
 40
0.0
 41
1.0
 50
0.0
 71
     0
 42
3.5
  3
txt
  4

  0
STYLE
  5
93
330
3
100
AcDbSymbolTableRecord
100
AcDbTextStyleTableRecord
  2
SLDTEXTSTYLE0
 70
     0
 40
0.0
 41
0.75
 50
0.0
 71
     0
 42
3.5
  3
TXT
  4

  0
ENDTAB
  0
TABLE
  2
VIEW
  5
6
330
0
100
AcDbSymbolTable
 70
     0
  0
ENDTAB
  0
TABLE
  2
UCS
  5
7
330
0
100
AcDbSymbolTable
 70
     0
  0
ENDTAB
  0
TABLE
  2
APPID
  5
9
330
0
100
AcDbSymbolTable
 70
     4
  0
APPID
  5
12
330
9
100
AcDbSymbolTableRecord
100
AcDbRegAppTableRecord
  2
ACAD
 70
     0
  0
APPID
  5
163
330
9
100
AcDbSymbolTableRecord
100
AcDbRegAppTableRecord
  2
PE_DIMMEASUREMENT
 70
     0
  0
APPID
  5
19A
330
9
100
AcDbSymbolTableRecord
100
AcDbRegAppTableRecord
  2
ACAD_DSTYLE_DIMFLIPARROW_SYMBOL
 70
     0
  0
APPID
  5
19B
330
9
100
AcDbSymbolTableRecord
100
AcDbRegAppTableRecord
  2
ACAD_DSTYLE_DIMFLIPARROW_WHICH_SYMBOL
 70
     0
  0
ENDTAB
  0
TABLE
  2
DIMSTYLE
  5
A
330
0
100
AcDbSymbolTable
 70
     3
100
AcDbDimStyleTable
  0
DIMSTYLE
105
27
330
A
100
AcDbSymbolTableRecord
100
AcDbDimStyleTableRecord
  2
ISO-25
 70
     0
 41
2.5
 42
0.625
 43
3.75
 44
1.25
 73
     0
 74
     0
 77
     1
 78
     8
140
2.5
141
2.5
143
0.03937007874016
147
0.625
171
     3
172
     1
178
     0
271
     2
272
     2
274
     3
278
    44
283
     0
284
     8
340
11
  0
DIMSTYLE
105
E6
102
{ACAD_REACTORS
330
E5
330
10F
330
FB
330
151
330
181
102
}
330
A
100
AcDbSymbolTableRecord
100
AcDbDimStyleTableRecord
  2
SLDDIMSTYLE0
 70
     0
 41
3.302
 44
0.0
 45
0.000000001
 73
     0
 74
     0
 77
     1
 78
    12
 79
     3
140
3.5
143
0.0393700787401575
147
0.875
148
0.000000001
170
     1
172
     1
173
     1
178
     0
271
     2
272
     2
276
     2
284
    12
289
     0
340
93
  0
DIMSTYLE
105
FC
330
A
100
AcDbSymbolTableRecord
100
AcDbDimStyleTableRecord
  2
SLDDIMSTYLE1
 70
     0
 41
3.302
 44
0.0
 45
0.000000001
 73
     0
 74
     0
 77
     1
 78
     4
 79
     1
140
3.5
143
0.0393700787401575
147
0.875
148
0.000000001
170
     1
173
     1
178
     0
271
     2
272
     2
276
     2
284
    12
340
93
  0
ENDTAB
  0
TABLE
  2
BLOCK_RECORD
  5
1
330
0
100
AcDbSymbolTable
 70
     9
  0
BLOCK_RECORD
  5
1F
330
1
100
AcDbSymbolTableRecord
100
AcDbBlockTableRecord
  2
*Model_Space
340
22
  0
BLOCK_RECORD
  5
1B
330
1
100
AcDbSymbolTableRecord
100
AcDbBlockTableRecord
  2
*Paper_Space
340
1E
  0
BLOCK_RECORD
  5
23
330
1
100
AcDbSymbolTableRecord
100
AcDbBlockTableRecord
  2
*Paper_Space0
340
26
  0
BLOCK_RECORD
  5
7E
330
1
100
AcDbSymbolTableRecord
100
AcDbBlockTableRecord
  2
블럭10
340
0
102
{BLKREFS
331
DD
102
}
  0
BLOCK_RECORD
  5
E7
330
1
100
AcDbSymbolTableRecord
100
AcDbBlockTableRecord
  2
_D
340
0
  0
BLOCK_RECORD
  5
FD
330
1
100
AcDbSymbolTableRecord
100
AcDbBlockTableRecord
  2
_D_1
340
0
  0
BLOCK_RECORD
  5
110
330
1
100
AcDbSymbolTableRecord
100
AcDbBlockTableRecord
  2
_D_2
340
0
  0
BLOCK_RECORD
  5
123
330
1
100
AcDbSymbolTableRecord
100
AcDbBlockTableRecord
  2
SW_DOWELSYMBOL_0
340
0
102
{BLKREFS
331
129
102
}
  0
BLOCK_RECORD
  5
154
330
1
100
AcDbSymbolTableRecord
100
AcDbBlockTableRecord
  2
*D6
340
0
  0
BLOCK_RECORD
  5
16E
330
1
100
AcDbSymbolTableRecord
100
AcDbBlockTableRecord
  2
*D7
340
0
  0
BLOCK_RECORD
  5
184
330
1
100
AcDbSymbolTableRecord
100
AcDbBlockTableRecord
  2
*D8
340
0
  0
ENDTAB
  0
ENDSEC
  0
SECTION
  2
BLOCKS
  0
BLOCK
  5
20
330
1F
100
AcDbEntity
  8
0
100
AcDbBlockBegin
  2
*Model_Space
 70
     0
 10
0.0
 20
0.0
 30
0.0
  3
*Model_Space
  1
*Model_Space
  0
ENDBLK
  5
21
330
1F
100
AcDbEntity
  8
0
100
AcDbBlockEnd
  0
BLOCK
  5
1C
330
1B
100
AcDbEntity
 67
     1
  8
0
100
AcDbBlockBegin
  2
*Paper_Space
 70
     0
 10
0.0
 20
0.0
 30
0.0
  3
*Paper_Space
  1
*Paper_Space
  0
ENDBLK
  5
1D
330
1B
100
AcDbEntity
 67
     1
  8
0
100
AcDbBlockEnd
  0
BLOCK
  5
24
330
23
100
AcDbEntity
  8
0
100
AcDbBlockBegin
  2
*Paper_Space0
 70
     0
 10
0.0
 20
0.0
 30
0.0
  3
*Paper_Space0
  1
*Paper_Space0
  0
ENDBLK
  5
25
330
23
100
AcDbEntity
  8
0
100
AcDbBlockEnd
  0
BLOCK
  5
7F
330
7E
100
AcDbEntity
  8
0
100
AcDbBlockBegin
  2
블럭10
 70
     2
 10
0.0
 20
0.0
 30
0.0
  3
블럭10
  1
블럭10
  0
ELLIPSE
  5
81
330
7E
100
AcDbEntity
  8
중심선
100
AcDbEllipse
 10
20.54032771741204
 20
12.0471743016438
 30
0.0
 11
6.600054785286829
 21
-1.261213355974178E-13
 31
0.0
210
0.0
220
0.0
230
1.0
 40
0.636358354079598
 41
0.9219305317359503
 42
6.513795318482858
  0
ELLIPSE
  5
82
330
7E
100
AcDbEntity
  8
중심선
100
AcDbEllipse
 10
20.54032771746488
 20
12.04717430159265
 30
0.0
 11
3.960054785062283
 21
1.540847449632565E-10
 31
0.0
210
0.0
220
0.0
230
1.0
 40
0.3939339440162632
 41
1.131841032648279
 42
5.62031148352944
  0
LINE
  5
83
330
7E
100
AcDbEntity
  8
중심선
100
AcDbLine
 10
2.268634060543552
 20
16.24717430164393
 30
0.0
 11
5.714909304380834
 21
16.24717430164393
 31
0.0
  0
LINE
  5
84
330
7E
100
AcDbEntity
  8
중심선
100
AcDbLine
 10
5.245725140726316
 20
7.84717430164391
 30
0.0
 11
8.692000384563599
 21
7.84717430164391
 31
0.0
  0
LINE
  5
85
330
7E
100
AcDbEntity
  8
중심선
100
AcDbLine
 10
15.74043728645272
 20
16.24717430164393
 30
0.0
 11
8.692000384563599
 21
7.84717430164391
 31
0.0
  0
LINE
  5
86
330
7E
100
AcDbEntity
  8
중심선
100
AcDbLine
 10
0.1404042013395286
 20
13.71084872107135
 30
0.0
 11
3.58671253028996
 21
13.71088815037384
 31
0.0
  0
LINE
  5
87
330
7E
100
AcDbEntity
  8
중심선
100
AcDbLine
 10
2.750260043222114
 20
10.84717430164391
 30
0.0
 11
6.196535287059397
 21
10.84717430164391
 31
0.0
  0
LINE
  5
88
330
7E
100
AcDbEntity
  8
중심선
100
AcDbLine
 10
12.29416204261559
 20
16.24717430164393
 30
0.0
 11
5.245725140726316
 21
7.84717430164391
 31
0.0
  0
LINE
  5
89
330
7E
100
AcDbEntity
  8
중심선
100
AcDbLine
 10
10.72767329541681
 20
16.24717430164393
 30
0.0
 11
6.196535287059397
 21
10.84717430164391
 31
0.0
  0
LINE
  5
8A
330
7E
100
AcDbEntity
  8
중심선
100
AcDbLine
 10
7.28139805157953
 20
16.24717430164393
 30
0.0
 11
2.750260043222114
 21
10.84717430164391
 31
0.0
  0
LINE
  5
8B
330
7E
100
AcDbEntity
  8
중심선
100
AcDbLine
 10
5.714909304380834
 20
16.24717430164393
 30
0.0
 11
3.58671253028996
 21
13.71088815037384
 31
0.0
  0
LINE
  5
8C
330
7E
100
AcDbEntity
  8
중심선
100
AcDbLine
 10
2.268634060543552
 20
16.24717430164393
 30
0.0
 11
0.1404042013395286
 21
13.71084872107135
 31
0.0
  0
LINE
  5
8D
330
7E
100
AcDbEntity
  8
중심선
100
AcDbLine
 10
7.28139805157953
 20
16.24717430164393
 30
0.0
 11
10.72767329541681
 21
16.24717430164393
 31
0.0
  0
LINE
  5
8E
330
7E
100
AcDbEntity
  8
중심선
100
AcDbLine
 10
12.29416204261559
 20
16.24717430164393
 30
0.0
 11
15.74043728645272
 21
16.24717430164393
 31
0.0
  0
LINE
  5
8F
330
7E
100
AcDbEntity
  8
중심선
100
AcDbLine
 10
19.22036997980202
 20
11.08717430171403
 30
0.0
 11
23.66174974927406
 21
11.08717430171406
 31
0.0
  0
LINE
  5
90
330
7E
100
AcDbEntity
  8
중심선
100
AcDbLine
 10
19.22039502424796
 20
13.00717430171391
 30
0.0
 11
19.22036997980202
 21
11.08717430171403
 31
0.0
  0
LINE
  5
91
330
7E
100
AcDbEntity
  8
중심선
100
AcDbLine
 10
19.22039502424796
 20
13.00717430171391
 30
0.0
 11
26.96566020931264
 21
13.00717430171391
 31
0.0
  0
LINE
  5
92
330
7E
100
AcDbEntity
  8
중심선
100
AcDbLine
 10
22.22332737316547
 20
13.45928029700563
 30
0.0
 11
24.52862924686651
 21
15.39360700705356
 31
0.0
  0
ATTDEF
  5
94
330
7E
100
AcDbEntity
  8
FORMAT
 62
     2
100
AcDbText
 10
-9.18129528874128
 20
2.075366912832191
 30
0.0
 40
4.233333333333333
  1
E5077108 [ 3 FLUTE ]
 41
0.75
  7
SLDTEXTSTYLE0
 11
-9.18129528874128
 21
-0.0412997538344756
 31
0.0
100
AcDbAttributeDefinition
  3

  2
AUTOATTR0
 70
     0
 74
     1
  0
ENDBLK
  5
80
330
7E
100
AcDbEntity
  8
0
100
AcDbBlockEnd
  0
BLOCK
  5
E8
330
E7
100
AcDbEntity
  8
0
100
AcDbBlockBegin
  2
_D
 70
     0
 10
0.0
 20
0.0
 30
0.0
  3
_D
  1
_D
  0
LINE
  5
EA
330
E7
100
AcDbEntity
  8
치수문자_일반주서
 62
     0
370
    -2
100
AcDbLine
 10
47.9749081826537
 20
1.644208435270852
 30
0.0
 11
47.9749081826537
 21
29.64785596113462
 31
0.0
  0
LINE
  5
EB
330
E7
100
AcDbEntity
  8
치수문자_일반주서
 62
     0
370
    -2
100
AcDbLine
 10
9.8749081826537
 20
2.319873125579185
 30
0.0
 11
9.874908182653702
 21
29.64785596113462
 31
0.0
  0
LINE
  5
EC
330
E7
100
AcDbEntity
  8
치수문자_일반주서
 62
     0
370
    -2
100
AcDbLine
 10
44.6729081826537
 20
29.64785596113462
 30
0.0
 11
13.1769081826537
 21
29.64785596113462
 31
0.0
  0
SOLID
  5
ED
330
E7
100
AcDbEntity
  8
치수문자_일반주서
 62
     0
100
AcDbTrace
 10
44.6729081826537
 20
29.09752262780128
 30
0.0
 11
44.6729081826537
 21
30.19818929446795
 31
0.0
 12
47.9749081826537
 22
29.64785596113462
 32
0.0
 13
47.9749081826537
 23
29.64785596113462
 33
0.0
  0
SOLID
  5
EE
330
E7
100
AcDbEntity
  8
치수문자_일반주서
 62
     0
100
AcDbTrace
 10
13.1769081826537
 20
30.19818929446795
 30
0.0
 11
13.1769081826537
 21
29.09752262780128
 31
0.0
 12
9.874908182653702
 22
29.64785596113462
 32
0.0
 13
9.874908182653702
 23
29.64785596113462
 33
0.0
  0
MTEXT
  5
EF
330
E7
100
AcDbEntity
  8
치수문자_일반주서
 62
     0
100
AcDbMText
 10
28.9249081826537
 20
34.02285596113462
 30
0.0
 40
3.5
 41
0.0
 71
     2
 72
     1
  1
\A1;38.1 [1 1/2]
  7
SLDTEXTSTYLE0
 73
     1
 44
1.0
  0
POINT
  5
F0
330
E7
100
AcDbEntity
  8
Defpoints
 62
     0
100
AcDbPoint
 10
47.9749081826537
 20
1.581708435270852
 30
0.0
  0
POINT
  5
F1
330
E7
100
AcDbEntity
  8
Defpoints
 62
     0
100
AcDbPoint
 10
9.8749081826537
 20
2.257373125579185
 30
0.0
  0
POINT
  5
F2
330
E7
100
AcDbEntity
  8
Defpoints
 62
     0
100
AcDbPoint
 10
9.8749081826537
 20
29.64785596113462
 30
0.0
  0
ENDBLK
  5
E9
330
E7
100
AcDbEntity
  8
0
100
AcDbBlockEnd
  0
BLOCK
  5
FE
330
FD
100
AcDbEntity
  8
0
100
AcDbBlockBegin
  2
_D_1
 70
     0
 10
0.0
 20
0.0
 30
0.0
  3
_D_1
  1
_D_1
  0
LINE
  5
100
330
FD
100
AcDbEntity
  8
치수문자_일반주서
 62
     0
370
    -2
100
AcDbLine
 10
47.9749081826537
 20
1.644208435270852
 30
0.0
 11
47.9749081826537
 21
43.45081795083671
 31
0.0
  0
LINE
  5
101
330
FD
100
AcDbEntity
  8
치수문자_일반주서
 62
     0
370
    -2
100
AcDbLine
 10
-28.2250918173463
 20
2.43233515181409
 30
0.0
 11
-28.2250918173463
 21
43.45081795083671
 31
0.0
  0
LINE
  5
102
330
FD
100
AcDbEntity
  8
치수문자_일반주서
 62
     0
370
    -2
100
AcDbLine
 10
44.6729081826537
 20
43.45081795083671
 30
0.0
 11
-24.9230918173463
 21
43.45081795083671
 31
0.0
  0
SOLID
  5
103
330
FD
100
AcDbEntity
  8
치수문자_일반주서
 62
     0
100
AcDbTrace
 10
44.6729081826537
 20
42.90048461750337
 30
0.0
 11
44.6729081826537
 21
44.00115128417004
 31
0.0
 12
47.9749081826537
 22
43.45081795083671
 32
0.0
 13
47.9749081826537
 23
43.45081795083671
 33
0.0
  0
SOLID
  5
104
330
FD
100
AcDbEntity
  8
치수문자_일반주서
 62
     0
100
AcDbTrace
 10
-24.9230918173463
 20
44.00115128417004
 30
0.0
 11
-24.9230918173463
 21
42.90048461750337
 31
0.0
 12
-28.2250918173463
 22
43.45081795083671
 32
0.0
 13
-28.2250918173463
 23
43.45081795083671
 33
0.0
  0
MTEXT
  5
105
330
FD
100
AcDbEntity
  8
치수문자_일반주서
 62
     0
100
AcDbMText
 10
12.77570150979431
 20
47.82581795083671
 30
0.0
 40
3.5
 41
0.0
 71
     2
 72
     1
  1
\A1;76.2 [3]
  7
SLDTEXTSTYLE0
 73
     1
 44
1.0
  0
POINT
  5
106
330
FD
100
AcDbEntity
  8
Defpoints
 62
     0
100
AcDbPoint
 10
47.9749081826537
 20
1.581708435270852
 30
0.0
  0
POINT
  5
107
330
FD
100
AcDbEntity
  8
Defpoints
 62
     0
100
AcDbPoint
 10
-28.2250918173463
 20
2.36983515181409
 30
0.0
  0
POINT
  5
108
330
FD
100
AcDbEntity
  8
Defpoints
 62
     0
100
AcDbPoint
 10
-28.2250918173463
 20
43.45081795083671
 30
0.0
  0
ENDBLK
  5
FF
330
FD
100
AcDbEntity
  8
0
100
AcDbBlockEnd
  0
BLOCK
  5
111
330
110
100
AcDbEntity
  8
0
100
AcDbBlockBegin
  2
_D_2
 70
     0
 10
0.0
 20
0.0
 30
0.0
  3
_D_2
  1
_D_2
  0
LINE
  5
113
330
110
100
AcDbEntity
  8
치수문자_일반주서
 62
     0
370
    -2
100
AcDbLine
 10
-27.47759181734629
 20
3.179835151814089
 30
0.0
 11
-41.22509181734623
 21
3.179835151814039
 31
0.0
  0
LINE
  5
114
330
110
100
AcDbEntity
  8
치수문자_일반주서
 62
     0
370
    -2
100
AcDbLine
 10
-27.47759181734629
 20
-3.170164848185907
 30
0.0
 11
-41.22509181734621
 21
-3.170164848185955
 31
0.0
  0
LINE
  5
115
330
110
100
AcDbEntity
  8
치수문자_일반주서
 62
     0
370
    -2
100
AcDbLine
 10
-41.22509181734623
 20
3.179835151814039
 30
0.0
 11
-41.22509181734635
 21
39.26901039551633
 31
0.0
  0
LINE
  5
116
330
110
100
AcDbEntity
  8
치수문자_일반주서
 62
     0
370
    -2
100
AcDbLine
 10
-41.22509181734622
 20
-0.1221648481859603
 30
0.0
 11
-41.22509181734623
 21
0.1318351518140446
 31
0.0
  0
SOLID
  5
117
330
110
100
AcDbEntity
  8
치수문자_일반주서
 62
     0
100
AcDbTrace
 10
-40.67475848401288
 20
-0.1221648481859584
 30
0.0
 11
-41.77542515067955
 21
-0.1221648481859621
 31
0.0
 12
-41.22509181734623
 22
3.179835151814039
 32
0.0
 13
-41.22509181734623
 23
3.179835151814039
 33
0.0
  0
SOLID
  5
118
330
110
100
AcDbEntity
  8
치수문자_일반주서
 62
     0
100
AcDbTrace
 10
-41.77542515067956
 20
0.1318351518140427
 30
0.0
 11
-40.67475848401289
 21
0.1318351518140465
 31
0.0
 12
-41.22509181734621
 22
-3.170164848185955
 32
0.0
 13
-41.22509181734621
 23
-3.170164848185955
 33
0.0
  0
MTEXT
  5
119
330
110
100
AcDbEntity
  8
치수문자_일반주서
 62
     0
100
AcDbMText
 10
-45.60009181734631
 20
26.58151039551632
 30
0.0
 40
3.5
 41
0.0
 71
     2
 72
     1
  1
\A1;%%c6.35 [1/4]
  7
SLDTEXTSTYLE0
 11
-3.356894814614648E-15
 21
1.0
 31
0.0
 73
     1
 44
1.0
  0
POINT
  5
11A
330
110
100
AcDbEntity
  8
Defpoints
 62
     0
100
AcDbPoint
 10
-27.41509181734629
 20
3.179835151814089
 30
0.0
  0
POINT
  5
11B
330
110
100
AcDbEntity
  8
Defpoints
 62
     0
100
AcDbPoint
 10
-27.41509181734629
 20
-3.170164848185907
 30
0.0
  0
POINT
  5
197
330
110
100
AcDbEntity
  8
Defpoints
 62
     0
100
AcDbPoint
 10
-41.22509181734621
 20
-3.170164848185955
 30
0.0
  0
ENDBLK
  5
112
330
110
100
AcDbEntity
  8
0
100
AcDbBlockEnd
  0
BLOCK
  5
124
330
123
100
AcDbEntity
  8
0
100
AcDbBlockBegin
  2
SW_DOWELSYMBOL_0
 70
     0
 10
0.0
 20
0.0
 30
0.0
  3
SW_DOWELSYMBOL_0
  1
SW_DOWELSYMBOL_0
  0
CIRCLE
  5
126
330
123
100
AcDbEntity
  8
외형선
 62
     0
100
AcDbCircle
 10
0.0
 20
0.0
 30
0.0
 40
3.000000000000004
  0
HATCH
  5
127
330
123
100
AcDbEntity
  8
0
  6
Continuous
 62
     0
370
    30
100
AcDbHatch
 10
0.0
 20
0.0
 30
0.0
210
0.0
220
0.0
230
1.0
  2
SOLID
 70
     1
 71
     0
 91
        1
 92
        0
 93
        3
 72
     2
 10
-0.0000000000000013
 20
-0.0000000000000039
 40
3.000000000000004
 50
0.0
 51
90.0
 73
     1
 72
     1
 10
-0.0000000000000013
 20
3.0
 11
-0.0000000000000013
 21
-0.000000000000004
 72
     1
 10
-0.0000000000000013
 20
-0.0000000000000039
 11
3.000000000000003
 21
-0.0000000000000039
 97
        0
 75
     0
 76
     1
 98
        1
 10
0.0
 20
0.0
  0
HATCH
  5
128
330
123
100
AcDbEntity
  8
0
  6
Continuous
 62
     0
370
    30
100
AcDbHatch
 10
0.0
 20
0.0
 30
0.0
210
0.0
220
0.0
230
1.0
  2
SOLID
 70
     1
 71
     0
 91
        1
 92
        0
 93
        3
 72
     2
 10
-0.0000000000000013
 20
-0.0000000000000039
 40
3.000000000000004
 50
180.0
 51
270.0000000000008
 73
     1
 72
     1
 10
-0.0000000000000013
 20
-3.000000000000008
 11
-0.0000000000000013
 21
-0.000000000000004
 72
     1
 10
-0.0000000000000013
 20
-0.0000000000000039
 11
-3.000000000000006
 21
-0.0000000000000039
 97
        0
 75
     0
 76
     1
 98
        1
 10
0.0
 20
0.0
  0
ENDBLK
  5
125
330
123
100
AcDbEntity
  8
0
100
AcDbBlockEnd
  0
BLOCK
  5
155
330
154
100
AcDbEntity
  8
0
100
AcDbBlockBegin
  2
*D6
 70
     1
 10
0.0
 20
0.0
 30
0.0
  3
*D6
  1
*D6
  0
LINE
  5
157
330
154
100
AcDbEntity
  8
치수문자_일반주서
 62
     0
370
    -2
100
AcDbLine
 10
48.0374081826537
 20
1.592335151814098
 30
0.0
 11
60.27236572901979
 21
1.592335151814098
 31
0.0
  0
LINE
  5
158
330
154
100
AcDbEntity
  8
치수문자_일반주서
 62
     0
370
    -2
100
AcDbLine
 10
48.0374081826537
 20
-1.582664848185909
 30
0.0
 11
60.27236572901979
 21
-1.58266484818591
 31
0.0
  0
LINE
  5
159
330
154
100
AcDbEntity
  8
치수문자_일반주서
 62
     0
370
    -2
100
AcDbLine
 10
60.27236572901979
 20
1.592335151814098
 30
0.0
 11
60.27236572901979
 21
32.69633515181409
 31
0.0
  0
LINE
  5
15A
330
154
100
AcDbEntity
  8
치수문자_일반주서
 62
     0
370
    -2
100
AcDbLine
 10
60.27236572901979
 20
1.592335151814098
 30
0.0
 11
60.27236572901979
 21
-1.58266484818591
 31
0.0
  0
LINE
  5
15B
330
154
100
AcDbEntity
  8
치수문자_일반주서
 62
     0
370
    -2
100
AcDbLine
 10
60.27236572901979
 20
4.894335151814097
 30
0.0
 11
60.27236572901979
 21
8.196335151814097
 31
0.0
  0
LINE
  5
15C
330
154
100
AcDbEntity
  8
치수문자_일반주서
 62
     0
370
    -2
100
AcDbLine
 10
60.27236572901979
 20
-4.88466484818591
 30
0.0
 11
60.27236572901979
 21
-8.18666484818591
 31
0.0
  0
SOLID
  5
15D
330
154
100
AcDbEntity
  8
치수문자_일반주서
 62
     0
100
AcDbTrace
 10
59.72203239568645
 20
4.894335151814097
 30
0.0
 11
60.82269906235312
 21
4.894335151814097
 31
0.0
 12
60.27236572901979
 22
1.592335151814098
 32
0.0
 13
60.27236572901979
 23
1.592335151814098
 33
0.0
  0
SOLID
  5
15E
330
154
100
AcDbEntity
  8
치수문자_일반주서
 62
     0
100
AcDbTrace
 10
60.82269906235312
 20
-4.88466484818591
 30
0.0
 11
59.72203239568645
 21
-4.88466484818591
 31
0.0
 12
60.27236572901979
 22
-1.58266484818591
 32
0.0
 13
60.27236572901979
 23
-1.58266484818591
 33
0.0
  0
MTEXT
  5
15F
330
154
100
AcDbEntity
  8
치수문자_일반주서
 62
     0
100
AcDbMText
 10
57.64736572901979
 20
20.44633515181409
 30
0.0
 40
3.5
 41
0.0
 71
     5
 72
     1
  1
\A1;{%%c3.18 [1/8]}
  7
SLDTEXTSTYLE0
 11
0.0
 21
1.0
 31
0.0
 73
     1
 44
1.0
  0
POINT
  5
160
330
154
100
AcDbEntity
  8
Defpoints
 62
     0
100
AcDbPoint
 10
47.9749081826537
 20
1.592335151814098
 30
0.0
  0
POINT
  5
161
330
154
100
AcDbEntity
  8
Defpoints
 62
     0
100
AcDbPoint
 10
47.9749081826537
 20
-1.582664848185909
 30
0.0
  0
POINT
  5
196
330
154
100
AcDbEntity
  8
Defpoints
 62
     0
100
AcDbPoint
 10
60.27236572901979
 20
-1.58266484818591
 30
0.0
  0
ENDBLK
  5
156
330
154
100
AcDbEntity
  8
0
100
AcDbBlockEnd
  0
BLOCK
  5
16F
330
16E
100
AcDbEntity
  8
0
100
AcDbBlockBegin
  2
*D7
 70
     1
 10
0.0
 20
0.0
 30
0.0
  3
*D7
  1
*D7
  0
LINE
  5
171
330
16E
100
AcDbEntity
  8
치수문자_일반주서
 62
     0
370
    -2
100
AcDbLine
 10
30.22988222709762
 20
-4.694628311313403
 30
0.0
 11
29.76196058620966
 21
-9.044533406598669
 31
0.0
  0
LINE
  5
172
330
16E
100
AcDbEntity
  8
치수문자_일반주서
 62
     0
370
    -2
100
AcDbLine
 10
10.33768540638378
 20
2.249295319091676
 30
0.0
 11
30.64098073841981
 21
1.894899980814217
 31
0.0
  0
LINE
  5
173
330
16E
100
AcDbEntity
  8
치수문자_일반주서
 62
     0
370
    -2
100
AcDbLine
 10
8.061684437106205
 20
3.179835151814093
 30
0.0
 11
30.65219419777682
 21
3.179835151814096
 31
0.0
  0
ARC
  5
174
330
16E
100
AcDbEntity
  8
치수문자_일반주서
 62
     0
370
    -2
100
AcDbCircle
 10
-42.9729059061774
 20
3.179835151814088
 30
0.0
 40
73.62510010395422
100
AcDbArc
 50
353.8602712072237
 51
356.4301356036119
  0
ARC
  5
175
330
16E
100
AcDbEntity
  8
치수문자_일반주서
 62
     0
370
    -2
100
AcDbCircle
 10
-42.9729059061774
 20
3.179835151814088
 30
0.0
 40
73.62510010395422
100
AcDbArc
 50
2.56986439638818
 51
5.139728792776355
  0
ARC
  5
176
330
16E
100
AcDbEntity
  8
치수문자_일반주서
 62
     0
370
    -2
100
AcDbCircle
 10
-42.9729059061774
 20
3.179835151814088
 30
0.0
 40
73.62510010395422
100
AcDbArc
 50
359.0
 51
0.0000000000000065
  0
SOLID
  5
177
330
16E
100
AcDbEntity
  8
치수문자_일반주서
 62
     0
100
AcDbTrace
 10
31.0592290048334
 20
-1.426415897782668
 30
0.0
 11
29.95943746223909
 21
-1.382533396154812
 31
0.0
 12
30.64098073841981
 22
1.894899980814217
 32
0.0
 13
30.64098073841981
 23
1.894899980814217
 33
0.0
  0
SOLID
  5
178
330
16E
100
AcDbEntity
  8
치수문자_일반주서
 62
     0
100
AcDbTrace
 10
30.02795382330417
 20
6.468663930065712
 30
0.0
 11
31.12834371757349
 21
6.493345739178378
 31
0.0
 12
30.65219419777682
 22
3.179835151814096
 32
0.0
 13
30.65219419777682
 23
3.179835151814096
 33
0.0
  0
MTEXT
  5
179
330
16E
100
AcDbEntity
  8
치수문자_일반주서
 62
     0
100
AcDbMText
 10
27.38597834948248
 20
-6.588827874423258
 30
0.0
 40
3.5
 41
0.0
 71
     5
 72
     1
  1
\A1;1%%d
  7
SLDTEXTSTYLE0
 11
0.1069535179172486
 21
0.9942640217794894
 31
0.0
 73
     1
 44
1.0
  0
POINT
  5
17A
330
16E
100
AcDbEntity
  8
Defpoints
 62
     0
100
AcDbPoint
 10
30.65094822973417
 20
2.751504098424767
 30
0.0
  0
POINT
  5
17B
330
16E
100
AcDbEntity
  8
Defpoints
 62
     0
100
AcDbPoint
 10
7.999184437106205
 20
3.179835151814093
 30
0.0
  0
POINT
  5
17C
330
16E
100
AcDbEntity
  8
Defpoints
 62
     0
100
AcDbPoint
 10
10.27519492543651
 20
2.250386094494007
 30
0.0
  0
POINT
  5
17F
330
16E
100
AcDbEntity
  8
Defpoints
 62
     0
100
AcDbPoint
 10
9.8749081826537
 20
2.257373125579185
 30
0.0
  0
POINT
  5
180
330
16E
100
AcDbEntity
  8
Defpoints
 62
     0
100
AcDbPoint
 10
-27.41509181734629
 20
3.179835151814089
 30
0.0
  0
ENDBLK
  5
170
330
16E
100
AcDbEntity
  8
0
100
AcDbBlockEnd
  0
BLOCK
  5
185
330
184
100
AcDbEntity
  8
0
100
AcDbBlockBegin
  2
*D8
 70
     1
 10
0.0
 20
0.0
 30
0.0
  3
*D8
  1
*D8
  0
LINE
  5
187
330
184
100
AcDbEntity
  8
치수문자_일반주서
 62
     0
370
    -2
100
AcDbLine
 10
29.40058415377519
 20
-4.679963415851009
 30
0.0
 11
28.9282341840596
 21
-9.029389872995637
 31
0.0
  0
LINE
  5
188
330
184
100
AcDbEntity
  8
치수문자_일반주서
 62
     0
370
    -2
100
AcDbLine
 10
14.72504235848586
 20
2.172713718629468
 30
0.0
 11
29.81503458135581
 21
1.909316924612974
 31
0.0
  0
LINE
  5
189
330
184
100
AcDbEntity
  8
치수문자_일반주서
 62
     0
370
    -2
100
AcDbLine
 10
8.061684437106205
 20
3.179835151814093
 30
0.0
 11
29.82612222595035
 21
3.179835151814096
 31
0.0
  0
ARC
  5
18A
330
184
100
AcDbEntity
  8
치수문자_일반주서
 62
     0
370
    -2
100
AcDbCircle
 10
-42.97290590617629
 20
3.179835151814087
 30
0.0
 40
72.79902813212664
100
AcDbArc
 50
353.8019392471932
 51
356.4009696235966
  0
ARC
  5
18B
330
184
100
AcDbEntity
  8
치수문자_일반주서
 62
     0
370
    -2
100
AcDbCircle
 10
-42.97290590617629
 20
3.179835151814087
 30
0.0
 40
72.79902813212664
100
AcDbArc
 50
2.599030376403407
 51
5.198060752806807
  0
ARC
  5
18C
330
184
100
AcDbEntity
  8
치수문자_일반주서
 62
     0
370
    -2
100
AcDbCircle
 10
-42.97290590617629
 20
3.179835151814087
 30
0.0
 40
72.79902813212664
100
AcDbArc
 50
359.0
 51
0.0000000000000065
  0
SOLID
  5
18D
330
184
100
AcDbEntity
  8
치수문자_일반주서
 62
     0
100
AcDbTrace
 10
30.23243748896008
 20
-1.412105299450278
 30
0.0
 11
29.13265715101501
 21
-1.367942878994188
 31
0.0
 12
29.81503458135581
 22
1.909316924612974
 32
0.0
 13
29.81503458135581
 23
1.909316924612974
 33
0.0
  0
SOLID
  5
18E
330
184
100
AcDbEntity
  8
치수문자_일반주서
 62
     0
100
AcDbTrace
 10
29.20104479509048
 20
6.468504941137341
 30
0.0
 11
30.30142837167423
 21
6.49346682199334
 31
0.0
 12
29.82612222595035
 22
3.179835151814096
 32
0.0
 13
29.82612222595035
 23
3.179835151814096
 33
0.0
  0
MTEXT
  5
18F
330
184
100
AcDbEntity
  8
치수문자_일반주서
 62
     0
100
AcDbMText
 10
26.55475329463062
 20
-6.571266662593966
 30
0.0
 40
3.5
 41
0.0
 71
     5
 72
     1
  1
\A1;1%%d
  7
SLDTEXTSTYLE0
 11
0.1079657073635647
 21
0.9941546187759152
 31
0.0
 73
     1
 44
1.0
  0
POINT
  5
190
330
184
100
AcDbEntity
  8
Defpoints
 62
     0
100
AcDbPoint
 10
29.82489023764118
 20
2.75630996323674
 30
0.0
  0
POINT
  5
191
330
184
100
AcDbEntity
  8
Defpoints
 62
     0
100
AcDbPoint
 10
14.66255187753859
 20
2.173804494031798
 30
0.0
  0
POINT
  5
192
330
184
100
AcDbEntity
  8
Defpoints
 62
     0
100
AcDbPoint
 10
7.999184437106205
 20
3.179835151814093
 30
0.0
  0
POINT
  5
193
330
184
100
AcDbEntity
  8
Defpoints
 62
     0
100
AcDbPoint
 10
-27.41509181734629
 20
3.179835151814089
 30
0.0
  0
POINT
  5
195
330
184
100
AcDbEntity
  8
Defpoints
 62
     0
100
AcDbPoint
 10
12.05711279186614
 20
2.219282602438727
 30
0.0
  0
ENDBLK
  5
186
330
184
100
AcDbEntity
  8
0
100
AcDbBlockEnd
  0
ENDSEC
  0
SECTION
  2
ENTITIES
  0
LINE
  5
95
330
1F
100
AcDbEntity
  8
0
  6
Continuous
 62
     4
370
    15
100
AcDbLine
 10
-27.41509181734629
 20
3.179835151814089
 30
0.0
 11
-28.2250918173463
 21
2.369835151814089
 31
0.0
  0
LINE
  5
96
330
1F
100
AcDbEntity
  8
0
  6
Continuous
 62
     4
370
    15
100
AcDbLine
 10
-28.2250918173463
 20
-2.360164848185908
 30
0.0
 11
-27.41509181734629
 21
-3.170164848185907
 31
0.0
  0
LINE
  5
97
102
{ACAD_REACTORS
330
16D
102
}
330
1F
100
AcDbEntity
  8
0
  6
Continuous
 62
     4
370
    15
100
AcDbLine
 10
7.999184437106205
 20
3.179835151814093
 30
0.0
 11
-27.41509181734629
 21
3.179835151814089
 31
0.0
  0
LINE
  5
98
330
1F
100
AcDbEntity
  8
0
  6
Continuous
 62
     4
370
    15
100
AcDbLine
 10
-27.41509181734629
 20
-3.170164848185907
 30
0.0
 11
7.999184437106205
 21
-3.170164848185903
 31
0.0
  0
LINE
  5
99
330
1F
100
AcDbEntity
  8
0
  6
Continuous
 62
     4
370
    15
100
AcDbLine
 10
7.999184437106205
 20
-3.1701648481859
 30
0.0
 11
8.858908182653703
 21
-2.279894848185904
 31
0.0
  0
LINE
  5
9A
330
1F
100
AcDbEntity
  8
0
  6
Continuous
 62
     4
370
    15
100
AcDbLine
 10
8.858908182653703
 20
2.289565151814096
 30
0.0
 11
7.999184437106205
 21
3.179835151814092
 31
0.0
  0
LINE
  5
9B
330
1F
100
AcDbEntity
  8
0
  6
Continuous
 62
     1
370
    15
100
AcDbLine
 10
41.02073898242633
 20
-1.704050323097682
 30
0.0
 11
43.12319631575073
 21
-1.667351793835697
 31
0.0
  0
LINE
  5
9C
330
1F
100
AcDbEntity
  8
0
  6
Continuous
 62
     1
370
    15
100
AcDbLine
 10
27.6355790264349
 20
-1.937689159204091
 30
0.0
 11
30.00130852814529
 21
-1.896395197149136
 31
0.0
  0
LINE
  5
9D
330
1F
100
AcDbEntity
  8
0
  6
Continuous
 62
     1
370
    15
100
AcDbLine
 10
14.28104574012221
 20
-2.170793404802722
 30
0.0
 11
16.85522252856773
 21
-2.125860981823695
 31
0.0
  0
LINE
  5
9E
102
{ACAD_REACTORS
330
16D
102
}
330
1F
100
AcDbEntity
  8
0
  6
Continuous
 62
     1
370
    15
100
AcDbLine
 10
10.27519492543651
 20
2.250386094494007
 30
0.0
 11
9.8749081826537
 21
2.257373125579185
 31
0.0
  0
LINE
  5
9F
330
1F
100
AcDbEntity
  8
0
  6
Continuous
 62
     1
370
    15
100
AcDbLine
 10
23.43026106219473
 20
2.020763560941896
 30
0.0
 11
20.95490887085389
 21
2.063970994161956
 31
0.0
  0
LINE
  5
A0
330
1F
100
AcDbEntity
  8
0
  6
Continuous
 62
     1
370
    15
100
AcDbLine
 10
36.56538298388486
 20
1.791489154958742
 30
0.0
 11
34.32329613350997
 21
1.830624926506739
 31
0.0
  0
LINE
  5
A1
102
{ACAD_REACTORS
102
}
330
1F
100
AcDbEntity
  8
0
  6
Continuous
 62
     1
370
    15
100
AcDbLine
 10
47.9749081826537
 20
1.592335151814098
 30
0.0
 11
47.72766976447978
 21
1.596650714456074
 31
0.0
  0
LINE
  5
A2
330
1F
100
AcDbEntity
  8
0
  6
Continuous
 62
     1
370
    15
100
AcDbLine
 10
45.49107101896743
 20
-1.626020387149165
 30
0.0
 11
47.20867735153063
 21
-1.596039457093157
 31
0.0
  0
LINE
  5
A3
330
1F
100
AcDbEntity
  8
0
  6
Continuous
 62
     1
370
    15
100
AcDbLine
 10
32.09321382829033
 20
-1.859880854311422
 30
0.0
 11
34.37809020998883
 21
-1.819998188715923
 31
0.0
  0
LINE
  5
A4
330
1F
100
AcDbEntity
  8
0
  6
Continuous
 62
     1
370
    15
100
AcDbLine
 10
18.72964207576507
 20
-2.093142866924645
 30
0.0
 11
21.2395669929122
 21
-2.049331964530891
 31
0.0
  0
LINE
  5
A5
102
{ACAD_REACTORS
102
}
330
1F
100
AcDbEntity
  8
0
  6
Continuous
 62
     1
370
    15
100
AcDbLine
 10
14.66255187753859
 20
2.173804494031798
 30
0.0
 11
12.05711279186614
 21
2.219282602438727
 31
0.0
  0
LINE
  5
A6
330
1F
100
AcDbEntity
  8
0
  6
Continuous
 62
     1
370
    15
100
AcDbLine
 10
27.81157020292887
 20
1.944287525419789
 30
0.0
 11
25.4076489765799
 21
1.986248126508031
 31
0.0
  0
LINE
  5
A7
330
1F
100
AcDbEntity
  8
0
  6
Continuous
 62
     1
370
    15
100
AcDbLine
 10
40.93808323897079
 20
1.715163388094584
 30
0.0
 11
38.78702676037633
 21
1.752710218592713
 31
0.0
  0
LINE
  5
A8
330
1F
100
AcDbEntity
  8
0
  6
Continuous
 62
     1
370
    15
100
AcDbLine
 10
36.55453247036834
 20
-1.782008247748482
 30
0.0
 11
38.75206674959554
 21
-1.743650144222587
 31
0.0
  0
LINE
  5
A9
330
1F
100
AcDbEntity
  8
0
  6
Continuous
 62
     1
370
    15
100
AcDbLine
 10
23.1803674008543
 20
-2.01545516739755
 30
0.0
 11
25.62097710082561
 21
-1.972854166620113
 31
0.0
  0
LINE
  5
AA
330
1F
100
AcDbEntity
  8
0
  6
Continuous
 62
     1
370
    15
100
AcDbLine
 10
9.8749081826537
 20
-2.247702821950993
 30
0.0
 11
12.46886231396935
 21
-2.20242518416806
 31
0.0
  0
LINE
  5
AB
330
1F
100
AcDbEntity
  8
0
  6
Continuous
 62
     1
370
    15
100
AcDbLine
 10
19.04728804515279
 20
2.097268639532989
 30
0.0
 11
16.50432759422599
 21
2.141656179313805
 31
0.0
  0
LINE
  5
AC
330
1F
100
AcDbEntity
  8
0
  6
Continuous
 62
     1
370
    15
100
AcDbLine
 10
32.19011763900707
 20
1.867859695631764
 30
0.0
 11
29.86405835154806
 21
1.908461211521244
 31
0.0
  0
LINE
  5
AD
330
1F
100
AcDbEntity
  8
0
  6
Continuous
 62
     1
370
    15
100
AcDbLine
 10
45.30705556630126
 20
1.638902692451445
 30
0.0
 11
43.25548067406551
 21
1.674713065400521
 31
0.0
  0
LINE
  5
AE
330
1F
100
AcDbEntity
  8
0
  6
Continuous
 62
     1
370
    15
100
AcDbLine
 10
9.834233077771756
 20
-2.248991615300862
 30
0.0
 11
9.8749081826537
 21
-2.247702821950993
 31
0.0
  0
LINE
  5
AF
330
1F
100
AcDbEntity
  8
0
  6
Continuous
 62
     4
370
    15
100
AcDbLine
 10
8.858908182653703
 20
-2.279894848185904
 30
0.0
 11
8.984908182653697
 21
-2.275902529971732
 31
0.0
  0
LINE
  5
B0
330
1F
100
AcDbEntity
  8
0
  6
Continuous
 62
     4
370
    15
100
AcDbLine
 10
9.8749081826537
 20
2.257373125579185
 30
0.0
 11
8.858908182653703
 21
2.289565151814096
 31
0.0
  0
LINE
  5
B1
330
1F
100
AcDbEntity
  8
0
  6
Continuous
 62
     4
370
    15
100
AcDbLine
 10
-27.41509181734629
 20
3.179835151814089
 30
0.0
 11
-27.41509181734629
 21
-3.170164848185907
 31
0.0
  0
LINE
  5
B2
330
1F
100
AcDbEntity
  8
0
  6
Continuous
 62
     4
370
    15
100
AcDbLine
 10
-28.2250918173463
 20
-2.360164848185907
 30
0.0
 11
-28.2250918173463
 21
2.369835151814092
 31
0.0
  0
LINE
  5
B3
330
1F
100
AcDbEntity
  8
0
  6
Continuous
 62
     4
370
    15
100
AcDbLine
 10
7.999184437106205
 20
3.179835151814091
 30
0.0
 11
7.999184437106205
 21
-3.170164848185903
 31
0.0
  0
LINE
  5
B4
330
1F
100
AcDbEntity
  8
0
  6
Continuous
 62
     4
370
    15
100
AcDbLine
 10
8.858908182653703
 20
2.289565151814096
 30
0.0
 11
8.858908182653703
 21
-2.279894848185904
 31
0.0
  0
SPLINE
  5
B5
330
1F
100
AcDbEntity
  8
0
  6
Continuous
 62
     1
370
    15
100
AcDbSpline
210
0.0
220
0.0
230
1.0
 70
     8
 71
     3
 72
    16
 73
    12
 74
     0
 42
0.000000001
 43
0.00000001
 40
0.0
 40
0.0
 40
0.0
 40
0.0
 40
0.1315518610208393
 40
0.2426576557801483
 40
0.3569706598813634
 40
0.4682817914432084
 40
0.5828199003897582
 40
0.6941083773878206
 40
0.8086229457364712
 40
0.9198933730936724
 40
0.9999999999999999
 40
0.9999999999999999
 40
0.9999999999999999
 40
0.9999999999999999
 10
9.874908182653863
 20
1.093191588701487
 30
0.0
 10
10.06657206843376
 20
0.9063103711328744
 30
0.0
 10
10.42011103671714
 20
0.5615934069437041
 30
0.0
 10
10.94127181406513
 20
0.007699091303749
 30
0.0
 10
11.43398453341382
 20
-0.5081508152943528
 30
0.0
 10
11.93265567493669
 20
-0.9992537087273087
 30
0.0
 10
12.42802094231729
 20
-1.428450018737597
 30
0.0
 10
12.92902014221885
 20
-1.781457842095054
 30
0.0
 10
13.42638084701189
 20
-2.027190061401275
 30
0.0
 10
13.87845177153911
 20
-2.16251304426448
 30
0.0
 10
14.1620909669623
 20
-2.159099847396504
 30
0.0
 10
14.28081669033188
 20
-2.157671151103142
 30
0.0
  0
SPLINE
  5
B6
330
1F
100
AcDbEntity
  8
0
  6
Continuous
 62
     1
370
    15
100
AcDbSpline
210
0.0
220
0.0
230
1.0
 70
     8
 71
     3
 72
    23
 73
    19
 74
     0
 42
0.000000001
 43
0.00000001
 40
0.0
 40
0.0
 40
0.0
 40
0.0
 40
0.0034853122459671
 40
0.0728011488531286
 40
0.14019078310545
 40
0.209531428385004
 40
0.2769506955929811
 40
0.3463214808842941
 40
0.4137765210843948
 40
0.4831836985974274
 40
0.5506813091589059
 40
0.6201318734272401
 40
0.6876784650246165
 40
0.7571790704246655
 40
0.8247807842924978
 40
0.8943376515818442
 40
0.9620023378201066
 40
0.9999999999999999
 40
0.9999999999999999
 40
0.9999999999999999
 40
0.9999999999999999
 10
19.9895161185296
 20
1.868042426839464
 30
0.0
 10
19.99824946593785
 20
1.872489746233149
 30
0.0
 10
20.1806714929427
 20
1.965385285664859
 30
0.0
 10
20.53303253044175
 20
2.043690022546333
 30
0.0
 10
21.05145097366824
 20
2.08244890067198
 30
0.0
 10
21.56643602897852
 20
1.987686770719119
 30
0.0
 10
22.08740401767897
 20
1.778511809341873
 30
0.0
 10
22.6048383199562
 20
1.467099828476031
 30
0.0
 10
23.12833451177857
 20
1.067887885411149
 30
0.0
 10
23.64831124903512
 20
0.6114001420086729
 30
0.0
 10
24.17440651615939
 20
0.1174026043200131
 30
0.0
 10
24.69700536582626
 20
-0.3758318147737023
 30
0.0
 10
25.22577354440989
 20
-0.8469615311382356
 30
0.0
 10
25.751068993663
 20
-1.258809034504018
 30
0.0
 10
26.28257063866341
 20
-1.595278245217834
 30
0.0
 10
26.81067713379593
 20
-1.822640641047178
 30
0.0
 10
27.26317999411222
 20
-1.937999121903373
 30
0.0
 10
27.53688104319628
 20
-1.926341588882459
 30
0.0
 10
27.63530777851945
 20
-1.92214937653614
 30
0.0
  0
SPLINE
  5
B7
330
1F
100
AcDbEntity
  8
0
  6
Continuous
 62
     1
370
    15
100
AcDbSpline
210
0.0
220
0.0
230
1.0
 70
     8
 71
     3
 72
    22
 73
    18
 74
     0
 42
0.000000001
 43
0.00000001
 40
0.0
 40
0.0
 40
0.0
 40
0.0
 40
0.0078599570581746
 40
0.0786856928632685
 40
0.1515560526516231
 40
0.2225096234509265
 40
0.2955108479631534
 40
0.3666035520014458
 40
0.439747234529509
 40
0.5109909783850101
 40
0.5842893294062482
 40
0.6556966003944105
 40
0.7291624429853483
 40
0.800745959959446
 40
0.8743923599225568
 40
0.946165167295593
 40
0.9999999999999999
 40
0.9999999999999999
 40
0.9999999999999999
 40
0.9999999999999999
 10
33.23866116152761
 20
1.610609087507449
 30
0.0
 10
33.2587062587376
 20
1.620460229090096
 30
0.0
 10
33.45937686683457
 20
1.71907958479238
 30
0.0
 10
33.8470152768946
 20
1.806804072435133
 30
0.0
 10
34.39692091961275
 20
1.850630629810781
 30
0.0
 10
34.95369156723666
 20
1.759574374539857
 30
0.0
 10
35.50723938668039
 20
1.555179290083412
 30
0.0
 10
36.06761073130331
 20
1.244368533405275
 30
0.0
 10
36.62483703751388
 20
0.8545299165171897
 30
0.0
 10
37.18895869459241
 20
0.4058196088511019
 30
0.0
 10
37.74998743305239
 20
-0.0633056355169895
 30
0.0
 10
38.31799425433616
 20
-0.5280213719442012
 30
0.0
 10
38.88296309196704
 20
-0.9478845890260051
 30
0.0
 10
39.4549859524339
 20
-1.301664377924424
 30
0.0
 10
40.02406641975609
 20
-1.553196081505321
 30
0.0
 10
40.54757054822894
 20
-1.694783061756011
 30
0.0
 10
40.8786286290077
 20
-1.692429635074863
 30
0.0
 10
41.02051853620743
 20
-1.691420967675462
 30
0.0
  0
SPLINE
  5
B8
330
1F
100
AcDbEntity
  8
0
  6
Continuous
 62
     1
370
    15
100
AcDbSpline
210
0.0
220
0.0
230
1.0
 70
     8
 71
     3
 72
    10
 73
     6
 74
     0
 42
0.000000001
 43
0.00000001
 40
0.0
 40
0.0
 40
0.0
 40
0.0
 40
0.3748441075608871
 40
0.7848600216396819
 40
0.9999999999999999
 40
0.9999999999999999
 40
0.9999999999999999
 40
0.9999999999999999
 10
46.49111172482631
 20
1.352522938104146
 30
0.0
 10
46.67607888608715
 20
1.418115030577007
 30
0.0
 10
47.06336876809828
 20
1.555453753740154
 30
0.0
 10
47.55856599263277
 20
1.610159787235935
 30
0.0
 10
47.86831257405412
 20
1.588992801955112
 30
0.0
 10
47.9749081826537
 20
1.581708435270985
 30
0.0
  0
SPLINE
  5
B9
330
1F
100
AcDbEntity
  8
0
  6
Continuous
 62
     1
370
    15
100
AcDbSpline
210
0.0
220
0.0
230
1.0
 70
     8
 71
     3
 72
    22
 73
    18
 74
     0
 42
0.000000001
 43
0.00000001
 40
0.0
 40
0.0
 40
0.0
 40
0.0
 40
0.054991516487702
 40
0.1264642684356575
 40
0.200017365840417
 40
0.2713103822861324
 40
0.3446778726916745
 40
0.4158038122393433
 40
0.4889987545313684
 40
0.5599699321381936
 40
0.6330050378651654
 40
0.7038330747631453
 40
0.7767203361988977
 40
0.847416058976951
 40
0.9201666504508796
 40
0.9907399646304107
 40
1.0
 40
1.0
 40
1.0
 40
1.0
 10
44.29548414583748
 20
-1.382035915454011
 30
0.0
 10
44.15157530128003
 20
-1.443433631557969
 30
0.0
 10
43.82062740402665
 20
-1.584630269632926
 30
0.0
 10
43.29880854057841
 20
-1.676625025440918
 30
0.0
 10
42.7354621932677
 20
-1.666427433620187
 30
0.0
 10
42.16863256897818
 20
-1.52949624537562
 30
0.0
 10
41.60924150532946
 20
-1.282507598760316
 30
0.0
 10
41.04631540869351
 20
-0.9376117016057282
 30
0.0
 10
40.49071769100124
 20
-0.5258959322933335
 30
0.0
 10
39.93157047832354
 20
-0.0691688780622825
 30
0.0
 10
39.37963694700188
 20
0.3921196996892966
 30
0.0
 10
38.82414120797985
 20
0.8340776898794827
 30
0.0
 10
38.27575686833916
 20
1.216924153060105
 30
0.0
 10
37.7237725005299
 20
1.524978080251421
 30
0.0
 10
37.17890620321036
 20
1.716132179030635
 30
0.0
 10
36.79107822856339
 20
1.802205299555089
 30
0.0
 10
36.58873223181372
 20
1.786376841437732
 30
0.0
 10
36.56526170104707
 20
1.784540865835548
 30
0.0
  0
SPLINE
  5
BA
330
1F
100
AcDbEntity
  8
0
  6
Continuous
 62
     1
370
    15
100
AcDbSpline
210
0.0
220
0.0
230
1.0
 70
     8
 71
     3
 72
    23
 73
    19
 74
     0
 42
0.000000001
 43
0.00000001
 40
0.0
 40
0.0
 40
0.0
 40
0.0
 40
0.0391736562412162
 40
0.1066843386359723
 40
0.176154387144928
 40
0.2436050108304774
 40
0.3130129055272956
 40
0.3804102948521175
 40
0.4497630675604415
 40
0.5171135418995033
 40
0.5864177272350228
 40
0.6537279516637972
 40
0.7229904075304224
 40
0.7902664211160841
 40
0.8594933744872771
 40
0.9267405763378966
 40
0.995937599677668
 40
1.0
 40
1.0
 40
1.0
 40
1.0
 10
31.02934941144798
 20
-1.641564626426854
 30
0.0
 10
30.92853472076209
 20
-1.687939961090117
 30
0.0
 10
30.65397907207852
 20
-1.814237130726446
 30
0.0
 10
30.20198062565959
 20
-1.900968710927946
 30
0.0
 10
29.67824767820386
 20
-1.90033674389142
 30
0.0
 10
29.15095494629029
 20
-1.773912434602425
 30
0.0
 10
28.62995628657847
 20
-1.537883344197501
 30
0.0
 10
28.10534386311755
 20
-1.200984074935369
 30
0.0
 10
27.58696719893989
 20
-0.7903030271195661
 30
0.0
 10
27.06497167460129
 20
-0.3237697336165339
 30
0.0
 10
26.54914463099793
 20
0.1618862559847367
 30
0.0
 10
26.02969631514459
 20
0.6454284767855106
 30
0.0
 10
25.51634591713673
 20
1.089315219150846
 30
0.0
 10
24.99938011549513
 20
1.473180894818589
 30
0.0
 10
24.48841844622077
 20
1.771512187250287
 30
0.0
 10
23.97395157885892
 20
1.955002157846528
 30
0.0
 10
23.6228431230884
 20
2.034803934016912
 30
0.0
 10
23.44032454069064
 20
2.018375311978424
 30
0.0
 10
23.4302034735173
 20
2.017464307821847
 30
0.0
  0
SPLINE
  5
BB
330
1F
100
AcDbEntity
  8
0
  6
Continuous
 62
     1
370
    15
100
AcDbSpline
210
0.0
220
0.0
230
1.0
 70
     8
 71
     3
 72
    23
 73
    19
 74
     0
 42
0.000000001
 43
0.00000001
 40
0.0
 40
0.0
 40
0.0
 40
0.0
 40
0.0487081262697804
 40
0.1130906760593502
 40
0.1793383479895178
 40
0.2437311208142245
 40
0.3099891020244888
 40
0.374396021476562
 40
0.440668385045925
 40
0.5050933493766957
 40
0.5713840736856106
 40
0.635830712901222
 40
0.7021435634061243
 40
0.7666157550357349
 40
0.8329547356280254
 40
0.8974556220213364
 40
0.9638239427028937
 40
1.0
 40
1.0
 40
1.0
 40
1.0
 10
17.78665376520744
 20
-1.892691720802876
 30
0.0
 10
17.66279654645488
 20
-1.947136366733461
 30
0.0
 10
17.37522447837784
 20
-2.073546111628982
 30
0.0
 10
16.92046361627141
 20
-2.141355567308839
 30
0.0
 10
16.42671303834745
 20
-2.109221892105495
 30
0.0
 10
15.92936539106928
 20
-1.95405586909264
 30
0.0
 10
15.43755968165503
 20
-1.691611211979677
 30
0.0
 10
14.94212730857899
 20
-1.330409077801432
 30
0.0
 10
14.45220147340448
 20
-0.896785201800561
 30
0.0
 10
13.95864534627398
 20
-0.4068411019291636
 30
0.0
 10
13.47055074101132
 20
0.1041916029384867
 30
0.0
 10
12.9788260367763
 20
0.6172951159304235
 30
0.0
 10
12.49251975811892
 20
1.095762766519466
 30
0.0
 10
12.00259072582766
 20
1.521616194513229
 30
0.0
 10
11.51801972379788
 20
1.865355226332635
 30
0.0
 10
11.0298876076794
 20
2.110645726459571
 30
0.0
 10
10.61694120016654
 20
2.232648671588211
 30
0.0
 10
10.36426024123513
 20
2.242517078585239
 30
0.0
 10
10.2751183396665
 20
2.245998498668843
 30
0.0
  0
LINE
  5
BC
330
1F
100
AcDbEntity
  8
0
  6
Continuous
 62
     1
370
    15
100
AcDbLine
 10
47.9749081826537
 20
1.592335151814098
 30
0.0
 11
47.9749081826537
 21
1.581708435270852
 31
0.0
  0
SPLINE
  5
BD
330
1F
100
AcDbEntity
  8
0
  6
Continuous
 62
     1
370
    15
100
AcDbSpline
210
0.0
220
0.0
230
1.0
 70
     8
 71
     3
 72
    23
 73
    19
 74
     0
 42
0.000000001
 43
0.00000001
 40
0.0
 40
0.0
 40
0.0
 40
0.0
 40
0.0367545145524988
 40
0.1023598386943495
 40
0.1698671010732072
 40
0.2354590729116595
 40
0.3029524607702063
 40
0.3685337943865623
 40
0.4360159123985682
 40
0.5015914391647401
 40
0.5690673304081979
 40
0.6346411333717265
 40
0.7021149942272589
 40
0.7676917205851779
 40
0.8351682348512703
 40
0.9007531537848054
 40
0.9682378333988082
 40
1.0
 40
1.0
 40
1.0
 40
1.0
 10
11.16480962942165
 20
2.0265610540824
 30
0.0
 10
11.25602410456274
 20
2.06647258819586
 30
0.0
 10
11.51005273412592
 20
2.177624598870967
 30
0.0
 10
11.9326877249347
 20
2.234579999808081
 30
0.0
 10
12.42801093651547
 20
2.199953875708696
 30
0.0
 10
12.92902867529822
 20
2.03919307267613
 30
0.0
 10
13.42635638127046
 20
1.771059196750637
 30
0.0
 10
13.92936172278827
 20
1.404016167839105
 30
0.0
 10
14.42870276855333
 20
0.9654329704616414
 30
0.0
 10
14.93376160016914
 20
0.4720242698182127
 30
0.0
 10
15.43516814506342
 20
-0.0400253540400008
 30
0.0
 10
15.94232889462434
 20
-0.5509107333306934
 30
0.0
 10
16.44584671418277
 20
-1.023249753721173
 30
0.0
 10
16.95516138080419
 20
-1.438102949012439
 30
0.0
 10
17.46083801376739
 20
-1.767097581366943
 30
0.0
 10
17.97241109570912
 20
-1.989265218906727
 30
0.0
 10
18.3936814213308
 20
-2.096592363896443
 30
0.0
 10
18.64799618642581
 20
-2.082824103432551
 30
0.0
 10
18.7293850491064
 20
-2.078417819511807
 30
0.0
  0
SPLINE
  5
BE
330
1F
100
AcDbEntity
  8
0
  6
Continuous
 62
     1
370
    15
100
AcDbSpline
210
0.0
220
0.0
230
1.0
 70
     8
 71
     3
 72
    22
 73
    18
 74
     0
 42
0.000000001
 43
0.00000001
 40
0.0
 40
0.0
 40
0.0
 40
0.0
 40
0.037306096195909
 40
0.1058710965590941
 40
0.1764195716457487
 40
0.2450405253650454
 40
0.3156461106088363
 40
0.384330986141201
 40
0.4550018442498345
 40
0.5237585257072959
 40
0.5945028162864883
 40
0.6633386731589739
 40
0.7341639424879793
 40
0.8030872176110461
 40
0.8740018950037929
 40
0.9430218297038286
 40
1.0
 40
1.0
 40
1.0
 40
1.0
 10
24.42030328394105
 20
1.777951375254034
 30
0.0
 10
24.51418914822843
 20
1.81842842717759
 30
0.0
 10
24.78062816000024
 20
1.933298389719962
 30
0.0
 10
25.22581080200445
 20
1.999125249159676
 30
0.0
 10
25.75105678483834
 20
1.975410121036815
 30
0.0
 10
26.28258278352331
 20
1.824909141092161
 30
0.0
 10
26.81064017384128
 20
1.566620474327736
 30
0.0
 10
27.34498050645823
 20
1.210444375183626
 30
0.0
 10
27.87589679768078
 20
0.7851859815252894
 30
0.0
 10
28.41315317278876
 20
0.3102004739708298
 30
0.0
 10
28.94701305016228
 20
-0.1765564499046528
 30
0.0
 10
29.48727073654499
 20
-0.6526297902557694
 30
0.0
 10
30.0241616450171
 20
-1.079498425185244
 30
0.0
 10
30.56750314186624
 20
-1.438404854437826
 30
0.0
 10
31.10754366159771
 20
-1.695783451103251
 30
0.0
 10
31.61761973761434
 20
-1.846103691113957
 30
0.0
 10
31.94499550795053
 20
-1.848716542844113
 30
0.0
 10
32.09303957888014
 20
-1.849898112287906
 30
0.0
  0
SPLINE
  5
BF
330
1F
100
AcDbEntity
  8
0
  6
Continuous
 62
     1
370
    15
100
AcDbSpline
210
0.0
220
0.0
230
1.0
 70
     8
 71
     3
 72
    22
 73
    18
 74
     0
 42
0.000000001
 43
0.00000001
 40
0.0
 40
0.0
 40
0.0
 40
0.0
 40
0.0116099356809536
 40
0.0839298278497881
 40
0.158334601211733
 40
0.2308329918796931
 40
0.3054206302287064
 40
0.3781107305230167
 40
0.4528947879592229
 40
0.525790792332759
 40
0.6007857799584472
 40
0.6739033541226437
 40
0.749125355830778
 40
0.8224808279272581
 40
0.8979465804504487
 40
0.9715573873808611
 40
1.0
 40
1.0
 40
1.0
 40
1.0
 10
37.66576655635061
 20
1.526662915636151
 30
0.0
 10
37.69554213036653
 20
1.540879702622095
 30
0.0
 10
37.91079386560091
 20
1.643654818445075
 30
0.0
 10
38.31807194839667
 20
1.732868559427735
 30
0.0
 10
38.88294071431897
 20
1.771650519828652
 30
0.0
 10
39.45499910498068
 20
1.675417334043752
 30
0.0
 10
40.02403599676752
 20
1.465349041970089
 30
0.0
 10
40.60023802505401
 20
1.149752417452653
 30
0.0
 10
41.17350469098568
 20
0.7574046140320906
 30
0.0
 10
41.75402291891369
 20
0.3102120865191306
 30
0.0
 10
42.33167068937168
 20
-0.1518877589520253
 30
0.0
 10
42.91666868599471
 20
-0.6025443082512275
 30
0.0
 10
43.49887074200402
 20
-1.000490116808998
 30
0.0
 10
44.08850475190873
 20
-1.325173132368053
 30
0.0
 10
44.67550345901329
 20
-1.536809897172854
 30
0.0
 10
45.14473247159409
 20
-1.635126241383608
 30
0.0
 10
45.4153770933344
 20
-1.616158727002578
 30
0.0
 10
45.49080661022457
 20
-1.610872420416588
 30
0.0
  0
SPLINE
  5
C0
330
1F
100
AcDbEntity
  8
0
  6
Continuous
 62
     4
370
    15
100
AcDbSpline
210
0.0
220
0.0
230
1.0
 70
     8
 71
     3
 72
     8
 73
     4
 74
     0
 42
0.000000001
 43
0.00000001
 40
0.0
 40
0.0
 40
0.0
 40
0.0
 40
1.0
 40
1.0
 40
1.0
 40
1.0
 10
9.8749081826537
 20
-0.7306201889573126
 30
0.0
 10
9.576496465335232
 20
-0.4308003561135068
 30
0.0
 10
9.28131701595845
 20
-0.1080825106952089
 30
0.0
 10
8.984908182653697
 20
0.2137463847363581
 30
0.0
  0
SPLINE
  5
C1
330
1F
100
AcDbEntity
  8
0
  6
Continuous
 62
     4
370
    15
100
AcDbSpline
210
0.0
220
0.0
230
1.0
 70
     8
 71
     3
 72
     8
 73
     4
 74
     0
 42
0.000000001
 43
0.00000001
 40
0.0
 40
0.0
 40
0.0
 40
0.0
 40
1.0
 40
1.0
 40
1.0
 40
1.0
 10
8.984908182653697
 20
1.825036564637775
 30
0.0
 10
9.281320018524761
 20
1.625392454245602
 30
0.0
 10
9.576533124594306
 20
1.375347167218819
 30
0.0
 10
9.874908182653698
 20
1.093191588701936
 30
0.0
  0
SPLINE
  5
C2
330
1F
100
AcDbEntity
  8
0
  6
Continuous
 62
     1
370
    15
100
AcDbSpline
210
0.0
220
0.0
230
1.0
 70
     8
 71
     3
 72
    14
 73
    10
 74
     0
 42
0.000000001
 43
0.00000001
 40
0.0
 40
0.0
 40
0.0
 40
0.0
 40
0.0657926181597639
 40
0.2403401198418944
 40
0.4156916437893871
 40
0.5705501164137908
 40
0.7188082221603003
 40
0.9276198372608893
 40
1.0
 40
1.0
 40
1.0
 40
1.0
 10
47.20268964546412
 20
0.7849118424014094
 30
0.0
 10
47.2259752577076
 20
0.7728167910798168
 30
0.0
 10
47.31103748799613
 20
0.7286336263809062
 30
0.0
 10
47.48167899383582
 20
0.7452958376273631
 30
0.0
 10
47.67443433987125
 20
0.8281427312460637
 30
0.0
 10
47.82407046663847
 20
0.9878877689579992
 30
0.0
 10
47.93096515773961
 20
1.206543349056018
 30
0.0
 10
47.97093565825326
 20
1.413183993260826
 30
0.0
 10
47.97409496211895
 20
1.547209581888326
 30
0.0
 10
47.9749081826537
 20
1.581708435270852
 30
0.0
  0
SPLINE
  5
C3
330
1F
100
AcDbEntity
  8
0
  6
Continuous
 62
     1
370
    15
100
AcDbSpline
210
0.0
220
0.0
230
1.0
 70
     8
 71
     3
 72
    11
 73
     7
 74
     0
 42
0.000000001
 43
0.00000001
 40
0.0
 40
0.0
 40
0.0
 40
0.0
 40
0.2797614450561575
 40
0.5671028643678407
 40
0.855935267928345
 40
1.0
 40
1.0
 40
1.0
 40
1.0
 10
47.27565306637547
 20
0.9419194254076951
 30
0.0
 10
47.09144096419504
 20
1.052722520645941
 30
0.0
 10
46.71802563966106
 20
1.27733085678682
 30
0.0
 10
46.15601012793312
 20
1.504528844664425
 30
0.0
 10
45.68388547625644
 20
1.629392605247692
 30
0.0
 10
45.40093965657182
 20
1.624576815461332
 30
0.0
 10
45.30677753271268
 20
1.622974158829584
 30
0.0
  0
SPLINE
  5
C4
330
1F
100
AcDbEntity
  8
0
  6
Continuous
 62
     1
370
    15
100
AcDbSpline
210
0.0
220
0.0
230
1.0
 70
     8
 71
     3
 72
    22
 73
    18
 74
     0
 42
0.000000001
 43
0.00000001
 40
0.0
 40
0.0
 40
0.0
 40
0.0
 40
0.0647696722626069
 40
0.1347145298346319
 40
0.2066929347603795
 40
0.2765071280830712
 40
0.3483505672320897
 40
0.4180438783114745
 40
0.4897624251427695
 40
0.5593442921541542
 40
0.630947687888221
 40
0.7004276218418702
 40
0.7719256764406057
 40
0.8413127123382167
 40
0.9127147461316139
 40
0.9820172816693101
 40
1.0
 40
1.0
 40
1.0
 40
1.0
 10
39.87966899602845
 20
-1.472452768188124
 30
0.0
 10
39.71109789289878
 20
-1.540672808498457
 30
0.0
 10
39.36048662517853
 20
-1.682563763549838
 30
0.0
 10
38.82416062696682
 20
-1.760146949277471
 30
0.0
 10
38.27574679220233
 20
-1.727116705785463
 30
0.0
 10
37.72379334137514
 20
-1.570284094682581
 30
0.0
 10
37.17883141595132
 20
-1.306296009540243
 30
0.0
 10
36.6302952537144
 20
-0.9475472160661419
 30
0.0
 10
36.0886597911144
 20
-0.5248890787505966
 30
0.0
 10
35.54344130374974
 20
-0.0592433983811123
 30
0.0
 10
35.00502941058362
 20
0.4098863428031244
 30
0.0
 10
34.46302602320051
 20
0.8597204888514959
 30
0.0
 10
33.92774260445021
 20
1.251587821386975
 30
0.0
 10
33.38883799187145
 20
1.569777727895132
 30
0.0
 10
32.85665106369083
 20
1.775431481265234
 30
0.0
 10
32.45537962720979
 20
1.872084951071292
 30
0.0
 10
32.23526234846094
 20
1.85887264777061
 30
0.0
 10
32.18991325628294
 20
1.856150617207302
 30
0.0
  0
SPLINE
  5
C5
330
1F
100
AcDbEntity
  8
0
  6
Continuous
 62
     1
370
    15
100
AcDbSpline
210
0.0
220
0.0
230
1.0
 70
     8
 71
     3
 72
    23
 73
    19
 74
     0
 42
0.000000001
 43
0.00000001
 40
0.0
 40
0.0
 40
0.0
 40
0.0
 40
0.0106161336946238
 40
0.0768967142163563
 40
0.1450996629089219
 40
0.2113465559105058
 40
0.2795145451889976
 40
0.345733067188396
 40
0.4138715842748907
 40
0.4800676440633527
 40
0.5481827811109005
 40
0.6143616248864895
 40
0.6824587803976976
 40
0.7486251827963383
 40
0.8167092897321339
 40
0.8828685540768675
 40
0.9509450812629794
 40
1.0
 40
1.0
 40
1.0
 40
1.0
 10
26.62609941980438
 20
-1.726346648739509
 30
0.0
 10
26.59883225064559
 20
-1.740755680831926
 30
0.0
 10
26.40132572194062
 20
-1.845125807924996
 30
0.0
 10
26.02976409649947
 20
-1.941625722438715
 30
0.0
 10
25.5163294976198
 20
-1.993950311113636
 30
0.0
 10
24.9993796681067
 20
-1.915648620637963
 30
0.0
 10
24.48843749429827
 20
-1.724804381776265
 30
0.0
 10
23.97387763260522
 20
-1.426042687100947
 30
0.0
 10
23.46529217784112
 20
-1.043081040519399
 30
0.0
 10
22.95308080834302
 20
-0.5915908470258464
 30
0.0
 10
22.44678377522136
 20
-0.1060544602369483
 30
0.0
 10
21.93685904120476
 20
0.3934769213240839
 30
0.0
 10
21.43279113713249
 20
0.8691701639539127
 30
0.0
 10
20.92509642267835
 20
1.301163890144604
 30
0.0
 10
20.42319635109684
 20
1.658141627836863
 30
0.0
 10
19.917700502481
 20
1.920485633801216
 30
0.0
 10
19.46048649862605
 20
2.072949686576537
 30
0.0
 10
19.1691192669169
 20
2.082254825326645
 30
0.0
 10
19.04709400067454
 20
2.086151838819698
 30
0.0
  0
SPLINE
  5
C6
330
1F
100
AcDbEntity
  8
0
  6
Continuous
 62
     1
370
    15
100
AcDbSpline
210
0.0
220
0.0
230
1.0
 70
     8
 71
     3
 72
    15
 73
    11
 74
     0
 42
0.000000001
 43
0.00000001
 40
0.0
 40
0.0
 40
0.0
 40
0.0
 40
0.1086476452976285
 40
0.2499367343812563
 40
0.3873040343422093
 40
0.5286487973444917
 40
0.6660772356367617
 40
0.8074845119295234
 40
0.9030883319209738
 40
1.0
 40
1.0
 40
1.0
 40
1.0
 10
13.36539927931941
 20
-1.980178942798009
 30
0.0
 10
13.23809706100057
 20
-2.034703151393664
 30
0.0
 10
12.94524671308054
 20
-2.16013249322421
 30
0.0
 10
12.49253937035316
 20
-2.219886350817978
 30
0.0
 10
12.00258419696011
 20
-2.17623852200732
 30
0.0
 10
11.51802590227913
 20
-2.012022717897488
 30
0.0
 10
11.02986969064285
 20
-1.737420461060655
 30
0.0
 10
10.59550551663893
 20
-1.406535711915124
 30
0.0
 10
10.20922581585331
 20
-1.062509361132892
 30
0.0
 10
9.986850959318653
 20
-0.8417498207472834
 30
0.0
 10
9.87490818265375
 20
-0.7306201889573647
 30
0.0
  0
SPLINE
  5
C7
330
1F
100
AcDbEntity
  8
0
  6
Continuous
 62
     1
370
    15
100
AcDbSpline
210
0.0
220
0.0
230
1.0
 70
     8
 71
     3
 72
    19
 73
    15
 74
     0
 42
0.000000001
 43
0.00000001
 40
0.0
 40
0.0
 40
0.0
 40
0.0
 40
0.0861629451479648
 40
0.1746604253703802
 40
0.2636171096649167
 40
0.3551643040539501
 40
0.4438724867731917
 40
0.5351634975045921
 40
0.6236332961538402
 40
0.7146781704601515
 40
0.8029254904268269
 40
0.8937406182437252
 40
0.9817811284944432
 40
1.0
 40
1.0
 40
1.0
 40
1.0
 10
47.27565306634275
 20
-1.586515146449491
 30
0.0
 10
47.09144446574992
 20
-1.564368130024703
 30
0.0
 10
46.7180362392649
 20
-1.519474036597469
 30
0.0
 10
46.15596629097092
 20
-1.309739750937853
 30
0.0
 10
45.58364225916994
 20
-1.003880761117461
 30
0.0
 10
45.01210595813845
 20
-0.6157792913244984
 30
0.0
 10
44.43704130603732
 20
-0.1743968114194162
 30
0.0
 10
43.86966921362146
 20
0.2800770527566279
 30
0.0
 10
43.29878046976931
 20
0.7220502161938464
 30
0.0
 10
42.73547415082032
 20
1.110106253660562
 30
0.0
 10
42.16861260208617
 20
1.426364831181427
 30
0.0
 10
41.60931073343246
 20
1.628514993057619
 30
0.0
 10
41.19736609409762
 20
1.722041262574133
 30
0.0
 10
40.97588145451594
 20
1.70752434478596
 30
0.0
 10
40.93790645294622
 20
1.705035323529972
 30
0.0
  0
SPLINE
  5
C8
330
1F
100
AcDbEntity
  8
0
  6
Continuous
 62
     1
370
    15
100
AcDbSpline
210
0.0
220
0.0
230
1.0
 70
     8
 71
     3
 72
    22
 73
    18
 74
     0
 42
0.000000001
 43
0.00000001
 40
0.0
 40
0.0
 40
0.0
 40
0.0
 40
0.0582286503072908
 40
0.1269169204910153
 40
0.1976003165800903
 40
0.2661967472007981
 40
0.3367852165585855
 40
0.4052981096279141
 40
0.475800210446478
 40
0.5442370155110133
 40
0.6146604328475929
 40
0.6830289891074411
 40
0.7533818096001552
 40
0.8216895439708796
 40
0.8919794208485812
 40
0.9602332443972362
 40
1.0
 40
1.0
 40
1.0
 40
1.0
 10
35.45139701822296
 20
-1.559721495206699
 30
0.0
 10
35.30080487226842
 20
-1.622339760540263
 30
0.0
 10
34.97256969398727
 20
-1.758824418190486
 30
0.0
 10
34.46304781844258
 20
-1.835327409282786
 30
0.0
 10
33.92773301027056
 20
-1.806094510455951
 30
0.0
 10
33.38885469605285
 20
-1.653251377732929
 30
0.0
 10
32.85659270446466
 20
-1.393155907696899
 30
0.0
 10
32.32073125693123
 20
-1.037002233434518
 30
0.0
 10
31.79141048022316
 20
-0.6142742710763098
 30
0.0
 10
31.25848431060507
 20
-0.1445988830843385
 30
0.0
 10
30.73202037091689
 20
0.333694202585492
 30
0.0
 10
30.20194607606714
 20
0.79867744813999
 30
0.0
 10
29.67825896555862
 20
1.212193792840824
 30
0.0
 10
29.15094377226936
 20
1.55725319359077
 30
0.0
 10
28.62999022449684
 20
1.798950989279329
 30
0.0
 10
28.1818023737916
 20
1.93040835870733
 30
0.0
 10
27.91099905449408
 20
1.929463253333969
 30
0.0
 10
27.8113053711282
 20
1.929115321720413
 30
0.0
  0
SPLINE
  5
C9
330
1F
100
AcDbEntity
  8
0
  6
Continuous
 62
     1
370
    15
100
AcDbSpline
210
0.0
220
0.0
230
1.0
 70
     8
 71
     3
 72
    23
 73
    19
 74
     0
 42
0.000000001
 43
0.00000001
 40
0.0
 40
0.0
 40
0.0
 40
0.0
 40
0.033532213407854
 40
0.1007858185493518
 40
0.166132587693317
 40
0.2333733058980289
 40
0.298713025410401
 40
0.3659462577592276
 40
0.4312834527331833
 40
0.4985138487024734
 40
0.5638527600868798
 40
0.6310847134971287
 40
0.6964300748412682
 40
0.7636684503736729
 40
0.8290241876337596
 40
0.8962730266168247
 40
0.9616431220606131
 40
1.0
 40
1.0
 40
1.0
 40
1.0
 10
22.19849664024864
 20
-1.809213186343207
 30
0.0
 10
22.11292239670802
 20
-1.849764852943925
 30
0.0
 10
21.85571688280172
 20
-1.971648632645046
 30
0.0
 10
21.43282473934964
 20
-2.053757842257775
 30
0.0
 10
20.92508585950563
 20
-2.052600310534076
 30
0.0
 10
20.42320438954822
 20
-1.927106150381056
 30
0.0
 10
19.9176791739704
 20
-1.688875257862934
 30
0.0
 10
19.41790547270912
 20
-1.353730115562435
 30
0.0
 10
18.91450060587633
 20
-0.9353404574859122
 30
0.0
 10
18.41679234354971
 20
-0.4645540863811922
 30
0.0
 10
17.91545362318023
 20
0.0401407716764685
 30
0.0
 10
17.4197635734016
 20
0.541476179558455
 30
0.0
 10
16.92044152519142
 20
1.02003293599143
 30
0.0
 10
16.42672081646922
 20
1.44011020978765
 30
0.0
 10
15.9293560722433
 20
1.787284444520711
 30
0.0
 10
15.43758970488015
 20
2.029032522212991
 30
0.0
 10
15.01368726897393
 20
2.160080018207467
 30
0.0
 10
14.75715214161327
 20
2.159096788074546
 30
0.0
 10
14.66228880716516
 20
2.158733202432694
 30
0.0
  0
ELLIPSE
  5
CA
330
1F
100
AcDbEntity
  8
0
  6
Continuous
 62
     1
370
    15
100
AcDbEllipse
 10
45.00190654885467
 20
0.043238034676468
 30
0.0
 11
2.326477780931398
 21
-1.593742628994179
 31
0.0
210
0.0
220
0.0
230
1.0
 40
0.1650258973008265
 41
6.055120281731941
 42
6.154960450633073
  0
ELLIPSE
  5
CB
330
1F
100
AcDbEntity
  8
0
  6
Continuous
 62
     1
370
    15
100
AcDbEllipse
 10
47.9183557092118
 20
-0.0149640822901095
 30
0.0
 11
2.194626401675748
 21
1.116659841969256
 31
0.0
210
0.0
220
0.0
230
1.0
 40
0.5145483491299387
 41
4.152151789391088
 42
4.481257132704542
  0
SPLINE
  5
CC
330
1F
100
AcDbEntity
  8
0
  6
Continuous
 62
     1
370
    15
100
AcDbSpline
210
0.0
220
0.0
230
1.0
 70
     8
 71
     3
 72
    23
 73
    19
 74
     0
 42
0.000000001
 43
0.00000001
 40
0.0
 40
0.0
 40
0.0
 40
0.0
 40
0.0482468457950866
 40
0.1166244034303985
 40
0.183079417701396
 40
0.2514596642851571
 40
0.3179229808572866
 40
0.3863115021498058
 40
0.4527875464111976
 40
0.5211888559628657
 40
0.5876831061686314
 40
0.6561027608399814
 40
0.7226211169568302
 40
0.7910652595501471
 40
0.8576128654992425
 40
0.9260867584252008
 40
0.992669674858703
 40
0.9999999999999999
 40
0.9999999999999999
 40
0.9999999999999999
 40
0.9999999999999999
 10
15.57645046385687
 20
1.94474476162882
 30
0.0
 10
15.69682374332166
 20
1.993282508035545
 30
0.0
 10
15.98779534312668
 20
2.110610089253649
 30
0.0
 10
16.44586939158411
 20
2.159842926139954
 30
0.0
 10
16.95515280072716
 20
2.106397308009276
 30
0.0
 10
17.4608493833222
 20
1.93139020076011
 30
0.0
 10
17.9723748577475
 20
1.64686061052567
 30
0.0
 10
18.48029288547647
 20
1.272876267705527
 30
0.0
 10
18.99408884521237
 20
0.8249466820915945
 30
0.0
 10
19.50428809773362
 20
0.3366352489996842
 30
0.0
 10
20.02040905992131
 20
-0.1721533201122007
 30
0.0
 10
20.53295522335302
 20
-0.6630018503135311
 30
0.0
 10
21.05147078531174
 20
-1.116052131095109
 30
0.0
 10
21.56643594571985
 20
-1.495913719860977
 30
0.0
 10
22.08738543242404
 20
-1.791133079614776
 30
0.0
 10
22.60491456222821
 20
-1.963495674538582
 30
0.0
 10
22.97083092021161
 20
-2.034663762373073
 30
0.0
 10
23.16136721048558
 20
-2.011777786465519
 30
0.0
 10
23.18026359399098
 20
-2.009508076180813
 30
0.0
  0
SPLINE
  5
CD
330
1F
100
AcDbEntity
  8
0
  6
Continuous
 62
     1
370
    15
100
AcDbSpline
210
0.0
220
0.0
230
1.0
 70
     8
 71
     3
 72
    22
 73
    18
 74
     0
 42
0.000000001
 43
0.00000001
 40
0.0
 40
0.0
 40
0.0
 40
0.0
 40
0.0167351168934679
 40
0.0863338013957409
 40
0.1579439446957545
 40
0.227631016203265
 40
0.2993315583724582
 40
0.3691163606224523
 40
0.4409168751505576
 40
0.510809093329601
 40
0.5827195472225167
 40
0.6527285549380778
 40
0.724758609023188
 40
0.7948939776017067
 40
0.8670533873420617
 40
0.9373262847424292
 40
1.0
 40
1.0
 40
1.0
 40
1.0
 10
28.82485837085694
 20
1.692555352619933
 30
0.0
 10
28.8672613028544
 20
1.712859178796116
 30
0.0
 10
29.08601127233296
 20
1.817603382725302
 30
0.0
 10
29.48733307444035
 20
1.90001581315534
 30
0.0
 10
30.0241437564153
 20
1.92209042524477
 30
0.0
 10
30.5675135077379
 20
1.812278392478429
 30
0.0
 10
31.10751995103084
 20
1.590920146248163
 30
0.0
 10
31.65405937579603
 20
1.265745679475702
 30
0.0
 10
32.19729675361688
 20
0.8642377529430594
 30
0.0
 10
32.74713016886412
 20
0.4058069451606555
 30
0.0
 10
33.29370016883868
 20
-0.0716746557872317
 30
0.0
 10
33.8469348947238
 20
-0.544660948526153
 30
0.0
 10
34.39694341548638
 20
-0.9736049882057676
 30
0.0
 10
34.9536804767779
 20
-1.338076331340014
 30
0.0
 10
35.507261231272
 20
-1.603560238685141
 30
0.0
 10
36.04241857730054
 20
-1.764287419866659
 30
0.0
 10
36.39037242204322
 20
-1.771363177090642
 30
0.0
 10
36.55440488403823
 20
-1.77469883179159
 30
0.0
  0
SPLINE
  5
CE
330
1F
100
AcDbEntity
  8
0
  6
Continuous
 62
     1
370
    15
100
AcDbSpline
210
0.0
220
0.0
230
1.0
 70
     8
 71
     3
 72
    18
 73
    14
 74
     0
 42
0.000000001
 43
0.00000001
 40
0.0
 40
0.0
 40
0.0
 40
0.0
 40
0.0423400306783736
 40
0.1409425018718257
 40
0.2423828921107591
 40
0.3413061798012458
 40
0.4430752794235889
 40
0.5423428980891573
 40
0.6444648158303516
 40
0.7441017586579662
 40
0.8437373415677443
 40
0.9462240612937747
 40
1.0
 40
1.0
 40
1.0
 40
1.0
 10
42.09062514605434
 20
1.436444693354912
 30
0.0
 10
42.17265703194976
 20
1.472183509834964
 30
0.0
 10
42.44572672618763
 20
1.591151732765646
 30
0.0
 10
42.91672234815462
 20
1.676454173054674
 30
0.0
 10
43.4988526284993
 20
1.681419980451521
 30
0.0
 10
44.08852421839878
 20
1.554184140820904
 30
0.0
 10
44.67544266019975
 20
1.314709525477649
 30
0.0
 10
45.26993811722777
 20
0.9751625100025052
 30
0.0
 10
45.86176860577142
 20
0.5675621285025969
 30
0.0
 10
46.45568422845876
 20
0.1206020874006454
 30
0.0
 10
47.05167498198025
 20
-0.3299422633749176
 30
0.0
 10
47.55855709716938
 20
-0.6897152890671355
 30
0.0
 10
47.86831029655893
 20
-0.8777129374870561
 30
0.0
 10
47.9749081826537
 20
-0.9424100962310116
 30
0.0
  0
ELLIPSE
  5
CF
330
1F
100
AcDbEntity
  8
0
  6
Continuous
 62
     1
370
    15
100
AcDbEllipse
 10
45.00190654885467
 20
-0.0264711651301183
 30
0.0
 11
2.290227538331927
 21
1.44728327058162
 31
0.0
210
0.0
220
0.0
230
1.0
 40
0.3360391427915318
 41
5.607860990340386
 42
5.833140462115903
  0
LINE
  5
D0
330
1F
100
AcDbEntity
  8
0
  6
Continuous
 62
     1
370
    15
100
AcDbLine
 10
47.09347694401787
 20
0.6220199495204322
 30
0.0
 11
47.97490818265369
 21
0.004835151814105
 31
0.0
  0
LINE
  5
D1
330
1F
100
AcDbEntity
  8
0
  6
Continuous
 62
     1
370
    15
100
AcDbLine
 10
47.97490818265369
 20
0.0048351518140984
 30
0.0
 11
47.9749081826537
 21
-0.9424100962309317
 31
0.0
  0
LINE
  5
D2
330
1F
100
AcDbEntity
  8
0
  6
Continuous
 62
     4
370
    15
100
AcDbLine
 10
8.984908182653697
 20
0.2137463847363581
 30
0.0
 11
8.984908182653697
 21
1.825036564637775
 31
0.0
  0
SPLINE
  5
D3
330
1F
100
AcDbEntity
  8
0
  6
Continuous
 62
     4
370
    15
100
AcDbSpline
210
0.0
220
0.0
230
1.0
 70
     8
 71
     3
 72
     9
 73
     5
 74
     0
 42
0.000000001
 43
0.00000001
 40
0.0
 40
0.0
 40
0.0
 40
0.0
 40
0.6734364034292974
 40
1.0
 40
1.0
 40
1.0
 40
1.0
 10
8.984908182653697
 20
-2.095422431822072
 30
0.0
 10
9.175266210758338
 20
-2.157357971609891
 30
0.0
 10
9.457932884456538
 20
-2.24932736838207
 30
0.0
 10
9.741530400179025
 20
-2.246931797636527
 30
0.0
 10
9.834143024891878
 20
-2.246149491438023
 30
0.0
  0
LINE
  5
D4
330
1F
100
AcDbEntity
  8
0
  6
Continuous
 62
     4
370
    15
100
AcDbLine
 10
8.984908182653697
 20
-2.275902529971732
 30
0.0
 11
8.984908182653697
 21
-2.095422431822072
 31
0.0
  0
SPLINE
  5
D5
330
1F
100
AcDbEntity
  8
0
  6
Continuous
 62
     1
370
    15
100
AcDbSpline
210
0.0
220
0.0
230
1.0
 70
     8
 71
     3
 72
    11
 73
     7
 74
     0
 42
0.000000001
 43
0.00000001
 40
0.0
 40
0.0
 40
0.0
 40
0.0
 40
0.1840466192707061
 40
0.5567191625926782
 40
0.8283846159635558
 40
1.0
 40
1.0
 40
1.0
 40
1.0
 10
46.90857897346407
 20
-1.225584384786401
 30
0.0
 10
46.94326749557426
 20
-1.183457340443687
 30
0.0
 10
47.0481961547221
 20
-1.056028035075764
 30
0.0
 10
47.2448413867812
 20
-0.884506815839242
 30
0.0
 10
47.45650392192931
 20
-0.749466644291313
 30
0.0
 10
47.56190617988553
 20
-0.7196624794920823
 30
0.0
 10
47.60271247569397
 20
-0.7081238503516452
 30
0.0
  0
SPLINE
  5
D6
330
1F
100
AcDbEntity
  8
0
  6
Continuous
 62
     1
370
    15
100
AcDbSpline
210
0.0
220
0.0
230
1.0
 70
     8
 71
     3
 72
     8
 73
     4
 74
     0
 42
0.000000001
 43
0.00000001
 40
0.0
 40
0.0
 40
0.0
 40
0.0
 40
1.0
 40
1.0
 40
1.0
 40
1.0
 10
46.90857897346405
 20
-1.225584384786405
 30
0.0
 10
47.03263823708063
 20
-1.346065346467904
 30
0.0
 10
47.15435013262292
 20
-1.466318306237354
 30
0.0
 10
47.27565306636824
 20
-1.586515146463342
 30
0.0
  0
LINE
  5
D7
330
1F
100
AcDbEntity
  8
0
  6
Continuous
 62
     1
370
    15
100
AcDbLine
 10
47.9749081826537
 20
0.0048351518141016
 30
0.0
 11
47.9749081826537
 21
1.581708435270852
 31
0.0
  0
LINE
  5
D8
330
1F
100
AcDbEntity
  8
0
  6
Continuous
 62
     1
370
    15
100
AcDbLine
 10
47.9749081826537
 20
-0.9424100962310036
 30
0.0
 11
47.97490818265369
 21
-1.369980176693691
 31
0.0
  0
LINE
  5
D9
330
1F
100
AcDbEntity
  8
0
  6
Continuous
 62
     4
370
    15
100
AcDbLine
 10
9.8749081826537
 20
2.257373125579185
 30
0.0
 11
9.8749081826537
 21
1.093191588701935
 31
0.0
  0
LINE
  5
DA
330
1F
100
AcDbEntity
  8
0
  6
Continuous
 62
     4
370
    15
100
AcDbLine
 10
9.8749081826537
 20
-0.7306201889573126
 30
0.0
 11
9.8749081826537
 21
-2.247702821950993
 31
0.0
  0
LINE
  5
DB
330
1F
100
AcDbEntity
  8
중심선
100
AcDbLine
 10
-31.22509181734629
 20
0.004835151814091
 30
0.0
 11
50.97490428620232
 21
0.004835151814091
 31
0.0
  0
CIRCLE
  5
DC
330
1F
100
AcDbEntity
  8
외형선
100
AcDbCircle
 10
-0.0000000000000013
 20
-0.0000000000000039
 30
0.0
 40
3.000000000000004
  0
INSERT
  5
DD
330
1F
100
AcDbEntity
  8
0
  6
Continuous
 62
     7
100
AcDbBlockReference
 66
     1
  2
블럭10
 10
-16.63945112874702
 20
-52.04717430164393
 30
0.0
  0
ATTRIB
  5
DE
330
DD
100
AcDbEntity
  8
FORMAT
 62
     2
100
AcDbText
 10
-25.8207464174883
 20
-49.97180738881174
 30
0.0
 40
4.233333333333333
  1
E5077108 [ 3 FLUTE ]
 41
0.75
  7
SLDTEXTSTYLE0
 11
-25.8207464174883
 21
-52.08847405547841
 31
0.0
100
AcDbAttribute
  2
AUTOATTR0
 70
     0
 74
     1
  0
SEQEND
  5
DF
330
DD
100
AcDbEntity
  8
0
  6
Continuous
 62
     7
  0
HATCH
  5
E0
330
1F
100
AcDbEntity
  8
중심선
100
AcDbHatch
 10
0.0
 20
0.0
 30
0.0
210
0.0
220
0.0
230
1.0
  2
SOLID
 70
     1
 71
     0
 91
        1
 92
        0
 93
        4
 72
     1
 10
-10.92454182436617
 20
-35.8
 11
-14.37081706820345
 21
-35.8
 72
     1
 10
-14.37081706820345
 20
-35.8
 11
-16.49904692740747
 21
-38.33632558057259
 72
     1
 10
-16.49904692740747
 20
-38.33632558057259
 11
-13.05273859845704
 21
-38.3362861512701
 72
     1
 10
-13.05273859845704
 20
-38.3362861512701
 11
-10.92454182436617
 21
-35.8
 97
        0
 75
     0
 76
     1
 98
        1
 10
0.0
 20
0.0
  0
HATCH
  5
E1
330
1F
100
AcDbEntity
  8
중심선
100
AcDbHatch
 10
0.0
 20
0.0
 30
0.0
210
0.0
220
0.0
230
1.0
  2
SOLID
 70
     1
 71
     0
 91
        1
 92
        0
 93
        4
 72
     1
 10
-5.911777833330217
 20
-35.8
 11
-9.358053077167499
 21
-35.8
 72
     1
 10
-9.358053077167499
 20
-35.8
 11
-13.88919108552489
 21
-41.20000000000002
 72
     1
 10
-13.88919108552489
 20
-41.20000000000002
 11
-10.44291584168761
 21
-41.20000000000002
 72
     1
 10
-10.44291584168761
 20
-41.20000000000002
 11
-5.911777833330217
 21
-35.8
 97
        0
 75
     0
 76
     1
 98
        1
 10
0.0
 20
0.0
  0
HATCH
  5
E2
330
1F
100
AcDbEntity
  8
중심선
100
AcDbHatch
 10
0.0
 20
0.0
 30
0.0
210
0.0
220
0.0
230
1.0
  2
SOLID
 70
     1
 71
     0
 91
        1
 92
        0
 93
        4
 72
     1
 10
-0.8990138422943217
 20
-35.80000000000003
 11
-4.345289086131437
 21
-35.8
 72
     1
 10
-4.345289086131437
 20
-35.8
 11
-11.39372598802069
 21
-44.20000000000002
 72
     1
 10
-11.39372598802069
 20
-44.20000000000002
 11
-7.947450744183405
 21
-44.20000000000002
 72
     1
 10
-7.947450744183405
 20
-44.20000000000002
 11
-0.8990138422943215
 21
-35.80000000000003
 97
        0
 75
     0
 76
     1
 98
        1
 10
0.0
 20
0.0
  0
HATCH
  5
E3
330
1F
100
AcDbEntity
  8
중심선
100
AcDbHatch
 10
0.0
 20
0.0
 30
0.0
210
0.0
220
0.0
230
1.0
  2
SOLID
 70
     1
 71
     0
 91
        1
 92
        0
 93
        6
 72
     3
 10
3.900876588717877
 20
-40.00000000005127
 11
3.960054785062284
 21
1.540850780301639E-10
 40
0.3939339440162633
 50
17.09539180608433
 51
320.0019657685079
 73
     0
 72
     1
 10
5.583876244418473
 20
-38.5878940046383
 11
7.889178118119511
 21
-36.65356729459038
 72
     3
 10
3.900876588665031
 20
-40.00000000000015
 11
6.600054785286829
 21
-1.249000902703301E-13
 40
0.6363583540795982
 50
39.99873849337408
 51
368.4976242363725
 73
     1
 72
     1
 10
10.32620908056564
 20
-39.03999999993002
 11
2.580943895500953
 21
-39.03999999992999
 72
     1
 10
2.580943895500953
 20
-39.03999999992999
 11
2.58091885105502
 21
-40.95999999992991
 72
     1
 10
2.58091885105502
 20
-40.95999999992991
 11
7.022298620527057
 21
-40.95999999992988
 97
        0
 75
     0
 76
     1
 98
        1
 10
0.0
 20
0.0
  0
POINT
  5
E4
330
1F
100
AcDbEntity
  8
치수문자_일반주서
100
AcDbPoint
 10
-0.0000000000000013
 20
-0.0000000000000039
 30
0.0
  0
DIMENSION
  5
E5
330
1F
100
AcDbEntity
  8
치수문자_일반주서
100
AcDbDimension
  2
_D
 10
9.874908182653702
 20
29.64785596113462
 30
0.0
 11
28.9249081826537
 21
29.64785596113462
 31
0.0
 70
   160
  1
<>
 71
     2
 42
38.1
  3
SLDDIMSTYLE0
100
AcDbAlignedDimension
 13
47.9749081826537
 23
1.581708435270852
 33
0.0
 14
9.8749081826537
 24
2.257373125579185
 34
0.0
100
AcDbRotatedDimension
1001
ACAD
1000
DSTYLE
1002
{
1070
   171
1070
     6
1070
   273
1070
     7
1002
}
  0
DIMENSION
  5
FB
330
1F
100
AcDbEntity
  8
치수문자_일반주서
100
AcDbDimension
  2
_D_1
 10
-28.2250918173463
 20
43.45081795083671
 30
0.0
 11
12.77570150979431
 21
43.45081795083671
 31
0.0
 70
   160
  1
<>
 71
     2
 42
76.2
  3
SLDDIMSTYLE0
100
AcDbAlignedDimension
 13
47.9749081826537
 23
1.581708435270852
 33
0.0
 14
-28.2250918173463
 24
2.36983515181409
 34
0.0
 50
0.0000000000000053
100
AcDbRotatedDimension
1001
ACAD
1000
DSTYLE
1002
{
1070
   171
1070
     6
1070
   273
1070
     7
1002
}
  0
DIMENSION
  5
10F
330
1F
100
AcDbEntity
  8
치수문자_일반주서
100
AcDbDimension
  2
_D_2
 10
-41.22509181734621
 20
-3.170164848185955
 30
0.0
 11
-41.22509181734631
 21
26.58151039551633
 31
0.0
 70
   160
  1
%%c<>
 71
     2
 42
6.349999999999996
  3
SLDDIMSTYLE0
100
AcDbAlignedDimension
 13
-27.41509181734629
 23
3.179835151814089
 33
0.0
 14
-27.41509181734629
 24
-3.170164848185907
 34
0.0
 50
90.0000000000002
100
AcDbRotatedDimension
1001
ACAD
1000
DSTYLE
1002
{
1070
   171
1070
     6
1070
   273
1070
     7
1002
}
1001
ACAD_DSTYLE_DIMFLIPARROW_SYMBOL
1070
   385
1070
     0
1001
ACAD_DSTYLE_DIMFLIPARROW_WHICH_SYMBOL
1070
   386
1070
     3
  0
INSERT
  5
129
330
1F
100
AcDbEntity
  8
외형선
100
AcDbBlockReference
  2
SW_DOWELSYMBOL_0
 10
-0.0000000000000013
 20
-0.0000000000000039
 30
0.0
  0
DIMENSION
  5
151
102
{ACAD_REACTORS
102
}
102
{ACAD_XDICTIONARY
360
152
102
}
330
1F
100
AcDbEntity
  8
치수문자_일반주서
100
AcDbDimension
  2
*D6
 10
60.27236572901979
 20
-1.58266484818591
 30
0.0
 11
60.27236572901979
 21
20.44633515181409
 31
0.0
 70
   160
  1
{%%c<>[]}
 71
     5
 42
3.175000000000007
  3
SLDDIMSTYLE0
100
AcDbAlignedDimension
 13
47.9749081826537
 23
1.592335151814098
 33
0.0
 14
47.9749081826537
 24
-1.582664848185909
 34
0.0
 50
90.0
100
AcDbRotatedDimension
1001
ACAD
1000
DSTYLE
1002
{
1070
   283
1070
     1
1070
   170
1070
     1
1070
   171
1070
     6
1070
   273
1070
     7
1002
}
  0
DIMENSION
  5
181
102
{ACAD_REACTORS
102
}
102
{ACAD_XDICTIONARY
360
182
102
}
330
1F
100
AcDbEntity
  8
치수문자_일반주서
100
AcDbDimension
  2
*D8
 10
12.05711279186614
 20
2.219282602438727
 30
0.0
 11
26.55475329463062
 21
-6.571266662593966
 31
0.0
 70
    34
  1
<>
 71
     5
 42
0.0174532925199435
  3
SLDDIMSTYLE0
100
AcDb2LineAngularDimension
 13
7.999184437106205
 23
3.179835151814093
 33
0.0
 14
-27.41509181734629
 24
3.179835151814089
 34
0.0
 15
14.66255187753859
 25
2.173804494031798
 35
0.0
 16
29.82489023764118
 26
2.75630996323674
 36
0.0
1001
ACAD
1000
DSTYLE
1002
{
1070
   280
1070
     0
1070
   171
1070
     6
1070
   273
1070
     7
1002
}
  0
ENDSEC
  0
SECTION
  2
OBJECTS
  0
DICTIONARY
  5
C
330
0
100
AcDbDictionary
281
     1
  3
ACAD_DETAILVIEWSTYLE
350
169
  3
ACAD_GROUP
350
D
  3
ACAD_IMAGE_VARS
350
14D
  3
ACAD_LAYOUT
350
1A
  3
ACAD_MLINESTYLE
350
17
  3
ACAD_PLOTSETTINGS
350
19
  3
ACAD_PLOTSTYLENAME
350
E
  3
ACAD_SCALELIST
350
47
  3
ACAD_SECTIONVIEWSTYLE
350
16A
  3
AcDbVariableDictionary
350
164
  3
APPDATA
350
14B
  3
DWGPROPS
350
199
  0
DICTIONARY
  5
152
330
151
100
AcDbDictionary
280
     1
281
     1
  0
DICTIONARY
  5
182
330
181
100
AcDbDictionary
280
     1
281
     1
  0
DICTIONARY
  5
169
102
{ACAD_REACTORS
330
C
102
}
330
C
100
AcDbDictionary
281
     1
  0
DICTIONARY
  5
D
102
{ACAD_REACTORS
330
C
102
}
330
C
100
AcDbDictionary
281
     1
  0
RASTERVARIABLES
  5
14D
102
{ACAD_REACTORS
330
C
102
}
330
C
100
AcDbRasterVariables
 90
        0
 70
     1
 71
     1
 72
     1
  0
DICTIONARY
  5
1A
102
{ACAD_REACTORS
330
C
102
}
330
C
100
AcDbDictionary
281
     1
  3
Layout1
350
1E
  3
Layout2
350
26
  3
Model
350
22
  0
DICTIONARY
  5
17
102
{ACAD_REACTORS
330
C
102
}
330
C
100
AcDbDictionary
281
     1
  3
Standard
350
18
  0
DICTIONARY
  5
19
102
{ACAD_REACTORS
330
C
102
}
330
C
100
AcDbDictionary
281
     1
  0
ACDBDICTIONARYWDFLT
  5
E
102
{ACAD_REACTORS
330
C
102
}
330
C
100
AcDbDictionary
281
     1
  3
Normal
350
F
100
AcDbDictionaryWithDefault
340
F
  0
DICTIONARY
  5
47
102
{ACAD_REACTORS
330
C
102
}
330
C
100
AcDbDictionary
281
     1
  3
A0
350
48
  3
A1
350
49
  3
A2
350
4A
  3
A3
350
4B
  3
A4
350
4C
  3
A5
350
4D
  3
A6
350
4E
  3
A7
350
4F
  3
A8
350
50
  3
A9
350
51
  3
B0
350
52
  3
B1
350
53
  3
B2
350
54
  3
B3
350
55
  3
B4
350
56
  3
B5
350
57
  3
B6
350
58
  3
B7
350
59
  3
B8
350
5A
  3
B9
350
5B
  3
C0
350
5C
  3
C1
350
5D
  3
C2
350
5E
  3
C3
350
5F
  3
C4
350
60
  3
C5
350
61
  3
C6
350
62
  3
C7
350
63
  3
C8
350
64
  3
C9
350
65
  3
D0
350
66
  3
D1
350
67
  3
D2
350
68
  0
DICTIONARY
  5
16A
102
{ACAD_REACTORS
330
C
102
}
330
C
100
AcDbDictionary
281
     1
  0
DICTIONARY
  5
164
102
{ACAD_REACTORS
330
C
102
}
330
C
100
AcDbDictionary
281
     1
  0
DICTIONARY
  5
14B
102
{ACAD_REACTORS
330
C
102
}
330
C
100
AcDbDictionary
281
     1
  0
XRECORD
  5
199
102
{ACAD_REACTORS
330
C
102
}
330
C
100
AcDbXrecord
280
     1
  1
DWGPROPS COOKIE
  2

  3

  4

  6

  7

  8
12015048
  9

300
=
301
=
302
=
303
=
304
=
305
=
306
=
307
=
308
=
309
=
 40
0.0
 41
2458333.347797951
 42
2458339.374233947
  1

 90
        0
  0
LAYOUT
  5
1E
102
{ACAD_REACTORS
330
1A
102
}
330
1A
100
AcDbPlotSettings
  1

  2
none_device
  4

  6

 40
0.0
 41
0.0
 42
0.0
 43
0.0
 44
0.0
 45
0.0
 46
0.0
 47
0.0
 48
0.0
 49
0.0
140
0.0
141
0.0
142
1.0
143
1.0
 70
   688
 72
     1
 73
     0
 74
     5
  7

 75
    16
147
1.0
148
0.0
149
0.0
100
AcDbLayout
  1
Layout1
 70
     1
 71
     1
 10
0.0
 20
0.0
 11
420.0
 21
297.0
 12
0.0
 22
0.0
 32
0.0
 14
1.000000000000000E+20
 24
1.000000000000000E+20
 34
1.000000000000000E+20
 15
-1.000000000000000E+20
 25
-1.000000000000000E+20
 35
-1.000000000000000E+20
146
0.0
 13
0.0
 23
0.0
 33
0.0
 16
1.0
 26
0.0
 36
0.0
 17
0.0
 27
1.0
 37
0.0
 76
     0
330
1B
  0
LAYOUT
  5
26
102
{ACAD_REACTORS
330
1A
102
}
330
1A
100
AcDbPlotSettings
  1

  2
none_device
  4

  6

 40
0.0
 41
0.0
 42
0.0
 43
0.0
 44
0.0
 45
0.0
 46
0.0
 47
0.0
 48
0.0
 49
0.0
140
0.0
141
0.0
142
1.0
143
1.0
 70
   688
 72
     1
 73
     0
 74
     5
  7

 75
    16
147
1.0
148
0.0
149
0.0
100
AcDbLayout
  1
Layout2
 70
     1
 71
     2
 10
0.0
 20
0.0
 11
0.0
 21
0.0
 12
0.0
 22
0.0
 32
0.0
 14
0.0
 24
0.0
 34
0.0
 15
0.0
 25
0.0
 35
0.0
146
0.0
 13
0.0
 23
0.0
 33
0.0
 16
1.0
 26
0.0
 36
0.0
 17
0.0
 27
1.0
 37
0.0
 76
     0
330
23
  0
LAYOUT
  5
22
102
{ACAD_REACTORS
330
1A
102
}
330
1A
100
AcDbPlotSettings
  1

  2
none_device
  4
ANSI_A_(11.00_x_8.50_Inches)
  6

 40
6.35
 41
19.05
 42
6.35000508
 43
19.05000254
 44
279.4
 45
215.9
 46
130.5392679846251
 47
105.6119490946392
 48
0.0
 49
0.0
140
0.0
141
0.0
142
0.095935652791958
143
1.0
 70
  1696
 72
     0
 73
     0
 74
     0
  7

 75
     0
147
0.0235690232323232
148
0.0
149
0.0
100
AcDbLayout
  1
Model
 70
     1
 71
     0
 10
0.0
 20
0.0
 11
420.0
 21
297.0
 12
0.0
 22
0.0
 32
0.0
 14
-45.60009181734635
 24
-49.97180738881174
 34
0.0
 15
60.82269906235312
 25
47.82581795083671
 35
0.0
146
0.0
 13
0.0
 23
0.0
 33
0.0
 16
1.0
 26
0.0
 36
0.0
 17
0.0
 27
1.0
 37
0.0
 76
     0
330
1F
331
29
  0
MLINESTYLE
  5
18
102
{ACAD_REACTORS
330
17
102
}
330
17
100
AcDbMlineStyle
  2
Standard
 70
     0
  3

 62
   256
 51
90.0
 52
90.0
 71
     2
 49
0.5
 62
   256
  6
BYLAYER
 49
-0.5
 62
   256
  6
BYLAYER
  0
ACDBPLACEHOLDER
  5
F
102
{ACAD_REACTORS
330
E
102
}
330
E
  0
SCALE
  5
48
102
{ACAD_REACTORS
330
47
102
}
330
47
100
AcDbScale
 70
     0
300
1:1
140
1.0
141
1.0
290
     1
  0
SCALE
  5
49
102
{ACAD_REACTORS
330
47
102
}
330
47
100
AcDbScale
 70
     0
300
1:2
140
1.0
141
2.0
290
     0
  0
SCALE
  5
4A
102
{ACAD_REACTORS
330
47
102
}
330
47
100
AcDbScale
 70
     0
300
1:4
140
1.0
141
4.0
290
     0
  0
SCALE
  5
4B
102
{ACAD_REACTORS
330
47
102
}
330
47
100
AcDbScale
 70
     0
300
1:5
140
1.0
141
5.0
290
     0
  0
SCALE
  5
4C
102
{ACAD_REACTORS
330
47
102
}
330
47
100
AcDbScale
 70
     0
300
1:8
140
1.0
141
8.0
290
     0
  0
SCALE
  5
4D
102
{ACAD_REACTORS
330
47
102
}
330
47
100
AcDbScale
 70
     0
300
1:10
140
1.0
141
10.0
290
     0
  0
SCALE
  5
4E
102
{ACAD_REACTORS
330
47
102
}
330
47
100
AcDbScale
 70
     0
300
1:16
140
1.0
141
16.0
290
     0
  0
SCALE
  5
4F
102
{ACAD_REACTORS
330
47
102
}
330
47
100
AcDbScale
 70
     0
300
1:20
140
1.0
141
20.0
290
     0
  0
SCALE
  5
50
102
{ACAD_REACTORS
330
47
102
}
330
47
100
AcDbScale
 70
     0
300
1:30
140
1.0
141
30.0
290
     0
  0
SCALE
  5
51
102
{ACAD_REACTORS
330
47
102
}
330
47
100
AcDbScale
 70
     0
300
1:40
140
1.0
141
40.0
290
     0
  0
SCALE
  5
52
102
{ACAD_REACTORS
330
47
102
}
330
47
100
AcDbScale
 70
     0
300
1:50
140
1.0
141
50.0
290
     0
  0
SCALE
  5
53
102
{ACAD_REACTORS
330
47
102
}
330
47
100
AcDbScale
 70
     0
300
1:100
140
1.0
141
100.0
290
     0
  0
SCALE
  5
54
102
{ACAD_REACTORS
330
47
102
}
330
47
100
AcDbScale
 70
     0
300
2:1
140
2.0
141
1.0
290
     0
  0
SCALE
  5
55
102
{ACAD_REACTORS
330
47
102
}
330
47
100
AcDbScale
 70
     0
300
4:1
140
4.0
141
1.0
290
     0
  0
SCALE
  5
56
102
{ACAD_REACTORS
330
47
102
}
330
47
100
AcDbScale
 70
     0
300
8:1
140
8.0
141
1.0
290
     0
  0
SCALE
  5
57
102
{ACAD_REACTORS
330
47
102
}
330
47
100
AcDbScale
 70
     0
300
10:1
140
10.0
141
1.0
290
     0
  0
SCALE
  5
58
102
{ACAD_REACTORS
330
47
102
}
330
47
100
AcDbScale
 70
     0
300
100:1
140
100.0
141
1.0
290
     0
  0
SCALE
  5
59
102
{ACAD_REACTORS
330
47
102
}
330
47
100
AcDbScale
 70
     0
300
1/128" = 1'-0"
140
0.0078125
141
12.0
290
     0
  0
SCALE
  5
5A
102
{ACAD_REACTORS
330
47
102
}
330
47
100
AcDbScale
 70
     0
300
1/64" = 1'-0"
140
0.015625
141
12.0
290
     0
  0
SCALE
  5
5B
102
{ACAD_REACTORS
330
47
102
}
330
47
100
AcDbScale
 70
     0
300
1/32" = 1'-0"
140
0.03125
141
12.0
290
     0
  0
SCALE
  5
5C
102
{ACAD_REACTORS
330
47
102
}
330
47
100
AcDbScale
 70
     0
300
1/16" = 1'-0"
140
0.0625
141
12.0
290
     0
  0
SCALE
  5
5D
102
{ACAD_REACTORS
330
47
102
}
330
47
100
AcDbScale
 70
     0
300
3/32" = 1'-0"
140
0.09375
141
12.0
290
     0
  0
SCALE
  5
5E
102
{ACAD_REACTORS
330
47
102
}
330
47
100
AcDbScale
 70
     0
300
1/8" = 1'-0"
140
0.125
141
12.0
290
     0
  0
SCALE
  5
5F
102
{ACAD_REACTORS
330
47
102
}
330
47
100
AcDbScale
 70
     0
300
3/16" = 1'-0"
140
0.1875
141
12.0
290
     0
  0
SCALE
  5
60
102
{ACAD_REACTORS
330
47
102
}
330
47
100
AcDbScale
 70
     0
300
1/4" = 1'-0"
140
0.25
141
12.0
290
     0
  0
SCALE
  5
61
102
{ACAD_REACTORS
330
47
102
}
330
47
100
AcDbScale
 70
     0
300
3/8" = 1'-0"
140
0.375
141
12.0
290
     0
  0
SCALE
  5
62
102
{ACAD_REACTORS
330
47
102
}
330
47
100
AcDbScale
 70
     0
300
1/2" = 1'-0"
140
0.5
141
12.0
290
     0
  0
SCALE
  5
63
102
{ACAD_REACTORS
330
47
102
}
330
47
100
AcDbScale
 70
     0
300
3/4" = 1'-0"
140
0.75
141
12.0
290
     0
  0
SCALE
  5
64
102
{ACAD_REACTORS
330
47
102
}
330
47
100
AcDbScale
 70
     0
300
1" = 1'-0"
140
1.0
141
12.0
290
     0
  0
SCALE
  5
65
102
{ACAD_REACTORS
330
47
102
}
330
47
100
AcDbScale
 70
     0
300
1-1/2" = 1'-0"
140
1.5
141
12.0
290
     0
  0
SCALE
  5
66
102
{ACAD_REACTORS
330
47
102
}
330
47
100
AcDbScale
 70
     0
300
3" = 1'-0"
140
3.0
141
12.0
290
     0
  0
SCALE
  5
67
102
{ACAD_REACTORS
330
47
102
}
330
47
100
AcDbScale
 70
     0
300
6" = 1'-0"
140
6.0
141
12.0
290
     0
  0
SCALE
  5
68
102
{ACAD_REACTORS
330
47
102
}
330
47
100
AcDbScale
 70
     0
300
1'-0" = 1'-0"
140
12.0
141
12.0
290
     0
  0
ENDSEC
  0
EOF
