  0
SECTION
  2
HEADER
  9
$ACADVER
  1
AC1015
  9
$ACADMAINTVER
 70
     6
  9
$DWGCODEPAGE
  3
ANSI_949
  9
$INSBASE
 10
0.0
 20
0.0
 30
0.0
  9
$EXTMIN
 10
-88.99767207171807
 20
-49.97180738881174
 30
0.0
  9
$EXTMAX
 10
56.44462616250847
 20
46.51315151268274
 30
0.0
  9
$LIMMIN
 10
0.0
 20
0.0
  9
$LIMMAX
 10
420.0
 20
297.0
  9
$ORTHOMODE
 70
     0
  9
$REGENMODE
 70
     1
  9
$FILLMODE
 70
     1
  9
$QTEXTMODE
 70
     0
  9
$MIRRTEXT
 70
     1
  9
$LTSCALE
 40
1.0
  9
$ATTMODE
 70
     1
  9
$TEXTSIZE
 40
3.5
  9
$TRACEWID
 40
1.0
  9
$TEXTSTYLE
  7
Standard
  9
$CLAYER
  8
0
  9
$CELTYPE
  6
ByLayer
  9
$CECOLOR
 62
   256
  9
$CELTSCALE
 40
1.0
  9
$DISPSILH
 70
     0
  9
$DIMSCALE
 40
1.0
  9
$DIMASZ
 40
3.302
  9
$DIMEXO
 40
1.0
  9
$DIMDLI
 40
3.75
  9
$DIMRND
 40
0.0
  9
$DIMDLE
 40
0.0
  9
$DIMEXE
 40
1.0
  9
$DIMTP
 40
0.0
  9
$DIMTM
 40
0.0
  9
$DIMTXT
 40
3.5
  9
$DIMCEN
 40
2.5
  9
$DIMTSZ
 40
0.0
  9
$DIMTOL
 70
     0
  9
$DIMLIM
 70
     0
  9
$DIMTIH
 70
     1
  9
$DIMTOH
 70
     1
  9
$DIMSE1
 70
     0
  9
$DIMSE2
 70
     0
  9
$DIMTAD
 70
     1
  9
$DIMZIN
 70
     0
  9
$DIMBLK
  1

  9
$DIMASO
 70
     1
  9
$DIMSHO
 70
     1
  9
$DIMPOST
  1

  9
$DIMAPOST
  1

  9
$DIMALT
 70
     0
  9
$DIMALTD
 70
     3
  9
$DIMALTF
 40
0.0393700787401575
  9
$DIMLFAC
 40
1.0
  9
$DIMTOFL
 70
     1
  9
$DIMTVP
 40
0.0
  9
$DIMTIX
 70
     0
  9
$DIMSOXD
 70
     0
  9
$DIMSAH
 70
     0
  9
$DIMBLK1
  1

  9
$DIMBLK2
  1

  9
$DIMSTYLE
  2
ISO-25
  9
$DIMCLRD
 70
     0
  9
$DIMCLRE
 70
     0
  9
$DIMCLRT
 70
     0
  9
$DIMTFAC
 40
1.0
  9
$DIMGAP
 40
1.524
  9
$DIMJUST
 70
     0
  9
$DIMSD1
 70
     0
  9
$DIMSD2
 70
     0
  9
$DIMTOLJ
 70
     0
  9
$DIMTZIN
 70
     0
  9
$DIMALTZ
 70
     0
  9
$DIMALTTZ
 70
     0
  9
$DIMUPT
 70
     0
  9
$DIMDEC
 70
     2
  9
$DIMTDEC
 70
     2
  9
$DIMALTU
 70
     2
  9
$DIMALTTD
 70
     3
  9
$DIMTXSTY
  7
Standard
  9
$DIMAUNIT
 70
     0
  9
$DIMADEC
 70
     2
  9
$DIMALTRND
 40
0.0
  9
$DIMAZIN
 70
     0
  9
$DIMDSEP
 70
    44
  9
$DIMATFIT
 70
     3
  9
$DIMFRAC
 70
     0
  9
$DIMLDRBLK
  1

  9
$DIMLUNIT
 70
     2
  9
$DIMLWD
 70
    -2
  9
$DIMLWE
 70
    -2
  9
$DIMTMOVE
 70
     0
  9
$LUNITS
 70
     2
  9
$LUPREC
 70
     2
  9
$SKETCHINC
 40
1.0
  9
$FILLETRAD
 40
10.0
  9
$AUNITS
 70
     0
  9
$AUPREC
 70
     2
  9
$MENU
  1
.
  9
$ELEVATION
 40
0.0
  9
$PELEVATION
 40
0.0
  9
$THICKNESS
 40
0.0
  9
$LIMCHECK
 70
     0
  9
$CHAMFERA
 40
0.0
  9
$CHAMFERB
 40
0.0
  9
$CHAMFERC
 40
0.0
  9
$CHAMFERD
 40
0.0
  9
$SKPOLY
 70
     0
  9
$TDCREATE
 40
2458333.731382604
  9
$TDUCREATE
 40
2458333.356382604
  9
$TDUPDATE
 40
2458339.627255081
  9
$TDUUPDATE
 40
2458339.252255081
  9
$TDINDWG
 40
0.0056524537
  9
$TDUSRTIMER
 40
2458339.246602766
  9
$USRTIMER
 70
     1
  9
$ANGBASE
 50
0.0
  9
$ANGDIR
 70
     0
  9
$PDMODE
 70
     0
  9
$PDSIZE
 40
-1.0
  9
$PLINEWID
 40
0.0
  9
$SPLFRAME
 70
     0
  9
$SPLINETYPE
 70
     6
  9
$SPLINESEGS
 70
     8
  9
$HANDSEED
  5
17A
  9
$SURFTAB1
 70
     6
  9
$SURFTAB2
 70
     6
  9
$SURFTYPE
 70
     6
  9
$SURFU
 70
     6
  9
$SURFV
 70
     6
  9
$UCSBASE
  2

  9
$UCSNAME
  2

  9
$UCSORG
 10
0.0
 20
0.0
 30
0.0
  9
$UCSXDIR
 10
1.0
 20
0.0
 30
0.0
  9
$UCSYDIR
 10
0.0
 20
1.0
 30
0.0
  9
$UCSORTHOREF
  2

  9
$UCSORTHOVIEW
 70
     0
  9
$UCSORGTOP
 10
0.0
 20
0.0
 30
0.0
  9
$UCSORGBOTTOM
 10
0.0
 20
0.0
 30
0.0
  9
$UCSORGLEFT
 10
0.0
 20
0.0
 30
0.0
  9
$UCSORGRIGHT
 10
0.0
 20
0.0
 30
0.0
  9
$UCSORGFRONT
 10
0.0
 20
0.0
 30
0.0
  9
$UCSORGBACK
 10
0.0
 20
0.0
 30
0.0
  9
$PUCSBASE
  2

  9
$PUCSNAME
  2

  9
$PUCSORG
 10
0.0
 20
0.0
 30
0.0
  9
$PUCSXDIR
 10
1.0
 20
0.0
 30
0.0
  9
$PUCSYDIR
 10
0.0
 20
1.0
 30
0.0
  9
$PUCSORTHOREF
  2

  9
$PUCSORTHOVIEW
 70
     0
  9
$PUCSORGTOP
 10
0.0
 20
0.0
 30
0.0
  9
$PUCSORGBOTTOM
 10
0.0
 20
0.0
 30
0.0
  9
$PUCSORGLEFT
 10
0.0
 20
0.0
 30
0.0
  9
$PUCSORGRIGHT
 10
0.0
 20
0.0
 30
0.0
  9
$PUCSORGFRONT
 10
0.0
 20
0.0
 30
0.0
  9
$PUCSORGBACK
 10
0.0
 20
0.0
 30
0.0
  9
$USERI1
 70
     0
  9
$USERI2
 70
     0
  9
$USERI3
 70
     0
  9
$USERI4
 70
     0
  9
$USERI5
 70
     0
  9
$USERR1
 40
0.0
  9
$USERR2
 40
0.0
  9
$USERR3
 40
0.0
  9
$USERR4
 40
0.0
  9
$USERR5
 40
0.0
  9
$WORLDVIEW
 70
     1
  9
$SHADEDGE
 70
     3
  9
$SHADEDIF
 70
    70
  9
$TILEMODE
 70
     1
  9
$MAXACTVP
 70
    64
  9
$PINSBASE
 10
0.0
 20
0.0
 30
0.0
  9
$PLIMCHECK
 70
     0
  9
$PEXTMIN
 10
1.000000000000000E+20
 20
1.000000000000000E+20
 30
1.000000000000000E+20
  9
$PEXTMAX
 10
-1.000000000000000E+20
 20
-1.000000000000000E+20
 30
-1.000000000000000E+20
  9
$PLIMMIN
 10
0.0
 20
0.0
  9
$PLIMMAX
 10
0.0
 20
0.0
  9
$UNITMODE
 70
     0
  9
$VISRETAIN
 70
     1
  9
$PLINEGEN
 70
     0
  9
$PSLTSCALE
 70
     1
  9
$TREEDEPTH
 70
  3020
  9
$CMLSTYLE
  2
Standard
  9
$CMLJUST
 70
     0
  9
$CMLSCALE
 40
20.0
  9
$PROXYGRAPHICS
 70
     1
  9
$MEASUREMENT
 70
     1
  9
$CELWEIGHT
370
    -1
  9
$ENDCAPS
280
     0
  9
$JOINSTYLE
280
     0
  9
$LWDISPLAY
290
     1
  9
$INSUNITS
 70
     4
  9
$HYPERLINKBASE
  1

  9
$STYLESHEET
  1

  9
$XEDIT
290
     1
  9
$CEPSNTYPE
380
     0
  9
$PSTYLEMODE
290
     1
  9
$FINGERPRINTGUID
  2
{A6D3D53E-C8BB-49FB-AC31-5F71F3283CC6}
  9
$VERSIONGUID
  2
{FAEB1C32-E019-11D5-929B-00C0DF256EC4}
  9
$EXTNAMES
290
     1
  9
$PSVPSCALE
 40
0.0
  9
$OLESTARTUP
290
     0
  0
ENDSEC
  0
SECTION
  2
CLASSES
  0
CLASS
  1
ACDBDICTIONARYWDFLT
  2
AcDbDictionaryWithDefault
  3
ObjectDBX Classes
 90
        0
280
     0
281
     0
  0
CLASS
  1
VISUALSTYLE
  2
AcDbVisualStyle
  3
ObjectDBX Classes
 90
     4095
280
     0
281
     0
  0
CLASS
  1
MATERIAL
  2
AcDbMaterial
  3
ObjectDBX Classes
 90
     1153
280
     0
281
     0
  0
CLASS
  1
SCALE
  2
AcDbScale
  3
ObjectDBX Classes
 90
     1153
280
     0
281
     0
  0
CLASS
  1
SUN
  2
AcDbSun
  3
SCENEOE
 90
     1153
280
     0
281
     0
  0
CLASS
  1
ACDBPLACEHOLDER
  2
AcDbPlaceHolder
  3
ObjectDBX Classes
 90
        0
280
     0
281
     0
  0
CLASS
  1
LAYOUT
  2
AcDbLayout
  3
ObjectDBX Classes
 90
        0
280
     0
281
     0
  0
CLASS
  1
TABLESTYLE
  2
AcDbTableStyle
  3
ObjectDBX Classes
 90
     4095
280
     0
281
     0
  0
CLASS
  1
MLEADERSTYLE
  2
AcDbMLeaderStyle
  3
ACDB_MLEADERSTYLE_CLASS
 90
     4095
280
     0
281
     0
  0
CLASS
  1
RASTERVARIABLES
  2
AcDbRasterVariables
  3
ISM
 90
        0
280
     0
281
     0
  0
CLASS
  1
DIMASSOC
  2
AcDbDimAssoc
  3
"AcDbDimAssoc|Product Desc:     AcDim ARX App For Dimension|Company:          Autodesk, Inc.|WEB Address:      www.autodesk.com"
 90
        0
280
     0
281
     0
  0
ENDSEC
  0
SECTION
  2
TABLES
  0
TABLE
  2
VPORT
  5
8
330
0
100
AcDbSymbolTable
 70
     1
  0
VPORT
  5
29
330
8
100
AcDbSymbolTableRecord
100
AcDbViewportTableRecord
  2
*Active
 70
     0
 10
0.0
 20
0.0
 11
1.0
 21
1.0
 12
-5.104422576731551
 22
-1.132253397477996
 13
0.0
 23
0.0
 14
10.0
 24
10.0
 15
10.0
 25
10.0
 16
0.0
 26
0.0
 36
1.0
 17
0.0
 27
0.0
 37
0.0
 40
146.3043193037307
 41
1.435126582278481
 42
50.0
 43
0.0
 44
0.0
 50
0.0
 51
0.0
 71
    16
 72
  2000
 73
     1
 74
     3
 75
     0
 76
     0
 77
     0
 78
     0
281
     0
 65
     1
110
0.0
120
0.0
130
0.0
111
1.0
121
0.0
131
0.0
112
0.0
122
1.0
132
0.0
 79
     0
146
0.0
  0
ENDTAB
  0
TABLE
  2
LTYPE
  5
5
330
0
100
AcDbSymbolTable
 70
     6
  0
LTYPE
  5
14
330
5
100
AcDbSymbolTableRecord
100
AcDbLinetypeTableRecord
  2
ByBlock
 70
     0
  3

 72
    65
 73
     0
 40
0.0
  0
LTYPE
  5
15
330
5
100
AcDbSymbolTableRecord
100
AcDbLinetypeTableRecord
  2
ByLayer
 70
     0
  3

 72
    65
 73
     0
 40
0.0
  0
LTYPE
  5
16
330
5
100
AcDbSymbolTableRecord
100
AcDbLinetypeTableRecord
  2
Continuous
 70
     0
  3
Solid line
 72
    65
 73
     0
 40
0.0
  0
LTYPE
  5
6A
330
5
100
AcDbSymbolTableRecord
100
AcDbLinetypeTableRecord
  2
HIDDEN
 70
     0
  3
Hidden __ __ __ __ __ __ __ __ __ __ __ __ __ __
 72
    65
 73
     2
 40
1.905
 49
1.27
 74
     0
 49
-0.635
 74
     0
  0
LTYPE
  5
6B
330
5
100
AcDbSymbolTableRecord
100
AcDbLinetypeTableRecord
  2
PHANTOM
 70
     0
  3
Phantom ______  __  __  ______  __  __  ______
 72
    65
 73
     6
 40
12.7
 49
6.35
 74
     0
 49
-1.27
 74
     0
 49
1.27
 74
     0
 49
-1.27
 74
     0
 49
1.27
 74
     0
 49
-1.27
 74
     0
  0
LTYPE
  5
6C
330
5
100
AcDbSymbolTableRecord
100
AcDbLinetypeTableRecord
  2
CENTER
 70
     0
  3
Center ____ _ ____ _ ____ _ ____ _ ____ _ ____
 72
    65
 73
     4
 40
10.16
 49
6.35
 74
     0
 49
-1.27
 74
     0
 49
1.27
 74
     0
 49
-1.27
 74
     0
  0
LTYPE
  5
6D
330
5
100
AcDbSymbolTableRecord
100
AcDbLinetypeTableRecord
  2
CENTERX2
 70
     0
  3
Center (2x) ________  __  ________  __  _____
 72
    65
 73
     4
 40
20.32
 49
12.7
 74
     0
 49
-2.54
 74
     0
 49
2.54
 74
     0
 49
-2.54
 74
     0
  0
LTYPE
  5
6E
330
5
100
AcDbSymbolTableRecord
100
AcDbLinetypeTableRecord
  2
DOT2
 70
     0
  3
Dot (.5x) ........................................
 72
    65
 73
     2
 40
0.635
 49
0.0
 74
     0
 49
-0.635
 74
     0
  0
ENDTAB
  0
TABLE
  2
LAYER
  5
2
330
0
100
AcDbSymbolTable
 70
    17
  0
LAYER
  5
10
330
2
100
AcDbSymbolTableRecord
100
AcDbLayerTableRecord
  2
0
 70
     0
 62
     7
  6
Continuous
370
    -3
390
F
  0
LAYER
  5
6F
330
2
100
AcDbSymbolTableRecord
100
AcDbLayerTableRecord
  2
FORMAT
 70
     0
 62
     2
  6
Continuous
370
    -3
390
F
  0
LAYER
  5
70
330
2
100
AcDbSymbolTableRecord
100
AcDbLayerTableRecord
  2
외형선
 70
     0
 62
   100
  6
Continuous
370
    30
390
F
  0
LAYER
  5
71
330
2
100
AcDbSymbolTableRecord
100
AcDbLayerTableRecord
  2
숨은선
 70
     0
 62
     2
  6
HIDDEN
370
    15
390
F
  0
LAYER
  5
72
330
2
100
AcDbSymbolTableRecord
100
AcDbLayerTableRecord
  2
중심선
 70
     0
 62
     1
  6
CENTERX2
370
    -3
390
F
  0
LAYER
  5
73
330
2
100
AcDbSymbolTableRecord
100
AcDbLayerTableRecord
  2
파단선
 70
     0
 62
     4
  6
Continuous
370
    -3
390
F
  0
LAYER
  5
74
330
2
100
AcDbSymbolTableRecord
100
AcDbLayerTableRecord
  2
해칭선
 70
     0
 62
     4
  6
Continuous
370
    -3
390
F
  0
LAYER
  5
75
330
2
100
AcDbSymbolTableRecord
100
AcDbLayerTableRecord
  2
가는실선
 70
     0
 62
     4
  6
Continuous
370
    -3
390
F
  0
LAYER
  5
76
330
2
100
AcDbSymbolTableRecord
100
AcDbLayerTableRecord
  2
치수_보조선
 70
     0
 62
     4
  6
Continuous
370
    -3
390
F
  0
LAYER
  5
77
330
2
100
AcDbSymbolTableRecord
100
AcDbLayerTableRecord
  2
치수문자_일반주서
 70
     0
 62
     7
  6
Continuous
370
    15
390
F
  0
LAYER
  5
78
330
2
100
AcDbSymbolTableRecord
100
AcDbLayerTableRecord
  2
개별주서
 70
     0
 62
   100
  6
Continuous
370
    30
390
F
  0
LAYER
  5
79
330
2
100
AcDbSymbolTableRecord
100
AcDbLayerTableRecord
  2
중간선
 70
     0
 62
     2
  6
Continuous
370
    15
390
F
  0
LAYER
  5
7A
330
2
100
AcDbSymbolTableRecord
100
AcDbLayerTableRecord
  2
윤곽선
 70
     0
 62
     3
  6
Continuous
370
    40
390
F
  0
LAYER
  5
7B
330
2
100
AcDbSymbolTableRecord
100
AcDbLayerTableRecord
  2
중심마크
 70
     0
 62
   100
  6
Continuous
370
    30
390
F
  0
LAYER
  5
7C
330
2
100
AcDbSymbolTableRecord
100
AcDbLayerTableRecord
  2
가상선
 70
     0
 62
     4
  6
PHANTOM
370
    -3
390
F
  0
LAYER
  5
7D
330
2
100
AcDbSymbolTableRecord
100
AcDbLayerTableRecord
  2
특수지정선
 70
     0
 62
     5
  6
CENTERX2
370
    60
390
F
  0
LAYER
  5
13D
330
2
100
AcDbSymbolTableRecord
100
AcDbLayerTableRecord
  2
Defpoints
 70
     0
 62
     7
  6
Continuous
290
     0
370
    -3
390
F
  0
ENDTAB
  0
TABLE
  2
STYLE
  5
3
330
0
100
AcDbSymbolTable
 70
     2
  0
STYLE
  5
11
330
3
100
AcDbSymbolTableRecord
100
AcDbTextStyleTableRecord
  2
Standard
 70
     0
 40
0.0
 41
1.0
 50
0.0
 71
     0
 42
3.5
  3
txt
  4

  0
STYLE
  5
93
330
3
100
AcDbSymbolTableRecord
100
AcDbTextStyleTableRecord
  2
SLDTEXTSTYLE0
 70
     0
 40
0.0
 41
0.75
 50
0.0
 71
     0
 42
3.5
  3
TXT
  4

  0
ENDTAB
  0
TABLE
  2
VIEW
  5
6
330
0
100
AcDbSymbolTable
 70
     0
  0
ENDTAB
  0
TABLE
  2
UCS
  5
7
330
0
100
AcDbSymbolTable
 70
     0
  0
ENDTAB
  0
TABLE
  2
APPID
  5
9
330
0
100
AcDbSymbolTable
 70
     2
  0
APPID
  5
12
330
9
100
AcDbSymbolTableRecord
100
AcDbRegAppTableRecord
  2
ACAD
 70
     0
  0
APPID
  5
176
330
9
100
AcDbSymbolTableRecord
100
AcDbRegAppTableRecord
  2
PE_DIMMEASUREMENT
 70
     0
  0
ENDTAB
  0
TABLE
  2
DIMSTYLE
  5
A
330
0
100
AcDbSymbolTable
 70
     4
100
AcDbDimStyleTable
  0
DIMSTYLE
105
27
330
A
100
AcDbSymbolTableRecord
100
AcDbDimStyleTableRecord
  2
ISO-25
 70
     0
 41
2.5
 42
0.625
 43
3.75
 44
1.25
 73
     0
 74
     0
 77
     1
 78
     8
140
2.5
141
2.5
143
0.03937007874016
147
0.625
171
     3
172
     1
178
     0
271
     2
272
     2
274
     3
278
    44
283
     0
284
     8
340
11
  0
DIMSTYLE
105
D8
102
{ACAD_REACTORS
330
D7
330
163
102
}
330
A
100
AcDbSymbolTableRecord
100
AcDbDimStyleTableRecord
  2
SLDDIMSTYLE0
 70
     0
 41
3.302
 44
0.0
 45
0.000000001
 73
     0
 74
     0
 77
     1
 78
    12
 79
     3
140
3.5
143
0.0393700787401575
147
0.875
148
0.000000001
170
     1
172
     1
173
     1
178
     0
271
     2
272
     2
276
     2
284
    12
289
     0
340
93
  0
DIMSTYLE
105
EE
102
{ACAD_REACTORS
330
ED
330
13E
330
151
102
}
330
A
100
AcDbSymbolTableRecord
100
AcDbDimStyleTableRecord
  2
SLDDIMSTYLE1
 70
     0
 41
3.302
 44
0.0
 45
0.000000001
 73
     0
 74
     0
 77
     1
 78
     4
 79
     1
140
3.5
143
0.0393700787401575
147
0.875
148
0.000000001
170
     1
173
     1
178
     0
271
     2
272
     2
276
     2
284
    12
340
93
  0
DIMSTYLE
105
102
330
A
100
AcDbSymbolTableRecord
100
AcDbDimStyleTableRecord
  2
SLDDIMSTYLE2
 70
     0
 41
3.302
 44
0.0
 45
0.000000001
 73
     0
 74
     0
 77
     1
 78
     8
 79
     2
140
3.5
143
0.0393700787401575
147
0.875
148
0.000000001
170
     1
172
     1
173
     1
178
     0
271
     2
272
     2
276
     2
284
    12
289
     0
340
93
341
103
343
103
344
103
  0
ENDTAB
  0
TABLE
  2
BLOCK_RECORD
  5
1
330
0
100
AcDbSymbolTable
 70
    10
  0
BLOCK_RECORD
  5
1F
330
1
100
AcDbSymbolTableRecord
100
AcDbBlockTableRecord
  2
*Model_Space
340
22
  0
BLOCK_RECORD
  5
1B
330
1
100
AcDbSymbolTableRecord
100
AcDbBlockTableRecord
  2
*Paper_Space
340
1E
  0
BLOCK_RECORD
  5
23
330
1
100
AcDbSymbolTableRecord
100
AcDbBlockTableRecord
  2
*Paper_Space0
340
26
  0
BLOCK_RECORD
  5
7E
330
1
100
AcDbSymbolTableRecord
100
AcDbBlockTableRecord
  2
블럭10
340
0
102
{BLKREFS
331
CF
102
}
  0
BLOCK_RECORD
  5
D9
330
1
100
AcDbSymbolTableRecord
100
AcDbBlockTableRecord
  2
_D
340
0
  0
BLOCK_RECORD
  5
EF
330
1
100
AcDbSymbolTableRecord
100
AcDbBlockTableRecord
  2
_D_1
340
0
  0
BLOCK_RECORD
  5
103
330
1
100
AcDbSymbolTableRecord
100
AcDbBlockTableRecord
  2
_NONE
340
0
  0
BLOCK_RECORD
  5
106
330
1
100
AcDbSymbolTableRecord
100
AcDbBlockTableRecord
  2
_D_2
340
0
  0
BLOCK_RECORD
  5
112
330
1
100
AcDbSymbolTableRecord
100
AcDbBlockTableRecord
  2
SW_DOWELSYMBOL_0
340
0
102
{BLKREFS
331
118
102
}
  0
BLOCK_RECORD
  5
141
330
1
100
AcDbSymbolTableRecord
100
AcDbBlockTableRecord
  2
*D7
340
0
  0
BLOCK_RECORD
  5
154
330
1
100
AcDbSymbolTableRecord
100
AcDbBlockTableRecord
  2
*D8
340
0
  0
BLOCK_RECORD
  5
166
330
1
100
AcDbSymbolTableRecord
100
AcDbBlockTableRecord
  2
*D9
340
0
  0
ENDTAB
  0
ENDSEC
  0
SECTION
  2
BLOCKS
  0
BLOCK
  5
20
330
1F
100
AcDbEntity
  8
0
100
AcDbBlockBegin
  2
*Model_Space
 70
     0
 10
0.0
 20
0.0
 30
0.0
  3
*Model_Space
  1
*Model_Space
  0
ENDBLK
  5
21
330
1F
100
AcDbEntity
  8
0
100
AcDbBlockEnd
  0
BLOCK
  5
1C
330
1B
100
AcDbEntity
 67
     1
  8
0
100
AcDbBlockBegin
  2
*Paper_Space
 70
     0
 10
0.0
 20
0.0
 30
0.0
  3
*Paper_Space
  1
*Paper_Space
  0
ENDBLK
  5
1D
330
1B
100
AcDbEntity
 67
     1
  8
0
100
AcDbBlockEnd
  0
BLOCK
  5
24
330
23
100
AcDbEntity
  8
0
100
AcDbBlockBegin
  2
*Paper_Space0
 70
     0
 10
0.0
 20
0.0
 30
0.0
  3
*Paper_Space0
  1
*Paper_Space0
  0
ENDBLK
  5
25
330
23
100
AcDbEntity
  8
0
100
AcDbBlockEnd
  0
BLOCK
  5
7F
330
7E
100
AcDbEntity
  8
0
100
AcDbBlockBegin
  2
블럭10
 70
     2
 10
0.0
 20
0.0
 30
0.0
  3
블럭10
  1
블럭10
  0
ELLIPSE
  5
81
330
7E
100
AcDbEntity
  8
중심선
100
AcDbEllipse
 10
20.54032771741204
 20
12.0471743016438
 30
0.0
 11
6.600054785286829
 21
-1.261213355974178E-13
 31
0.0
210
0.0
220
0.0
230
1.0
 40
0.636358354079598
 41
0.9219305317359503
 42
6.513795318482858
  0
ELLIPSE
  5
82
330
7E
100
AcDbEntity
  8
중심선
100
AcDbEllipse
 10
20.54032771746488
 20
12.04717430159265
 30
0.0
 11
3.960054785062283
 21
1.540847449632565E-10
 31
0.0
210
0.0
220
0.0
230
1.0
 40
0.3939339440162632
 41
1.131841032648279
 42
5.62031148352944
  0
LINE
  5
83
330
7E
100
AcDbEntity
  8
중심선
100
AcDbLine
 10
2.268634060543552
 20
16.24717430164393
 30
0.0
 11
5.714909304380834
 21
16.24717430164393
 31
0.0
  0
LINE
  5
84
330
7E
100
AcDbEntity
  8
중심선
100
AcDbLine
 10
5.245725140726316
 20
7.84717430164391
 30
0.0
 11
8.692000384563599
 21
7.84717430164391
 31
0.0
  0
LINE
  5
85
330
7E
100
AcDbEntity
  8
중심선
100
AcDbLine
 10
15.74043728645272
 20
16.24717430164393
 30
0.0
 11
8.692000384563599
 21
7.84717430164391
 31
0.0
  0
LINE
  5
86
330
7E
100
AcDbEntity
  8
중심선
100
AcDbLine
 10
0.1404042013395286
 20
13.71084872107135
 30
0.0
 11
3.58671253028996
 21
13.71088815037384
 31
0.0
  0
LINE
  5
87
330
7E
100
AcDbEntity
  8
중심선
100
AcDbLine
 10
2.750260043222114
 20
10.84717430164391
 30
0.0
 11
6.196535287059397
 21
10.84717430164391
 31
0.0
  0
LINE
  5
88
330
7E
100
AcDbEntity
  8
중심선
100
AcDbLine
 10
12.29416204261559
 20
16.24717430164393
 30
0.0
 11
5.245725140726316
 21
7.84717430164391
 31
0.0
  0
LINE
  5
89
330
7E
100
AcDbEntity
  8
중심선
100
AcDbLine
 10
10.72767329541681
 20
16.24717430164393
 30
0.0
 11
6.196535287059397
 21
10.84717430164391
 31
0.0
  0
LINE
  5
8A
330
7E
100
AcDbEntity
  8
중심선
100
AcDbLine
 10
7.28139805157953
 20
16.24717430164393
 30
0.0
 11
2.750260043222114
 21
10.84717430164391
 31
0.0
  0
LINE
  5
8B
330
7E
100
AcDbEntity
  8
중심선
100
AcDbLine
 10
5.714909304380834
 20
16.24717430164393
 30
0.0
 11
3.58671253028996
 21
13.71088815037384
 31
0.0
  0
LINE
  5
8C
330
7E
100
AcDbEntity
  8
중심선
100
AcDbLine
 10
2.268634060543552
 20
16.24717430164393
 30
0.0
 11
0.1404042013395286
 21
13.71084872107135
 31
0.0
  0
LINE
  5
8D
330
7E
100
AcDbEntity
  8
중심선
100
AcDbLine
 10
7.28139805157953
 20
16.24717430164393
 30
0.0
 11
10.72767329541681
 21
16.24717430164393
 31
0.0
  0
LINE
  5
8E
330
7E
100
AcDbEntity
  8
중심선
100
AcDbLine
 10
12.29416204261559
 20
16.24717430164393
 30
0.0
 11
15.74043728645272
 21
16.24717430164393
 31
0.0
  0
LINE
  5
8F
330
7E
100
AcDbEntity
  8
중심선
100
AcDbLine
 10
19.22036997980202
 20
11.08717430171403
 30
0.0
 11
23.66174974927406
 21
11.08717430171406
 31
0.0
  0
LINE
  5
90
330
7E
100
AcDbEntity
  8
중심선
100
AcDbLine
 10
19.22039502424796
 20
13.00717430171391
 30
0.0
 11
19.22036997980202
 21
11.08717430171403
 31
0.0
  0
LINE
  5
91
330
7E
100
AcDbEntity
  8
중심선
100
AcDbLine
 10
19.22039502424796
 20
13.00717430171391
 30
0.0
 11
26.96566020931264
 21
13.00717430171391
 31
0.0
  0
LINE
  5
92
330
7E
100
AcDbEntity
  8
중심선
100
AcDbLine
 10
22.22332737316547
 20
13.45928029700563
 30
0.0
 11
24.52862924686651
 21
15.39360700705356
 31
0.0
  0
ATTDEF
  5
94
330
7E
100
AcDbEntity
  8
FORMAT
 62
     2
100
AcDbText
 10
-9.18129528874128
 20
2.075366912832191
 30
0.0
 40
4.233333333333333
  1
E5077098 [ 3 FLUTE ]
 41
0.75
  7
SLDTEXTSTYLE0
 11
-9.18129528874128
 21
-0.0412997538344756
 31
0.0
100
AcDbAttributeDefinition
  3

  2
AUTOATTR0
 70
     0
 74
     1
  0
ENDBLK
  5
80
330
7E
100
AcDbEntity
  8
0
100
AcDbBlockEnd
  0
BLOCK
  5
DA
330
D9
100
AcDbEntity
  8
0
100
AcDbBlockBegin
  2
_D
 70
     0
 10
0.0
 20
0.0
 30
0.0
  3
_D
  1
_D
  0
LINE
  5
DC
330
D9
100
AcDbEntity
  8
치수문자_일반주서
 62
     0
370
    -2
100
AcDbLine
 10
35.2749081826537
 20
1.644208435270851
 30
0.0
 11
35.2749081826537
 21
28.75489445612114
 31
0.0
  0
LINE
  5
DD
330
D9
100
AcDbEntity
  8
치수문자_일반주서
 62
     0
370
    -2
100
AcDbLine
 10
9.8749081826537
 20
6.133540461809114
 30
0.0
 11
9.8749081826537
 21
28.75489445612114
 31
0.0
  0
LINE
  5
DE
330
D9
100
AcDbEntity
  8
치수문자_일반주서
 62
     0
370
    -2
100
AcDbLine
 10
31.9729081826537
 20
28.75489445612114
 30
0.0
 11
13.1769081826537
 21
28.75489445612114
 31
0.0
  0
SOLID
  5
DF
330
D9
100
AcDbEntity
  8
치수문자_일반주서
 62
     0
100
AcDbTrace
 10
31.9729081826537
 20
28.20456112278781
 30
0.0
 11
31.9729081826537
 21
29.30522778945448
 31
0.0
 12
35.2749081826537
 22
28.75489445612114
 32
0.0
 13
35.2749081826537
 23
28.75489445612114
 33
0.0
  0
SOLID
  5
E0
330
D9
100
AcDbEntity
  8
치수문자_일반주서
 62
     0
100
AcDbTrace
 10
13.1769081826537
 20
29.30522778945448
 30
0.0
 11
13.1769081826537
 21
28.20456112278781
 31
0.0
 12
9.8749081826537
 22
28.75489445612114
 32
0.0
 13
9.8749081826537
 23
28.75489445612114
 33
0.0
  0
MTEXT
  5
E1
330
D9
100
AcDbEntity
  8
치수문자_일반주서
 62
     0
100
AcDbMText
 10
22.5749081826537
 20
33.12989445612114
 30
0.0
 40
3.5
 41
0.0
 71
     2
 72
     1
  1
\A1;25.4 [1]
  7
SLDTEXTSTYLE0
 73
     1
 44
1.0
  0
POINT
  5
E2
330
D9
100
AcDbEntity
  8
Defpoints
 62
     0
100
AcDbPoint
 10
35.2749081826537
 20
1.581708435270851
 30
0.0
  0
POINT
  5
E3
330
D9
100
AcDbEntity
  8
Defpoints
 62
     0
100
AcDbPoint
 10
9.8749081826537
 20
6.071040461809114
 30
0.0
  0
POINT
  5
E4
330
D9
100
AcDbEntity
  8
Defpoints
 62
     0
100
AcDbPoint
 10
9.8749081826537
 20
28.75489445612114
 30
0.0
  0
ENDBLK
  5
DB
330
D9
100
AcDbEntity
  8
0
100
AcDbBlockEnd
  0
BLOCK
  5
F0
330
EF
100
AcDbEntity
  8
0
100
AcDbBlockBegin
  2
_D_1
 70
     0
 10
0.0
 20
0.0
 30
0.0
  3
_D_1
  1
_D_1
  0
LINE
  5
F2
330
EF
100
AcDbEntity
  8
치수문자_일반주서
 62
     0
370
    -2
100
AcDbLine
 10
35.2749081826537
 20
1.644208435270851
 30
0.0
 11
35.2749081826537
 21
42.13815151268275
 31
0.0
  0
LINE
  5
F3
330
EF
100
AcDbEntity
  8
치수문자_일반주서
 62
     0
370
    -2
100
AcDbLine
 10
-66.32509181734629
 20
5.607335151814074
 30
0.0
 11
-66.32509181734628
 21
42.13815151268275
 31
0.0
  0
LINE
  5
F4
330
EF
100
AcDbEntity
  8
치수문자_일반주서
 62
     0
370
    -2
100
AcDbLine
 10
31.9729081826537
 20
42.13815151268275
 30
0.0
 11
-63.02309181734628
 21
42.13815151268275
 31
0.0
  0
SOLID
  5
F5
330
EF
100
AcDbEntity
  8
치수문자_일반주서
 62
     0
100
AcDbTrace
 10
31.9729081826537
 20
41.58781817934941
 30
0.0
 11
31.9729081826537
 21
42.68848484601608
 31
0.0
 12
35.2749081826537
 22
42.13815151268275
 32
0.0
 13
35.2749081826537
 23
42.13815151268275
 33
0.0
  0
SOLID
  5
F6
330
EF
100
AcDbEntity
  8
치수문자_일반주서
 62
     0
100
AcDbTrace
 10
-63.02309181734628
 20
42.68848484601608
 30
0.0
 11
-63.02309181734628
 21
41.58781817934941
 31
0.0
 12
-66.32509181734628
 22
42.13815151268275
 32
0.0
 13
-66.32509181734628
 23
42.13815151268275
 33
0.0
  0
MTEXT
  5
F7
330
EF
100
AcDbEntity
  8
치수문자_일반주서
 62
     0
100
AcDbMText
 10
-13.67730469594389
 20
46.51315151268275
 30
0.0
 40
3.5
 41
0.0
 71
     2
 72
     1
  1
\A1;101.60 [4]
  7
SLDTEXTSTYLE0
 73
     1
 44
1.0
  0
POINT
  5
F8
330
EF
100
AcDbEntity
  8
Defpoints
 62
     0
100
AcDbPoint
 10
35.2749081826537
 20
1.581708435270851
 30
0.0
  0
POINT
  5
F9
330
EF
100
AcDbEntity
  8
Defpoints
 62
     0
100
AcDbPoint
 10
-66.32509181734629
 20
5.544835151814074
 30
0.0
  0
POINT
  5
FA
330
EF
100
AcDbEntity
  8
Defpoints
 62
     0
100
AcDbPoint
 10
-66.32509181734629
 20
42.13815151268275
 30
0.0
  0
ENDBLK
  5
F1
330
EF
100
AcDbEntity
  8
0
100
AcDbBlockEnd
  0
BLOCK
  5
104
330
103
100
AcDbEntity
  8
0
100
AcDbBlockBegin
  2
_NONE
 70
     0
 10
0.0
 20
0.0
 30
0.0
  3
_NONE
  1
_NONE
  0
ENDBLK
  5
105
330
103
100
AcDbEntity
  8
0
100
AcDbBlockEnd
  0
BLOCK
  5
107
330
106
100
AcDbEntity
  8
0
100
AcDbBlockBegin
  2
_D_2
 70
     0
 10
0.0
 20
0.0
 30
0.0
  3
_D_2
  1
_D_2
  0
LINE
  5
109
330
106
100
AcDbEntity
  8
치수문자_일반주서
100
AcDbLine
 10
-90.11797353338905
 20
-11.75953127925459
 30
0.0
 11
-90.11797353338905
 21
-12.47046876481909
 31
0.0
  0
LINE
  5
10A
330
106
100
AcDbEntity
  8
치수문자_일반주서
100
AcDbLine
 10
-90.11797353338905
 20
-12.47046876481909
 30
0.0
 11
-84.56172354232974
 21
-12.47046876481905
 31
0.0
  0
LINE
  5
10B
330
106
100
AcDbEntity
  8
치수문자_일반주서
100
AcDbLine
 10
-84.56172354232974
 20
-12.47046876481905
 30
0.0
 11
-84.56172354232974
 21
-11.75953127925455
 31
0.0
  0
LINE
  5
10C
330
106
100
AcDbEntity
  8
치수문자_일반주서
100
AcDbLine
 10
-90.11797353338913
 20
-0.930798417117332
 30
0.0
 11
-90.11797353338913
 21
-0.2198609315528319
 31
0.0
  0
LINE
  5
10D
330
106
100
AcDbEntity
  8
치수문자_일반주서
100
AcDbLine
 10
-90.11797353338913
 20
-0.2198609315528319
 30
0.0
 11
-84.56172354232983
 21
-0.2198609315527928
 31
0.0
  0
LINE
  5
10E
330
106
100
AcDbEntity
  8
치수문자_일반주서
100
AcDbLine
 10
-84.56172354232983
 20
-0.2198609315527928
 30
0.0
 11
-84.56172354232983
 21
-0.9307984171172929
 31
0.0
  0
MTEXT
  5
10F
330
106
100
AcDbEntity
  8
치수문자_일반주서
100
AcDbMText
 10
-89.07346045690866
 20
-10.87085937864321
 30
0.0
 40
3.5
 41
0.0
 71
     1
 72
     1
  1
0.00
  7
SLDTEXTSTYLE0
 11
-7.044195017643634E-15
 21
1.0
 31
0.0
 73
     1
 44
1.0
  0
MTEXT
  5
110
330
106
100
AcDbEntity
  8
치수문자_일반주서
100
AcDbMText
 10
-83.83682890654819
 20
-10.27743926054969
 30
0.0
 40
3.5
 41
0.0
 71
     1
 72
     1
  1
%%c
  7
SLDTEXTSTYLE0
 11
-7.044195017643634E-15
 21
1.0
 31
0.0
 73
     1
 44
1.0
  0
MTEXT
  5
111
330
106
100
AcDbEntity
  8
치수문자_일반주서
100
AcDbMText
 10
-83.83682890654823
 20
-4.999001862175605
 30
0.0
 40
3.5
 41
0.0
 71
     1
 72
     1
  1
0
  7
SLDTEXTSTYLE0
 11
-7.044195017643634E-15
 21
1.0
 31
0.0
 73
     1
 44
1.0
  0
ENDBLK
  5
108
330
106
100
AcDbEntity
  8
0
100
AcDbBlockEnd
  0
BLOCK
  5
113
330
112
100
AcDbEntity
  8
0
100
AcDbBlockBegin
  2
SW_DOWELSYMBOL_0
 70
     0
 10
0.0
 20
0.0
 30
0.0
  3
SW_DOWELSYMBOL_0
  1
SW_DOWELSYMBOL_0
  0
CIRCLE
  5
115
330
112
100
AcDbEntity
  8
외형선
 62
     0
100
AcDbCircle
 10
0.0
 20
0.0
 30
0.0
 40
3.000000000000004
  0
HATCH
  5
116
330
112
100
AcDbEntity
  8
0
  6
Continuous
 62
     0
370
    30
100
AcDbHatch
 10
0.0
 20
0.0
 30
0.0
210
0.0
220
0.0
230
1.0
  2
SOLID
 70
     1
 71
     0
 91
        1
 92
        0
 93
        3
 72
     2
 10
-0.0000000000000013
 20
-0.0000000000000039
 40
3.000000000000004
 50
0.0
 51
90.0
 73
     1
 72
     1
 10
-0.0000000000000013
 20
3.0
 11
-0.0000000000000013
 21
-0.000000000000004
 72
     1
 10
-0.0000000000000013
 20
-0.0000000000000039
 11
3.000000000000003
 21
-0.0000000000000039
 97
        0
 75
     0
 76
     1
 98
        1
 10
0.0
 20
0.0
  0
HATCH
  5
117
330
112
100
AcDbEntity
  8
0
  6
Continuous
 62
     0
370
    30
100
AcDbHatch
 10
0.0
 20
0.0
 30
0.0
210
0.0
220
0.0
230
1.0
  2
SOLID
 70
     1
 71
     0
 91
        1
 92
        0
 93
        3
 72
     2
 10
-0.0000000000000013
 20
-0.0000000000000039
 40
3.000000000000004
 50
180.0
 51
270.0000000000008
 73
     1
 72
     1
 10
-0.0000000000000013
 20
-3.000000000000008
 11
-0.0000000000000013
 21
-0.000000000000004
 72
     1
 10
-0.0000000000000013
 20
-0.0000000000000039
 11
-3.000000000000006
 21
-0.0000000000000039
 97
        0
 75
     0
 76
     1
 98
        1
 10
0.0
 20
0.0
  0
ENDBLK
  5
114
330
112
100
AcDbEntity
  8
0
100
AcDbBlockEnd
  0
BLOCK
  5
142
330
141
100
AcDbEntity
  8
0
100
AcDbBlockBegin
  2
*D7
 70
     1
 10
0.0
 20
0.0
 30
0.0
  3
*D7
  1
*D7
  0
LINE
  5
144
330
141
100
AcDbEntity
  8
치수문자_일반주서
 62
     0
370
    -2
100
AcDbLine
 10
-65.57759181734632
 20
6.354835151814049
 30
0.0
 11
-84.62267207171807
 21
6.354835151814054
 31
0.0
  0
LINE
  5
145
330
141
100
AcDbEntity
  8
치수문자_일반주서
 62
     0
370
    -2
100
AcDbLine
 10
-65.57759181734632
 20
-6.345164848185876
 30
0.0
 11
-84.62267207171807
 21
-6.34516484818587
 31
0.0
  0
LINE
  5
146
330
141
100
AcDbEntity
  8
치수문자_일반주서
 62
     0
370
    -2
100
AcDbLine
 10
-84.62267207171807
 20
6.354835151814054
 30
0.0
 11
-84.62267207171807
 21
36.34433515181405
 31
0.0
  0
LINE
  5
147
330
141
100
AcDbEntity
  8
치수문자_일반주서
 62
     0
370
    -2
100
AcDbLine
 10
-84.62267207171807
 20
3.052835151814055
 30
0.0
 11
-84.62267207171807
 21
-3.043164848185871
 31
0.0
  0
SOLID
  5
148
330
141
100
AcDbEntity
  8
치수문자_일반주서
 62
     0
100
AcDbTrace
 10
-84.07233873838474
 20
3.052835151814055
 30
0.0
 11
-85.1730054050514
 21
3.052835151814055
 31
0.0
 12
-84.62267207171807
 22
6.354835151814054
 32
0.0
 13
-84.62267207171807
 23
6.354835151814054
 33
0.0
  0
SOLID
  5
149
330
141
100
AcDbEntity
  8
치수문자_일반주서
 62
     0
100
AcDbTrace
 10
-85.1730054050514
 20
-3.043164848185871
 30
0.0
 11
-84.07233873838474
 21
-3.043164848185871
 31
0.0
 12
-84.62267207171807
 22
-6.34516484818587
 32
0.0
 13
-84.62267207171807
 23
-6.34516484818587
 33
0.0
  0
MTEXT
  5
14A
330
141
100
AcDbEntity
  8
치수문자_일반주서
 62
     0
100
AcDbMText
 10
-87.24767207171807
 20
23.00058515181405
 30
0.0
 40
3.5
 41
0.0
 71
     5
 72
     1
  1
\A1;{%%c12.70 [1/2]}
  7
SLDTEXTSTYLE0
 11
0.0
 21
1.0
 31
0.0
 73
     1
 44
1.0
  0
POINT
  5
14B
330
141
100
AcDbEntity
  8
Defpoints
 62
     0
100
AcDbPoint
 10
-65.51509181734632
 20
6.354835151814049
 30
0.0
  0
POINT
  5
14C
330
141
100
AcDbEntity
  8
Defpoints
 62
     0
100
AcDbPoint
 10
-65.51509181734632
 20
-6.345164848185876
 30
0.0
  0
POINT
  5
14D
330
141
100
AcDbEntity
  8
Defpoints
 62
     0
100
AcDbPoint
 10
-84.62267207171807
 20
-6.345164848185875
 30
0.0
  0
ENDBLK
  5
143
330
141
100
AcDbEntity
  8
0
100
AcDbBlockEnd
  0
BLOCK
  5
155
330
154
100
AcDbEntity
  8
0
100
AcDbBlockBegin
  2
*D8
 70
     1
 10
0.0
 20
0.0
 30
0.0
  3
*D8
  1
*D8
  0
LINE
  5
157
330
154
100
AcDbEntity
  8
치수문자_일반주서
 62
     0
370
    -2
100
AcDbLine
 10
35.3374081826537
 20
1.592335151814097
 30
0.0
 11
55.89429282917514
 21
1.592335151814098
 31
0.0
  0
LINE
  5
158
330
154
100
AcDbEntity
  8
치수문자_일반주서
 62
     0
370
    -2
100
AcDbLine
 10
35.33740818265369
 20
-1.57735148991429
 30
0.0
 11
55.89429282917514
 21
-1.577351489914289
 31
0.0
  0
LINE
  5
159
330
154
100
AcDbEntity
  8
치수문자_일반주서
 62
     0
370
    -2
100
AcDbLine
 10
55.89429282917514
 20
1.592335151814098
 30
0.0
 11
55.89429282917514
 21
32.6963351518141
 31
0.0
  0
LINE
  5
15A
330
154
100
AcDbEntity
  8
치수문자_일반주서
 62
     0
370
    -2
100
AcDbLine
 10
55.89429282917514
 20
4.894335151814097
 30
0.0
 11
55.89429282917514
 21
8.196335151814097
 31
0.0
  0
LINE
  5
15B
330
154
100
AcDbEntity
  8
치수문자_일반주서
 62
     0
370
    -2
100
AcDbLine
 10
55.89429282917514
 20
-4.879351489914288
 30
0.0
 11
55.89429282917514
 21
-8.181351489914288
 31
0.0
  0
SOLID
  5
15C
330
154
100
AcDbEntity
  8
치수문자_일반주서
 62
     0
100
AcDbTrace
 10
55.34395949584181
 20
4.894335151814097
 30
0.0
 11
56.44462616250848
 21
4.894335151814097
 31
0.0
 12
55.89429282917514
 22
1.592335151814098
 32
0.0
 13
55.89429282917514
 23
1.592335151814098
 33
0.0
  0
SOLID
  5
15D
330
154
100
AcDbEntity
  8
치수문자_일반주서
 62
     0
100
AcDbTrace
 10
56.44462616250848
 20
-4.879351489914288
 30
0.0
 11
55.34395949584181
 21
-4.879351489914288
 31
0.0
 12
55.89429282917514
 22
-1.577351489914289
 32
0.0
 13
55.89429282917514
 23
-1.577351489914289
 33
0.0
  0
MTEXT
  5
15E
330
154
100
AcDbEntity
  8
치수문자_일반주서
 62
     0
100
AcDbMText
 10
53.26929282917514
 20
20.4463351518141
 30
0.0
 40
3.5
 41
0.0
 71
     5
 72
     1
  1
\A1;{%%c3.17 [1/8]}
  7
SLDTEXTSTYLE0
 11
0.0
 21
1.0
 31
0.0
 73
     1
 44
1.0
  0
POINT
  5
15F
330
154
100
AcDbEntity
  8
Defpoints
 62
     0
100
AcDbPoint
 10
35.2749081826537
 20
1.592335151814097
 30
0.0
  0
POINT
  5
160
330
154
100
AcDbEntity
  8
Defpoints
 62
     0
100
AcDbPoint
 10
35.27490818265369
 20
-1.57735148991429
 30
0.0
  0
POINT
  5
177
330
154
100
AcDbEntity
  8
Defpoints
 62
     0
100
AcDbPoint
 10
55.89429282917514
 20
-1.577351489914292
 30
0.0
  0
ENDBLK
  5
156
330
154
100
AcDbEntity
  8
0
100
AcDbBlockEnd
  0
BLOCK
  5
167
330
166
100
AcDbEntity
  8
0
100
AcDbBlockBegin
  2
*D9
 70
     1
 10
0.0
 20
0.0
 30
0.0
  3
*D9
  1
*D9
  0
LINE
  5
169
330
166
100
AcDbEntity
  8
치수문자_일반주서
 62
     0
370
    -2
100
AcDbLine
 10
-16.8061246736023
 20
17.42073562338907
 30
0.0
 11
-14.15624942195843
 21
23.42444842470838
 31
0.0
  0
LINE
  5
16A
330
166
100
AcDbEntity
  8
치수문자_일반주서
 62
     0
370
    -2
100
AcDbLine
 10
8.203878032161349
 20
6.365688162918242
 30
0.0
 11
-18.72328019770777
 21
11.11367267265018
 31
0.0
  0
ARC
  5
16B
330
166
100
AcDbEntity
  8
치수문자_일반주서
 62
     0
370
    -2
100
AcDbCircle
 10
8.265428516724612
 20
6.354835151814059
 30
0.0
 40
27.40505304906735
100
AcDbArc
 50
156.1846432600792
 51
163.0923216300396
  0
ARC
  5
16C
330
166
100
AcDbEntity
  8
치수문자_일반주서
 62
     0
370
    -2
100
AcDbCircle
 10
8.265428516724612
 20
6.354835151814059
 30
0.0
 40
27.40505304906735
100
AcDbArc
 50
186.9076783699604
 51
193.8153567399208
  0
ARC
  5
16D
330
166
100
AcDbEntity
  8
치수문자_일반주서
 62
     0
370
    -2
100
AcDbCircle
 10
8.265428516724612
 20
6.354835151814059
 30
0.0
 40
27.40505304906735
100
AcDbArc
 50
169.9999999999999
 51
180.0
  0
SOLID
  5
16E
330
166
100
AcDbEntity
  8
치수문자_일반주서
 62
     0
100
AcDbTrace
 10
-18.49026154668444
 20
14.45309973219992
 30
0.0
 11
-17.41979972472362
 21
14.19701654486535
 31
0.0
 12
-18.72328019770777
 22
11.11367267265018
 32
0.0
 13
-18.72328019770777
 23
11.11367267265018
 33
0.0
  0
SOLID
  5
16F
330
166
100
AcDbEntity
  8
치수문자_일반주서
 62
     0
100
AcDbTrace
 10
-18.39136390117859
 20
3.091987192495754
 30
0.0
 11
-19.49003138156097
 21
3.0256782288381
 31
0.0
 12
-19.13962453234274
 22
6.354835151814055
 32
0.0
 13
-19.13962453234274
 23
6.354835151814055
 33
0.0
  0
MTEXT
  5
170
330
166
100
AcDbEntity
  8
치수문자_일반주서
 62
     0
100
AcDbMText
 10
-17.88267216830809
 20
21.48254212470627
 30
0.0
 40
3.5
 41
0.0
 71
     5
 72
     1
  1
\A1;10%%d
  7
SLDTEXTSTYLE0
 11
0.4037905145362091
 21
0.9148514744867515
 31
0.0
 73
     1
 44
1.0
  0
POINT
  5
171
330
166
100
AcDbEntity
  8
Defpoints
 62
     0
100
AcDbPoint
 10
-19.09325952001622
 20
7.9482972726346
 30
0.0
  0
POINT
  5
172
330
166
100
AcDbEntity
  8
Defpoints
 62
     0
100
AcDbPoint
 10
7.893708182653697
 20
6.354835151814059
 30
0.0
  0
POINT
  5
173
330
166
100
AcDbEntity
  8
Defpoints
 62
     0
100
AcDbPoint
 10
11.26511026979605
 20
5.825910325208695
 30
0.0
  0
POINT
  5
174
330
166
100
AcDbEntity
  8
Defpoints
 62
     0
100
AcDbPoint
 10
9.8749081826537
 20
6.071040461809114
 30
0.0
  0
POINT
  5
175
330
166
100
AcDbEntity
  8
Defpoints
 62
     0
100
AcDbPoint
 10
-65.51509181734632
 20
6.354835151814049
 30
0.0
  0
ENDBLK
  5
168
330
166
100
AcDbEntity
  8
0
100
AcDbBlockEnd
  0
ENDSEC
  0
SECTION
  2
ENTITIES
  0
LINE
  5
95
330
1F
100
AcDbEntity
  8
0
  6
Continuous
 62
     1
370
    15
100
AcDbLine
 10
23.22801942358658
 20
-3.706856370002958
 30
0.0
 11
26.46618860964521
 21
-3.135879774402051
 31
0.0
  0
LINE
  5
96
330
1F
100
AcDbEntity
  8
0
  6
Continuous
 62
     1
370
    15
100
AcDbLine
 10
9.8749081826537
 20
-6.061370158180922
 30
0.0
 11
13.44993146337478
 21
-5.4309970971289
 31
0.0
  0
LINE
  5
97
330
1F
100
AcDbEntity
  8
0
  6
Continuous
 62
     1
370
    15
100
AcDbLine
 10
19.98829940986114
 20
4.287776721992145
 30
0.0
 11
16.45908104782381
 21
4.910073140031064
 31
0.0
  0
LINE
  5
98
330
1F
100
AcDbEntity
  8
0
  6
Continuous
 62
     1
370
    15
100
AcDbLine
 10
32.80048169426131
 20
2.028643303497378
 30
0.0
 11
30.13628341592219
 21
2.498413341925605
 31
0.0
  0
LINE
  5
99
330
1F
100
AcDbEntity
  8
0
  6
Continuous
 62
     1
370
    15
100
AcDbLine
 10
9.745458001713304
 20
-6.079913098808354
 30
0.0
 11
9.874908182653702
 21
-6.061370158180922
 31
0.0
  0
LINE
  5
9A
330
1F
100
AcDbEntity
  8
0
  6
Continuous
 62
     4
370
    15
100
AcDbLine
 10
7.893708182653699
 20
-6.345164848185904
 30
0.0
 11
9.078656459193573
 21
-6.175428310323714
 31
0.0
  0
LINE
  5
9B
330
1F
100
AcDbEntity
  8
0
  6
Continuous
 62
     4
370
    15
100
AcDbLine
 10
9.8749081826537
 20
6.071040461809114
 30
0.0
 11
7.893708182653697
 21
6.354835151814096
 31
0.0
  0
LINE
  5
9C
102
{ACAD_REACTORS
102
}
330
1F
100
AcDbEntity
  8
0
  6
Continuous
 62
     4
370
    15
100
AcDbLine
 10
7.893708182653697
 20
6.354835151814059
 30
0.0
 11
-65.51509181734632
 21
6.354835151814049
 31
0.0
  0
LINE
  5
9D
102
{ACAD_REACTORS
102
}
330
1F
100
AcDbEntity
  8
0
  6
Continuous
 62
     4
370
    15
100
AcDbLine
 10
-65.51509181734632
 20
-6.345164848185876
 30
0.0
 11
7.893708182653699
 21
-6.345164848185867
 31
0.0
  0
LINE
  5
9E
330
1F
100
AcDbEntity
  8
0
  6
Continuous
 62
     4
370
    15
100
AcDbLine
 10
-65.51509181734632
 20
6.354835151814048
 30
0.0
 11
-66.32509181734629
 21
5.544835151814073
 31
0.0
  0
LINE
  5
9F
330
1F
100
AcDbEntity
  8
0
  6
Continuous
 62
     4
370
    15
100
AcDbLine
 10
-66.32509181734629
 20
-5.535164848185902
 30
0.0
 11
-65.51509181734632
 21
-6.345164848185877
 31
0.0
  0
LINE
  5
A0
330
1F
100
AcDbEntity
  8
0
  6
Continuous
 62
     1
370
    15
100
AcDbLine
 10
27.80292557472152
 20
-2.900176981348749
 30
0.0
 11
30.71498706580165
 21
-2.386701970989197
 31
0.0
  0
LINE
  5
A1
330
1F
100
AcDbEntity
  8
0
  6
Continuous
 62
     1
370
    15
100
AcDbLine
 10
14.21966011907151
 20
-5.29527316730511
 30
0.0
 11
17.8126329966588
 21
-4.661735108032738
 31
0.0
  0
LINE
  5
A2
102
{ACAD_REACTORS
102
}
330
1F
100
AcDbEntity
  8
0
  6
Continuous
 62
     1
370
    15
100
AcDbLine
 10
11.26511026979605
 20
5.825910325208695
 30
0.0
 11
9.8749081826537
 21
6.071040461809114
 31
0.0
  0
LINE
  5
A3
330
1F
100
AcDbEntity
  8
0
  6
Continuous
 62
     1
370
    15
100
AcDbLine
 10
24.3136479552161
 20
3.525101072477953
 30
0.0
 11
20.96148863402436
 21
4.116177204437431
 31
0.0
  0
LINE
  5
A4
330
1F
100
AcDbEntity
  8
0
  6
Continuous
 62
     1
370
    15
100
AcDbLine
 10
35.2749081826537
 20
1.592335151814097
 30
0.0
 11
35.00754086081082
 21
1.63947922441476
 31
0.0
  0
LINE
  5
A5
330
1F
100
AcDbEntity
  8
0
  6
Continuous
 62
     1
370
    15
100
AcDbLine
 10
32.52337001979566
 20
-2.067835264746778
 30
0.0
 11
34.6407839410025
 21
-1.694478061110304
 31
0.0
  0
LINE
  5
A6
330
1F
100
AcDbEntity
  8
0
  6
Continuous
 62
     1
370
    15
100
AcDbLine
 10
18.70585270767669
 20
-4.504236373279666
 30
0.0
 11
22.15582226232886
 21
-3.895913658171719
 31
0.0
  0
LINE
  5
A7
330
1F
100
AcDbEntity
  8
0
  6
Continuous
 62
     1
370
    15
100
AcDbLine
 10
15.6317373590657
 20
5.055956154677985
 30
0.0
 11
11.98068485948112
 21
5.699735218337828
 31
0.0
  0
LINE
  5
A8
330
1F
100
AcDbEntity
  8
0
  6
Continuous
 62
     1
370
    15
100
AcDbLine
 10
28.60095028286103
 20
2.769133997659948
 30
0.0
 11
25.50424970298593
 21
3.315165861067478
 31
0.0
  0
SPLINE
  5
A9
330
1F
100
AcDbEntity
  8
0
  6
Continuous
 62
     1
370
    15
100
AcDbSpline
210
0.0
220
0.0
230
1.0
 70
     8
 71
     3
 72
    25
 73
    21
 74
     0
 42
0.000000001
 43
0.00000001
 40
0.0
 40
0.0
 40
0.0
 40
0.0
 40
0.0495148592938785
 40
0.1122657833052692
 40
0.1720113591522585
 40
0.2335568465207353
 40
0.2921420224042546
 40
0.3524927606555915
 40
0.4099293728776039
 40
0.4690974505639375
 40
0.5253989700271384
 40
0.5833981418086243
 40
0.6385799977510164
 40
0.6954260120724608
 40
0.7495059952555199
 40
0.8052170020844429
 40
0.8582157719437501
 40
0.9128128345770052
 40
0.96475456510547
 40
1.0
 40
1.0
 40
1.0
 40
1.0
 10
16.04535455790116
 20
4.879324643369105
 30
0.0
 10
16.15109393735717
 20
4.902310959567912
 30
0.0
 10
16.39083841871347
 20
4.954428179129126
 30
0.0
 10
16.76426607393038
 20
4.830464161357807
 30
0.0
 10
17.16791386340699
 20
4.54932230751171
 30
0.0
 10
17.56802245589122
 20
4.11643174666958
 30
0.0
 10
17.9742202085551
 20
3.545801771102332
 30
0.0
 10
18.37681348708363
 20
2.873147191904028
 30
0.0
 10
18.78570002346758
 20
2.108619653031145
 30
0.0
 10
19.19104400851406
 20
1.300482497190381
 30
0.0
 10
19.60287128880955
 20
0.4590058841627616
 30
0.0
 10
20.01124547579304
 20
-0.3636228723281484
 30
0.0
 10
20.42630747450493
 20
-1.158090580755087
 30
0.0
 10
20.8380325857814
 20
-1.8759959436805
 30
0.0
 10
21.25666499824599
 20
-2.510447272922369
 30
0.0
 10
21.67212391180767
 20
-3.023321204940215
 30
0.0
 10
22.09467114927892
 20
-3.413024691585154
 30
0.0
 10
22.51447986926041
 20
-3.650409083010907
 30
0.0
 10
22.89208740614303
 20
-3.750982397537269
 30
0.0
 10
23.1292540496991
 20
-3.707884685874332
 30
0.0
 10
23.22512872866193
 20
-3.690462424430806
 30
0.0
  0
SPLINE
  5
AA
330
1F
100
AcDbEntity
  8
0
  6
Continuous
 62
     1
370
    15
100
AcDbSpline
210
0.0
220
0.0
230
1.0
 70
     8
 71
     3
 72
    18
 73
    14
 74
     0
 42
0.000000001
 43
0.00000001
 40
0.0
 40
0.0
 40
0.0
 40
0.0
 40
0.0745812828738711
 40
0.1645536685899344
 40
0.257174356274699
 40
0.3464547192059462
 40
0.4383380867217865
 40
0.5273897375357874
 40
0.6189992534302488
 40
0.7084844949947227
 40
0.8004800663774168
 40
0.8986856320615424
 40
1.0
 40
1.0
 40
1.0
 40
1.0
 10
29.3263171555576
 20
2.460942215811103
 30
0.0
 10
29.45688961329902
 20
2.49012753252989
 30
0.0
 10
29.74498035282803
 20
2.554521047229245
 30
0.0
 10
30.20733274980294
 20
2.502232387480507
 30
0.0
 10
30.70585633006649
 20
2.339139123753596
 30
0.0
 10
31.21910475002722
 20
2.059867928468025
 30
0.0
 10
31.73743008116202
 20
1.693122106155551
 30
0.0
 10
32.27234144390661
 20
1.254220866290385
 30
0.0
 10
32.81531086979658
 20
0.77903024537389
 30
0.0
 10
33.37768304178057
 20
0.2898243452945967
 30
0.0
 10
33.96848847867926
 20
-0.1843711660734423
 30
0.0
 10
34.59959214804858
 20
-0.6249339296786194
 30
0.0
 10
35.04747661368136
 20
-0.835491114642504
 30
0.0
 10
35.27490818265369
 20
-0.9424100962309295
 30
0.0
  0
LINE
  5
AB
330
1F
100
AcDbEntity
  8
0
  6
Continuous
 62
     4
370
    15
100
AcDbLine
 10
9.8749081826537
 20
0.8572034562216363
 30
0.0
 11
9.8749081826537
 21
-6.061370158180922
 31
0.0
  0
SPLINE
  5
AC
330
1F
100
AcDbEntity
  8
0
  6
Continuous
 62
     1
370
    15
100
AcDbSpline
210
0.0
220
0.0
230
1.0
 70
     8
 71
     3
 72
    12
 73
     8
 74
     0
 42
0.000000001
 43
0.00000001
 40
0.0
 40
0.0
 40
0.0
 40
0.0
 40
0.2104556700101427
 40
0.4256871016252474
 40
0.6625492764554305
 40
0.9060983546564518
 40
1.0
 40
1.0
 40
1.0
 40
1.0
 10
34.6859457922674
 20
0.9585845350425086
 30
0.0
 10
34.54927344537008
 20
1.069617700423592
 30
0.0
 10
34.27282731673765
 20
1.294203649346101
 30
0.0
 10
33.85082853891448
 20
1.593098571492894
 30
0.0
 10
33.41465724118156
 20
1.836144959683198
 30
0.0
 10
33.05941175227068
 20
1.984535512693206
 30
0.0
 10
32.8552551471118
 20
2.010005025890499
 30
0.0
 10
32.79844495292757
 20
2.017092369400103
 30
0.0
  0
SPLINE
  5
AD
330
1F
100
AcDbEntity
  8
0
  6
Continuous
 62
     1
370
    15
100
AcDbSpline
210
0.0
220
0.0
230
1.0
 70
     8
 71
     3
 72
    27
 73
    23
 74
     0
 42
0.000000001
 43
0.00000001
 40
0.0
 40
0.0
 40
0.0
 40
0.0
 40
0.0023146625252808
 40
0.0514534239472254
 40
0.1019613707324259
 40
0.152113281645053
 40
0.2036622112434586
 40
0.2548574643487452
 40
0.3074786052976786
 40
0.3597440588694586
 40
0.4134651751473569
 40
0.4668248590513489
 40
0.5216707778662505
 40
0.5761463104140837
 40
0.6321393587093804
 40
0.6877502832209381
 40
0.7449106423502887
 40
0.8016746939219639
 40
0.8600206835290122
 40
0.9179539970637232
 40
0.9775022968236913
 40
1.0
 40
1.0
 40
1.0
 40
1.0
 10
27.12249304576616
 20
-2.861280566639135
 30
0.0
 10
27.11617740742344
 20
-2.866039729214822
 30
0.0
 10
26.97578492532469
 20
-2.9718327798069
 30
0.0
 10
26.70330439603875
 20
-3.084177787976535
 30
0.0
 10
26.30607575398828
 20
-3.177151147629391
 30
0.0
 10
25.90916777840807
 20
-3.136948355427389
 30
0.0
 10
25.51585884754885
 20
-2.977616430217072
 30
0.0
 10
25.1220143676081
 20
-2.696161061812011
 30
0.0
 10
24.73179598940758
 20
-2.304348271866681
 30
0.0
 10
24.34081161649761
 20
-1.809535897888473
 30
0.0
 10
23.9533461445306
 20
-1.232985336330219
 30
0.0
 10
23.56494221900234
 20
-0.5877258462740687
 30
0.0
 10
23.17995882728735
 20
0.0973892197602735
 30
0.0
 10
22.79388648603414
 20
0.8057857311053498
 30
0.0
 10
22.41114418157973
 20
1.50491485359668
 30
0.0
 10
22.02718892057479
 20
2.176975745518825
 30
0.0
 10
21.64646763759594
 20
2.79040517704837
 30
0.0
 10
21.26445537843987
 20
3.327984739240925
 30
0.0
 10
20.88550998605031
 20
3.766177561139115
 30
0.0
 10
20.50546874569446
 20
4.080907408963293
 30
0.0
 10
20.20578652095773
 20
4.252515247183326
 30
0.0
 10
20.03288850825024
 20
4.26763275162436
 30
0.0
 10
19.98547842085466
 20
4.271778098326321
 30
0.0
  0
SPLINE
  5
AE
330
1F
100
AcDbEntity
  8
0
  6
Continuous
 62
     1
370
    15
100
AcDbSpline
210
0.0
220
0.0
230
1.0
 70
     8
 71
     3
 72
    19
 73
    15
 74
     0
 42
0.000000001
 43
0.00000001
 40
0.0
 40
0.0
 40
0.0
 40
0.0
 40
0.0105852723333881
 40
0.0999473149531497
 40
0.1884775821615309
 40
0.2794865409876438
 40
0.3696264556739
 40
0.4622912535535214
 40
0.5540487060856906
 40
0.6483775276813716
 40
0.7417596231549201
 40
0.8377598629297134
 40
0.9180841200763159
 40
1.0
 40
1.0
 40
1.0
 40
1.0
 10
13.84032908602157
 20
-5.259576826555723
 30
0.0
 10
13.82549539827433
 20
-5.271940162399145
 30
0.0
 10
13.68543407396492
 20
-5.388676150146612
 30
0.0
 10
13.42494769936406
 20
-5.453445981475679
 30
0.0
 10
13.05563573103201
 20
-5.434591850861848
 30
0.0
 10
12.68933564350744
 20
-5.227625239179845
 30
0.0
 10
12.32103061156181
 20
-4.853874883972537
 30
0.0
 10
11.95533033289004
 20
-4.32059648245286
 30
0.0
 10
11.58772819046701
 20
-3.636717991014284
 30
0.0
 10
11.22265122365785
 20
-2.82856200911157
 30
0.0
 10
10.85567765770096
 20
-1.909508919085189
 30
0.0
 10
10.51002749261554
 20
-0.9685600863211948
 30
0.0
 10
10.18202173921271
 20
-0.0338668399019358
 30
0.0
 10
9.977946713228418
 20
0.5582437652849535
 30
0.0
 10
9.874908182653769
 20
0.8572034562214585
 30
0.0
  0
ELLIPSE
  5
AF
330
1F
100
AcDbEntity
  8
0
  6
Continuous
 62
     1
370
    15
100
AcDbEllipse
 10
31.55334816530472
 20
-0.4279904666041115
 30
0.0
 11
3.139723937301359
 21
1.963026107692882
 31
0.0
210
0.0
220
0.0
230
1.0
 40
0.3261885834061561
 41
5.658451133319248
 42
5.869980772630154
  0
LINE
  5
B0
330
1F
100
AcDbEntity
  8
0
  6
Continuous
 62
     1
370
    15
100
AcDbLine
 10
34.47454623663844
 20
0.5652546197101764
 30
0.0
 11
35.2749081826537
 21
0.0048351518140968
 31
0.0
  0
LINE
  5
B1
330
1F
100
AcDbEntity
  8
0
  6
Continuous
 62
     1
370
    15
100
AcDbLine
 10
35.2749081826537
 20
0.0048351518140965
 30
0.0
 11
35.2749081826537
 21
-0.9424100962309336
 31
0.0
  0
SPLINE
  5
B2
330
1F
100
AcDbEntity
  8
0
  6
Continuous
 62
     4
370
    15
100
AcDbSpline
210
0.0
220
0.0
230
1.0
 70
     8
 71
     3
 72
     8
 73
     4
 74
     0
 42
0.000000001
 43
0.00000001
 40
0.0
 40
0.0
 40
0.0
 40
0.0
 40
1.0
 40
1.0
 40
1.0
 40
1.0
 10
8.984908182724782
 20
4.776951336627642
 30
0.0
 10
9.279416713315069
 20
4.199926576238705
 30
0.0
 10
9.574772024808858
 20
3.495285614699501
 30
0.0
 10
9.874908182653703
 20
2.713537025906659
 30
0.0
  0
LINE
  5
B3
330
1F
100
AcDbEntity
  8
0
  6
Continuous
 62
     4
370
    15
100
AcDbLine
 10
8.984908182653697
 20
3.33637733964059
 30
0.0
 11
8.984908182653697
 21
4.776951336766914
 31
0.0
  0
SPLINE
  5
B4
330
1F
100
AcDbEntity
  8
0
  6
Continuous
 62
     4
370
    15
100
AcDbSpline
210
0.0
220
0.0
230
1.0
 70
     8
 71
     3
 72
    10
 73
     6
 74
     0
 42
0.000000001
 43
0.00000001
 40
0.0
 40
0.0
 40
0.0
 40
0.0
 40
0.4999999999999999
 40
0.4999999999999999
 40
1.0
 40
1.0
 40
1.0
 40
1.0
 10
9.8749081826537
 20
0.8572034562216363
 30
0.0
 10
9.724660523698825
 20
1.293137229360868
 30
0.0
 10
9.576760305600176
 20
1.720220009477243
 30
0.0
 10
9.279444915498148
 20
2.554810144860881
 30
0.0
 10
9.132387545093454
 20
2.955622250690578
 30
0.0
 10
8.984908182654014
 20
3.336377339642497
 30
0.0
  0
SPLINE
  5
B5
330
1F
100
AcDbEntity
  8
0
  6
Continuous
 62
     4
370
    15
100
AcDbSpline
210
0.0
220
0.0
230
1.0
 70
     8
 71
     3
 72
    12
 73
     8
 74
     0
 42
0.000000001
 43
0.00000001
 40
0.0
 40
0.0
 40
0.0
 40
0.0
 40
0.216532949940598
 40
0.5007640757064309
 40
0.7876417970664901
 40
0.9779134139695786
 40
1.0
 40
1.0
 40
1.0
 40
1.0
 10
8.9849081826537
 20
-5.800513627405196
 30
0.0
 10
9.039407902466069
 20
-5.844776621631224
 30
0.0
 10
9.165446465306447
 20
-5.947141261274647
 30
0.0
 10
9.364697425548448
 20
-6.048071526737591
 30
0.0
 10
9.558149043678451
 20
-6.088216367807709
 30
0.0
 10
9.68528321831036
 20
-6.092100880155328
 30
0.0
 10
9.739603317043837
 20
-6.079764645400226
 30
0.0
 10
9.74525294826733
 20
-6.078481599553886
 30
0.0
  0
LINE
  5
B6
330
1F
100
AcDbEntity
  8
0
  6
Continuous
 62
     4
370
    15
100
AcDbLine
 10
8.9849081826537
 20
-6.182770575355019
 30
0.0
 11
8.9849081826537
 21
-5.800513627405196
 31
0.0
  0
SPLINE
  5
B7
330
1F
100
AcDbEntity
  8
0
  6
Continuous
 62
     4
370
    15
100
AcDbSpline
210
0.0
220
0.0
230
1.0
 70
     8
 71
     3
 72
    10
 73
     6
 74
     0
 42
0.000000001
 43
0.00000001
 40
0.0
 40
0.0
 40
0.0
 40
0.0
 40
0.0219770903374673
 40
0.5087738322886481
 40
1.0
 40
1.0
 40
1.0
 40
1.0
 10
9.411624908607669
 20
-6.047587801204176
 30
0.0
 10
9.408477486369158
 20
-6.049994557527832
 30
0.0
 10
9.335614061342074
 20
-6.10571142538286
 30
0.0
 10
9.193298731205905
 20
-6.158098755593903
 30
0.0
 10
9.054581114309267
 20
-6.174521842274991
 30
0.0
 10
8.984908182654015
 20
-6.182770575359502
 30
0.0
  0
LINE
  5
B8
330
1F
100
AcDbEntity
  8
0
  6
Continuous
 62
     4
370
    15
100
AcDbLine
 10
9.8749081826537
 20
6.071040461809114
 30
0.0
 11
9.8749081826537
 21
2.713537025906662
 31
0.0
  0
LINE
  5
B9
330
1F
100
AcDbEntity
  8
0
  6
Continuous
 62
     4
370
    15
100
AcDbLine
 10
7.893708182653697
 20
6.354835151814096
 30
0.0
 11
7.893708182653699
 21
-6.345164848185904
 31
0.0
  0
LINE
  5
BA
330
1F
100
AcDbEntity
  8
0
  6
Continuous
 62
     4
370
    15
100
AcDbLine
 10
-65.51509181734632
 20
6.354835151814049
 30
0.0
 11
-65.51509181734632
 21
-6.345164848185876
 31
0.0
  0
LINE
  5
BB
330
1F
100
AcDbEntity
  8
0
  6
Continuous
 62
     4
370
    15
100
AcDbLine
 10
-66.32509181734629
 20
-5.535164848185901
 30
0.0
 11
-66.32509181734629
 21
5.544835151814073
 31
0.0
  0
SPLINE
  5
BC
330
1F
100
AcDbEntity
  8
0
  6
Continuous
 62
     1
370
    15
100
AcDbSpline
210
0.0
220
0.0
230
1.0
 70
     8
 71
     3
 72
    19
 73
    15
 74
     0
 42
0.000000001
 43
0.00000001
 40
0.0
 40
0.0
 40
0.0
 40
0.0
 40
0.0405785612797355
 40
0.1489134103105163
 40
0.2385131430025401
 40
0.3307204209819269
 40
0.4200473035980375
 40
0.5120559154302732
 40
0.5998034260847488
 40
0.6901874076029504
 40
0.7763493837970799
 40
0.8651014747106662
 40
0.9496857836982268
 40
1.0
 40
1.0
 40
1.0
 40
1.0
 10
9.874908182653698
 20
2.713537025906674
 30
0.0
 10
9.930291290841517
 20
2.566850700705864
 30
0.0
 10
10.13353377292436
 20
2.028547709109207
 30
0.0
 10
10.46281096707765
 20
1.114463975900898
 30
0.0
 10
10.86704015525179
 20
-0.0147128746550887
 30
0.0
 10
11.24886585051123
 20
-1.057756014657877
 30
0.0
 10
11.63808188478363
 20
-2.060718096296504
 30
0.0
 10
12.02517261539092
 20
-2.966910803342626
 30
0.0
 10
12.41785884351846
 20
-3.764541065591461
 30
0.0
 10
12.80648367620422
 20
-4.409192255101041
 30
0.0
 10
13.20062993081805
 20
-4.900617224485045
 30
0.0
 10
13.59099779519547
 20
-5.202575232362585
 30
0.0
 10
13.93032054140861
 20
-5.334436759606999
 30
0.0
 10
14.13820708341541
 20
-5.289737121635929
 30
0.0
 10
14.21574424268623
 20
-5.273065128753399
 30
0.0
  0
SPLINE
  5
BD
330
1F
100
AcDbEntity
  8
0
  6
Continuous
 62
     1
370
    15
100
AcDbSpline
210
0.0
220
0.0
230
1.0
 70
     8
 71
     3
 72
    24
 73
    20
 74
     0
 42
0.000000001
 43
0.00000001
 40
0.0
 40
0.0
 40
0.0
 40
0.0
 40
0.0596319604138855
 40
0.1217238403709715
 40
0.1856883785366105
 40
0.2465388644703445
 40
0.3092244286939586
 40
0.3688612759507279
 40
0.4302961407861568
 40
0.4887520989183666
 40
0.548969588294445
 40
0.6062836626168868
 40
0.6653234054946084
 40
0.721542546203969
 40
0.7794521737216669
 40
0.8346335965759889
 40
0.8914710712098097
 40
0.9456855300658841
 40
1.0
 40
1.0
 40
1.0
 40
1.0
 10
20.45975540174546
 20
4.086824051263133
 30
0.0
 10
20.58808669765594
 20
4.11163474002037
 30
0.0
 10
20.85004317316987
 20
4.162279600541783
 30
0.0
 10
21.25675867679132
 20
4.047353356334947
 30
0.0
 10
21.67208790717796
 20
3.79738200493399
 30
0.0
 10
22.09472335239982
 20
3.40565489412059
 30
0.0
 10
22.5143044960263
 20
2.904599358726176
 30
0.0
 10
22.94134576288512
 20
2.302654524642472
 30
0.0
 10
23.36557844635512
 20
1.640882886604847
 30
0.0
 10
23.79760271742941
 20
0.9303240788752684
 30
0.0
 10
24.22706249050223
 20
0.2179498448373546
 30
0.0
 10
24.6647345797356
 20
-0.4851780269213531
 30
0.0
 10
25.10010992400516
 20
-1.133489384166008
 30
0.0
 10
25.54422562707445
 20
-1.717668400257455
 30
0.0
 10
25.98635762753316
 20
-2.200668309495851
 30
0.0
 10
26.43784324031906
 20
-2.577320576639386
 30
0.0
 10
26.88789314906592
 20
-2.821920818555542
 30
0.0
 10
27.34323734667882
 20
-2.944931203882636
 30
0.0
 10
27.64939744822031
 20
-2.913943813416821
 30
0.0
 10
27.8026185646136
 20
-2.898435840505323
 30
0.0
  0
SPLINE
  5
BE
330
1F
100
AcDbEntity
  8
0
  6
Continuous
 62
     1
370
    15
100
AcDbSpline
210
0.0
220
0.0
230
1.0
 70
     8
 71
     3
 72
    10
 73
     6
 74
     0
 42
0.000000001
 43
0.00000001
 40
0.0
 40
0.0
 40
0.0
 40
0.0
 40
0.1163327099664571
 40
0.5512819629992846
 40
1.0
 40
1.0
 40
1.0
 40
1.0
 10
33.79129342226771
 20
1.614643771967185
 30
0.0
 10
33.8466366120272
 20
1.630533756864569
 30
0.0
 10
34.10889906854569
 20
1.705833834278604
 30
0.0
 10
34.60029533042371
 20
1.711596500183059
 30
0.0
 10
35.04771343002016
 20
1.625451875201215
 30
0.0
 10
35.27490818265369
 20
1.581708435270844
 30
0.0
  0
SPLINE
  5
BF
330
1F
100
AcDbEntity
  8
0
  6
Continuous
 62
     1
370
    15
100
AcDbSpline
210
0.0
220
0.0
230
1.0
 70
     8
 71
     3
 72
    26
 73
    22
 74
     0
 42
0.000000001
 43
0.00000001
 40
0.0
 40
0.0
 40
0.0
 40
0.0
 40
0.0397202601047411
 40
0.0912926635214019
 40
0.1443097861388094
 40
0.1967931100559309
 40
0.2507440429928705
 40
0.3042037333310835
 40
0.3591562861062385
 40
0.4136502245782255
 40
0.4696643680183203
 40
0.5252434436945357
 40
0.5823718894993807
 40
0.6390808139418938
 40
0.6973698561380055
 40
0.7552480126949127
 40
0.8147384082420602
 40
0.8738206410080347
 40
0.934548429413773
 40
0.9948657343638349
 40
1.0
 40
1.0
 40
1.0
 40
1.0
 10
31.55899907754184
 20
-2.031473321166748
 30
0.0
 10
31.44863721897799
 20
-2.098668904380783
 30
0.0
 10
31.19498258547613
 20
-2.253110586089484
 30
0.0
 10
30.80264976316888
 20
-2.384464328790711
 30
0.0
 10
30.38149417947269
 20
-2.431619143803589
 30
0.0
 10
29.96132729078547
 20
-2.364722625095013
 30
0.0
 10
29.54644595427163
 20
-2.188381903611823
 30
0.0
 10
29.1320647936176
 20
-1.904213378994777
 30
0.0
 10
28.72258836728503
 20
-1.525480386220784
 30
0.0
 10
28.31334899578476
 20
-1.061356049616152
 30
0.0
 10
27.90865071614343
 20
-0.5346853048278684
 30
0.0
 10
27.50396171739762
 20
0.040321861726658
 30
0.0
 10
27.10351024605433
 20
0.634719878450808
 30
0.0
 10
26.70285729196418
 20
1.2316593078866
 30
0.0
 10
26.30619747977095
 20
1.80053624244033
 30
0.0
 10
25.90912829600545
 20
2.324762431590472
 30
0.0
 10
25.5158923714074
 20
2.775716708360731
 30
0.0
 10
25.12191967778671
 20
3.143520611827487
 30
0.0
 10
24.73215063258588
 20
3.390912990903365
 30
0.0
 10
24.46146914799791
 20
3.516265887126651
 30
0.0
 10
24.32362126636307
 20
3.520041101983191
 30
0.0
 10
24.31280796371262
 20
3.520337243935684
 30
0.0
  0
SPLINE
  5
C0
330
1F
100
AcDbEntity
  8
0
  6
Continuous
 62
     1
370
    15
100
AcDbSpline
210
0.0
220
0.0
230
1.0
 70
     8
 71
     3
 72
    27
 73
    23
 74
     0
 42
0.000000001
 43
0.00000001
 40
0.0
 40
0.0
 40
0.0
 40
0.0
 40
0.001907132409937
 40
0.0507896435929737
 40
0.0992883398911768
 40
0.1491411394322214
 40
0.1985907851390538
 40
0.249421730963349
 40
0.2998291848647419
 40
0.3516453456838413
 40
0.4030185938929404
 40
0.455828329213269
 40
0.5081718555454063
 40
0.5619796504254488
 40
0.6152995282521934
 40
0.6701116277877832
 40
0.7244135402763532
 40
0.7802358107120577
 40
0.8355250345376112
 40
0.8923629488905213
 40
0.9486443237772365
 40
1.0
 40
1.0
 40
1.0
 40
1.0
 10
18.26542147224316
 20
-4.469627324213977
 30
0.0
 10
18.26045503833453
 20
-4.473720980223729
 30
0.0
 10
18.12819185260441
 20
-4.582740851442013
 30
0.0
 10
17.87361534360632
 20
-4.663867734316883
 30
0.0
 10
17.49865532900162
 20
-4.692726681886488
 30
0.0
 10
17.12686492152575
 20
-4.551334679867603
 30
0.0
 10
16.75339406586626
 20
-4.260086771969297
 30
0.0
 10
16.38260779969816
 20
-3.822893582555437
 30
0.0
 10
16.01019188453811
 20
-3.247498946584442
 30
0.0
 10
15.64042876861745
 20
-2.555864096934874
 30
0.0
 10
15.26894986904322
 20
-1.760207107564425
 30
0.0
 10
14.90014300427005
 20
-0.8932022281255538
 30
0.0
 10
14.52953444085432
 20
0.0285955214206793
 30
0.0
 10
14.16161379379589
 20
0.9660404637365251
 30
0.0
 10
13.79182722708613
 20
1.900243322730992
 30
0.0
 10
13.42471165813735
 20
2.790398362873407
 30
0.0
 10
13.05569978189684
 20
3.617740163703286
 30
0.0
 10
12.68932205950518
 20
4.344636961319343
 30
0.0
 10
12.32102104928857
 20
4.9560913065618
 30
0.0
 10
11.95538410078644
 20
5.417761594063525
 30
0.0
 10
11.60151417484036
 20
5.726333955362169
 30
0.0
 10
11.37272853617049
 20
5.7878349738018
 30
0.0
 10
11.26357057371389
 20
5.817178274810145
 30
0.0
  0
LINE
  5
C1
330
1F
100
AcDbEntity
  8
0
  6
Continuous
 62
     1
370
    15
100
AcDbLine
 10
35.2749081826537
 20
1.592335151814097
 30
0.0
 11
35.2749081826537
 21
1.581708435270851
 31
0.0
  0
SPLINE
  5
C2
330
1F
100
AcDbEntity
  8
0
  6
Continuous
 62
     1
370
    15
100
AcDbSpline
210
0.0
220
0.0
230
1.0
 70
     8
 71
     3
 72
    13
 73
     9
 74
     0
 42
0.000000001
 43
0.00000001
 40
0.0
 40
0.0
 40
0.0
 40
0.0
 40
0.1521392760310659
 40
0.3244091940702141
 40
0.4974669366158107
 40
0.6524904392997517
 40
0.8499213723120409
 40
1.0
 40
1.0
 40
1.0
 40
1.0
 10
34.62871871681607
 20
0.8521078649607211
 30
0.0
 10
34.67891287540534
 20
0.8432929816553978
 30
0.0
 10
34.78594274277277
 20
0.824496854425773
 30
0.0
 10
34.9536875828101
 20
0.8798574872293947
 30
0.0
 10
35.10077567677235
 20
0.9972463686077986
 30
0.0
 10
35.21062022997712
 20
1.17749225604241
 30
0.0
 10
35.26668033766211
 20
1.379017554520459
 30
0.0
 10
35.27242656489431
 20
1.520574409307699
 30
0.0
 10
35.2749081826537
 20
1.581708435270851
 30
0.0
  0
SPLINE
  5
C3
330
1F
100
AcDbEntity
  8
0
  6
Continuous
 62
     1
370
    15
100
AcDbSpline
210
0.0
220
0.0
230
1.0
 70
     8
 71
     3
 72
    26
 73
    22
 74
     0
 42
0.000000001
 43
0.00000001
 40
0.0
 40
0.0
 40
0.0
 40
0.0
 40
0.0029755017614003
 40
0.0646077900162971
 40
0.1233857648450785
 40
0.1839297888404867
 40
0.2416456879031832
 40
0.3010965843082361
 40
0.3577556775121197
 40
0.416118813862163
 40
0.4717270252418271
 40
0.5290084434687075
 40
0.5835723398891225
 40
0.6397787393439346
 40
0.6933056300528511
 40
0.7484444707969491
 40
0.8009425310835765
 40
0.8550221622602002
 40
0.9065005864252367
 40
0.9595303990958065
 40
1.0
 40
1.0
 40
1.0
 40
1.0
 10
11.61599265354513
 20
5.676915447418905
 30
0.0
 10
11.62231243729015
 20
5.680148103808578
 30
0.0
 10
11.75953543155729
 20
5.750339554517218
 30
0.0
 10
12.02545221472801
 20
5.709360595944212
 30
0.0
 10
12.41778529040349
 20
5.537140980290515
 30
0.0
 10
12.80649327655976
 20
5.167652952334799
 30
0.0
 10
13.20066034254941
 20
4.633917645480283
 30
0.0
 10
13.59086386715135
 20
3.963193286575437
 30
0.0
 10
13.98665862312442
 20
3.166431953131907
 30
0.0
 10
14.37855079559652
 20
2.291949861305207
 30
0.0
 10
14.77609024495047
 20
1.349970467432504
 30
0.0
 10
15.16979964194805
 20
0.3969073479230258
 30
0.0
 10
15.56923595852541
 20
-0.5575511052820735
 30
0.0
 10
15.96490154329151
 20
-1.457189707023101
 30
0.0
 10
16.36640391579201
 20
-2.294032933692604
 30
0.0
 10
16.7641824933135
 20
-3.019899235082825
 30
0.0
 10
17.16794377001644
 20
-3.62920126586971
 30
0.0
 10
17.56798727229829
 20
-4.089740430436921
 30
0.0
 10
17.97432723559631
 20
-4.393583748177871
 30
0.0
 10
18.35047008137203
 20
-4.538985338387596
 30
0.0
 10
18.5970171225129
 20
-4.506334449875813
 30
0.0
 10
18.70373073682986
 20
-4.492202078594332
 30
0.0
  0
SPLINE
  5
C4
330
1F
100
AcDbEntity
  8
0
  6
Continuous
 62
     1
370
    15
100
AcDbSpline
210
0.0
220
0.0
230
1.0
 70
     8
 71
     3
 72
    24
 73
    20
 74
     0
 42
0.000000001
 43
0.00000001
 40
0.0
 40
0.0
 40
0.0
 40
0.0
 40
0.0326364804693055
 40
0.0976264115577968
 40
0.1645705635716449
 40
0.2283608816629022
 40
0.2940656134159587
 40
0.3567381107291283
 40
0.421286172724552
 40
0.4829437853522554
 40
0.5464392060106286
 40
0.6072143178448907
 40
0.6697906896598808
 40
0.7298701311977047
 40
0.791717987589007
 40
0.8513353279819935
 40
0.9126908357084135
 40
0.9721554526166579
 40
0.9999999999999999
 40
0.9999999999999999
 40
0.9999999999999999
 40
0.9999999999999999
 10
24.89484247147811
 20
3.272717686363786
 30
0.0
 10
24.96588470973426
 20
3.295154579810294
 30
0.0
 10
25.17839533251736
 20
3.362270683084582
 30
0.0
 10
25.54448263737869
 20
3.325363321443421
 30
0.0
 10
25.98628321541649
 20
3.173453235704117
 30
0.0
 10
26.43789321782496
 20
2.885314887602659
 30
0.0
 10
26.88776659305311
 20
2.492982527019192
 30
0.0
 10
27.34786768749894
 20
2.004848260535679
 30
0.0
 10
27.80684506226098
 20
1.457055179899867
 30
0.0
 10
28.27691628888969
 20
0.8635371638438377
 30
0.0
 10
28.74668464639229
 20
0.2661194393803291
 30
0.0
 10
29.22847006311946
 20
-0.3199041163125164
 30
0.0
 10
29.71128785536163
 20
-0.8540692733366831
 30
0.0
 10
30.20713368769242
 20
-1.322882509546985
 30
0.0
 10
30.70594004001322
 20
-1.694023825482664
 30
0.0
 10
31.21896708551995
 20
-1.96079205245999
 30
0.0
 10
31.73790645883606
 20
-2.098073252293474
 30
0.0
 10
32.17306246747162
 20
-2.129093614477501
 30
0.0
 10
32.43676908821491
 20
-2.071898333013344
 30
0.0
 10
32.52087012796446
 20
-2.053657673653537
 30
0.0
  0
SPLINE
  5
C5
330
1F
100
AcDbEntity
  8
0
  6
Continuous
 62
     1
370
    15
100
AcDbSpline
210
0.0
220
0.0
230
1.0
 70
     8
 71
     3
 72
    22
 73
    18
 74
     0
 42
0.000000001
 43
0.00000001
 40
0.0
 40
0.0
 40
0.0
 40
0.0
 40
0.0600890886006489
 40
0.1215417477917467
 40
0.1891703947593302
 40
0.2587082795682752
 40
0.3272689834277907
 40
0.3977597094098777
 40
0.4673621637733144
 40
0.5389187899116403
 40
0.609670924665744
 40
0.6824050684169325
 40
0.7544068942020741
 40
0.8284221315068934
 40
0.901763433523855
 40
0.9771527922011694
 40
1.0
 40
1.0
 40
1.0
 40
1.0
 10
34.68594579227166
 20
-1.681696557721859
 30
0.0
 10
34.5492681963078
 20
-1.688905726971922
 30
0.0
 10
34.27281145042794
 20
-1.703487659418968
 30
0.0
 10
33.8508964222176
 20
-1.616286024490396
 30
0.0
 10
33.41437076292334
 20
-1.437261862703613
 30
0.0
 10
32.9700562280589
 20
-1.156019456939492
 30
0.0
 10
32.52720987897951
 20
-0.7907215344689885
 30
0.0
 10
32.09156452749821
 20
-0.3627905480412624
 30
0.0
 10
31.65720773616654
 20
0.1125972115600097
 30
0.0
 10
31.22934138044341
 20
0.6065903817243459
 30
0.0
 10
30.80250186106145
 20
1.101553273025554
 30
0.0
 10
30.38152889974421
 20
1.567691305053857
 30
0.0
 10
29.96133589034434
 20
1.987334894101978
 30
0.0
 10
29.54637374436234
 20
2.337509693157111
 30
0.0
 10
29.13234466078694
 20
2.594559562153576
 30
0.0
 10
28.81694118678188
 20
2.736833916241733
 30
0.0
 10
28.64007675977789
 20
2.753802576391406
 30
0.0
 10
28.59894280669982
 20
2.757749034603598
 30
0.0
  0
SPLINE
  5
C6
330
1F
100
AcDbEntity
  8
0
  6
Continuous
 62
     1
370
    15
100
AcDbSpline
210
0.0
220
0.0
230
1.0
 70
     8
 71
     3
 72
    27
 73
    23
 74
     0
 42
0.000000001
 43
0.00000001
 40
0.0
 40
0.0
 40
0.0
 40
0.0
 40
0.0338640442875917
 40
0.0825696829385384
 40
0.1326323607552664
 40
0.1823479410750849
 40
0.2334490279836864
 40
0.2841886813819531
 40
0.3363427859191742
 40
0.3881193867341373
 40
0.4413398148540515
 40
0.4941650779848846
 40
0.5484639564926634
 40
0.6023485128062075
 40
0.6577368627337569
 40
0.7126903153404842
 40
0.7691780906003931
 40
0.825209055743482
 40
0.8828051600827654
 40
0.9399214093931334
 40
0.9986338523076131
 40
1.0
 40
1.0
 40
1.0
 40
1.0
 10
22.67844353563848
 20
-3.66747457371831
 30
0.0
 10
22.58912364443173
 20
-3.723791937227044
 30
0.0
 10
22.37133763416043
 20
-3.861108874606389
 30
0.0
 10
22.02730981183061
 20
-3.931059972715907
 30
0.0
 10
21.64643820613591
 20
-3.890793254515579
 30
0.0
 10
21.26445209649646
 20
-3.707450981108177
 30
0.0
 10
20.88555474401436
 20
-3.392169101647929
 30
0.0
 10
20.50529282319686
 20
-2.947697188400986
 30
0.0
 10
20.12806492922608
 20
-2.391581834580562
 30
0.0
 10
19.74941961055987
 20
-1.734144341000183
 30
0.0
 10
19.37369608303219
 20
-1.002716731930731
 30
0.0
 10
18.99653718410116
 20
-0.2123722129777661
 30
0.0
 10
18.62218751034453
 20
0.6027473107301625
 30
0.0
 10
18.24638677960681
 20
1.4248806675782
 30
0.0
 10
17.87330565281565
 20
2.217467761672294
 30
0.0
 10
17.4987419153498
 20
2.96225974100335
 30
0.0
 10
17.12683671908115
 20
3.625497299545245
 30
0.0
 10
16.75342031993081
 20
4.189375314324342
 30
0.0
 10
16.38252956470054
 20
4.632959482394051
 30
0.0
 10
16.01047845704466
 20
4.920700788900787
 30
0.0
 10
15.76055483736508
 20
5.058550802598386
 30
0.0
 10
15.63429795982759
 20
5.054292629833848
 30
0.0
 10
15.63142696135453
 20
5.054195801781836
 30
0.0
  0
ELLIPSE
  5
C7
330
1F
100
AcDbEntity
  8
0
  6
Continuous
 62
     1
370
    15
100
AcDbEllipse
 10
31.55334816530472
 20
0.5357743725970322
 30
0.0
 11
3.185399088240122
 21
-2.176583666409193
 31
0.0
210
0.0
220
0.0
230
1.0
 40
0.159883937752534
 41
6.121038381987837
 42
6.179979503742574
  0
ELLIPSE
  5
C8
330
1F
100
AcDbEntity
  8
0
  6
Continuous
 62
     1
370
    15
100
AcDbEllipse
 10
34.6653274939961
 20
-0.208581344858459
 30
0.0
 11
2.349617686644429
 21
1.1643181375783
 31
0.0
210
0.0
220
0.0
230
1.0
 40
0.5000948292701727
 41
4.457462689790107
 42
4.724029715198066
  0
SPLINE
  5
C9
330
1F
100
AcDbEntity
  8
0
  6
Continuous
 62
     1
370
    15
100
AcDbSpline
210
0.0
220
0.0
230
1.0
 70
     8
 71
     3
 72
    11
 73
     7
 74
     0
 42
0.000000001
 43
0.00000001
 40
0.0
 40
0.0
 40
0.0
 40
0.0
 40
0.1446680475450755
 40
0.5219869667657997
 40
0.8291352257444512
 40
0.9999999999999999
 40
0.9999999999999999
 40
0.9999999999999999
 40
0.9999999999999999
 10
34.26746998822212
 20
-1.238158576420824
 30
0.0
 10
34.29243183302199
 20
-1.208515523521763
 30
0.0
 10
34.38249842252159
 20
-1.101558337529204
 30
0.0
 10
34.55324133497668
 20
-0.9434763761371122
 30
0.0
 10
34.75000670187429
 20
-0.8047246887721566
 30
0.0
 10
34.85624681912009
 20
-0.7638146775302449
 30
0.0
 10
34.89422213022671
 20
-0.7491914782665202
 30
0.0
  0
SPLINE
  5
CA
330
1F
100
AcDbEntity
  8
0
  6
Continuous
 62
     1
370
    15
100
AcDbSpline
210
0.0
220
0.0
230
1.0
 70
     8
 71
     3
 72
     8
 73
     4
 74
     0
 42
0.000000001
 43
0.00000001
 40
0.0
 40
0.0
 40
0.0
 40
0.0
 40
1.0
 40
1.0
 40
1.0
 40
1.0
 10
34.26746998822213
 20
-1.238158576420823
 30
0.0
 10
34.40638986252692
 20
-1.385878683180898
 30
0.0
 10
34.54428322383085
 20
-1.533372896561791
 30
0.0
 10
34.68594579226406
 20
-1.681696557728113
 30
0.0
  0
LINE
  5
CB
330
1F
100
AcDbEntity
  8
0
  6
Continuous
 62
     1
370
    15
100
AcDbLine
 10
35.2749081826537
 20
0.0048351518141002
 30
0.0
 11
35.2749081826537
 21
1.581708435270851
 31
0.0
  0
LINE
  5
CC
330
1F
100
AcDbEntity
  8
0
  6
Continuous
 62
     1
370
    15
100
AcDbLine
 10
35.2749081826537
 20
-0.9424100962309311
 30
0.0
 11
35.2749081826537
 21
-1.369980176693693
 31
0.0
  0
LINE
  5
CD
330
1F
100
AcDbEntity
  8
중심선
100
AcDbLine
 10
-69.32509181734628
 20
0.0048351518140866
 30
0.0
 11
38.27490428620234
 21
0.0048351518140866
 31
0.0
  0
CIRCLE
  5
CE
330
1F
100
AcDbEntity
  8
외형선
100
AcDbCircle
 10
-0.0000000000000013
 20
-0.0000000000000039
 30
0.0
 40
3.000000000000004
  0
INSERT
  5
CF
330
1F
100
AcDbEntity
  8
0
  6
Continuous
 62
     7
100
AcDbBlockReference
 66
     1
  2
블럭10
 10
-16.63945112874702
 20
-52.04717430164393
 30
0.0
  0
ATTRIB
  5
D0
330
CF
100
AcDbEntity
  8
FORMAT
 62
     2
100
AcDbText
 10
-25.8207464174883
 20
-49.97180738881174
 30
0.0
 40
4.233333333333333
  1
E5077098 [ 3 FLUTE ]
 41
0.75
  7
SLDTEXTSTYLE0
 11
-25.8207464174883
 21
-52.08847405547841
 31
0.0
100
AcDbAttribute
  2
AUTOATTR0
 70
     0
 74
     1
  0
SEQEND
  5
D1
330
CF
100
AcDbEntity
  8
0
  6
Continuous
 62
     7
  0
HATCH
  5
D2
330
1F
100
AcDbEntity
  8
중심선
100
AcDbHatch
 10
0.0
 20
0.0
 30
0.0
210
0.0
220
0.0
230
1.0
  2
SOLID
 70
     1
 71
     0
 91
        1
 92
        0
 93
        4
 72
     1
 10
-10.92454182436617
 20
-35.8
 11
-14.37081706820345
 21
-35.8
 72
     1
 10
-14.37081706820345
 20
-35.8
 11
-16.49904692740747
 21
-38.33632558057259
 72
     1
 10
-16.49904692740747
 20
-38.33632558057259
 11
-13.05273859845704
 21
-38.3362861512701
 72
     1
 10
-13.05273859845704
 20
-38.3362861512701
 11
-10.92454182436617
 21
-35.8
 97
        0
 75
     0
 76
     1
 98
        1
 10
0.0
 20
0.0
  0
HATCH
  5
D3
330
1F
100
AcDbEntity
  8
중심선
100
AcDbHatch
 10
0.0
 20
0.0
 30
0.0
210
0.0
220
0.0
230
1.0
  2
SOLID
 70
     1
 71
     0
 91
        1
 92
        0
 93
        4
 72
     1
 10
-5.911777833330217
 20
-35.8
 11
-9.358053077167499
 21
-35.8
 72
     1
 10
-9.358053077167499
 20
-35.8
 11
-13.88919108552489
 21
-41.20000000000002
 72
     1
 10
-13.88919108552489
 20
-41.20000000000002
 11
-10.44291584168761
 21
-41.20000000000002
 72
     1
 10
-10.44291584168761
 20
-41.20000000000002
 11
-5.911777833330217
 21
-35.8
 97
        0
 75
     0
 76
     1
 98
        1
 10
0.0
 20
0.0
  0
HATCH
  5
D4
330
1F
100
AcDbEntity
  8
중심선
100
AcDbHatch
 10
0.0
 20
0.0
 30
0.0
210
0.0
220
0.0
230
1.0
  2
SOLID
 70
     1
 71
     0
 91
        1
 92
        0
 93
        4
 72
     1
 10
-0.8990138422943217
 20
-35.80000000000003
 11
-4.345289086131437
 21
-35.8
 72
     1
 10
-4.345289086131437
 20
-35.8
 11
-11.39372598802069
 21
-44.20000000000002
 72
     1
 10
-11.39372598802069
 20
-44.20000000000002
 11
-7.947450744183405
 21
-44.20000000000002
 72
     1
 10
-7.947450744183405
 20
-44.20000000000002
 11
-0.8990138422943215
 21
-35.80000000000003
 97
        0
 75
     0
 76
     1
 98
        1
 10
0.0
 20
0.0
  0
HATCH
  5
D5
330
1F
100
AcDbEntity
  8
중심선
100
AcDbHatch
 10
0.0
 20
0.0
 30
0.0
210
0.0
220
0.0
230
1.0
  2
SOLID
 70
     1
 71
     0
 91
        1
 92
        0
 93
        6
 72
     3
 10
3.900876588717877
 20
-40.00000000005127
 11
3.960054785062284
 21
1.540850780301639E-10
 40
0.3939339440162633
 50
17.09539180608433
 51
320.0019657685079
 73
     0
 72
     1
 10
5.583876244418473
 20
-38.5878940046383
 11
7.889178118119511
 21
-36.65356729459038
 72
     3
 10
3.900876588665031
 20
-40.00000000000015
 11
6.600054785286829
 21
-1.249000902703301E-13
 40
0.6363583540795982
 50
39.99873849337408
 51
368.4976242363725
 73
     1
 72
     1
 10
10.32620908056564
 20
-39.03999999993002
 11
2.580943895500953
 21
-39.03999999992999
 72
     1
 10
2.580943895500953
 20
-39.03999999992999
 11
2.58091885105502
 21
-40.95999999992991
 72
     1
 10
2.58091885105502
 20
-40.95999999992991
 11
7.022298620527057
 21
-40.95999999992988
 97
        0
 75
     0
 76
     1
 98
        1
 10
0.0
 20
0.0
  0
POINT
  5
D6
330
1F
100
AcDbEntity
  8
치수문자_일반주서
100
AcDbPoint
 10
-0.0000000000000013
 20
-0.0000000000000039
 30
0.0
  0
DIMENSION
  5
D7
330
1F
100
AcDbEntity
  8
치수문자_일반주서
100
AcDbDimension
  2
_D
 10
9.8749081826537
 20
28.75489445612114
 30
0.0
 11
22.5749081826537
 21
28.75489445612114
 31
0.0
 70
   160
  1
<>
 71
     2
 42
25.4
  3
SLDDIMSTYLE0
100
AcDbAlignedDimension
 13
35.2749081826537
 23
1.581708435270851
 33
0.0
 14
9.8749081826537
 24
6.071040461809114
 34
0.0
100
AcDbRotatedDimension
1001
ACAD
1000
DSTYLE
1002
{
1070
   171
1070
     6
1070
   273
1070
     7
1002
}
  0
DIMENSION
  5
ED
330
1F
100
AcDbEntity
  8
치수문자_일반주서
100
AcDbDimension
  2
_D_1
 10
-66.32509181734628
 20
42.13815151268275
 30
0.0
 11
-13.67730469594389
 21
42.13815151268275
 31
0.0
 70
   160
  1
<>
 71
     2
 42
101.6
  3
SLDDIMSTYLE1
100
AcDbAlignedDimension
 13
35.2749081826537
 23
1.581708435270851
 33
0.0
 14
-66.32509181734629
 24
5.544835151814074
 34
0.0
 50
0.000000000000004
100
AcDbRotatedDimension
1001
ACAD
1000
DSTYLE
1002
{
1070
   171
1070
     6
1070
   273
1070
     7
1002
}
  0
INSERT
  5
118
330
1F
100
AcDbEntity
  8
외형선
100
AcDbBlockReference
  2
SW_DOWELSYMBOL_0
 10
-0.0000000000000013
 20
-0.0000000000000039
 30
0.0
  0
DIMENSION
  5
13E
102
{ACAD_REACTORS
102
}
102
{ACAD_XDICTIONARY
360
13F
102
}
330
1F
100
AcDbEntity
  8
치수문자_일반주서
100
AcDbDimension
  2
*D7
 10
-84.62267207171807
 20
-6.34516484818587
 30
0.0
 11
-84.62267207171807
 21
23.00058515181405
 31
0.0
 70
   160
  1
{%%c<>[]}
 71
     5
 42
12.69999999999992
  3
SLDDIMSTYLE1
100
AcDbAlignedDimension
 13
-65.51509181734632
 23
6.354835151814049
 33
0.0
 14
-65.51509181734632
 24
-6.345164848185876
 34
0.0
 50
90.0
100
AcDbRotatedDimension
1001
ACAD
1000
DSTYLE
1002
{
1070
   283
1070
     1
1070
   170
1070
     1
1070
   171
1070
     6
1070
   273
1070
     7
1002
}
  0
DIMENSION
  5
151
102
{ACAD_XDICTIONARY
360
152
102
}
330
1F
100
AcDbEntity
  8
치수문자_일반주서
100
AcDbDimension
  2
*D8
 10
55.89429282917514
 20
-1.577351489914289
 30
0.0
 11
55.89429282917514
 21
20.4463351518141
 31
0.0
 70
   160
  1
{%%c<>[]}
 71
     5
 42
3.169686641728387
  3
SLDDIMSTYLE1
100
AcDbAlignedDimension
 13
35.2749081826537
 23
1.592335151814097
 33
0.0
 14
35.27490818265369
 24
-1.57735148991429
 34
0.0
 50
90.0
100
AcDbRotatedDimension
1001
ACAD
1000
DSTYLE
1002
{
1070
   283
1070
     1
1070
   170
1070
     1
1070
   171
1070
     6
1070
   273
1070
     7
1002
}
  0
DIMENSION
  5
163
102
{ACAD_REACTORS
102
}
102
{ACAD_XDICTIONARY
360
164
102
}
330
1F
100
AcDbEntity
  8
치수문자_일반주서
100
AcDbDimension
  2
*D9
 10
-65.51509181734632
 20
6.354835151814049
 30
0.0
 11
-17.88267216830809
 21
21.48254212470627
 31
0.0
 70
    34
  1
<>
 71
     5
 42
0.174532925199434
  3
SLDDIMSTYLE0
100
AcDb2LineAngularDimension
 13
11.26511026979605
 23
5.825910325208695
 33
0.0
 14
9.8749081826537
 24
6.071040461809114
 34
0.0
 15
7.893708182653697
 25
6.354835151814059
 35
0.0
 16
-19.09325952001622
 26
7.9482972726346
 36
0.0
1001
ACAD
1000
DSTYLE
1002
{
1070
   171
1070
     6
1070
   273
1070
     7
1002
}
  0
ENDSEC
  0
SECTION
  2
OBJECTS
  0
DICTIONARY
  5
C
330
0
100
AcDbDictionary
281
     1
  3
ACAD_GROUP
350
D
  3
ACAD_IMAGE_VARS
350
13C
  3
ACAD_LAYOUT
350
1A
  3
ACAD_MLINESTYLE
350
17
  3
ACAD_PLOTSETTINGS
350
19
  3
ACAD_PLOTSTYLENAME
350
E
  3
ACAD_SCALELIST
350
47
  3
APPDATA
350
13A
  3
DWGPROPS
350
179
  0
DICTIONARY
  5
13F
330
13E
100
AcDbDictionary
280
     1
281
     1
  0
DICTIONARY
  5
152
330
151
100
AcDbDictionary
280
     1
281
     1
  0
DICTIONARY
  5
164
330
163
100
AcDbDictionary
280
     1
281
     1
  0
DICTIONARY
  5
D
102
{ACAD_REACTORS
330
C
102
}
330
C
100
AcDbDictionary
281
     1
  0
RASTERVARIABLES
  5
13C
102
{ACAD_REACTORS
330
C
102
}
330
C
100
AcDbRasterVariables
 90
        0
 70
     1
 71
     1
 72
     1
  0
DICTIONARY
  5
1A
102
{ACAD_REACTORS
330
C
102
}
330
C
100
AcDbDictionary
281
     1
  3
Layout1
350
1E
  3
Layout2
350
26
  3
Model
350
22
  0
DICTIONARY
  5
17
102
{ACAD_REACTORS
330
C
102
}
330
C
100
AcDbDictionary
281
     1
  3
Standard
350
18
  0
DICTIONARY
  5
19
102
{ACAD_REACTORS
330
C
102
}
330
C
100
AcDbDictionary
281
     1
  0
ACDBDICTIONARYWDFLT
  5
E
102
{ACAD_REACTORS
330
C
102
}
330
C
100
AcDbDictionary
281
     1
  3
Normal
350
F
100
AcDbDictionaryWithDefault
340
F
  0
DICTIONARY
  5
47
102
{ACAD_REACTORS
330
C
102
}
330
C
100
AcDbDictionary
281
     1
  3
A0
350
48
  3
A1
350
49
  3
A2
350
4A
  3
A3
350
4B
  3
A4
350
4C
  3
A5
350
4D
  3
A6
350
4E
  3
A7
350
4F
  3
A8
350
50
  3
A9
350
51
  3
B0
350
52
  3
B1
350
53
  3
B2
350
54
  3
B3
350
55
  3
B4
350
56
  3
B5
350
57
  3
B6
350
58
  3
B7
350
59
  3
B8
350
5A
  3
B9
350
5B
  3
C0
350
5C
  3
C1
350
5D
  3
C2
350
5E
  3
C3
350
5F
  3
C4
350
60
  3
C5
350
61
  3
C6
350
62
  3
C7
350
63
  3
C8
350
64
  3
C9
350
65
  3
D0
350
66
  3
D1
350
67
  3
D2
350
68
  0
DICTIONARY
  5
13A
102
{ACAD_REACTORS
330
C
102
}
330
C
100
AcDbDictionary
281
     1
  0
XRECORD
  5
179
102
{ACAD_REACTORS
330
C
102
}
330
C
100
AcDbXrecord
280
     1
  1
DWGPROPS COOKIE
  2

  3

  4

  6

  7

  8
12015048
  9

300
=
301
=
302
=
303
=
304
=
305
=
306
=
307
=
308
=
309
=
 40
0.0
 41
2458333.356382604
 42
2458339.252255081
  1

 90
        0
  0
LAYOUT
  5
1E
102
{ACAD_REACTORS
330
1A
102
}
330
1A
100
AcDbPlotSettings
  1

  2
none_device
  4

  6

 40
0.0
 41
0.0
 42
0.0
 43
0.0
 44
0.0
 45
0.0
 46
0.0
 47
0.0
 48
0.0
 49
0.0
140
0.0
141
0.0
142
1.0
143
1.0
 70
   688
 72
     1
 73
     0
 74
     5
  7

 75
    16
147
1.0
148
0.0
149
0.0
100
AcDbLayout
  1
Layout1
 70
     1
 71
     1
 10
0.0
 20
0.0
 11
420.0
 21
297.0
 12
0.0
 22
0.0
 32
0.0
 14
1.000000000000000E+20
 24
1.000000000000000E+20
 34
1.000000000000000E+20
 15
-1.000000000000000E+20
 25
-1.000000000000000E+20
 35
-1.000000000000000E+20
146
0.0
 13
0.0
 23
0.0
 33
0.0
 16
1.0
 26
0.0
 36
0.0
 17
0.0
 27
1.0
 37
0.0
 76
     0
330
1B
  0
LAYOUT
  5
26
102
{ACAD_REACTORS
330
1A
102
}
330
1A
100
AcDbPlotSettings
  1

  2
none_device
  4

  6

 40
0.0
 41
0.0
 42
0.0
 43
0.0
 44
0.0
 45
0.0
 46
0.0
 47
0.0
 48
0.0
 49
0.0
140
0.0
141
0.0
142
1.0
143
1.0
 70
   688
 72
     1
 73
     0
 74
     5
  7

 75
    16
147
1.0
148
0.0
149
0.0
100
AcDbLayout
  1
Layout2
 70
     1
 71
     2
 10
0.0
 20
0.0
 11
0.0
 21
0.0
 12
0.0
 22
0.0
 32
0.0
 14
0.0
 24
0.0
 34
0.0
 15
0.0
 25
0.0
 35
0.0
146
0.0
 13
0.0
 23
0.0
 33
0.0
 16
1.0
 26
0.0
 36
0.0
 17
0.0
 27
1.0
 37
0.0
 76
     0
330
23
  0
LAYOUT
  5
22
102
{ACAD_REACTORS
330
1A
102
}
330
1A
100
AcDbPlotSettings
  1

  2
none_device
  4
ANSI_A_(11.00_x_8.50_Inches)
  6

 40
6.35
 41
19.05
 42
6.35000508
 43
19.05000254
 44
279.4
 45
215.9
 46
184.2577681861512
 47
103.2995123494182
 48
0.0
 49
0.0
140
0.0
141
0.0
142
0.082661012558327
143
1.0
 70
  1696
 72
     0
 73
     0
 74
     0
  7

 75
     0
147
0.0235690232323232
148
0.0
149
0.0
100
AcDbLayout
  1
Model
 70
     1
 71
     0
 10
0.0
 20
0.0
 11
420.0
 21
297.0
 12
0.0
 22
0.0
 32
0.0
 14
-88.99767207171807
 24
-49.97180738881174
 34
0.0
 15
56.44462616250847
 25
46.51315151268274
 35
0.0
146
0.0
 13
0.0
 23
0.0
 33
0.0
 16
1.0
 26
0.0
 36
0.0
 17
0.0
 27
1.0
 37
0.0
 76
     0
330
1F
331
29
  0
MLINESTYLE
  5
18
102
{ACAD_REACTORS
330
17
102
}
330
17
100
AcDbMlineStyle
  2
Standard
 70
     0
  3

 62
   256
 51
90.0
 52
90.0
 71
     2
 49
0.5
 62
   256
  6
BYLAYER
 49
-0.5
 62
   256
  6
BYLAYER
  0
ACDBPLACEHOLDER
  5
F
102
{ACAD_REACTORS
330
E
102
}
330
E
  0
SCALE
  5
48
102
{ACAD_REACTORS
330
47
102
}
330
47
100
AcDbScale
 70
     0
300
1:1
140
1.0
141
1.0
290
     1
  0
SCALE
  5
49
102
{ACAD_REACTORS
330
47
102
}
330
47
100
AcDbScale
 70
     0
300
1:2
140
1.0
141
2.0
290
     0
  0
SCALE
  5
4A
102
{ACAD_REACTORS
330
47
102
}
330
47
100
AcDbScale
 70
     0
300
1:4
140
1.0
141
4.0
290
     0
  0
SCALE
  5
4B
102
{ACAD_REACTORS
330
47
102
}
330
47
100
AcDbScale
 70
     0
300
1:5
140
1.0
141
5.0
290
     0
  0
SCALE
  5
4C
102
{ACAD_REACTORS
330
47
102
}
330
47
100
AcDbScale
 70
     0
300
1:8
140
1.0
141
8.0
290
     0
  0
SCALE
  5
4D
102
{ACAD_REACTORS
330
47
102
}
330
47
100
AcDbScale
 70
     0
300
1:10
140
1.0
141
10.0
290
     0
  0
SCALE
  5
4E
102
{ACAD_REACTORS
330
47
102
}
330
47
100
AcDbScale
 70
     0
300
1:16
140
1.0
141
16.0
290
     0
  0
SCALE
  5
4F
102
{ACAD_REACTORS
330
47
102
}
330
47
100
AcDbScale
 70
     0
300
1:20
140
1.0
141
20.0
290
     0
  0
SCALE
  5
50
102
{ACAD_REACTORS
330
47
102
}
330
47
100
AcDbScale
 70
     0
300
1:30
140
1.0
141
30.0
290
     0
  0
SCALE
  5
51
102
{ACAD_REACTORS
330
47
102
}
330
47
100
AcDbScale
 70
     0
300
1:40
140
1.0
141
40.0
290
     0
  0
SCALE
  5
52
102
{ACAD_REACTORS
330
47
102
}
330
47
100
AcDbScale
 70
     0
300
1:50
140
1.0
141
50.0
290
     0
  0
SCALE
  5
53
102
{ACAD_REACTORS
330
47
102
}
330
47
100
AcDbScale
 70
     0
300
1:100
140
1.0
141
100.0
290
     0
  0
SCALE
  5
54
102
{ACAD_REACTORS
330
47
102
}
330
47
100
AcDbScale
 70
     0
300
2:1
140
2.0
141
1.0
290
     0
  0
SCALE
  5
55
102
{ACAD_REACTORS
330
47
102
}
330
47
100
AcDbScale
 70
     0
300
4:1
140
4.0
141
1.0
290
     0
  0
SCALE
  5
56
102
{ACAD_REACTORS
330
47
102
}
330
47
100
AcDbScale
 70
     0
300
8:1
140
8.0
141
1.0
290
     0
  0
SCALE
  5
57
102
{ACAD_REACTORS
330
47
102
}
330
47
100
AcDbScale
 70
     0
300
10:1
140
10.0
141
1.0
290
     0
  0
SCALE
  5
58
102
{ACAD_REACTORS
330
47
102
}
330
47
100
AcDbScale
 70
     0
300
100:1
140
100.0
141
1.0
290
     0
  0
SCALE
  5
59
102
{ACAD_REACTORS
330
47
102
}
330
47
100
AcDbScale
 70
     0
300
1/128" = 1'-0"
140
0.0078125
141
12.0
290
     0
  0
SCALE
  5
5A
102
{ACAD_REACTORS
330
47
102
}
330
47
100
AcDbScale
 70
     0
300
1/64" = 1'-0"
140
0.015625
141
12.0
290
     0
  0
SCALE
  5
5B
102
{ACAD_REACTORS
330
47
102
}
330
47
100
AcDbScale
 70
     0
300
1/32" = 1'-0"
140
0.03125
141
12.0
290
     0
  0
SCALE
  5
5C
102
{ACAD_REACTORS
330
47
102
}
330
47
100
AcDbScale
 70
     0
300
1/16" = 1'-0"
140
0.0625
141
12.0
290
     0
  0
SCALE
  5
5D
102
{ACAD_REACTORS
330
47
102
}
330
47
100
AcDbScale
 70
     0
300
3/32" = 1'-0"
140
0.09375
141
12.0
290
     0
  0
SCALE
  5
5E
102
{ACAD_REACTORS
330
47
102
}
330
47
100
AcDbScale
 70
     0
300
1/8" = 1'-0"
140
0.125
141
12.0
290
     0
  0
SCALE
  5
5F
102
{ACAD_REACTORS
330
47
102
}
330
47
100
AcDbScale
 70
     0
300
3/16" = 1'-0"
140
0.1875
141
12.0
290
     0
  0
SCALE
  5
60
102
{ACAD_REACTORS
330
47
102
}
330
47
100
AcDbScale
 70
     0
300
1/4" = 1'-0"
140
0.25
141
12.0
290
     0
  0
SCALE
  5
61
102
{ACAD_REACTORS
330
47
102
}
330
47
100
AcDbScale
 70
     0
300
3/8" = 1'-0"
140
0.375
141
12.0
290
     0
  0
SCALE
  5
62
102
{ACAD_REACTORS
330
47
102
}
330
47
100
AcDbScale
 70
     0
300
1/2" = 1'-0"
140
0.5
141
12.0
290
     0
  0
SCALE
  5
63
102
{ACAD_REACTORS
330
47
102
}
330
47
100
AcDbScale
 70
     0
300
3/4" = 1'-0"
140
0.75
141
12.0
290
     0
  0
SCALE
  5
64
102
{ACAD_REACTORS
330
47
102
}
330
47
100
AcDbScale
 70
     0
300
1" = 1'-0"
140
1.0
141
12.0
290
     0
  0
SCALE
  5
65
102
{ACAD_REACTORS
330
47
102
}
330
47
100
AcDbScale
 70
     0
300
1-1/2" = 1'-0"
140
1.5
141
12.0
290
     0
  0
SCALE
  5
66
102
{ACAD_REACTORS
330
47
102
}
330
47
100
AcDbScale
 70
     0
300
3" = 1'-0"
140
3.0
141
12.0
290
     0
  0
SCALE
  5
67
102
{ACAD_REACTORS
330
47
102
}
330
47
100
AcDbScale
 70
     0
300
6" = 1'-0"
140
6.0
141
12.0
290
     0
  0
SCALE
  5
68
102
{ACAD_REACTORS
330
47
102
}
330
47
100
AcDbScale
 70
     0
300
1'-0" = 1'-0"
140
12.0
141
12.0
290
     0
  0
ENDSEC
  0
EOF
