  0
SECTION
  2
HEADER
  9
$ACADVER
  1
AC1015
  9
$ACADMAINTVER
 70
     6
  9
$DWGCODEPAGE
  3
ANSI_949
  9
$INSBASE
 10
0.0
 20
0.0
 30
0.0
  9
$EXTMIN
 10
-73.27352083461344
 20
-49.97180738881174
 30
0.0
  9
$EXTMAX
 10
47.58268186546778
 20
42.34476274106507
 30
0.0
  9
$LIMMIN
 10
0.0
 20
0.0
  9
$LIMMAX
 10
420.0
 20
297.0
  9
$ORTHOMODE
 70
     1
  9
$REGENMODE
 70
     1
  9
$FILLMODE
 70
     1
  9
$QTEXTMODE
 70
     0
  9
$MIRRTEXT
 70
     1
  9
$LTSCALE
 40
1.0
  9
$ATTMODE
 70
     1
  9
$TEXTSIZE
 40
3.5
  9
$TRACEWID
 40
1.0
  9
$TEXTSTYLE
  7
Standard
  9
$CLAYER
  8
0
  9
$CELTYPE
  6
ByLayer
  9
$CECOLOR
 62
   256
  9
$CELTSCALE
 40
1.0
  9
$DISPSILH
 70
     0
  9
$DIMSCALE
 40
1.0
  9
$DIMASZ
 40
3.302
  9
$DIMEXO
 40
1.0
  9
$DIMDLI
 40
3.75
  9
$DIMRND
 40
0.0
  9
$DIMDLE
 40
0.0
  9
$DIMEXE
 40
1.0
  9
$DIMTP
 40
0.0
  9
$DIMTM
 40
0.0
  9
$DIMTXT
 40
3.5
  9
$DIMCEN
 40
2.5
  9
$DIMTSZ
 40
0.0
  9
$DIMTOL
 70
     0
  9
$DIMLIM
 70
     0
  9
$DIMTIH
 70
     1
  9
$DIMTOH
 70
     1
  9
$DIMSE1
 70
     0
  9
$DIMSE2
 70
     0
  9
$DIMTAD
 70
     1
  9
$DIMZIN
 70
     0
  9
$DIMBLK
  1

  9
$DIMASO
 70
     1
  9
$DIMSHO
 70
     1
  9
$DIMPOST
  1

  9
$DIMAPOST
  1

  9
$DIMALT
 70
     0
  9
$DIMALTD
 70
     3
  9
$DIMALTF
 40
0.0393700787401575
  9
$DIMLFAC
 40
1.0
  9
$DIMTOFL
 70
     1
  9
$DIMTVP
 40
0.0
  9
$DIMTIX
 70
     0
  9
$DIMSOXD
 70
     0
  9
$DIMSAH
 70
     0
  9
$DIMBLK1
  1

  9
$DIMBLK2
  1

  9
$DIMSTYLE
  2
ISO-25
  9
$DIMCLRD
 70
     0
  9
$DIMCLRE
 70
     0
  9
$DIMCLRT
 70
     0
  9
$DIMTFAC
 40
1.0
  9
$DIMGAP
 40
1.524
  9
$DIMJUST
 70
     0
  9
$DIMSD1
 70
     0
  9
$DIMSD2
 70
     0
  9
$DIMTOLJ
 70
     0
  9
$DIMTZIN
 70
     0
  9
$DIMALTZ
 70
     0
  9
$DIMALTTZ
 70
     0
  9
$DIMUPT
 70
     0
  9
$DIMDEC
 70
     2
  9
$DIMTDEC
 70
     2
  9
$DIMALTU
 70
     2
  9
$DIMALTTD
 70
     3
  9
$DIMTXSTY
  7
Standard
  9
$DIMAUNIT
 70
     0
  9
$DIMADEC
 70
     2
  9
$DIMALTRND
 40
0.0
  9
$DIMAZIN
 70
     0
  9
$DIMDSEP
 70
    44
  9
$DIMATFIT
 70
     3
  9
$DIMFRAC
 70
     0
  9
$DIMLDRBLK
  1

  9
$DIMLUNIT
 70
     2
  9
$DIMLWD
 70
    -2
  9
$DIMLWE
 70
    -2
  9
$DIMTMOVE
 70
     0
  9
$LUNITS
 70
     2
  9
$LUPREC
 70
     2
  9
$SKETCHINC
 40
1.0
  9
$FILLETRAD
 40
10.0
  9
$AUNITS
 70
     0
  9
$AUPREC
 70
     2
  9
$MENU
  1
.
  9
$ELEVATION
 40
0.0
  9
$PELEVATION
 40
0.0
  9
$THICKNESS
 40
0.0
  9
$LIMCHECK
 70
     0
  9
$CHAMFERA
 40
0.0
  9
$CHAMFERB
 40
0.0
  9
$CHAMFERC
 40
0.0
  9
$CHAMFERD
 40
0.0
  9
$SKPOLY
 70
     0
  9
$TDCREATE
 40
2458333.731253866
  9
$TDUCREATE
 40
2458333.356253866
  9
$TDUPDATE
 40
2458339.619032755
  9
$TDUUPDATE
 40
2458339.244032755
  9
$TDINDWG
 40
0.0056654051
  9
$TDUSRTIMER
 40
2458339.238367454
  9
$USRTIMER
 70
     1
  9
$ANGBASE
 50
0.0
  9
$ANGDIR
 70
     0
  9
$PDMODE
 70
     0
  9
$PDSIZE
 40
-1.0
  9
$PLINEWID
 40
0.0
  9
$SPLFRAME
 70
     0
  9
$SPLINETYPE
 70
     6
  9
$SPLINESEGS
 70
     8
  9
$HANDSEED
  5
18D
  9
$SURFTAB1
 70
     6
  9
$SURFTAB2
 70
     6
  9
$SURFTYPE
 70
     6
  9
$SURFU
 70
     6
  9
$SURFV
 70
     6
  9
$UCSBASE
  2

  9
$UCSNAME
  2

  9
$UCSORG
 10
0.0
 20
0.0
 30
0.0
  9
$UCSXDIR
 10
1.0
 20
0.0
 30
0.0
  9
$UCSYDIR
 10
0.0
 20
1.0
 30
0.0
  9
$UCSORTHOREF
  2

  9
$UCSORTHOVIEW
 70
     0
  9
$UCSORGTOP
 10
0.0
 20
0.0
 30
0.0
  9
$UCSORGBOTTOM
 10
0.0
 20
0.0
 30
0.0
  9
$UCSORGLEFT
 10
0.0
 20
0.0
 30
0.0
  9
$UCSORGRIGHT
 10
0.0
 20
0.0
 30
0.0
  9
$UCSORGFRONT
 10
0.0
 20
0.0
 30
0.0
  9
$UCSORGBACK
 10
0.0
 20
0.0
 30
0.0
  9
$PUCSBASE
  2

  9
$PUCSNAME
  2

  9
$PUCSORG
 10
0.0
 20
0.0
 30
0.0
  9
$PUCSXDIR
 10
1.0
 20
0.0
 30
0.0
  9
$PUCSYDIR
 10
0.0
 20
1.0
 30
0.0
  9
$PUCSORTHOREF
  2

  9
$PUCSORTHOVIEW
 70
     0
  9
$PUCSORGTOP
 10
0.0
 20
0.0
 30
0.0
  9
$PUCSORGBOTTOM
 10
0.0
 20
0.0
 30
0.0
  9
$PUCSORGLEFT
 10
0.0
 20
0.0
 30
0.0
  9
$PUCSORGRIGHT
 10
0.0
 20
0.0
 30
0.0
  9
$PUCSORGFRONT
 10
0.0
 20
0.0
 30
0.0
  9
$PUCSORGBACK
 10
0.0
 20
0.0
 30
0.0
  9
$USERI1
 70
     0
  9
$USERI2
 70
     0
  9
$USERI3
 70
     0
  9
$USERI4
 70
     0
  9
$USERI5
 70
     0
  9
$USERR1
 40
0.0
  9
$USERR2
 40
0.0
  9
$USERR3
 40
0.0
  9
$USERR4
 40
0.0
  9
$USERR5
 40
0.0
  9
$WORLDVIEW
 70
     1
  9
$SHADEDGE
 70
     3
  9
$SHADEDIF
 70
    70
  9
$TILEMODE
 70
     1
  9
$MAXACTVP
 70
    64
  9
$PINSBASE
 10
0.0
 20
0.0
 30
0.0
  9
$PLIMCHECK
 70
     0
  9
$PEXTMIN
 10
1.000000000000000E+20
 20
1.000000000000000E+20
 30
1.000000000000000E+20
  9
$PEXTMAX
 10
-1.000000000000000E+20
 20
-1.000000000000000E+20
 30
-1.000000000000000E+20
  9
$PLIMMIN
 10
0.0
 20
0.0
  9
$PLIMMAX
 10
0.0
 20
0.0
  9
$UNITMODE
 70
     0
  9
$VISRETAIN
 70
     1
  9
$PLINEGEN
 70
     0
  9
$PSLTSCALE
 70
     1
  9
$TREEDEPTH
 70
  3020
  9
$CMLSTYLE
  2
Standard
  9
$CMLJUST
 70
     0
  9
$CMLSCALE
 40
20.0
  9
$PROXYGRAPHICS
 70
     1
  9
$MEASUREMENT
 70
     1
  9
$CELWEIGHT
370
    -1
  9
$ENDCAPS
280
     0
  9
$JOINSTYLE
280
     0
  9
$LWDISPLAY
290
     1
  9
$INSUNITS
 70
     4
  9
$HYPERLINKBASE
  1

  9
$STYLESHEET
  1

  9
$XEDIT
290
     1
  9
$CEPSNTYPE
380
     0
  9
$PSTYLEMODE
290
     1
  9
$FINGERPRINTGUID
  2
{F38E7632-200A-4356-BD0E-FCBB270AEF0C}
  9
$VERSIONGUID
  2
{FAEB1C32-E019-11D5-929B-00C0DF256EC4}
  9
$EXTNAMES
290
     1
  9
$PSVPSCALE
 40
0.0
  9
$OLESTARTUP
290
     0
  0
ENDSEC
  0
SECTION
  2
CLASSES
  0
CLASS
  1
ACDBDICTIONARYWDFLT
  2
AcDbDictionaryWithDefault
  3
ObjectDBX Classes
 90
        0
280
     0
281
     0
  0
CLASS
  1
VISUALSTYLE
  2
AcDbVisualStyle
  3
ObjectDBX Classes
 90
     4095
280
     0
281
     0
  0
CLASS
  1
MATERIAL
  2
AcDbMaterial
  3
ObjectDBX Classes
 90
     1153
280
     0
281
     0
  0
CLASS
  1
SCALE
  2
AcDbScale
  3
ObjectDBX Classes
 90
     1153
280
     0
281
     0
  0
CLASS
  1
SUN
  2
AcDbSun
  3
SCENEOE
 90
     1153
280
     0
281
     0
  0
CLASS
  1
ACDBPLACEHOLDER
  2
AcDbPlaceHolder
  3
ObjectDBX Classes
 90
        0
280
     0
281
     0
  0
CLASS
  1
LAYOUT
  2
AcDbLayout
  3
ObjectDBX Classes
 90
        0
280
     0
281
     0
  0
CLASS
  1
TABLESTYLE
  2
AcDbTableStyle
  3
ObjectDBX Classes
 90
     4095
280
     0
281
     0
  0
CLASS
  1
MLEADERSTYLE
  2
AcDbMLeaderStyle
  3
ACDB_MLEADERSTYLE_CLASS
 90
     4095
280
     0
281
     0
  0
CLASS
  1
RASTERVARIABLES
  2
AcDbRasterVariables
  3
ISM
 90
        0
280
     0
281
     0
  0
CLASS
  1
DIMASSOC
  2
AcDbDimAssoc
  3
"AcDbDimAssoc|Product Desc:     AcDim ARX App For Dimension|Company:          Autodesk, Inc.|WEB Address:      www.autodesk.com"
 90
        0
280
     0
281
     0
  0
ENDSEC
  0
SECTION
  2
TABLES
  0
TABLE
  2
VPORT
  5
8
330
0
100
AcDbSymbolTable
 70
     1
  0
VPORT
  5
29
330
8
100
AcDbSymbolTableRecord
100
AcDbViewportTableRecord
  2
*Active
 70
     0
 10
0.0
 20
0.0
 11
1.0
 21
1.0
 12
-10.52520128021556
 22
-1.153871859873572
 13
0.0
 23
0.0
 14
10.0
 24
10.0
 15
10.0
 25
10.0
 16
0.0
 26
0.0
 36
1.0
 17
0.0
 27
0.0
 37
0.0
 40
112.7337616476702
 41
1.435126582278481
 42
50.0
 43
0.0
 44
0.0
 50
0.0
 51
0.0
 71
    16
 72
  2000
 73
     1
 74
     3
 75
     0
 76
     0
 77
     0
 78
     0
281
     0
 65
     1
110
0.0
120
0.0
130
0.0
111
1.0
121
0.0
131
0.0
112
0.0
122
1.0
132
0.0
 79
     0
146
0.0
  0
ENDTAB
  0
TABLE
  2
LTYPE
  5
5
330
0
100
AcDbSymbolTable
 70
     6
  0
LTYPE
  5
14
330
5
100
AcDbSymbolTableRecord
100
AcDbLinetypeTableRecord
  2
ByBlock
 70
     0
  3

 72
    65
 73
     0
 40
0.0
  0
LTYPE
  5
15
330
5
100
AcDbSymbolTableRecord
100
AcDbLinetypeTableRecord
  2
ByLayer
 70
     0
  3

 72
    65
 73
     0
 40
0.0
  0
LTYPE
  5
16
330
5
100
AcDbSymbolTableRecord
100
AcDbLinetypeTableRecord
  2
Continuous
 70
     0
  3
Solid line
 72
    65
 73
     0
 40
0.0
  0
LTYPE
  5
6A
330
5
100
AcDbSymbolTableRecord
100
AcDbLinetypeTableRecord
  2
HIDDEN
 70
     0
  3
Hidden __ __ __ __ __ __ __ __ __ __ __ __ __ __
 72
    65
 73
     2
 40
1.905
 49
1.27
 74
     0
 49
-0.635
 74
     0
  0
LTYPE
  5
6B
330
5
100
AcDbSymbolTableRecord
100
AcDbLinetypeTableRecord
  2
PHANTOM
 70
     0
  3
Phantom ______  __  __  ______  __  __  ______
 72
    65
 73
     6
 40
12.7
 49
6.35
 74
     0
 49
-1.27
 74
     0
 49
1.27
 74
     0
 49
-1.27
 74
     0
 49
1.27
 74
     0
 49
-1.27
 74
     0
  0
LTYPE
  5
6C
330
5
100
AcDbSymbolTableRecord
100
AcDbLinetypeTableRecord
  2
CENTER
 70
     0
  3
Center ____ _ ____ _ ____ _ ____ _ ____ _ ____
 72
    65
 73
     4
 40
10.16
 49
6.35
 74
     0
 49
-1.27
 74
     0
 49
1.27
 74
     0
 49
-1.27
 74
     0
  0
LTYPE
  5
6D
330
5
100
AcDbSymbolTableRecord
100
AcDbLinetypeTableRecord
  2
CENTERX2
 70
     0
  3
Center (2x) ________  __  ________  __  _____
 72
    65
 73
     4
 40
20.32
 49
12.7
 74
     0
 49
-2.54
 74
     0
 49
2.54
 74
     0
 49
-2.54
 74
     0
  0
LTYPE
  5
6E
330
5
100
AcDbSymbolTableRecord
100
AcDbLinetypeTableRecord
  2
DOT2
 70
     0
  3
Dot (.5x) ........................................
 72
    65
 73
     2
 40
0.635
 49
0.0
 74
     0
 49
-0.635
 74
     0
  0
ENDTAB
  0
TABLE
  2
LAYER
  5
2
330
0
100
AcDbSymbolTable
 70
    17
  0
LAYER
  5
10
330
2
100
AcDbSymbolTableRecord
100
AcDbLayerTableRecord
  2
0
 70
     0
 62
     7
  6
Continuous
370
    -3
390
F
  0
LAYER
  5
6F
330
2
100
AcDbSymbolTableRecord
100
AcDbLayerTableRecord
  2
FORMAT
 70
     0
 62
     2
  6
Continuous
370
    -3
390
F
  0
LAYER
  5
70
330
2
100
AcDbSymbolTableRecord
100
AcDbLayerTableRecord
  2
외형선
 70
     0
 62
   100
  6
Continuous
370
    30
390
F
  0
LAYER
  5
71
330
2
100
AcDbSymbolTableRecord
100
AcDbLayerTableRecord
  2
숨은선
 70
     0
 62
     2
  6
HIDDEN
370
    15
390
F
  0
LAYER
  5
72
330
2
100
AcDbSymbolTableRecord
100
AcDbLayerTableRecord
  2
중심선
 70
     0
 62
     1
  6
CENTERX2
370
    -3
390
F
  0
LAYER
  5
73
330
2
100
AcDbSymbolTableRecord
100
AcDbLayerTableRecord
  2
파단선
 70
     0
 62
     4
  6
Continuous
370
    -3
390
F
  0
LAYER
  5
74
330
2
100
AcDbSymbolTableRecord
100
AcDbLayerTableRecord
  2
해칭선
 70
     0
 62
     4
  6
Continuous
370
    -3
390
F
  0
LAYER
  5
75
330
2
100
AcDbSymbolTableRecord
100
AcDbLayerTableRecord
  2
가는실선
 70
     0
 62
     4
  6
Continuous
370
    -3
390
F
  0
LAYER
  5
76
330
2
100
AcDbSymbolTableRecord
100
AcDbLayerTableRecord
  2
치수_보조선
 70
     0
 62
     4
  6
Continuous
370
    -3
390
F
  0
LAYER
  5
77
330
2
100
AcDbSymbolTableRecord
100
AcDbLayerTableRecord
  2
치수문자_일반주서
 70
     0
 62
     7
  6
Continuous
370
    15
390
F
  0
LAYER
  5
78
330
2
100
AcDbSymbolTableRecord
100
AcDbLayerTableRecord
  2
개별주서
 70
     0
 62
   100
  6
Continuous
370
    30
390
F
  0
LAYER
  5
79
330
2
100
AcDbSymbolTableRecord
100
AcDbLayerTableRecord
  2
중간선
 70
     0
 62
     2
  6
Continuous
370
    15
390
F
  0
LAYER
  5
7A
330
2
100
AcDbSymbolTableRecord
100
AcDbLayerTableRecord
  2
윤곽선
 70
     0
 62
     3
  6
Continuous
370
    40
390
F
  0
LAYER
  5
7B
330
2
100
AcDbSymbolTableRecord
100
AcDbLayerTableRecord
  2
중심마크
 70
     0
 62
   100
  6
Continuous
370
    30
390
F
  0
LAYER
  5
7C
330
2
100
AcDbSymbolTableRecord
100
AcDbLayerTableRecord
  2
가상선
 70
     0
 62
     4
  6
PHANTOM
370
    -3
390
F
  0
LAYER
  5
7D
330
2
100
AcDbSymbolTableRecord
100
AcDbLayerTableRecord
  2
특수지정선
 70
     0
 62
     5
  6
CENTERX2
370
    60
390
F
  0
LAYER
  5
13A
330
2
100
AcDbSymbolTableRecord
100
AcDbLayerTableRecord
  2
Defpoints
 70
     0
 62
     7
  6
Continuous
290
     0
370
    -3
390
F
  0
ENDTAB
  0
TABLE
  2
STYLE
  5
3
330
0
100
AcDbSymbolTable
 70
     2
  0
STYLE
  5
11
330
3
100
AcDbSymbolTableRecord
100
AcDbTextStyleTableRecord
  2
Standard
 70
     0
 40
0.0
 41
1.0
 50
0.0
 71
     0
 42
3.5
  3
txt
  4

  0
STYLE
  5
93
330
3
100
AcDbSymbolTableRecord
100
AcDbTextStyleTableRecord
  2
SLDTEXTSTYLE0
 70
     0
 40
0.0
 41
0.75
 50
0.0
 71
     0
 42
3.5
  3
TXT
  4

  0
ENDTAB
  0
TABLE
  2
VIEW
  5
6
330
0
100
AcDbSymbolTable
 70
     0
  0
ENDTAB
  0
TABLE
  2
UCS
  5
7
330
0
100
AcDbSymbolTable
 70
     0
  0
ENDTAB
  0
TABLE
  2
APPID
  5
9
330
0
100
AcDbSymbolTable
 70
     2
  0
APPID
  5
12
330
9
100
AcDbSymbolTableRecord
100
AcDbRegAppTableRecord
  2
ACAD
 70
     0
  0
APPID
  5
14D
330
9
100
AcDbSymbolTableRecord
100
AcDbRegAppTableRecord
  2
PE_DIMMEASUREMENT
 70
     0
  0
ENDTAB
  0
TABLE
  2
DIMSTYLE
  5
A
330
0
100
AcDbSymbolTable
 70
     4
100
AcDbDimStyleTable
  0
DIMSTYLE
105
27
330
A
100
AcDbSymbolTableRecord
100
AcDbDimStyleTableRecord
  2
ISO-25
 70
     0
 41
2.5
 42
0.625
 43
3.75
 44
1.25
 73
     0
 74
     0
 77
     1
 78
     8
140
2.5
141
2.5
143
0.03937007874016
147
0.625
171
     3
172
     1
178
     0
271
     2
272
     2
274
     3
278
    44
283
     0
284
     8
340
11
  0
DIMSTYLE
105
D5
330
A
100
AcDbSymbolTableRecord
100
AcDbDimStyleTableRecord
  2
SLDDIMSTYLE0
 70
     0
 41
3.302
 44
0.0
 45
0.000000001
 73
     0
 74
     0
 77
     1
 78
    12
 79
     3
140
3.5
143
0.0393700787401575
147
0.875
148
0.000000001
170
     1
172
     1
173
     1
178
     0
271
     2
272
     2
276
     2
284
    12
289
     0
340
93
  0
DIMSTYLE
105
EB
102
{ACAD_REACTORS
330
EA
330
13B
330
D4
330
150
330
179
102
}
330
A
100
AcDbSymbolTableRecord
100
AcDbDimStyleTableRecord
  2
SLDDIMSTYLE1
 70
     0
 41
3.302
 44
0.0
 45
0.000000001
 73
     0
 74
     0
 77
     1
 78
     4
 79
     1
140
3.5
143
0.0393700787401575
147
0.875
148
0.000000001
170
     1
173
     1
178
     0
271
     2
272
     2
276
     2
284
    12
340
93
  0
DIMSTYLE
105
FF
330
A
100
AcDbSymbolTableRecord
100
AcDbDimStyleTableRecord
  2
SLDDIMSTYLE2
 70
     0
 41
3.302
 44
0.0
 45
0.000000001
 73
     0
 74
     0
 77
     1
 78
     8
 79
     2
140
3.5
143
0.0393700787401575
147
0.875
148
0.000000001
170
     1
172
     1
173
     1
178
     0
271
     2
272
     2
276
     2
284
    12
289
     0
340
93
341
100
343
100
344
100
  0
ENDTAB
  0
TABLE
  2
BLOCK_RECORD
  5
1
330
0
100
AcDbSymbolTable
 70
    11
  0
BLOCK_RECORD
  5
1F
330
1
100
AcDbSymbolTableRecord
100
AcDbBlockTableRecord
  2
*Model_Space
340
22
  0
BLOCK_RECORD
  5
1B
330
1
100
AcDbSymbolTableRecord
100
AcDbBlockTableRecord
  2
*Paper_Space
340
1E
  0
BLOCK_RECORD
  5
23
330
1
100
AcDbSymbolTableRecord
100
AcDbBlockTableRecord
  2
*Paper_Space0
340
26
  0
BLOCK_RECORD
  5
7E
330
1
100
AcDbSymbolTableRecord
100
AcDbBlockTableRecord
  2
블럭10
340
0
102
{BLKREFS
331
CC
102
}
  0
BLOCK_RECORD
  5
D6
330
1
100
AcDbSymbolTableRecord
100
AcDbBlockTableRecord
  2
_D
340
0
  0
BLOCK_RECORD
  5
EC
330
1
100
AcDbSymbolTableRecord
100
AcDbBlockTableRecord
  2
_D_1
340
0
  0
BLOCK_RECORD
  5
100
330
1
100
AcDbSymbolTableRecord
100
AcDbBlockTableRecord
  2
_NONE
340
0
  0
BLOCK_RECORD
  5
103
330
1
100
AcDbSymbolTableRecord
100
AcDbBlockTableRecord
  2
_D_2
340
0
  0
BLOCK_RECORD
  5
10F
330
1
100
AcDbSymbolTableRecord
100
AcDbBlockTableRecord
  2
SW_DOWELSYMBOL_0
340
0
102
{BLKREFS
331
115
102
}
  0
BLOCK_RECORD
  5
13E
330
1
100
AcDbSymbolTableRecord
100
AcDbBlockTableRecord
  2
*D7
340
0
  0
BLOCK_RECORD
  5
153
330
1
100
AcDbSymbolTableRecord
100
AcDbBlockTableRecord
  2
*D8
340
0
  0
BLOCK_RECORD
  5
168
330
1
100
AcDbSymbolTableRecord
100
AcDbBlockTableRecord
  2
*D9
340
0
  0
BLOCK_RECORD
  5
17C
330
1
100
AcDbSymbolTableRecord
100
AcDbBlockTableRecord
  2
*D10
340
0
  0
ENDTAB
  0
ENDSEC
  0
SECTION
  2
BLOCKS
  0
BLOCK
  5
20
330
1F
100
AcDbEntity
  8
0
100
AcDbBlockBegin
  2
*Model_Space
 70
     0
 10
0.0
 20
0.0
 30
0.0
  3
*Model_Space
  1
*Model_Space
  0
ENDBLK
  5
21
330
1F
100
AcDbEntity
  8
0
100
AcDbBlockEnd
  0
BLOCK
  5
1C
330
1B
100
AcDbEntity
 67
     1
  8
0
100
AcDbBlockBegin
  2
*Paper_Space
 70
     0
 10
0.0
 20
0.0
 30
0.0
  3
*Paper_Space
  1
*Paper_Space
  0
ENDBLK
  5
1D
330
1B
100
AcDbEntity
 67
     1
  8
0
100
AcDbBlockEnd
  0
BLOCK
  5
24
330
23
100
AcDbEntity
  8
0
100
AcDbBlockBegin
  2
*Paper_Space0
 70
     0
 10
0.0
 20
0.0
 30
0.0
  3
*Paper_Space0
  1
*Paper_Space0
  0
ENDBLK
  5
25
330
23
100
AcDbEntity
  8
0
100
AcDbBlockEnd
  0
BLOCK
  5
7F
330
7E
100
AcDbEntity
  8
0
100
AcDbBlockBegin
  2
블럭10
 70
     2
 10
0.0
 20
0.0
 30
0.0
  3
블럭10
  1
블럭10
  0
ELLIPSE
  5
81
330
7E
100
AcDbEntity
  8
중심선
100
AcDbEllipse
 10
20.54032771741204
 20
12.0471743016438
 30
0.0
 11
6.600054785286829
 21
-1.261213355974178E-13
 31
0.0
210
0.0
220
0.0
230
1.0
 40
0.636358354079598
 41
0.9219305317359503
 42
6.513795318482858
  0
ELLIPSE
  5
82
330
7E
100
AcDbEntity
  8
중심선
100
AcDbEllipse
 10
20.54032771746488
 20
12.04717430159265
 30
0.0
 11
3.960054785062283
 21
1.540847449632565E-10
 31
0.0
210
0.0
220
0.0
230
1.0
 40
0.3939339440162632
 41
1.131841032648279
 42
5.62031148352944
  0
LINE
  5
83
330
7E
100
AcDbEntity
  8
중심선
100
AcDbLine
 10
2.268634060543552
 20
16.24717430164393
 30
0.0
 11
5.714909304380834
 21
16.24717430164393
 31
0.0
  0
LINE
  5
84
330
7E
100
AcDbEntity
  8
중심선
100
AcDbLine
 10
5.245725140726316
 20
7.84717430164391
 30
0.0
 11
8.692000384563599
 21
7.84717430164391
 31
0.0
  0
LINE
  5
85
330
7E
100
AcDbEntity
  8
중심선
100
AcDbLine
 10
15.74043728645272
 20
16.24717430164393
 30
0.0
 11
8.692000384563599
 21
7.84717430164391
 31
0.0
  0
LINE
  5
86
330
7E
100
AcDbEntity
  8
중심선
100
AcDbLine
 10
0.1404042013395286
 20
13.71084872107135
 30
0.0
 11
3.58671253028996
 21
13.71088815037384
 31
0.0
  0
LINE
  5
87
330
7E
100
AcDbEntity
  8
중심선
100
AcDbLine
 10
2.750260043222114
 20
10.84717430164391
 30
0.0
 11
6.196535287059397
 21
10.84717430164391
 31
0.0
  0
LINE
  5
88
330
7E
100
AcDbEntity
  8
중심선
100
AcDbLine
 10
12.29416204261559
 20
16.24717430164393
 30
0.0
 11
5.245725140726316
 21
7.84717430164391
 31
0.0
  0
LINE
  5
89
330
7E
100
AcDbEntity
  8
중심선
100
AcDbLine
 10
10.72767329541681
 20
16.24717430164393
 30
0.0
 11
6.196535287059397
 21
10.84717430164391
 31
0.0
  0
LINE
  5
8A
330
7E
100
AcDbEntity
  8
중심선
100
AcDbLine
 10
7.28139805157953
 20
16.24717430164393
 30
0.0
 11
2.750260043222114
 21
10.84717430164391
 31
0.0
  0
LINE
  5
8B
330
7E
100
AcDbEntity
  8
중심선
100
AcDbLine
 10
5.714909304380834
 20
16.24717430164393
 30
0.0
 11
3.58671253028996
 21
13.71088815037384
 31
0.0
  0
LINE
  5
8C
330
7E
100
AcDbEntity
  8
중심선
100
AcDbLine
 10
2.268634060543552
 20
16.24717430164393
 30
0.0
 11
0.1404042013395286
 21
13.71084872107135
 31
0.0
  0
LINE
  5
8D
330
7E
100
AcDbEntity
  8
중심선
100
AcDbLine
 10
7.28139805157953
 20
16.24717430164393
 30
0.0
 11
10.72767329541681
 21
16.24717430164393
 31
0.0
  0
LINE
  5
8E
330
7E
100
AcDbEntity
  8
중심선
100
AcDbLine
 10
12.29416204261559
 20
16.24717430164393
 30
0.0
 11
15.74043728645272
 21
16.24717430164393
 31
0.0
  0
LINE
  5
8F
330
7E
100
AcDbEntity
  8
중심선
100
AcDbLine
 10
19.22036997980202
 20
11.08717430171403
 30
0.0
 11
23.66174974927406
 21
11.08717430171406
 31
0.0
  0
LINE
  5
90
330
7E
100
AcDbEntity
  8
중심선
100
AcDbLine
 10
19.22039502424796
 20
13.00717430171391
 30
0.0
 11
19.22036997980202
 21
11.08717430171403
 31
0.0
  0
LINE
  5
91
330
7E
100
AcDbEntity
  8
중심선
100
AcDbLine
 10
19.22039502424796
 20
13.00717430171391
 30
0.0
 11
26.96566020931264
 21
13.00717430171391
 31
0.0
  0
LINE
  5
92
330
7E
100
AcDbEntity
  8
중심선
100
AcDbLine
 10
22.22332737316547
 20
13.45928029700563
 30
0.0
 11
24.52862924686651
 21
15.39360700705356
 31
0.0
  0
ATTDEF
  5
94
330
7E
100
AcDbEntity
  8
FORMAT
 62
     2
100
AcDbText
 10
-9.18129528874128
 20
2.075366912832191
 30
0.0
 40
4.233333333333333
  1
E5077008 [ 3 FLUTE ]
 41
0.75
  7
SLDTEXTSTYLE0
 11
-9.18129528874128
 21
-0.0412997538344756
 31
0.0
100
AcDbAttributeDefinition
  3

  2
AUTOATTR0
 70
     0
 74
     1
  0
ENDBLK
  5
80
330
7E
100
AcDbEntity
  8
0
100
AcDbBlockEnd
  0
BLOCK
  5
D7
330
D6
100
AcDbEntity
  8
0
100
AcDbBlockBegin
  2
_D
 70
     0
 10
0.0
 20
0.0
 30
0.0
  3
_D
  1
_D
  0
LINE
  5
D9
330
D6
100
AcDbEntity
  8
치수문자_일반주서
 62
     0
370
    -2
100
AcDbLine
 10
28.9249081826537
 20
1.644208435270851
 30
0.0
 11
28.9249081826537
 21
25.62336331639944
 31
0.0
  0
LINE
  5
DA
330
D6
100
AcDbEntity
  8
치수문자_일반주서
 62
     0
370
    -2
100
AcDbLine
 10
9.8749081826537
 20
4.985249114013738
 30
0.0
 11
9.874908182653696
 21
25.62336331639944
 31
0.0
  0
LINE
  5
DB
330
D6
100
AcDbEntity
  8
치수문자_일반주서
 62
     0
370
    -2
100
AcDbLine
 10
25.6229081826537
 20
25.62336331639944
 30
0.0
 11
13.1769081826537
 21
25.62336331639944
 31
0.0
  0
SOLID
  5
DC
330
D6
100
AcDbEntity
  8
치수문자_일반주서
 62
     0
100
AcDbTrace
 10
25.6229081826537
 20
25.0730299830661
 30
0.0
 11
25.6229081826537
 21
26.17369664973277
 31
0.0
 12
28.9249081826537
 22
25.62336331639944
 32
0.0
 13
28.9249081826537
 23
25.62336331639944
 33
0.0
  0
SOLID
  5
DD
330
D6
100
AcDbEntity
  8
치수문자_일반주서
 62
     0
100
AcDbTrace
 10
13.1769081826537
 20
26.17369664973277
 30
0.0
 11
13.1769081826537
 21
25.0730299830661
 31
0.0
 12
9.874908182653696
 22
25.62336331639944
 32
0.0
 13
9.874908182653696
 23
25.62336331639944
 33
0.0
  0
MTEXT
  5
DE
330
D6
100
AcDbEntity
  8
치수문자_일반주서
 62
     0
100
AcDbMText
 10
21.78819748858576
 20
29.99836331639944
 30
0.0
 40
3.5
 41
0.0
 71
     2
 72
     1
  1
\A1;19.05 [3/4]
  7
SLDTEXTSTYLE0
 73
     1
 44
1.0
  0
POINT
  5
DF
330
D6
100
AcDbEntity
  8
Defpoints
 62
     0
100
AcDbPoint
 10
28.9249081826537
 20
1.581708435270851
 30
0.0
  0
POINT
  5
E0
330
D6
100
AcDbEntity
  8
Defpoints
 62
     0
100
AcDbPoint
 10
9.8749081826537
 20
4.922749114013738
 30
0.0
  0
POINT
  5
E1
330
D6
100
AcDbEntity
  8
Defpoints
 62
     0
100
AcDbPoint
 10
9.8749081826537
 20
25.62336331639944
 30
0.0
  0
ENDBLK
  5
D8
330
D6
100
AcDbEntity
  8
0
100
AcDbBlockEnd
  0
BLOCK
  5
ED
330
EC
100
AcDbEntity
  8
0
100
AcDbBlockBegin
  2
_D_1
 70
     0
 10
0.0
 20
0.0
 30
0.0
  3
_D_1
  1
_D_1
  0
LINE
  5
EF
330
EC
100
AcDbEntity
  8
치수문자_일반주서
 62
     0
370
    -2
100
AcDbLine
 10
28.9249081826537
 20
1.644208435270851
 30
0.0
 11
28.9249081826537
 21
37.96976274106507
 31
0.0
  0
LINE
  5
F0
330
EC
100
AcDbEntity
  8
치수문자_일반주서
 62
     0
370
    -2
100
AcDbLine
 10
-59.97509181734631
 20
4.019835151814091
 30
0.0
 11
-59.97509181734631
 21
37.96976274106507
 31
0.0
  0
LINE
  5
F1
330
EC
100
AcDbEntity
  8
치수문자_일반주서
 62
     0
370
    -2
100
AcDbLine
 10
25.6229081826537
 20
37.96976274106507
 30
0.0
 11
-56.67309181734631
 21
37.96976274106507
 31
0.0
  0
SOLID
  5
F2
330
EC
100
AcDbEntity
  8
치수문자_일반주서
 62
     0
100
AcDbTrace
 10
25.6229081826537
 20
37.41942940773173
 30
0.0
 11
25.6229081826537
 21
38.5200960743984
 31
0.0
 12
28.9249081826537
 22
37.96976274106507
 32
0.0
 13
28.9249081826537
 23
37.96976274106507
 33
0.0
  0
SOLID
  5
F3
330
EC
100
AcDbEntity
  8
치수문자_일반주서
 62
     0
100
AcDbTrace
 10
-56.67309181734631
 20
38.5200960743984
 30
0.0
 11
-56.67309181734631
 21
37.41942940773173
 31
0.0
 12
-59.97509181734631
 22
37.96976274106507
 32
0.0
 13
-59.97509181734631
 23
37.96976274106507
 33
0.0
  0
MTEXT
  5
F4
330
EC
100
AcDbEntity
  8
치수문자_일반주서
 62
     0
100
AcDbMText
 10
-15.5250918173463
 20
42.34476274106507
 30
0.0
 40
3.5
 41
0.0
 71
     2
 72
     1
  1
\A1;88.90 [3 1/2]
  7
SLDTEXTSTYLE0
 73
     1
 44
1.0
  0
POINT
  5
F5
330
EC
100
AcDbEntity
  8
Defpoints
 62
     0
100
AcDbPoint
 10
28.9249081826537
 20
1.581708435270851
 30
0.0
  0
POINT
  5
F6
330
EC
100
AcDbEntity
  8
Defpoints
 62
     0
100
AcDbPoint
 10
-59.97509181734631
 20
3.957335151814091
 30
0.0
  0
POINT
  5
F7
330
EC
100
AcDbEntity
  8
Defpoints
 62
     0
100
AcDbPoint
 10
-59.97509181734631
 20
37.96976274106507
 30
0.0
  0
ENDBLK
  5
EE
330
EC
100
AcDbEntity
  8
0
100
AcDbBlockEnd
  0
BLOCK
  5
101
330
100
100
AcDbEntity
  8
0
100
AcDbBlockBegin
  2
_NONE
 70
     0
 10
0.0
 20
0.0
 30
0.0
  3
_NONE
  1
_NONE
  0
ENDBLK
  5
102
330
100
100
AcDbEntity
  8
0
100
AcDbBlockEnd
  0
BLOCK
  5
104
330
103
100
AcDbEntity
  8
0
100
AcDbBlockBegin
  2
_D_2
 70
     0
 10
0.0
 20
0.0
 30
0.0
  3
_D_2
  1
_D_2
  0
LINE
  5
106
330
103
100
AcDbEntity
  8
치수문자_일반주서
100
AcDbLine
 10
-83.76797353338905
 20
-10.1720312792546
 30
0.0
 11
-83.76797353338905
 21
-10.8829687648191
 31
0.0
  0
LINE
  5
107
330
103
100
AcDbEntity
  8
치수문자_일반주서
100
AcDbLine
 10
-83.76797353338905
 20
-10.8829687648191
 30
0.0
 11
-78.21172354232975
 21
-10.88296876481906
 31
0.0
  0
LINE
  5
108
330
103
100
AcDbEntity
  8
치수문자_일반주서
100
AcDbLine
 10
-78.21172354232975
 20
-10.88296876481906
 30
0.0
 11
-78.21172354232975
 21
-10.17203127925456
 31
0.0
  0
LINE
  5
109
330
103
100
AcDbEntity
  8
치수문자_일반주서
100
AcDbLine
 10
-83.76797353338914
 20
0.6567015828826597
 30
0.0
 11
-83.76797353338914
 21
1.36763906844716
 31
0.0
  0
LINE
  5
10A
330
103
100
AcDbEntity
  8
치수문자_일반주서
100
AcDbLine
 10
-83.76797353338914
 20
1.36763906844716
 30
0.0
 11
-78.21172354232984
 21
1.367639068447199
 31
0.0
  0
LINE
  5
10B
330
103
100
AcDbEntity
  8
치수문자_일반주서
100
AcDbLine
 10
-78.21172354232984
 20
1.367639068447199
 30
0.0
 11
-78.21172354232984
 21
0.6567015828826986
 31
0.0
  0
MTEXT
  5
10C
330
103
100
AcDbEntity
  8
치수문자_일반주서
100
AcDbMText
 10
-82.72346045690867
 20
-9.283359378643219
 30
0.0
 40
3.5
 41
0.0
 71
     1
 72
     1
  1
0.00
  7
SLDTEXTSTYLE0
 11
-7.044195017643634E-15
 21
1.0
 31
0.0
 73
     1
 44
1.0
  0
MTEXT
  5
10D
330
103
100
AcDbEntity
  8
치수문자_일반주서
100
AcDbMText
 10
-77.4868289065482
 20
-8.689939260549693
 30
0.0
 40
3.5
 41
0.0
 71
     1
 72
     1
  1
%%c
  7
SLDTEXTSTYLE0
 11
-7.044195017643634E-15
 21
1.0
 31
0.0
 73
     1
 44
1.0
  0
MTEXT
  5
10E
330
103
100
AcDbEntity
  8
치수문자_일반주서
100
AcDbMText
 10
-77.48682890654823
 20
-3.411501862175613
 30
0.0
 40
3.5
 41
0.0
 71
     1
 72
     1
  1
0
  7
SLDTEXTSTYLE0
 11
-7.044195017643634E-15
 21
1.0
 31
0.0
 73
     1
 44
1.0
  0
ENDBLK
  5
105
330
103
100
AcDbEntity
  8
0
100
AcDbBlockEnd
  0
BLOCK
  5
110
330
10F
100
AcDbEntity
  8
0
100
AcDbBlockBegin
  2
SW_DOWELSYMBOL_0
 70
     0
 10
0.0
 20
0.0
 30
0.0
  3
SW_DOWELSYMBOL_0
  1
SW_DOWELSYMBOL_0
  0
CIRCLE
  5
112
330
10F
100
AcDbEntity
  8
외형선
 62
     0
100
AcDbCircle
 10
0.0
 20
0.0
 30
0.0
 40
3.000000000000004
  0
HATCH
  5
113
330
10F
100
AcDbEntity
  8
0
  6
Continuous
 62
     0
370
    30
100
AcDbHatch
 10
0.0
 20
0.0
 30
0.0
210
0.0
220
0.0
230
1.0
  2
SOLID
 70
     1
 71
     0
 91
        1
 92
        0
 93
        3
 72
     2
 10
-0.0000000000000013
 20
-0.0000000000000039
 40
3.000000000000004
 50
0.0
 51
90.0
 73
     1
 72
     1
 10
-0.0000000000000013
 20
3.0
 11
-0.0000000000000013
 21
-0.000000000000004
 72
     1
 10
-0.0000000000000013
 20
-0.0000000000000039
 11
3.000000000000003
 21
-0.0000000000000039
 97
        0
 75
     0
 76
     1
 98
        1
 10
0.0
 20
0.0
  0
HATCH
  5
114
330
10F
100
AcDbEntity
  8
0
  6
Continuous
 62
     0
370
    30
100
AcDbHatch
 10
0.0
 20
0.0
 30
0.0
210
0.0
220
0.0
230
1.0
  2
SOLID
 70
     1
 71
     0
 91
        1
 92
        0
 93
        3
 72
     2
 10
-0.0000000000000013
 20
-0.0000000000000039
 40
3.000000000000004
 50
180.0
 51
270.0000000000008
 73
     1
 72
     1
 10
-0.0000000000000013
 20
-3.000000000000008
 11
-0.0000000000000013
 21
-0.000000000000004
 72
     1
 10
-0.0000000000000013
 20
-0.0000000000000039
 11
-3.000000000000006
 21
-0.0000000000000039
 97
        0
 75
     0
 76
     1
 98
        1
 10
0.0
 20
0.0
  0
ENDBLK
  5
111
330
10F
100
AcDbEntity
  8
0
100
AcDbBlockEnd
  0
BLOCK
  5
13F
330
13E
100
AcDbEntity
  8
0
100
AcDbBlockBegin
  2
*D7
 70
     1
 10
0.0
 20
0.0
 30
0.0
  3
*D7
  1
*D7
  0
LINE
  5
141
330
13E
100
AcDbEntity
  8
치수문자_일반주서
 62
     0
370
    -2
100
AcDbLine
 10
-59.22759181734633
 20
-4.75766484818589
 30
0.0
 11
-68.89852083461344
 21
-4.75766484818589
 31
0.0
  0
LINE
  5
142
330
13E
100
AcDbEntity
  8
치수문자_일반주서
 62
     0
370
    -2
100
AcDbLine
 10
-59.22759181734633
 20
4.767335151814064
 30
0.0
 11
-68.89852083461344
 21
4.767335151814065
 31
0.0
  0
LINE
  5
143
330
13E
100
AcDbEntity
  8
치수문자_일반주서
 62
     0
370
    -2
100
AcDbLine
 10
-68.89852083461344
 20
4.767335151814065
 30
0.0
 11
-68.89852083461344
 21
34.31933515181407
 31
0.0
  0
LINE
  5
144
330
13E
100
AcDbEntity
  8
치수문자_일반주서
 62
     0
370
    -2
100
AcDbLine
 10
-68.89852083461344
 20
-1.45566484818589
 30
0.0
 11
-68.89852083461344
 21
1.465335151814065
 31
0.0
  0
SOLID
  5
145
330
13E
100
AcDbEntity
  8
치수문자_일반주서
 62
     0
100
AcDbTrace
 10
-69.44885416794676
 20
-1.45566484818589
 30
0.0
 11
-68.34818750128011
 21
-1.45566484818589
 31
0.0
 12
-68.89852083461344
 22
-4.75766484818589
 32
0.0
 13
-68.89852083461344
 23
-4.75766484818589
 33
0.0
  0
SOLID
  5
146
330
13E
100
AcDbEntity
  8
치수문자_일반주서
 62
     0
100
AcDbTrace
 10
-68.34818750128011
 20
1.465335151814065
 30
0.0
 11
-69.44885416794676
 21
1.465335151814065
 31
0.0
 12
-68.89852083461344
 22
4.767335151814065
 32
0.0
 13
-68.89852083461344
 23
4.767335151814065
 33
0.0
  0
MTEXT
  5
147
330
13E
100
AcDbEntity
  8
치수문자_일반주서
 62
     0
100
AcDbMText
 10
-71.52352083461344
 20
21.19433515181407
 30
0.0
 40
3.5
 41
0.0
 71
     5
 72
     1
  1
\A1;{%%c9.53 [3/8]}
  7
SLDTEXTSTYLE0
 11
0.0
 21
1.0
 31
0.0
 73
     1
 44
1.0
  0
POINT
  5
148
330
13E
100
AcDbEntity
  8
Defpoints
 62
     0
100
AcDbPoint
 10
-59.16509181734633
 20
-4.75766484818589
 30
0.0
  0
POINT
  5
149
330
13E
100
AcDbEntity
  8
Defpoints
 62
     0
100
AcDbPoint
 10
-59.16509181734633
 20
4.767335151814064
 30
0.0
  0
POINT
  5
14A
330
13E
100
AcDbEntity
  8
Defpoints
 62
     0
100
AcDbPoint
 10
-68.89852083461344
 20
4.767335151814065
 30
0.0
  0
ENDBLK
  5
140
330
13E
100
AcDbEntity
  8
0
100
AcDbBlockEnd
  0
BLOCK
  5
154
330
153
100
AcDbEntity
  8
0
100
AcDbBlockBegin
  2
*D8
 70
     1
 10
0.0
 20
0.0
 30
0.0
  3
*D8
  1
*D8
  0
LINE
  5
156
330
153
100
AcDbEntity
  8
치수문자_일반주서
 62
     0
370
    -2
100
AcDbLine
 10
28.9874081826537
 20
1.587021793542474
 30
0.0
 11
47.03234853213444
 21
1.587021793542473
 31
0.0
  0
LINE
  5
157
330
153
100
AcDbEntity
  8
치수문자_일반주서
 62
     0
370
    -2
100
AcDbLine
 10
28.98740818265368
 20
-1.587500000000003
 30
0.0
 11
47.03234853213444
 21
-1.587500000000002
 31
0.0
  0
LINE
  5
158
330
153
100
AcDbEntity
  8
치수문자_일반주서
 62
     0
370
    -2
100
AcDbLine
 10
47.03234853213444
 20
1.587021793542473
 30
0.0
 11
47.03234853213444
 21
30.06602179354247
 31
0.0
  0
LINE
  5
159
330
153
100
AcDbEntity
  8
치수문자_일반주서
 62
     0
370
    -2
100
AcDbLine
 10
47.03234853213444
 20
4.889021793542472
 30
0.0
 11
47.03234853213444
 21
8.191021793542472
 31
0.0
  0
LINE
  5
15A
330
153
100
AcDbEntity
  8
치수문자_일반주서
 62
     0
370
    -2
100
AcDbLine
 10
47.03234853213444
 20
-4.889500000000002
 30
0.0
 11
47.03234853213444
 21
-8.191500000000001
 31
0.0
  0
SOLID
  5
15B
330
153
100
AcDbEntity
  8
치수문자_일반주서
 62
     0
100
AcDbTrace
 10
46.48201519880111
 20
4.889021793542472
 30
0.0
 11
47.58268186546778
 21
4.889021793542472
 31
0.0
 12
47.03234853213444
 22
1.587021793542473
 32
0.0
 13
47.03234853213444
 23
1.587021793542473
 33
0.0
  0
SOLID
  5
15C
330
153
100
AcDbEntity
  8
치수문자_일반주서
 62
     0
100
AcDbTrace
 10
47.58268186546778
 20
-4.889500000000002
 30
0.0
 11
46.48201519880111
 21
-4.889500000000002
 31
0.0
 12
47.03234853213444
 22
-1.587500000000002
 32
0.0
 13
47.03234853213444
 23
-1.587500000000002
 33
0.0
  0
MTEXT
  5
15D
330
153
100
AcDbEntity
  8
치수문자_일반주서
 62
     0
100
AcDbMText
 10
44.40734853213444
 20
19.12852179354247
 30
0.0
 40
3.5
 41
0.0
 71
     5
 72
     1
  1
\A1;3.17 [1/8]
  7
SLDTEXTSTYLE0
 11
0.0
 21
1.0
 31
0.0
 73
     1
 44
1.0
  0
POINT
  5
15E
330
153
100
AcDbEntity
  8
Defpoints
 62
     0
100
AcDbPoint
 10
28.9249081826537
 20
1.587021793542474
 30
0.0
  0
POINT
  5
15F
330
153
100
AcDbEntity
  8
Defpoints
 62
     0
100
AcDbPoint
 10
28.92490818265368
 20
-1.587500000000003
 30
0.0
  0
POINT
  5
162
330
153
100
AcDbEntity
  8
Defpoints
 62
     0
100
AcDbPoint
 10
47.03234853213444
 20
-1.587500000000005
 30
0.0
  0
ENDBLK
  5
155
330
153
100
AcDbEntity
  8
0
100
AcDbBlockEnd
  0
BLOCK
  5
169
330
168
100
AcDbEntity
  8
0
100
AcDbBlockBegin
  2
*D9
 70
     1
 10
0.0
 20
0.0
 30
0.0
  3
*D9
  1
*D9
  0
LINE
  5
16B
330
168
100
AcDbEntity
  8
0
 62
     0
370
    -2
100
AcDbLine
 10
22.28776096737197
 20
-3.717242389577163
 30
0.0
 11
9.521094300705302
 21
-3.717242389577163
 31
0.0
  0
LINE
  5
16C
330
168
100
AcDbEntity
  8
0
 62
     0
370
    -2
100
AcDbLine
 10
14.62310132847857
 20
4.114129573086432
 30
0.0
 11
25.87400198404819
 21
2.130292230238951
 31
0.0
  0
LINE
  5
16D
330
168
100
AcDbEntity
  8
0
 62
     0
370
    -2
100
AcDbLine
 10
11.91858840536767
 20
4.767335151814073
 30
0.0
 11
26.10471334491729
 21
4.767335151814074
 31
0.0
  0
ARC
  5
16E
330
168
100
AcDbEntity
  8
0
 62
     0
370
    -2
100
AcDbCircle
 10
10.91858840536767
 20
4.767335151814073
 30
0.0
 40
14.18612493954962
100
AcDbArc
 50
323.2667835975557
 51
336.6333917987778
  0
ARC
  5
16F
330
168
100
AcDbEntity
  8
0
 62
     0
370
    -2
100
AcDbCircle
 10
10.91858840536767
 20
4.767335151814073
 30
0.0
 40
14.18612493954962
100
AcDbArc
 50
13.36660820122215
 51
26.7332164024443
  0
ARC
  5
170
330
168
100
AcDbEntity
  8
0
 62
     0
370
    -2
100
AcDbCircle
 10
10.91858840536767
 20
4.767335151814073
 30
0.0
 40
14.18612493954962
100
AcDbArc
 50
349.9999999999999
 51
0.0000000000000074
  0
SOLID
  5
171
330
168
100
AcDbEntity
  8
0
 62
     0
100
AcDbTrace
 10
24.46841915612284
 20
-1.017056297017147
 30
0.0
 11
23.41408374235932
 21
-0.701075369752181
 31
0.0
 12
24.88919423103598
 22
2.303940407905882
 32
0.0
 13
24.88919423103598
 23
2.303940407905882
 33
0.0
  0
SOLID
  5
172
330
168
100
AcDbEntity
  8
0
 62
     0
100
AcDbTrace
 10
24.1738286127696
 20
7.982848235791822
 30
0.0
 11
25.26701581471631
 21
8.110945279516601
 31
0.0
 12
25.10471334491729
 22
4.767335151814074
 32
0.0
 13
25.10471334491729
 23
4.767335151814074
 33
0.0
  0
MTEXT
  5
173
330
168
100
AcDbEntity
  8
0
 62
     0
100
AcDbMText
 10
14.25342763403863
 20
-0.4432423895771631
 30
0.0
 40
3.5
 41
0.0
 71
     5
 72
     1
  1
10%%d
 73
     1
 44
1.0
  0
POINT
  5
174
330
168
100
AcDbEntity
  8
Defpoints
 62
     0
100
AcDbPoint
 10
25.08071266677556
 20
3.942485344301315
 30
0.0
  0
POINT
  5
175
330
168
100
AcDbEntity
  8
Defpoints
 62
     0
100
AcDbPoint
 10
9.32637850956225
 20
4.767335151814073
 30
0.0
  0
POINT
  5
176
330
168
100
AcDbEntity
  8
Defpoints
 62
     0
100
AcDbPoint
 10
13.63829357546636
 20
4.287777750753362
 30
0.0
  0
POINT
  5
177
330
168
100
AcDbEntity
  8
Defpoints
 62
     0
100
AcDbPoint
 10
10.10578934552447
 20
4.910653555958898
 30
0.0
  0
POINT
  5
178
330
168
100
AcDbEntity
  8
Defpoints
 62
     0
100
AcDbPoint
 10
-59.16509181734634
 20
4.767335151814064
 30
0.0
  0
ENDBLK
  5
16A
330
168
100
AcDbEntity
  8
0
100
AcDbBlockEnd
  0
BLOCK
  5
17D
330
17C
100
AcDbEntity
  8
0
100
AcDbBlockBegin
  2
*D10
 70
     1
 10
0.0
 20
0.0
 30
0.0
  3
*D10
  1
*D10
  0
LINE
  5
17F
330
17C
100
AcDbEntity
  8
치수문자_일반주서
 62
     0
370
    -2
100
AcDbLine
 10
-19.59743128305295
 20
16.81158973704707
 30
0.0
 11
-17.18816788530669
 21
22.91583875967714
 31
0.0
  0
LINE
  5
180
330
17C
100
AcDbEntity
  8
치수문자_일반주서
 62
     0
370
    -2
100
AcDbLine
 10
10.04423886096121
 20
4.921506567063081
 30
0.0
 11
-21.38988363420923
 21
10.46419047785654
 31
0.0
  0
ARC
  5
181
330
17C
100
AcDbEntity
  8
치수문자_일반주서
 62
     0
370
    -2
100
AcDbCircle
 10
10.91858840536767
 20
4.767335151814073
 30
0.0
 40
32.8068822983529
100
AcDbArc
 50
158.4615300947769
 51
164.2307650473885
  0
ARC
  5
182
330
17C
100
AcDbEntity
  8
치수문자_일반주서
 62
     0
370
    -2
100
AcDbCircle
 10
10.91858840536767
 20
4.767335151814073
 30
0.0
 40
32.8068822983529
100
AcDbArc
 50
185.7692349526115
 51
191.538469905223
  0
SOLID
  5
183
330
17C
100
AcDbEntity
  8
치수문자_일반주서
 62
     0
100
AcDbTrace
 10
-21.19005245336566
 20
13.80576769182908
 30
0.0
 11
-20.11709936671746
 21
13.56033178377319
 31
0.0
 12
-21.38988363420923
 22
10.46419047785654
 32
0.0
 13
-21.38988363420923
 23
10.46419047785654
 33
0.0
  0
SOLID
  5
184
330
17C
100
AcDbEntity
  8
치수문자_일반주서
 62
     0
100
AcDbTrace
 10
-21.17248537401909
 20
1.497214520712936
 30
0.0
 11
-22.27175739053654
 21
1.441823683810463
 31
0.0
 12
-21.88829389298523
 22
4.767335151814068
 32
0.0
 13
-21.88829389298523
 23
4.767335151814068
 33
0.0
  0
MTEXT
  5
185
330
17C
100
AcDbEntity
  8
치수문자_일반주서
 62
     0
100
AcDbMText
 10
-20.83449919323185
 20
20.82741960746061
 30
0.0
 40
3.5
 41
0.0
 71
     5
 72
     1
  1
\A1;10%%d
  7
SLDTEXTSTYLE0
 11
0.3671258510851452
 21
0.9301712796388673
 31
0.0
 73
     1
 44
1.0
  0
POINT
  5
186
330
17C
100
AcDbEntity
  8
Defpoints
 62
     0
100
AcDbPoint
 10
-21.83278984052329
 20
6.674885710137845
 30
0.0
  0
POINT
  5
187
330
17C
100
AcDbEntity
  8
Defpoints
 62
     0
100
AcDbPoint
 10
9.32637850956225
 20
4.767335151814073
 30
0.0
  0
POINT
  5
188
330
17C
100
AcDbEntity
  8
Defpoints
 62
     0
100
AcDbPoint
 10
13.63829357546636
 20
4.287777750753362
 30
0.0
  0
POINT
  5
189
330
17C
100
AcDbEntity
  8
Defpoints
 62
     0
100
AcDbPoint
 10
10.10578934552447
 20
4.910653555958898
 30
0.0
  0
POINT
  5
18A
330
17C
100
AcDbEntity
  8
Defpoints
 62
     0
100
AcDbPoint
 10
-59.16509181734634
 20
4.767335151814064
 30
0.0
  0
ENDBLK
  5
17E
330
17C
100
AcDbEntity
  8
0
100
AcDbBlockEnd
  0
ENDSEC
  0
SECTION
  2
ENTITIES
  0
LINE
  5
95
330
1F
100
AcDbEntity
  8
0
  6
Continuous
 62
     1
370
    15
100
AcDbLine
 10
26.16632897972057
 20
-2.069076790084267
 30
0.0
 11
28.2907839410025
 21
-1.694478061110305
 31
0.0
  0
LINE
  5
96
330
1F
100
AcDbEntity
  8
0
  6
Continuous
 62
     1
370
    15
100
AcDbLine
 10
12.35732213709221
 20
-4.503977273227463
 30
0.0
 11
15.80581289358277
 21
-3.895915310134431
 31
0.0
  0
LINE
  5
97
330
1F
100
AcDbEntity
  8
0
  6
Continuous
 62
     1
370
    15
100
AcDbLine
 10
22.25095244664786
 20
2.76913361612595
 30
0.0
 11
19.15781639998308
 21
3.314536956154868
 31
0.0
  0
LINE
  5
98
102
{ACAD_REACTORS
330
167
102
}
330
1F
100
AcDbEntity
  8
0
  6
Continuous
 62
     4
370
    15
100
AcDbLine
 10
9.32637850956225
 20
4.767335151814073
 30
0.0
 11
-59.16509181734633
 21
4.767335151814064
 31
0.0
  0
LINE
  5
99
102
{ACAD_REACTORS
102
}
330
1F
100
AcDbEntity
  8
0
  6
Continuous
 62
     4
370
    15
100
AcDbLine
 10
-59.16509181734633
 20
-4.75766484818589
 30
0.0
 11
9.366908182653702
 21
-4.757664848185881
 31
0.0
  0
LINE
  5
9A
330
1F
100
AcDbEntity
  8
0
  6
Continuous
 62
     4
370
    15
100
AcDbLine
 10
-59.16509181734633
 20
4.767335151814064
 30
0.0
 11
-59.97509181734631
 21
3.95733515181409
 31
0.0
  0
LINE
  5
9B
330
1F
100
AcDbEntity
  8
0
  6
Continuous
 62
     4
370
    15
100
AcDbLine
 10
-59.97509181734631
 20
-3.947664848185918
 30
0.0
 11
-59.16509181734633
 21
-4.757664848185891
 31
0.0
  0
LINE
  5
9C
330
1F
100
AcDbEntity
  8
0
  6
Continuous
 62
     1
370
    15
100
AcDbLine
 10
16.87728477252631
 20
-3.706985908806292
 30
0.0
 11
20.11617881904157
 21
-3.135881500749631
 31
0.0
  0
LINE
  5
9D
102
{ACAD_REACTORS
330
167
102
}
330
1F
100
AcDbEntity
  8
0
  6
Continuous
 62
     1
370
    15
100
AcDbLine
 10
13.63829357546636
 20
4.287777750753362
 30
0.0
 11
10.10578934552447
 21
4.910653555958898
 31
0.0
  0
LINE
  5
9E
330
1F
100
AcDbEntity
  8
0
  6
Continuous
 62
     1
370
    15
100
AcDbLine
 10
26.45046217381968
 20
2.028646745477912
 30
0.0
 11
23.78964542864407
 21
2.497820528373253
 31
0.0
  0
LINE
  5
9F
330
1F
100
AcDbEntity
  8
0
  6
Continuous
 62
     4
370
    15
100
AcDbLine
 10
9.366908182653702
 20
-4.757664848185905
 30
0.0
 11
9.874908182653702
 21
-4.941693830682168
 31
0.0
  0
LINE
  5
A0
330
1F
100
AcDbEntity
  8
0
  6
Continuous
 62
     1
370
    15
100
AcDbLine
 10
21.45843221179746
 20
-2.899206012659291
 30
0.0
 11
24.36495766987504
 21
-2.386707154284182
 31
0.0
  0
LINE
  5
A1
330
1F
100
AcDbEntity
  8
0
  6
Continuous
 62
     1
370
    15
100
AcDbLine
 10
9.8749081826537
 20
-4.941693830682167
 30
0.0
 11
11.46264022532121
 21
-4.661733833424521
 31
0.0
  0
LINE
  5
A2
330
1F
100
AcDbEntity
  8
0
  6
Continuous
 62
     1
370
    15
100
AcDbLine
 10
17.96365411074189
 20
3.525099987092677
 30
0.0
 11
14.60975741096084
 21
4.116482465773156
 31
0.0
  0
LINE
  5
A3
330
1F
100
AcDbEntity
  8
0
  6
Continuous
 62
     1
370
    15
100
AcDbLine
 10
28.9249081826537
 20
1.592335151814097
 30
0.0
 11
28.6525226965286
 21
1.640364062171343
 31
0.0
  0
LINE
  5
A4
330
1F
100
AcDbEntity
  8
0
  6
Continuous
 62
     1
370
    15
100
AcDbLine
 10
18.54137070212476
 20
-0.8154103112141124
 30
0.0
 11
18.37276259003297
 21
-0.5586510920158962
 31
0.0
  0
SPLINE
  5
A5
330
1F
100
AcDbEntity
  8
0
  6
Continuous
 62
     4
370
    15
100
AcDbSpline
210
0.0
220
0.0
230
1.0
 70
     8
 71
     3
 72
     8
 73
     4
 74
     0
 42
0.000000001
 43
0.00000001
 40
0.0
 40
0.0
 40
0.0
 40
0.0
 40
1.0
 40
1.0
 40
1.0
 40
1.0
 10
9.874908182653702
 20
-3.57348448601467
 30
0.0
 10
9.702605690088124
 20
-3.232400738446873
 30
0.0
 10
9.533837770268622
 20
-2.860180547864538
 30
0.0
 10
9.366908182653665
 20
-2.460027649853587
 30
0.0
  0
SPLINE
  5
A6
330
1F
100
AcDbEntity
  8
0
  6
Continuous
 62
     4
370
    15
100
AcDbSpline
210
0.0
220
0.0
230
1.0
 70
     8
 71
     3
 72
     8
 73
     4
 74
     0
 42
0.000000001
 43
0.00000001
 40
0.0
 40
0.0
 40
0.0
 40
0.0
 40
1.0
 40
1.0
 40
1.0
 40
1.0
 10
9.3669081826537
 20
-2.460027649853534
 30
0.0
 10
9.238820878532895
 20
-2.198964409383721
 30
0.0
 10
9.112141206361883
 20
-1.924727380286418
 30
0.0
 10
8.984908182653697
 20
-1.638012066458306
 30
0.0
  0
SPLINE
  5
A7
330
1F
100
AcDbEntity
  8
0
  6
Continuous
 62
     4
370
    15
100
AcDbSpline
210
0.0
220
0.0
230
1.0
 70
     8
 71
     3
 72
     8
 73
     4
 74
     0
 42
0.000000001
 43
0.00000001
 40
0.0
 40
0.0
 40
0.0
 40
0.0
 40
1.0
 40
1.0
 40
1.0
 40
1.0
 10
8.984908182733157
 20
-0.135251268392467
 30
0.0
 10
9.112787031112417
 20
-0.4050851690185472
 30
0.0
 10
9.239951858479678
 20
-0.6739269458087701
 30
0.0
 10
9.366908182653702
 20
-0.9389510434293892
 30
0.0
  0
SPLINE
  5
A8
330
1F
100
AcDbEntity
  8
0
  6
Continuous
 62
     4
370
    15
100
AcDbSpline
210
0.0
220
0.0
230
1.0
 70
     8
 71
     3
 72
     8
 73
     4
 74
     0
 42
0.000000001
 43
0.00000001
 40
0.0
 40
0.0
 40
0.0
 40
0.0
 40
1.0
 40
1.0
 40
1.0
 40
1.0
 10
9.366908182653702
 20
-0.9389510434293808
 30
0.0
 10
9.545980134586276
 20
-1.290447510456521
 30
0.0
 10
9.713353650131216
 20
-1.645555410153853
 30
0.0
 10
9.874908182653702
 20
-1.994009423119599
 30
0.0
  0
SPLINE
  5
A9
330
1F
100
AcDbEntity
  8
0
  6
Continuous
 62
     1
370
    15
100
AcDbSpline
210
0.0
220
0.0
230
1.0
 70
     8
 71
     3
 72
    15
 73
    11
 74
     0
 42
0.000000001
 43
0.00000001
 40
0.0
 40
0.0
 40
0.0
 40
0.0
 40
0.0916419180319558
 40
0.1932697094072008
 40
0.2960507828288346
 40
0.4539580278939963
 40
0.616457826509099
 40
0.7739051935083143
 40
0.9360953731288427
 40
1.0
 40
1.0
 40
1.0
 40
1.0
 10
9.8749081826537
 20
-1.994009423119595
 30
0.0
 10
9.947832122764192
 20
-2.140131557251053
 30
0.0
 10
10.10162624904021
 20
-2.448298202035802
 30
0.0
 10
10.3393941540019
 20
-2.879319382274468
 30
0.0
 10
10.6324351229542
 20
-3.358241672518687
 30
0.0
 10
10.97854990698557
 20
-3.830534124547925
 30
0.0
 10
11.37414785388254
 20
-4.227902574376126
 30
0.0
 10
11.77878281243099
 20
-4.463915009608911
 30
0.0
 10
12.10394846883582
 20
-4.55060056647358
 30
0.0
 10
12.29898592504118
 20
-4.50005895119122
 30
0.0
 10
12.35411233885892
 20
-4.485773602862339
 30
0.0
  0
SPLINE
  5
AA
330
1F
100
AcDbEntity
  8
0
  6
Continuous
 62
     1
370
    15
100
AcDbSpline
210
0.0
220
0.0
230
1.0
 70
     8
 71
     3
 72
    24
 73
    20
 74
     0
 42
0.000000001
 43
0.00000001
 40
0.0
 40
0.0
 40
0.0
 40
0.0
 40
0.0595185113708798
 40
0.124197081438649
 40
0.1908193337164251
 40
0.2543143769281738
 40
0.3197135482065599
 40
0.3821172857618217
 40
0.446387720474508
 40
0.5077941357579753
 40
0.5710292483117199
 40
0.6315973553083738
 40
0.6939602855278466
 40
0.7538514995102177
 40
0.8155026144951113
 40
0.8749824730791809
 40
0.936191417659459
 40
0.9955982234990557
 40
1.0
 40
1.0
 40
1.0
 40
1.0
 10
18.53360291360446
 20
3.280111238503564
 30
0.0
 10
18.66400715750672
 20
3.307742600905156
 30
0.0
 10
18.93612126330069
 20
3.365400873724972
 30
0.0
 10
19.36341143804028
 20
3.282859066707547
 30
0.0
 10
19.80674506332678
 20
3.078562819046974
 30
0.0
 10
20.25981179827589
 20
2.746850102124631
 30
0.0
 10
20.71138739739931
 20
2.317606399521619
 30
0.0
 10
21.17323410532966
 20
1.801182165993628
 30
0.0
 10
21.63427811467288
 20
1.235301842477913
 30
0.0
 10
22.10631713619544
 20
0.6341655547990217
 30
0.0
 10
22.57854111771314
 20
0.0402516774407606
 30
0.0
 10
23.06282608314952
 20
-0.531585828975204
 30
0.0
 10
23.54850868551418
 20
-1.04166462994194
 30
0.0
 10
24.04740167202865
 20
-1.4773072142904
 30
0.0
 10
24.54949664052906
 20
-1.808260268835647
 30
0.0
 10
25.06614054134042
 20
-2.030878227731591
 30
0.0
 10
25.58979050575188
 20
-2.116166480033031
 30
0.0
 10
25.95801740973933
 20
-2.121628623161962
 30
0.0
 10
26.15227273423995
 20
-2.068989292142471
 30
0.0
 10
26.1656732595487
 20
-2.065358016194819
 30
0.0
  0
SPLINE
  5
AB
330
1F
100
AcDbEntity
  8
0
  6
Continuous
 62
     1
370
    15
100
AcDbSpline
210
0.0
220
0.0
230
1.0
 70
     8
 71
     3
 72
    26
 73
    22
 74
     0
 42
0.000000001
 43
0.00000001
 40
0.0
 40
0.0
 40
0.0
 40
0.0
 40
0.0394113660609636
 40
0.0909973756289785
 40
0.1440286110352099
 40
0.1965305982262018
 40
0.2505011609689912
 40
0.3039725598040537
 40
0.3589372044666193
 40
0.413446864628961
 40
0.4694774110102519
 40
0.5250741864582433
 40
0.582221080116036
 40
0.6389428646845465
 40
0.6972450007098748
 40
0.7551373750082647
 40
0.8146422916384012
 40
0.8737414986106349
 40
0.9344866623315596
 40
0.9948210482721235
 40
1.0
 40
1.0
 40
1.0
 40
1.0
 10
25.20652669213619
 20
-2.032863177059142
 30
0.0
 10
25.0970690249405
 20
-2.099507816763366
 30
0.0
 10
24.84434090478674
 20
-2.253384424426301
 30
0.0
 10
24.45281015748583
 20
-2.384397173975249
 30
0.0
 10
24.03173326623335
 20
-2.43162352732503
 30
0.0
 10
23.61147940062434
 20
-2.364799613048189
 30
0.0
 10
23.19665886141757
 20
-2.188468994930154
 30
0.0
 10
22.78220371433662
 20
-1.904405190752259
 30
0.0
 10
22.37284241975947
 20
-1.525669950236282
 30
0.0
 10
21.96351544761422
 20
-1.061667826274883
 30
0.0
 10
21.55889434066258
 20
-0.5349615773829846
 30
0.0
 10
21.15413302364088
 20
0.0399945032495501
 30
0.0
 10
20.75373252432139
 20
0.6344212937371816
 30
0.0
 10
20.35304235987505
 20
1.231318660619837
 30
0.0
 10
19.95645996313542
 20
1.800211910375492
 30
0.0
 10
19.55935117991263
 20
2.324425633225028
 30
0.0
 10
19.16617748697614
 20
2.775438007221565
 30
0.0
 10
18.77217819180876
 20
3.143294428486187
 30
0.0
 10
18.38241534309679
 20
3.390782707484137
 30
0.0
 10
18.11165400080087
 20
3.516200551860913
 30
0.0
 10
17.97371228179439
 20
3.519999607819244
 30
0.0
 10
17.9628077312186
 20
3.520299930289751
 30
0.0
  0
SPLINE
  5
AC
330
1F
100
AcDbEntity
  8
0
  6
Continuous
 62
     1
370
    15
100
AcDbSpline
210
0.0
220
0.0
230
1.0
 70
     8
 71
     3
 72
    14
 73
    10
 74
     0
 42
0.000000001
 43
0.00000001
 40
0.0
 40
0.0
 40
0.0
 40
0.0
 40
0.0076875839065313
 40
0.1879737937283306
 40
0.3668420999796849
 40
0.5507047031204733
 40
0.7330785106621837
 40
0.9205466395138829
 40
1.0
 40
1.0
 40
1.0
 40
1.0
 10
11.91705428533862
 20
-4.4683265938856
 30
0.0
 10
11.91162587179003
 20
-4.472805234860873
 30
0.0
 10
11.77889242769884
 20
-4.582315211611062
 30
0.0
 10
11.52388136658351
 20
-4.663885723819872
 30
0.0
 10
11.14889478141661
 20
-4.692696810291892
 30
0.0
 10
10.7771133434083
 20
-4.55170443541112
 30
0.0
 10
10.40370196108461
 20
-4.259522626190873
 30
0.0
 10
10.10371086321615
 20
-3.909367772109447
 30
0.0
 10
9.927392194896965
 20
-3.650531234140044
 30
0.0
 10
9.8749081826537
 20
-3.573484486014666
 30
0.0
  0
SPLINE
  5
AD
330
1F
100
AcDbEntity
  8
0
  6
Continuous
 62
     4
370
    15
100
AcDbSpline
210
0.0
220
0.0
230
1.0
 70
     8
 71
     3
 72
     8
 73
     4
 74
     0
 42
0.000000001
 43
0.00000001
 40
0.0
 40
0.0
 40
0.0
 40
0.0
 40
1.0
 40
1.0
 40
1.0
 40
1.0
 10
9.8749081826537
 20
4.751668576479027
 30
0.0
 10
9.702605690088124
 20
4.812326459170592
 30
0.0
 10
9.53383777026862
 20
4.818013557536617
 30
0.0
 10
9.366908182653663
 20
4.766344791255985
 30
0.0
  0
LINE
  5
AE
330
1F
100
AcDbEntity
  8
0
  6
Continuous
 62
     4
370
    15
100
AcDbLine
 10
9.8749081826537
 20
4.751668576479027
 30
0.0
 11
9.8749081826537
 21
-1.9940094231196
 31
0.0
  0
LINE
  5
AF
330
1F
100
AcDbEntity
  8
0
  6
Continuous
 62
     4
370
    15
100
AcDbLine
 10
9.3669081826537
 20
4.766344791255869
 30
0.0
 11
9.3669081826537
 21
-0.9389510434293941
 31
0.0
  0
SPLINE
  5
B0
330
1F
100
AcDbEntity
  8
0
  6
Continuous
 62
     1
370
    15
100
AcDbSpline
210
0.0
220
0.0
230
1.0
 70
     8
 71
     3
 72
    22
 73
    18
 74
     0
 42
0.000000001
 43
0.00000001
 40
0.0
 40
0.0
 40
0.0
 40
0.0
 40
0.0601047207667105
 40
0.121573496396409
 40
0.1891816182274411
 40
0.258696975404182
 40
0.327256712915407
 40
0.3977463319331196
 40
0.467339344804949
 40
0.5388859396652913
 40
0.6096356138316157
 40
0.6823674001637546
 40
0.7543733280878699
 40
0.828393392066478
 40
0.9017288579510864
 40
0.9771122949160478
 40
1.0
 40
1.0
 40
1.0
 40
1.0
 10
28.3359321698538
 20
-1.681702260906284
 30
0.0
 10
28.19923177853454
 20
-1.688908107024962
 30
0.0
 10
27.92272863003903
 20
-1.703483333329439
 30
0.0
 10
27.50074662772074
 20
-1.616268028610065
 30
0.0
 10
27.06429682051523
 20
-1.43723812474956
 30
0.0
 10
26.62009278482353
 20
-1.156043798269245
 30
0.0
 10
26.17727486942682
 20
-0.7908235881486161
 30
0.0
 10
25.74168021150022
 20
-0.3628984793817825
 30
0.0
 10
25.30731233854568
 20
0.1123892484539165
 30
0.0
 10
24.8795675623118
 20
0.6063981692060715
 30
0.0
 10
24.45265977732577
 20
1.101268147977592
 30
0.0
 10
24.03176868846606
 20
1.567481964508731
 30
0.0
 10
23.61148768107725
 20
1.987139869913737
 30
0.0
 10
23.19658722394182
 20
2.337376256970145
 30
0.0
 10
22.78248156749338
 20
2.594459687696382
 30
0.0
 10
22.46710342101597
 20
2.736780656459849
 30
0.0
 10
22.2901551026876
 20
2.75377950761284
 30
0.0
 10
22.24894319814919
 20
2.757738601644352
 30
0.0
  0
SPLINE
  5
B1
330
1F
100
AcDbEntity
  8
0
  6
Continuous
 62
     1
370
    15
100
AcDbSpline
210
0.0
220
0.0
230
1.0
 70
     8
 71
     3
 72
    25
 73
    21
 74
     0
 42
0.000000001
 43
0.00000001
 40
0.0
 40
0.0
 40
0.0
 40
0.0
 40
0.0351780886474649
 40
0.088985676036531
 40
0.1442923829907212
 40
0.1992160362368685
 40
0.2556703173825949
 40
0.311723958064518
 40
0.3693401255696477
 40
0.4265393487573456
 40
0.485333652159017
 40
0.5436915250009583
 40
0.6036774672250116
 40
0.6632057797642137
 40
0.7243955345948928
 40
0.7851040481152419
 40
0.8475076430426393
 40
0.9094059356632731
 40
0.9730332583206195
 40
1.0
 40
1.0
 40
1.0
 40
1.0
 10
16.31279472328725
 20
-3.676423617604331
 30
0.0
 10
16.22880734616067
 20
-3.729234092545129
 30
0.0
 10
16.01635482757615
 20
-3.862822243439617
 30
0.0
 10
15.67763838112498
 20
-3.930792141197332
 30
0.0
 10
15.29669330553359
 20
-3.89095777249309
 30
0.0
 10
14.91476075189942
 20
-3.707610831120571
 30
0.0
 10
14.53579560338198
 20
-3.39246622268202
 30
0.0
 10
14.15558420568049
 20
-2.94804694046444
 30
0.0
 10
13.77831626801122
 20
-2.392027257705013
 30
0.0
 10
13.39968823448123
 20
-1.734642253278939
 30
0.0
 10
13.0239644703481
 20
-1.003258545214192
 30
0.0
 10
12.64678511119369
 20
-0.2129488936495714
 30
0.0
 10
12.27246163460423
 20
0.6021788830905885
 30
0.0
 10
11.89662249402566
 20
1.424311242532956
 30
0.0
 10
11.52357247324632
 20
2.216948081563209
 30
0.0
 10
11.14897986842292
 20
2.961753102542601
 30
0.0
 10
10.7770904705789
 20
3.625147238459866
 30
0.0
 10
10.40370839982823
 20
4.1887486669925
 30
0.0
 10
10.1037102657055
 20
4.548504908236186
 30
0.0
 10
9.927392057836697
 20
4.705065781331554
 30
0.0
 10
9.8749081826537
 20
4.751668576479021
 30
0.0
  0
ELLIPSE
  5
B2
330
1F
100
AcDbEntity
  8
0
  6
Continuous
 62
     1
370
    15
100
AcDbEllipse
 10
25.20334816530472
 20
0.5357743725970311
 30
0.0
 11
3.185399088240118
 21
-2.176583666409192
 31
0.0
210
0.0
220
0.0
230
1.0
 40
0.1598839377525346
 41
6.121038381987838
 42
6.179959302920538
  0
ELLIPSE
  5
B3
330
1F
100
AcDbEntity
  8
0
  6
Continuous
 62
     1
370
    15
100
AcDbEllipse
 10
28.3153274939961
 20
-0.2085813448584602
 30
0.0
 11
2.349617686644433
 21
1.1643181375783
 31
0.0
210
0.0
220
0.0
230
1.0
 40
0.500094829270172
 41
4.457652562168754
 42
4.724029715198065
  0
LINE
  5
B4
330
1F
100
AcDbEntity
  8
0
  6
Continuous
 62
     4
370
    15
100
AcDbLine
 10
9.3669081826537
 20
4.766344791255869
 30
0.0
 11
9.32637850956225
 21
4.759045054354022
 31
0.0
  0
LINE
  5
B5
330
1F
100
AcDbEntity
  8
0
  6
Continuous
 62
     4
370
    15
100
AcDbLine
 10
8.984908182653697
 20
-1.638012066439979
 30
0.0
 11
8.984908182653697
 21
-0.135251268224802
 31
0.0
  0
LINE
  5
B6
330
1F
100
AcDbEntity
  8
0
  6
Continuous
 62
     4
370
    15
100
AcDbLine
 10
9.3669081826537
 20
-2.460027649853534
 30
0.0
 11
9.366908182653702
 21
-4.757664848185881
 31
0.0
  0
LINE
  5
B7
330
1F
100
AcDbEntity
  8
0
  6
Continuous
 62
     4
370
    15
100
AcDbLine
 10
-59.16509181734633
 20
4.767335151814064
 30
0.0
 11
-59.16509181734633
 21
-4.75766484818589
 31
0.0
  0
LINE
  5
B8
330
1F
100
AcDbEntity
  8
0
  6
Continuous
 62
     4
370
    15
100
AcDbLine
 10
-59.97509181734631
 20
-3.947664848185917
 30
0.0
 11
-59.97509181734631
 21
3.95733515181409
 31
0.0
  0
SPLINE
  5
B9
330
1F
100
AcDbEntity
  8
0
  6
Continuous
 62
     1
370
    15
100
AcDbSpline
210
0.0
220
0.0
230
1.0
 70
     8
 71
     3
 72
    26
 73
    22
 74
     0
 42
0.000000001
 43
0.00000001
 40
0.0
 40
0.0
 40
0.0
 40
0.0
 40
0.034942707513377
 40
0.0736929897588598
 40
0.1128830139706046
 40
0.1730924333831387
 40
0.2350529756320493
 40
0.2950870453236774
 40
0.3569295310521622
 40
0.4157935152057081
 40
0.4764315826639769
 40
0.5341354934675474
 40
0.5935793819435395
 40
0.6501337589536571
 40
0.708393681463839
 40
0.7638134993989848
 40
0.820904173544409
 40
0.8752211018658758
 40
0.9311758652486336
 40
0.9844102680308922
 40
1.0
 40
1.0
 40
1.0
 40
1.0
 10
9.874908182653698
 20
4.922749114013739
 30
0.0
 10
9.94783216054039
 20
4.923011685304012
 30
0.0
 10
10.10162636648514
 20
4.923565439285374
 30
0.0
 10
10.3393936213699
 20
4.850323198222383
 30
0.0
 10
10.63243759593046
 20
4.690195498812186
 30
0.0
 10
10.97853484067649
 20
4.391149900474536
 30
0.0
 10
11.37420432634759
 20
3.911196449310354
 30
0.0
 10
11.7785771478696
 20
3.299092177917675
 30
0.0
 10
12.1814298912944
 20
2.591918173729491
 30
0.0
 10
12.59096578590157
 20
1.803374674326568
 30
0.0
 10
12.99672886480296
 20
0.9829244112223308
 30
0.0
 10
13.40926444480929
 20
0.1409814045663115
 30
0.0
 10
13.81812792029586
 20
-0.6706275624981427
 30
0.0
 10
14.23401717881615
 20
-1.442623388310179
 30
0.0
 10
14.64624225049299
 20
-2.128452988927629
 30
0.0
 10
15.06573770067653
 20
-2.721571367019027
 30
0.0
 10
15.48181623469806
 20
-3.186434503676835
 30
0.0
 10
15.90523291739926
 20
-3.523794064665185
 30
0.0
 10
16.32595803985789
 20
-3.70123795249357
 30
0.0
 10
16.65045958941235
 20
-3.755980355846776
 30
0.0
 10
16.83328676189246
 20
-3.704082337900783
 30
0.0
 10
16.8746999467575
 20
-3.692326633416754
 30
0.0
  0
SPLINE
  5
BA
330
1F
100
AcDbEntity
  8
0
  6
Continuous
 62
     1
370
    15
100
AcDbSpline
210
0.0
220
0.0
230
1.0
 70
     8
 71
     3
 72
    19
 73
    15
 74
     0
 42
0.000000001
 43
0.00000001
 40
0.0
 40
0.0
 40
0.0
 40
0.0
 40
0.0164086524671184
 40
0.1098723428014185
 40
0.1996316574727126
 40
0.2920285461281018
 40
0.3811713600443982
 40
0.4729055653135744
 40
0.5619388946520373
 40
0.6535195021366313
 40
0.7431759500882874
 40
0.8353351992954041
 40
0.9167989117597941
 40
1.0
 40
1.0
 40
1.0
 40
1.0
 10
22.97434075915483
 20
2.462184774503725
 30
0.0
 10
23.0027894123499
 20
2.472280625960002
 30
0.0
 10
23.19328160434139
 20
2.53988245093004
 30
0.0
 10
23.5490400840808
 20
2.540808085517386
 30
0.0
 10
24.04727329817327
 20
2.456559997421302
 30
0.0
 10
24.54946753572784
 20
2.244557320609383
 30
0.0
 10
25.06637363877457
 20
1.929183198373999
 30
0.0
 10
25.58886577232032
 20
1.533200735561453
 30
0.0
 10
26.12842028386295
 20
1.075564491592621
 30
0.0
 10
26.67696231681091
 20
0.5928905258807354
 30
0.0
 10
27.24546302046958
 20
0.1083198641762452
 30
0.0
 10
27.80730586549364
 20
-0.3212645055335402
 30
0.0
 10
28.36765134423956
 20
-0.6863266732844499
 30
0.0
 10
28.73785390268508
 20
-0.8564506301659252
 30
0.0
 10
28.9249081826537
 20
-0.9424100962309364
 30
0.0
  0
SPLINE
  5
BB
330
1F
100
AcDbEntity
  8
0
  6
Continuous
 62
     1
370
    15
100
AcDbSpline
210
0.0
220
0.0
230
1.0
 70
     8
 71
     3
 72
    12
 73
     8
 74
     0
 42
0.000000001
 43
0.00000001
 40
0.0
 40
0.0
 40
0.0
 40
0.0
 40
0.2105080794087941
 40
0.425793563416736
 40
0.6625812183197738
 40
0.906048688792713
 40
1.0
 40
1.0
 40
1.0
 40
1.0
 10
28.3359321698619
 20
0.9585496642064919
 30
0.0
 10
28.19923702923519
 20
1.069622048558343
 30
0.0
 10
27.92274450128727
 20
1.294287564785517
 30
0.0
 10
27.50067874008885
 20
1.593158549109947
 30
0.0
 10
27.06458313340265
 20
1.836166052750574
 30
0.0
 10
26.70941213618443
 20
1.984524497339294
 30
0.0
 10
26.50526744955302
 20
2.010000588721522
 30
0.0
 10
26.44842514548947
 20
2.017094183742754
 30
0.0
  0
SPLINE
  5
BC
330
1F
100
AcDbEntity
  8
0
  6
Continuous
 62
     1
370
    15
100
AcDbSpline
210
0.0
220
0.0
230
1.0
 70
     8
 71
     3
 72
    27
 73
    23
 74
     0
 42
0.000000001
 43
0.00000001
 40
0.0
 40
0.0
 40
0.0
 40
0.0
 40
0.0009823236560714
 40
0.0501821240770125
 40
0.1007527025308001
 40
0.1509678585425955
 40
0.2025817145687814
 40
0.2538436628693995
 40
0.3065332944517255
 40
0.3588666222794208
 40
0.4126573485996732
 40
0.4660847802915843
 40
0.5210000545081949
 40
0.5755461327808827
 40
0.631611516715041
 40
0.6872960668393355
 40
0.7445320301121671
 40
0.8013715776666803
 40
0.8597951458051211
 40
0.9178040979930794
 40
0.977430082414397
 40
0.9999999999999999
 40
0.9999999999999999
 40
0.9999999999999999
 40
0.9999999999999999
 10
20.76177229515667
 20
-2.869327349575759
 30
0.0
 10
20.75909605118391
 20
-2.871336899318685
 30
0.0
 10
20.62237980061663
 20
-2.973994993639403
 30
0.0
 10
20.35350960924178
 20
-3.083723176812598
 30
0.0
 10
19.95633282580584
 20
-3.177230987163779
 30
0.0
 10
19.5593921384953
 20
-3.136995858501706
 30
0.0
 10
19.16614362282978
 20
-2.977769455202246
 30
0.0
 10
18.7722727676355
 20
-2.696405089514194
 30
0.0
 10
18.38206153369582
 20
-2.304669817573367
 30
0.0
 10
17.99109229645974
 20
-1.809916634659397
 30
0.0
 10
17.60360625477112
 20
-1.233445422286981
 30
0.0
 10
17.21524236505439
 20
-0.5882255046933428
 30
0.0
 10
16.8302381151989
 20
0.0968291122276042
 30
0.0
 10
16.44420231374077
 20
0.8052225846077958
 30
0.0
 10
16.06142554550487
 20
1.504351841181246
 30
0.0
 10
15.67750819281459
 20
2.176470955070017
 30
0.0
 10
15.29672522279507
 20
2.789951485733118
 30
0.0
 10
14.91476339669646
 20
3.327625559798489
 30
0.0
 10
14.53575083313787
 20
3.7658966683803
 30
0.0
 10
14.15576081068368
 20
4.080729722374413
 30
0.0
 10
13.85595256452645
 20
4.252442747310371
 30
0.0
 10
13.68296943700485
 20
4.26760433155617
 30
0.0
 10
13.6354705369802
 20
4.271767503910749
 30
0.0
  0
ELLIPSE
  5
BD
330
1F
100
AcDbEntity
  8
0
  6
Continuous
 62
     1
370
    15
100
AcDbEllipse
 10
25.20334816530472
 20
-0.4279904666041115
 30
0.0
 11
3.139723937301359
 21
1.963026107692882
 31
0.0
210
0.0
220
0.0
230
1.0
 40
0.3261885834061556
 41
5.658451133319248
 42
5.86996057180833
  0
LINE
  5
BE
330
1F
100
AcDbEntity
  8
0
  6
Continuous
 62
     1
370
    15
100
AcDbLine
 10
28.12454623663844
 20
0.5652546197101773
 30
0.0
 11
28.9249081826537
 21
0.0048351518140965
 31
0.0
  0
LINE
  5
BF
330
1F
100
AcDbEntity
  8
0
  6
Continuous
 62
     1
370
    15
100
AcDbLine
 10
28.9249081826537
 20
0.0048351518140965
 30
0.0
 11
28.9249081826537
 21
-0.9424100962309347
 31
0.0
  0
LINE
  5
C0
330
1F
100
AcDbEntity
  8
0
  6
Continuous
 62
     4
370
    15
100
AcDbLine
 10
9.683585060025322
 20
4.792198630156336
 30
0.0
 11
9.8749081826537
 21
4.922749114013738
 31
0.0
  0
SPLINE
  5
C1
330
1F
100
AcDbEntity
  8
0
  6
Continuous
 62
     1
370
    15
100
AcDbSpline
210
0.0
220
0.0
230
1.0
 70
     8
 71
     3
 72
    11
 73
     7
 74
     0
 42
0.000000001
 43
0.00000001
 40
0.0
 40
0.0
 40
0.0
 40
0.0
 40
0.1464281691328552
 40
0.5273734685960754
 40
0.8377160702067634
 40
1.0
 40
1.0
 40
1.0
 40
1.0
 10
27.91747247949414
 20
-1.238159108348011
 30
0.0
 10
27.94248218786278
 20
-1.208458767389273
 30
0.0
 10
28.03255677343638
 20
-1.101490470765386
 30
0.0
 10
28.20330026803217
 20
-0.9435391931248546
 30
0.0
 10
28.3977150747693
 20
-0.806095142479742
 30
0.0
 10
28.50169970110516
 20
-0.7659138126043468
 30
0.0
 10
28.53740449691874
 20
-0.7521169059915763
 30
0.0
  0
SPLINE
  5
C2
330
1F
100
AcDbEntity
  8
0
  6
Continuous
 62
     1
370
    15
100
AcDbSpline
210
0.0
220
0.0
230
1.0
 70
     8
 71
     3
 72
     8
 73
     4
 74
     0
 42
0.000000001
 43
0.00000001
 40
0.0
 40
0.0
 40
0.0
 40
0.0
 40
1.0
 40
1.0
 40
1.0
 40
1.0
 10
27.91747247949416
 20
-1.238159108348013
 30
0.0
 10
28.05639553896175
 20
-1.385882591143647
 30
0.0
 10
28.19428244869156
 20
-1.533377635842976
 30
0.0
 10
28.33593216985821
 20
-1.681702260910906
 30
0.0
  0
LINE
  5
C3
330
1F
100
AcDbEntity
  8
0
  6
Continuous
 62
     4
370
    15
100
AcDbLine
 10
9.874908182653702
 20
-3.57348448601467
 30
0.0
 11
9.874908182653702
 21
-4.941693830682168
 31
0.0
  0
SPLINE
  5
C4
330
1F
100
AcDbEntity
  8
0
  6
Continuous
 62
     1
370
    15
100
AcDbSpline
210
0.0
220
0.0
230
1.0
 70
     8
 71
     3
 72
    25
 73
    21
 74
     0
 42
0.000000001
 43
0.00000001
 40
0.0
 40
0.0
 40
0.0
 40
0.0
 40
0.0171968133948175
 40
0.0823073919476946
 40
0.1442439042803675
 40
0.2080477451270955
 40
0.2687516814841645
 40
0.3312860423220798
 40
0.3907801613447059
 40
0.4520676834037467
 40
0.510380278161629
 40
0.5704489548383515
 40
0.6276347294110831
 40
0.6865417544221312
 40
0.7426371324963965
 40
0.8004182557612607
 40
0.8554871673199559
 40
0.9122075189721462
 40
0.9663299469686496
 40
1.0
 40
1.0
 40
1.0
 40
1.0
 10
14.12072811192053
 20
4.081295268851251
 30
0.0
 10
14.15740968057742
 20
4.095378495976525
 30
0.0
 10
14.33297501232709
 20
4.162783640655114
 30
0.0
 10
14.64650874248244
 20
4.127727504946807
 30
0.0
 10
15.06567146542561
 20
3.971188670959033
 30
0.0
 10
15.48180984002383
 20
3.663391111936217
 30
0.0
 10
15.90531744498026
 20
3.226197445960172
 30
0.0
 10
16.3256202661109
 20
2.68647842072536
 30
0.0
 10
16.75374297192927
 20
2.055428946861581
 30
0.0
 10
17.17874643599522
 20
1.375053050800364
 30
0.0
 10
17.61191145647556
 20
0.6569578556977308
 30
0.0
 10
18.04230955220793
 20
-0.0519308775491527
 30
0.0
 10
18.48125264987856
 20
-0.7404887422986357
 30
0.0
 10
18.9177490885685
 20
-1.364519611388249
 30
0.0
 10
19.36328687972619
 20
-1.914968606926978
 30
0.0
 10
19.80679456702347
 20
-2.357129928235744
 30
0.0
 10
20.25973625371318
 20
-2.6876077119583
 30
0.0
 10
20.71164408134763
 20
-2.87997684037253
 30
0.0
 10
21.11128448563741
 20
-2.950637862997396
 30
0.0
 10
21.36022435383125
 20
-2.902252864804293
 30
0.0
 10
21.45569743382138
 20
-2.883696316042826
 30
0.0
  0
SPLINE
  5
C5
330
1F
100
AcDbEntity
  8
0
  6
Continuous
 62
     1
370
    15
100
AcDbSpline
210
0.0
220
0.0
230
1.0
 70
     8
 71
     3
 72
    10
 73
     6
 74
     0
 42
0.000000001
 43
0.00000001
 40
0.0
 40
0.0
 40
0.0
 40
0.0
 40
0.2698077554371183
 40
0.631051754156134
 40
1.0
 40
1.0
 40
1.0
 40
1.0
 10
27.44308273911118
 20
1.613632202857838
 30
0.0
 10
27.57232873943216
 20
1.642291351807978
 30
0.0
 10
27.87462144072266
 20
1.70932206479956
 30
0.0
 10
28.36794022929098
 20
1.696227794958987
 30
0.0
 10
28.73795087266653
 20
1.620149123463919
 30
0.0
 10
28.9249081826537
 20
1.581708435270853
 30
0.0
  0
LINE
  5
C6
102
{ACAD_REACTORS
102
}
330
1F
100
AcDbEntity
  8
0
  6
Continuous
 62
     1
370
    15
100
AcDbLine
 10
28.9249081826537
 20
1.592335151814097
 30
0.0
 11
28.9249081826537
 21
1.581708435270851
 31
0.0
  0
SPLINE
  5
C7
330
1F
100
AcDbEntity
  8
0
  6
Continuous
 62
     1
370
    15
100
AcDbSpline
210
0.0
220
0.0
230
1.0
 70
     8
 71
     3
 72
    13
 73
     9
 74
     0
 42
0.000000001
 43
0.00000001
 40
0.0
 40
0.0
 40
0.0
 40
0.0
 40
0.1521703461219896
 40
0.3245131235979821
 40
0.497645819524045
 40
0.6526858329441295
 40
0.8501570107738509
 40
1.0
 40
1.0
 40
1.0
 40
1.0
 10
28.2787278467951
 20
0.852117904813325
 30
0.0
 10
28.32893217505997
 20
0.8433129377987508
 30
0.0
 10
28.43599615827724
 20
0.824535775086733
 30
0.0
 10
28.60378831588921
 20
0.8799518894823433
 30
0.0
 10
28.7509032817258
 20
0.9974116537168133
 30
0.0
 10
28.8607228820762
 20
1.177739374759206
 30
0.0
 10
28.91669921611852
 20
1.379204043135977
 30
0.0
 10
28.92243400307377
 20
1.520673683853734
 30
0.0
 10
28.9249081826537
 20
1.581708435270851
 30
0.0
  0
LINE
  5
C8
330
1F
100
AcDbEntity
  8
0
  6
Continuous
 62
     1
370
    15
100
AcDbLine
 10
28.9249081826537
 20
0.004835151814099
 30
0.0
 11
28.9249081826537
 21
1.581708435270851
 31
0.0
  0
LINE
  5
C9
330
1F
100
AcDbEntity
  8
0
  6
Continuous
 62
     1
370
    15
100
AcDbLine
 10
28.9249081826537
 20
-0.9424100962309364
 30
0.0
 11
28.9249081826537
 21
-1.369980176693694
 31
0.0
  0
LINE
  5
CA
330
1F
100
AcDbEntity
  8
중심선
100
AcDbLine
 10
-62.9750918173463
 20
-0.0000000000000035
 30
0.0
 11
31.92490428620234
 21
-0.0000000000000035
 31
0.0
  0
CIRCLE
  5
CB
330
1F
100
AcDbEntity
  8
외형선
100
AcDbCircle
 10
-0.0000000000000013
 20
-0.0000000000000039
 30
0.0
 40
3.000000000000004
  0
INSERT
  5
CC
330
1F
100
AcDbEntity
  8
0
  6
Continuous
 62
     7
100
AcDbBlockReference
 66
     1
  2
블럭10
 10
-16.63945112874702
 20
-52.04717430164393
 30
0.0
  0
ATTRIB
  5
CD
330
CC
100
AcDbEntity
  8
FORMAT
 62
     2
100
AcDbText
 10
-25.8207464174883
 20
-49.97180738881174
 30
0.0
 40
4.233333333333333
  1
E5077008 [ 3 FLUTE ]
 41
0.75
  7
SLDTEXTSTYLE0
 11
-25.8207464174883
 21
-52.08847405547841
 31
0.0
100
AcDbAttribute
  2
AUTOATTR0
 70
     0
 74
     1
  0
SEQEND
  5
CE
330
CC
100
AcDbEntity
  8
0
  6
Continuous
 62
     7
  0
HATCH
  5
CF
330
1F
100
AcDbEntity
  8
중심선
100
AcDbHatch
 10
0.0
 20
0.0
 30
0.0
210
0.0
220
0.0
230
1.0
  2
SOLID
 70
     1
 71
     0
 91
        1
 92
        0
 93
        4
 72
     1
 10
-10.92454182436617
 20
-35.8
 11
-14.37081706820345
 21
-35.8
 72
     1
 10
-14.37081706820345
 20
-35.8
 11
-16.49904692740747
 21
-38.33632558057259
 72
     1
 10
-16.49904692740747
 20
-38.33632558057259
 11
-13.05273859845704
 21
-38.3362861512701
 72
     1
 10
-13.05273859845704
 20
-38.3362861512701
 11
-10.92454182436617
 21
-35.8
 97
        0
 75
     0
 76
     1
 98
        1
 10
0.0
 20
0.0
  0
HATCH
  5
D0
330
1F
100
AcDbEntity
  8
중심선
100
AcDbHatch
 10
0.0
 20
0.0
 30
0.0
210
0.0
220
0.0
230
1.0
  2
SOLID
 70
     1
 71
     0
 91
        1
 92
        0
 93
        4
 72
     1
 10
-5.911777833330217
 20
-35.8
 11
-9.358053077167499
 21
-35.8
 72
     1
 10
-9.358053077167499
 20
-35.8
 11
-13.88919108552489
 21
-41.20000000000002
 72
     1
 10
-13.88919108552489
 20
-41.20000000000002
 11
-10.44291584168761
 21
-41.20000000000002
 72
     1
 10
-10.44291584168761
 20
-41.20000000000002
 11
-5.911777833330217
 21
-35.8
 97
        0
 75
     0
 76
     1
 98
        1
 10
0.0
 20
0.0
  0
HATCH
  5
D1
330
1F
100
AcDbEntity
  8
중심선
100
AcDbHatch
 10
0.0
 20
0.0
 30
0.0
210
0.0
220
0.0
230
1.0
  2
SOLID
 70
     1
 71
     0
 91
        1
 92
        0
 93
        4
 72
     1
 10
-0.8990138422943217
 20
-35.80000000000003
 11
-4.345289086131437
 21
-35.8
 72
     1
 10
-4.345289086131437
 20
-35.8
 11
-11.39372598802069
 21
-44.20000000000002
 72
     1
 10
-11.39372598802069
 20
-44.20000000000002
 11
-7.947450744183405
 21
-44.20000000000002
 72
     1
 10
-7.947450744183405
 20
-44.20000000000002
 11
-0.8990138422943215
 21
-35.80000000000003
 97
        0
 75
     0
 76
     1
 98
        1
 10
0.0
 20
0.0
  0
HATCH
  5
D2
330
1F
100
AcDbEntity
  8
중심선
100
AcDbHatch
 10
0.0
 20
0.0
 30
0.0
210
0.0
220
0.0
230
1.0
  2
SOLID
 70
     1
 71
     0
 91
        1
 92
        0
 93
        6
 72
     3
 10
3.900876588717877
 20
-40.00000000005127
 11
3.960054785062284
 21
1.540850780301639E-10
 40
0.3939339440162633
 50
17.09539180608433
 51
320.0019657685079
 73
     0
 72
     1
 10
5.583876244418473
 20
-38.5878940046383
 11
7.889178118119511
 21
-36.65356729459038
 72
     3
 10
3.900876588665031
 20
-40.00000000000015
 11
6.600054785286829
 21
-1.249000902703301E-13
 40
0.6363583540795982
 50
39.99873849337408
 51
368.4976242363725
 73
     1
 72
     1
 10
10.32620908056564
 20
-39.03999999993002
 11
2.580943895500953
 21
-39.03999999992999
 72
     1
 10
2.580943895500953
 20
-39.03999999992999
 11
2.58091885105502
 21
-40.95999999992991
 72
     1
 10
2.58091885105502
 20
-40.95999999992991
 11
7.022298620527057
 21
-40.95999999992988
 97
        0
 75
     0
 76
     1
 98
        1
 10
0.0
 20
0.0
  0
POINT
  5
D3
330
1F
100
AcDbEntity
  8
치수문자_일반주서
100
AcDbPoint
 10
-0.0000000000000013
 20
-0.0000000000000039
 30
0.0
  0
DIMENSION
  5
D4
330
1F
100
AcDbEntity
  8
치수문자_일반주서
100
AcDbDimension
  2
_D
 10
9.874908182653696
 20
25.62336331639944
 30
0.0
 11
21.78819748858576
 21
25.62336331639944
 31
0.0
 70
   160
  1
<>
 71
     2
 42
19.05
  3
SLDDIMSTYLE1
100
AcDbAlignedDimension
 13
28.9249081826537
 23
1.581708435270851
 33
0.0
 14
9.8749081826537
 24
4.922749114013738
 34
0.0
100
AcDbRotatedDimension
1001
ACAD
1000
DSTYLE
1002
{
1070
   171
1070
     6
1070
   273
1070
     7
1002
}
  0
DIMENSION
  5
EA
330
1F
100
AcDbEntity
  8
치수문자_일반주서
100
AcDbDimension
  2
_D_1
 10
-59.97509181734631
 20
37.96976274106507
 30
0.0
 11
-15.5250918173463
 21
37.96976274106507
 31
0.0
 70
   160
  1
<>
 71
     2
 42
88.9
  3
SLDDIMSTYLE1
100
AcDbAlignedDimension
 13
28.9249081826537
 23
1.581708435270851
 33
0.0
 14
-59.97509181734631
 24
3.957335151814091
 34
0.0
 50
0.0000000000000046
100
AcDbRotatedDimension
1001
ACAD
1000
DSTYLE
1002
{
1070
   171
1070
     6
1070
   273
1070
     7
1002
}
  0
INSERT
  5
115
330
1F
100
AcDbEntity
  8
외형선
100
AcDbBlockReference
  2
SW_DOWELSYMBOL_0
 10
-0.0000000000000013
 20
-0.0000000000000039
 30
0.0
  0
DIMENSION
  5
13B
102
{ACAD_REACTORS
102
}
102
{ACAD_XDICTIONARY
360
13C
102
}
330
1F
100
AcDbEntity
  8
치수문자_일반주서
100
AcDbDimension
  2
*D7
 10
-68.89852083461344
 20
4.767335151814065
 30
0.0
 11
-71.52352083461344
 21
21.19433515181407
 31
0.0
 70
    32
  1
{%%c<>[]}
 71
     5
 42
9.524999999999952
  3
SLDDIMSTYLE1
100
AcDbAlignedDimension
 13
-59.16509181734633
 23
-4.75766484818589
 33
0.0
 14
-59.16509181734633
 24
4.767335151814064
 34
0.0
 50
90.0
100
AcDbRotatedDimension
1001
ACAD
1000
DSTYLE
1002
{
1070
   171
1070
     6
1070
   273
1070
     7
1070
   283
1070
     1
1070
   170
1070
     1
1002
}
  0
DIMENSION
  5
150
102
{ACAD_REACTORS
102
}
102
{ACAD_XDICTIONARY
360
151
102
}
330
1F
100
AcDbEntity
  8
치수문자_일반주서
100
AcDbDimension
  2
*D8
 10
47.03234853213444
 20
-1.587500000000002
 30
0.0
 11
47.03234853213444
 21
19.12852179354247
 31
0.0
 70
   160
 71
     5
 42
3.174521793542477
  3
SLDDIMSTYLE1
100
AcDbAlignedDimension
 13
28.9249081826537
 23
1.587021793542474
 33
0.0
 14
28.92490818265368
 24
-1.587500000000003
 34
0.0
 50
90.0
100
AcDbRotatedDimension
1001
ACAD
1000
DSTYLE
1002
{
1070
   171
1070
     6
1070
   273
1070
     7
1002
}
  0
DIMENSION
  5
179
102
{ACAD_REACTORS
102
}
102
{ACAD_XDICTIONARY
360
17A
102
}
330
1F
100
AcDbEntity
  8
치수문자_일반주서
100
AcDbDimension
  2
*D10
 10
-59.16509181734634
 20
4.767335151814064
 30
0.0
 11
-20.83449919323185
 21
20.82741960746061
 31
0.0
 70
    34
  1
<>
 71
     5
 42
0.1745329251994335
  3
SLDDIMSTYLE1
100
AcDb2LineAngularDimension
 13
13.63829357546636
 23
4.287777750753362
 33
0.0
 14
10.10578934552447
 24
4.910653555958898
 34
0.0
 15
9.32637850956225
 25
4.767335151814073
 35
0.0
 16
-21.83278984052329
 26
6.674885710137845
 36
0.0
1001
ACAD
1000
DSTYLE
1002
{
1070
   171
1070
     6
1070
   273
1070
     7
1002
}
  0
ENDSEC
  0
SECTION
  2
OBJECTS
  0
DICTIONARY
  5
C
330
0
100
AcDbDictionary
281
     1
  3
ACAD_GROUP
350
D
  3
ACAD_IMAGE_VARS
350
139
  3
ACAD_LAYOUT
350
1A
  3
ACAD_MLINESTYLE
350
17
  3
ACAD_PLOTSETTINGS
350
19
  3
ACAD_PLOTSTYLENAME
350
E
  3
ACAD_SCALELIST
350
47
  3
APPDATA
350
137
  3
DWGPROPS
350
18C
  0
DICTIONARY
  5
13C
330
13B
100
AcDbDictionary
280
     1
281
     1
  0
DICTIONARY
  5
151
330
150
100
AcDbDictionary
280
     1
281
     1
  0
DICTIONARY
  5
17A
330
179
100
AcDbDictionary
280
     1
281
     1
  0
DICTIONARY
  5
D
102
{ACAD_REACTORS
330
C
102
}
330
C
100
AcDbDictionary
281
     1
  0
RASTERVARIABLES
  5
139
102
{ACAD_REACTORS
330
C
102
}
330
C
100
AcDbRasterVariables
 90
        0
 70
     1
 71
     1
 72
     1
  0
DICTIONARY
  5
1A
102
{ACAD_REACTORS
330
C
102
}
330
C
100
AcDbDictionary
281
     1
  3
Layout1
350
1E
  3
Layout2
350
26
  3
Model
350
22
  0
DICTIONARY
  5
17
102
{ACAD_REACTORS
330
C
102
}
330
C
100
AcDbDictionary
281
     1
  3
Standard
350
18
  0
DICTIONARY
  5
19
102
{ACAD_REACTORS
330
C
102
}
330
C
100
AcDbDictionary
281
     1
  0
ACDBDICTIONARYWDFLT
  5
E
102
{ACAD_REACTORS
330
C
102
}
330
C
100
AcDbDictionary
281
     1
  3
Normal
350
F
100
AcDbDictionaryWithDefault
340
F
  0
DICTIONARY
  5
47
102
{ACAD_REACTORS
330
C
102
}
330
C
100
AcDbDictionary
281
     1
  3
A0
350
48
  3
A1
350
49
  3
A2
350
4A
  3
A3
350
4B
  3
A4
350
4C
  3
A5
350
4D
  3
A6
350
4E
  3
A7
350
4F
  3
A8
350
50
  3
A9
350
51
  3
B0
350
52
  3
B1
350
53
  3
B2
350
54
  3
B3
350
55
  3
B4
350
56
  3
B5
350
57
  3
B6
350
58
  3
B7
350
59
  3
B8
350
5A
  3
B9
350
5B
  3
C0
350
5C
  3
C1
350
5D
  3
C2
350
5E
  3
C3
350
5F
  3
C4
350
60
  3
C5
350
61
  3
C6
350
62
  3
C7
350
63
  3
C8
350
64
  3
C9
350
65
  3
D0
350
66
  3
D1
350
67
  3
D2
350
68
  0
DICTIONARY
  5
137
102
{ACAD_REACTORS
330
C
102
}
330
C
100
AcDbDictionary
281
     1
  0
XRECORD
  5
18C
102
{ACAD_REACTORS
330
C
102
}
330
C
100
AcDbXrecord
280
     1
  1
DWGPROPS COOKIE
  2

  3

  4

  6

  7

  8
12015048
  9

300
=
301
=
302
=
303
=
304
=
305
=
306
=
307
=
308
=
309
=
 40
0.0
 41
2458333.356253866
 42
2458339.244032755
  1

 90
        0
  0
LAYOUT
  5
1E
102
{ACAD_REACTORS
330
1A
102
}
330
1A
100
AcDbPlotSettings
  1

  2
none_device
  4

  6

 40
0.0
 41
0.0
 42
0.0
 43
0.0
 44
0.0
 45
0.0
 46
0.0
 47
0.0
 48
0.0
 49
0.0
140
0.0
141
0.0
142
1.0
143
1.0
 70
   688
 72
     1
 73
     0
 74
     5
  7

 75
    16
147
1.0
148
0.0
149
0.0
100
AcDbLayout
  1
Layout1
 70
     1
 71
     1
 10
0.0
 20
0.0
 11
420.0
 21
297.0
 12
0.0
 22
0.0
 32
0.0
 14
1.000000000000000E+20
 24
1.000000000000000E+20
 34
1.000000000000000E+20
 15
-1.000000000000000E+20
 25
-1.000000000000000E+20
 35
-1.000000000000000E+20
146
0.0
 13
0.0
 23
0.0
 33
0.0
 16
1.0
 26
0.0
 36
0.0
 17
0.0
 27
1.0
 37
0.0
 76
     0
330
1B
  0
LAYOUT
  5
26
102
{ACAD_REACTORS
330
1A
102
}
330
1A
100
AcDbPlotSettings
  1

  2
none_device
  4

  6

 40
0.0
 41
0.0
 42
0.0
 43
0.0
 44
0.0
 45
0.0
 46
0.0
 47
0.0
 48
0.0
 49
0.0
140
0.0
141
0.0
142
1.0
143
1.0
 70
   688
 72
     1
 73
     0
 74
     5
  7

 75
    16
147
1.0
148
0.0
149
0.0
100
AcDbLayout
  1
Layout2
 70
     1
 71
     2
 10
0.0
 20
0.0
 11
0.0
 21
0.0
 12
0.0
 22
0.0
 32
0.0
 14
0.0
 24
0.0
 34
0.0
 15
0.0
 25
0.0
 35
0.0
146
0.0
 13
0.0
 23
0.0
 33
0.0
 16
1.0
 26
0.0
 36
0.0
 17
0.0
 27
1.0
 37
0.0
 76
     0
330
23
  0
LAYOUT
  5
22
102
{ACAD_REACTORS
330
1A
102
}
330
1A
100
AcDbPlotSettings
  1

  2
none_device
  4
ANSI_A_(11.00_x_8.50_Inches)
  6

 40
6.35
 41
19.05
 42
6.35000508
 43
19.05000254
 44
279.4
 45
215.9
 46
189.6888252884507
 47
104.8357135932929
 48
0.0
 49
0.0
140
0.0
141
0.0
142
0.0914796403028641
143
1.0
 70
  1696
 72
     0
 73
     0
 74
     0
  7

 75
     0
147
0.0235690232323232
148
0.0
149
0.0
100
AcDbLayout
  1
Model
 70
     1
 71
     0
 10
0.0
 20
0.0
 11
420.0
 21
297.0
 12
0.0
 22
0.0
 32
0.0
 14
-73.27352083461344
 24
-49.97180738881174
 34
0.0
 15
47.58268186546778
 25
42.34476274106507
 35
0.0
146
0.0
 13
0.0
 23
0.0
 33
0.0
 16
1.0
 26
0.0
 36
0.0
 17
0.0
 27
1.0
 37
0.0
 76
     0
330
1F
331
29
  0
MLINESTYLE
  5
18
102
{ACAD_REACTORS
330
17
102
}
330
17
100
AcDbMlineStyle
  2
Standard
 70
     0
  3

 62
   256
 51
90.0
 52
90.0
 71
     2
 49
0.5
 62
   256
  6
BYLAYER
 49
-0.5
 62
   256
  6
BYLAYER
  0
ACDBPLACEHOLDER
  5
F
102
{ACAD_REACTORS
330
E
102
}
330
E
  0
SCALE
  5
48
102
{ACAD_REACTORS
330
47
102
}
330
47
100
AcDbScale
 70
     0
300
1:1
140
1.0
141
1.0
290
     1
  0
SCALE
  5
49
102
{ACAD_REACTORS
330
47
102
}
330
47
100
AcDbScale
 70
     0
300
1:2
140
1.0
141
2.0
290
     0
  0
SCALE
  5
4A
102
{ACAD_REACTORS
330
47
102
}
330
47
100
AcDbScale
 70
     0
300
1:4
140
1.0
141
4.0
290
     0
  0
SCALE
  5
4B
102
{ACAD_REACTORS
330
47
102
}
330
47
100
AcDbScale
 70
     0
300
1:5
140
1.0
141
5.0
290
     0
  0
SCALE
  5
4C
102
{ACAD_REACTORS
330
47
102
}
330
47
100
AcDbScale
 70
     0
300
1:8
140
1.0
141
8.0
290
     0
  0
SCALE
  5
4D
102
{ACAD_REACTORS
330
47
102
}
330
47
100
AcDbScale
 70
     0
300
1:10
140
1.0
141
10.0
290
     0
  0
SCALE
  5
4E
102
{ACAD_REACTORS
330
47
102
}
330
47
100
AcDbScale
 70
     0
300
1:16
140
1.0
141
16.0
290
     0
  0
SCALE
  5
4F
102
{ACAD_REACTORS
330
47
102
}
330
47
100
AcDbScale
 70
     0
300
1:20
140
1.0
141
20.0
290
     0
  0
SCALE
  5
50
102
{ACAD_REACTORS
330
47
102
}
330
47
100
AcDbScale
 70
     0
300
1:30
140
1.0
141
30.0
290
     0
  0
SCALE
  5
51
102
{ACAD_REACTORS
330
47
102
}
330
47
100
AcDbScale
 70
     0
300
1:40
140
1.0
141
40.0
290
     0
  0
SCALE
  5
52
102
{ACAD_REACTORS
330
47
102
}
330
47
100
AcDbScale
 70
     0
300
1:50
140
1.0
141
50.0
290
     0
  0
SCALE
  5
53
102
{ACAD_REACTORS
330
47
102
}
330
47
100
AcDbScale
 70
     0
300
1:100
140
1.0
141
100.0
290
     0
  0
SCALE
  5
54
102
{ACAD_REACTORS
330
47
102
}
330
47
100
AcDbScale
 70
     0
300
2:1
140
2.0
141
1.0
290
     0
  0
SCALE
  5
55
102
{ACAD_REACTORS
330
47
102
}
330
47
100
AcDbScale
 70
     0
300
4:1
140
4.0
141
1.0
290
     0
  0
SCALE
  5
56
102
{ACAD_REACTORS
330
47
102
}
330
47
100
AcDbScale
 70
     0
300
8:1
140
8.0
141
1.0
290
     0
  0
SCALE
  5
57
102
{ACAD_REACTORS
330
47
102
}
330
47
100
AcDbScale
 70
     0
300
10:1
140
10.0
141
1.0
290
     0
  0
SCALE
  5
58
102
{ACAD_REACTORS
330
47
102
}
330
47
100
AcDbScale
 70
     0
300
100:1
140
100.0
141
1.0
290
     0
  0
SCALE
  5
59
102
{ACAD_REACTORS
330
47
102
}
330
47
100
AcDbScale
 70
     0
300
1/128" = 1'-0"
140
0.0078125
141
12.0
290
     0
  0
SCALE
  5
5A
102
{ACAD_REACTORS
330
47
102
}
330
47
100
AcDbScale
 70
     0
300
1/64" = 1'-0"
140
0.015625
141
12.0
290
     0
  0
SCALE
  5
5B
102
{ACAD_REACTORS
330
47
102
}
330
47
100
AcDbScale
 70
     0
300
1/32" = 1'-0"
140
0.03125
141
12.0
290
     0
  0
SCALE
  5
5C
102
{ACAD_REACTORS
330
47
102
}
330
47
100
AcDbScale
 70
     0
300
1/16" = 1'-0"
140
0.0625
141
12.0
290
     0
  0
SCALE
  5
5D
102
{ACAD_REACTORS
330
47
102
}
330
47
100
AcDbScale
 70
     0
300
3/32" = 1'-0"
140
0.09375
141
12.0
290
     0
  0
SCALE
  5
5E
102
{ACAD_REACTORS
330
47
102
}
330
47
100
AcDbScale
 70
     0
300
1/8" = 1'-0"
140
0.125
141
12.0
290
     0
  0
SCALE
  5
5F
102
{ACAD_REACTORS
330
47
102
}
330
47
100
AcDbScale
 70
     0
300
3/16" = 1'-0"
140
0.1875
141
12.0
290
     0
  0
SCALE
  5
60
102
{ACAD_REACTORS
330
47
102
}
330
47
100
AcDbScale
 70
     0
300
1/4" = 1'-0"
140
0.25
141
12.0
290
     0
  0
SCALE
  5
61
102
{ACAD_REACTORS
330
47
102
}
330
47
100
AcDbScale
 70
     0
300
3/8" = 1'-0"
140
0.375
141
12.0
290
     0
  0
SCALE
  5
62
102
{ACAD_REACTORS
330
47
102
}
330
47
100
AcDbScale
 70
     0
300
1/2" = 1'-0"
140
0.5
141
12.0
290
     0
  0
SCALE
  5
63
102
{ACAD_REACTORS
330
47
102
}
330
47
100
AcDbScale
 70
     0
300
3/4" = 1'-0"
140
0.75
141
12.0
290
     0
  0
SCALE
  5
64
102
{ACAD_REACTORS
330
47
102
}
330
47
100
AcDbScale
 70
     0
300
1" = 1'-0"
140
1.0
141
12.0
290
     0
  0
SCALE
  5
65
102
{ACAD_REACTORS
330
47
102
}
330
47
100
AcDbScale
 70
     0
300
1-1/2" = 1'-0"
140
1.5
141
12.0
290
     0
  0
SCALE
  5
66
102
{ACAD_REACTORS
330
47
102
}
330
47
100
AcDbScale
 70
     0
300
3" = 1'-0"
140
3.0
141
12.0
290
     0
  0
SCALE
  5
67
102
{ACAD_REACTORS
330
47
102
}
330
47
100
AcDbScale
 70
     0
300
6" = 1'-0"
140
6.0
141
12.0
290
     0
  0
SCALE
  5
68
102
{ACAD_REACTORS
330
47
102
}
330
47
100
AcDbScale
 70
     0
300
1'-0" = 1'-0"
140
12.0
141
12.0
290
     0
  0
ENDSEC
  0
EOF
