  0
SECTION
  2
HEADER
  9
$ACADVER
  1
AC1015
  9
$ACADMAINTVER
 70
     6
  9
$DWGCODEPAGE
  3
ANSI_949
  9
$INSBASE
 10
0.0
 20
0.0
 30
0.0
  9
$EXTMIN
 10
-46.43125000000011
 20
-49.75070660587842
 30
0.0
  9
$EXTMAX
 10
99.17300279016858
 20
43.22626808987567
 30
0.0
  9
$LIMMIN
 10
0.0
 20
0.0
  9
$LIMMAX
 10
420.0
 20
297.0
  9
$ORTHOMODE
 70
     1
  9
$REGENMODE
 70
     1
  9
$FILLMODE
 70
     1
  9
$QTEXTMODE
 70
     0
  9
$MIRRTEXT
 70
     1
  9
$LTSCALE
 40
1.0
  9
$ATTMODE
 70
     1
  9
$TEXTSIZE
 40
3.5
  9
$TRACEWID
 40
1.0
  9
$TEXTSTYLE
  7
Standard
  9
$CLAYER
  8
0
  9
$CELTYPE
  6
ByLayer
  9
$CECOLOR
 62
   256
  9
$CELTSCALE
 40
1.0
  9
$DISPSILH
 70
     0
  9
$DIMSCALE
 40
1.0
  9
$DIMASZ
 40
3.302
  9
$DIMEXO
 40
1.0
  9
$DIMDLI
 40
3.75
  9
$DIMRND
 40
0.0
  9
$DIMDLE
 40
0.0
  9
$DIMEXE
 40
1.0
  9
$DIMTP
 40
0.0
  9
$DIMTM
 40
0.0
  9
$DIMTXT
 40
3.5
  9
$DIMCEN
 40
2.5
  9
$DIMTSZ
 40
0.0
  9
$DIMTOL
 70
     0
  9
$DIMLIM
 70
     0
  9
$DIMTIH
 70
     1
  9
$DIMTOH
 70
     1
  9
$DIMSE1
 70
     0
  9
$DIMSE2
 70
     0
  9
$DIMTAD
 70
     1
  9
$DIMZIN
 70
     0
  9
$DIMBLK
  1

  9
$DIMASO
 70
     1
  9
$DIMSHO
 70
     1
  9
$DIMPOST
  1

  9
$DIMAPOST
  1

  9
$DIMALT
 70
     0
  9
$DIMALTD
 70
     3
  9
$DIMALTF
 40
0.0393700787401575
  9
$DIMLFAC
 40
1.0
  9
$DIMTOFL
 70
     1
  9
$DIMTVP
 40
0.0
  9
$DIMTIX
 70
     0
  9
$DIMSOXD
 70
     0
  9
$DIMSAH
 70
     0
  9
$DIMBLK1
  1

  9
$DIMBLK2
  1

  9
$DIMSTYLE
  2
ISO-25
  9
$DIMCLRD
 70
     0
  9
$DIMCLRE
 70
     0
  9
$DIMCLRT
 70
     0
  9
$DIMTFAC
 40
1.0
  9
$DIMGAP
 40
1.524
  9
$DIMJUST
 70
     0
  9
$DIMSD1
 70
     0
  9
$DIMSD2
 70
     0
  9
$DIMTOLJ
 70
     0
  9
$DIMTZIN
 70
     0
  9
$DIMALTZ
 70
     0
  9
$DIMALTTZ
 70
     0
  9
$DIMUPT
 70
     0
  9
$DIMDEC
 70
     2
  9
$DIMTDEC
 70
     2
  9
$DIMALTU
 70
     2
  9
$DIMALTTD
 70
     3
  9
$DIMTXSTY
  7
Standard
  9
$DIMAUNIT
 70
     0
  9
$DIMADEC
 70
     2
  9
$DIMALTRND
 40
0.0
  9
$DIMAZIN
 70
     0
  9
$DIMDSEP
 70
    44
  9
$DIMATFIT
 70
     3
  9
$DIMFRAC
 70
     0
  9
$DIMLDRBLK
  1

  9
$DIMLUNIT
 70
     2
  9
$DIMLWD
 70
    -2
  9
$DIMLWE
 70
    -2
  9
$DIMTMOVE
 70
     0
  9
$LUNITS
 70
     2
  9
$LUPREC
 70
     2
  9
$SKETCHINC
 40
1.0
  9
$FILLETRAD
 40
10.0
  9
$AUNITS
 70
     0
  9
$AUPREC
 70
     2
  9
$MENU
  1
.
  9
$ELEVATION
 40
0.0
  9
$PELEVATION
 40
0.0
  9
$THICKNESS
 40
0.0
  9
$LIMCHECK
 70
     0
  9
$CHAMFERA
 40
0.0
  9
$CHAMFERB
 40
0.0
  9
$CHAMFERC
 40
0.0
  9
$CHAMFERD
 40
0.0
  9
$SKPOLY
 70
     0
  9
$TDCREATE
 40
2458290.675481505
  9
$TDUCREATE
 40
2458290.300481505
  9
$TDUPDATE
 40
2458299.761279005
  9
$TDUUPDATE
 40
2458299.386279005
  9
$TDINDWG
 40
0.0030622106
  9
$TDUSRTIMER
 40
0.0000306366
  9
$USRTIMER
 70
     1
  9
$ANGBASE
 50
0.0
  9
$ANGDIR
 70
     0
  9
$PDMODE
 70
     0
  9
$PDSIZE
 40
-1.0
  9
$PLINEWID
 40
0.0
  9
$SPLFRAME
 70
     0
  9
$SPLINETYPE
 70
     6
  9
$SPLINESEGS
 70
     8
  9
$HANDSEED
  5
210
  9
$SURFTAB1
 70
     6
  9
$SURFTAB2
 70
     6
  9
$SURFTYPE
 70
     6
  9
$SURFU
 70
     6
  9
$SURFV
 70
     6
  9
$UCSBASE
  2

  9
$UCSNAME
  2

  9
$UCSORG
 10
0.0
 20
0.0
 30
0.0
  9
$UCSXDIR
 10
1.0
 20
0.0
 30
0.0
  9
$UCSYDIR
 10
0.0
 20
1.0
 30
0.0
  9
$UCSORTHOREF
  2

  9
$UCSORTHOVIEW
 70
     0
  9
$UCSORGTOP
 10
0.0
 20
0.0
 30
0.0
  9
$UCSORGBOTTOM
 10
0.0
 20
0.0
 30
0.0
  9
$UCSORGLEFT
 10
0.0
 20
0.0
 30
0.0
  9
$UCSORGRIGHT
 10
0.0
 20
0.0
 30
0.0
  9
$UCSORGFRONT
 10
0.0
 20
0.0
 30
0.0
  9
$UCSORGBACK
 10
0.0
 20
0.0
 30
0.0
  9
$PUCSBASE
  2

  9
$PUCSNAME
  2

  9
$PUCSORG
 10
0.0
 20
0.0
 30
0.0
  9
$PUCSXDIR
 10
1.0
 20
0.0
 30
0.0
  9
$PUCSYDIR
 10
0.0
 20
1.0
 30
0.0
  9
$PUCSORTHOREF
  2

  9
$PUCSORTHOVIEW
 70
     0
  9
$PUCSORGTOP
 10
0.0
 20
0.0
 30
0.0
  9
$PUCSORGBOTTOM
 10
0.0
 20
0.0
 30
0.0
  9
$PUCSORGLEFT
 10
0.0
 20
0.0
 30
0.0
  9
$PUCSORGRIGHT
 10
0.0
 20
0.0
 30
0.0
  9
$PUCSORGFRONT
 10
0.0
 20
0.0
 30
0.0
  9
$PUCSORGBACK
 10
0.0
 20
0.0
 30
0.0
  9
$USERI1
 70
     0
  9
$USERI2
 70
     0
  9
$USERI3
 70
     0
  9
$USERI4
 70
     0
  9
$USERI5
 70
     0
  9
$USERR1
 40
0.0
  9
$USERR2
 40
0.0
  9
$USERR3
 40
0.0
  9
$USERR4
 40
0.0
  9
$USERR5
 40
0.0
  9
$WORLDVIEW
 70
     1
  9
$SHADEDGE
 70
     3
  9
$SHADEDIF
 70
    70
  9
$TILEMODE
 70
     1
  9
$MAXACTVP
 70
    64
  9
$PINSBASE
 10
0.0
 20
0.0
 30
0.0
  9
$PLIMCHECK
 70
     0
  9
$PEXTMIN
 10
1.000000000000000E+20
 20
1.000000000000000E+20
 30
1.000000000000000E+20
  9
$PEXTMAX
 10
-1.000000000000000E+20
 20
-1.000000000000000E+20
 30
-1.000000000000000E+20
  9
$PLIMMIN
 10
0.0
 20
0.0
  9
$PLIMMAX
 10
0.0
 20
0.0
  9
$UNITMODE
 70
     0
  9
$VISRETAIN
 70
     1
  9
$PLINEGEN
 70
     0
  9
$PSLTSCALE
 70
     1
  9
$TREEDEPTH
 70
  3020
  9
$CMLSTYLE
  2
Standard
  9
$CMLJUST
 70
     0
  9
$CMLSCALE
 40
20.0
  9
$PROXYGRAPHICS
 70
     1
  9
$MEASUREMENT
 70
     1
  9
$CELWEIGHT
370
    -1
  9
$ENDCAPS
280
     0
  9
$JOINSTYLE
280
     0
  9
$LWDISPLAY
290
     1
  9
$INSUNITS
 70
     4
  9
$HYPERLINKBASE
  1

  9
$STYLESHEET
  1

  9
$XEDIT
290
     1
  9
$CEPSNTYPE
380
     0
  9
$PSTYLEMODE
290
     1
  9
$FINGERPRINTGUID
  2
{391ADDF6-B5A6-4B04-8AA1-B3A368738910}
  9
$VERSIONGUID
  2
{FAEB1C32-E019-11D5-929B-00C0DF256EC4}
  9
$EXTNAMES
290
     1
  9
$PSVPSCALE
 40
0.0
  9
$OLESTARTUP
290
     0
  0
ENDSEC
  0
SECTION
  2
CLASSES
  0
CLASS
  1
ACDBDICTIONARYWDFLT
  2
AcDbDictionaryWithDefault
  3
ObjectDBX Classes
 90
        0
280
     0
281
     0
  0
CLASS
  1
VISUALSTYLE
  2
AcDbVisualStyle
  3
ObjectDBX Classes
 90
     4095
280
     0
281
     0
  0
CLASS
  1
MATERIAL
  2
AcDbMaterial
  3
ObjectDBX Classes
 90
     1153
280
     0
281
     0
  0
CLASS
  1
SCALE
  2
AcDbScale
  3
ObjectDBX Classes
 90
     1153
280
     0
281
     0
  0
CLASS
  1
SUN
  2
AcDbSun
  3
SCENEOE
 90
     1153
280
     0
281
     0
  0
CLASS
  1
ACDBPLACEHOLDER
  2
AcDbPlaceHolder
  3
ObjectDBX Classes
 90
        0
280
     0
281
     0
  0
CLASS
  1
LAYOUT
  2
AcDbLayout
  3
ObjectDBX Classes
 90
        0
280
     0
281
     0
  0
CLASS
  1
TABLESTYLE
  2
AcDbTableStyle
  3
ObjectDBX Classes
 90
     4095
280
     0
281
     0
  0
CLASS
  1
MLEADERSTYLE
  2
AcDbMLeaderStyle
  3
ACDB_MLEADERSTYLE_CLASS
 90
     4095
280
     0
281
     0
  0
ENDSEC
  0
SECTION
  2
TABLES
  0
TABLE
  2
VPORT
  5
8
330
0
100
AcDbSymbolTable
 70
     1
  0
VPORT
  5
29
330
8
100
AcDbSymbolTableRecord
100
AcDbViewportTableRecord
  2
*Active
 70
     0
 10
0.0
 20
0.0
 11
1.0
 21
1.0
 12
26.37087639508424
 22
-3.262219258001366
 13
0.0
 23
0.0
 14
10.0
 24
10.0
 15
10.0
 25
10.0
 16
0.0
 26
0.0
 36
1.0
 17
0.0
 27
0.0
 37
0.0
 40
94.83651418966919
 41
2.148876404494382
 42
50.0
 43
0.0
 44
0.0
 50
0.0
 51
0.0
 71
    16
 72
  2000
 73
     1
 74
     3
 75
     0
 76
     0
 77
     0
 78
     0
281
     0
 65
     1
110
0.0
120
0.0
130
0.0
111
1.0
121
0.0
131
0.0
112
0.0
122
1.0
132
0.0
 79
     0
146
0.0
  0
ENDTAB
  0
TABLE
  2
LTYPE
  5
5
330
0
100
AcDbSymbolTable
 70
     6
  0
LTYPE
  5
14
330
5
100
AcDbSymbolTableRecord
100
AcDbLinetypeTableRecord
  2
ByBlock
 70
     0
  3

 72
    65
 73
     0
 40
0.0
  0
LTYPE
  5
15
330
5
100
AcDbSymbolTableRecord
100
AcDbLinetypeTableRecord
  2
ByLayer
 70
     0
  3

 72
    65
 73
     0
 40
0.0
  0
LTYPE
  5
16
330
5
100
AcDbSymbolTableRecord
100
AcDbLinetypeTableRecord
  2
Continuous
 70
     0
  3
Solid line
 72
    65
 73
     0
 40
0.0
  0
LTYPE
  5
6A
330
5
100
AcDbSymbolTableRecord
100
AcDbLinetypeTableRecord
  2
HIDDEN
 70
     0
  3
Hidden __ __ __ __ __ __ __ __ __ __ __ __ __ __
 72
    65
 73
     2
 40
1.905
 49
1.27
 74
     0
 49
-0.635
 74
     0
  0
LTYPE
  5
6B
330
5
100
AcDbSymbolTableRecord
100
AcDbLinetypeTableRecord
  2
PHANTOM
 70
     0
  3
Phantom ______  __  __  ______  __  __  ______
 72
    65
 73
     6
 40
12.7
 49
6.35
 74
     0
 49
-1.27
 74
     0
 49
1.27
 74
     0
 49
-1.27
 74
     0
 49
1.27
 74
     0
 49
-1.27
 74
     0
  0
LTYPE
  5
6C
330
5
100
AcDbSymbolTableRecord
100
AcDbLinetypeTableRecord
  2
CENTER
 70
     0
  3
Center ____ _ ____ _ ____ _ ____ _ ____ _ ____
 72
    65
 73
     4
 40
10.16
 49
6.35
 74
     0
 49
-1.27
 74
     0
 49
1.27
 74
     0
 49
-1.27
 74
     0
  0
LTYPE
  5
6D
330
5
100
AcDbSymbolTableRecord
100
AcDbLinetypeTableRecord
  2
CENTERX2
 70
     0
  3
Center (2x) ________  __  ________  __  _____
 72
    65
 73
     4
 40
20.32
 49
12.7
 74
     0
 49
-2.54
 74
     0
 49
2.54
 74
     0
 49
-2.54
 74
     0
  0
LTYPE
  5
6E
330
5
100
AcDbSymbolTableRecord
100
AcDbLinetypeTableRecord
  2
DOT2
 70
     0
  3
Dot (.5x) ........................................
 72
    65
 73
     2
 40
0.635
 49
0.0
 74
     0
 49
-0.635
 74
     0
  0
ENDTAB
  0
TABLE
  2
LAYER
  5
2
330
0
100
AcDbSymbolTable
 70
    18
  0
LAYER
  5
10
330
2
100
AcDbSymbolTableRecord
100
AcDbLayerTableRecord
  2
0
 70
     0
 62
     7
  6
Continuous
370
    -3
390
F
  0
LAYER
  5
6F
330
2
100
AcDbSymbolTableRecord
100
AcDbLayerTableRecord
  2
FORMAT
 70
     0
 62
     2
  6
Continuous
370
    -3
390
F
  0
LAYER
  5
70
330
2
100
AcDbSymbolTableRecord
100
AcDbLayerTableRecord
  2
외형선
 70
     0
 62
     4
  6
Continuous
370
    30
390
F
  0
LAYER
  5
71
330
2
100
AcDbSymbolTableRecord
100
AcDbLayerTableRecord
  2
숨은선
 70
     0
 62
     2
  6
HIDDEN
370
    15
390
F
  0
LAYER
  5
72
330
2
100
AcDbSymbolTableRecord
100
AcDbLayerTableRecord
  2
중심선
 70
     0
 62
     1
  6
CENTERX2
370
    -3
390
F
  0
LAYER
  5
73
330
2
100
AcDbSymbolTableRecord
100
AcDbLayerTableRecord
  2
파단선
 70
     0
 62
     4
  6
Continuous
370
    -3
390
F
  0
LAYER
  5
74
330
2
100
AcDbSymbolTableRecord
100
AcDbLayerTableRecord
  2
해칭선
 70
     0
 62
   100
  6
Continuous
370
    -3
390
F
  0
LAYER
  5
75
330
2
100
AcDbSymbolTableRecord
100
AcDbLayerTableRecord
  2
가는실선
 70
     0
 62
     4
  6
Continuous
370
    -3
390
F
  0
LAYER
  5
76
330
2
100
AcDbSymbolTableRecord
100
AcDbLayerTableRecord
  2
치수_보조선
 70
     0
 62
     4
  6
Continuous
370
    -3
390
F
  0
LAYER
  5
77
330
2
100
AcDbSymbolTableRecord
100
AcDbLayerTableRecord
  2
치수문자_일반주서
 70
     0
 62
     7
  6
Continuous
370
    15
390
F
  0
LAYER
  5
78
330
2
100
AcDbSymbolTableRecord
100
AcDbLayerTableRecord
  2
개별주서
 70
     0
 62
   100
  6
Continuous
370
    30
390
F
  0
LAYER
  5
79
330
2
100
AcDbSymbolTableRecord
100
AcDbLayerTableRecord
  2
중간선
 70
     0
 62
     2
  6
Continuous
370
    15
390
F
  0
LAYER
  5
7A
330
2
100
AcDbSymbolTableRecord
100
AcDbLayerTableRecord
  2
윤곽선
 70
     0
 62
     3
  6
Continuous
370
    40
390
F
  0
LAYER
  5
7B
330
2
100
AcDbSymbolTableRecord
100
AcDbLayerTableRecord
  2
중심마크
 70
     0
 62
   100
  6
Continuous
370
    30
390
F
  0
LAYER
  5
7C
330
2
100
AcDbSymbolTableRecord
100
AcDbLayerTableRecord
  2
가상선
 70
     0
 62
     4
  6
PHANTOM
370
    -3
390
F
  0
LAYER
  5
7D
330
2
100
AcDbSymbolTableRecord
100
AcDbLayerTableRecord
  2
특수지정선
 70
     0
 62
     5
  6
CENTERX2
370
    60
390
F
  0
LAYER
  5
7E
330
2
100
AcDbSymbolTableRecord
100
AcDbLayerTableRecord
  2
참조1
 70
     0
 62
    -4
  6
Continuous
370
    -3
390
F
  0
LAYER
  5
14E
330
2
100
AcDbSymbolTableRecord
100
AcDbLayerTableRecord
  2
Defpoints
 70
     0
 62
     7
  6
Continuous
290
     0
370
    -3
390
F
  0
ENDTAB
  0
TABLE
  2
STYLE
  5
3
330
0
100
AcDbSymbolTable
 70
     2
  0
STYLE
  5
11
330
3
100
AcDbSymbolTableRecord
100
AcDbTextStyleTableRecord
  2
Standard
 70
     0
 40
0.0
 41
1.0
 50
0.0
 71
     0
 42
3.5
  3
txt
  4

  0
STYLE
  5
94
330
3
100
AcDbSymbolTableRecord
100
AcDbTextStyleTableRecord
  2
SLDTEXTSTYLE0
 70
     0
 40
0.0
 41
0.75
 50
0.0
 71
     0
 42
3.5
  3
TXT
  4

  0
ENDTAB
  0
TABLE
  2
VIEW
  5
6
330
0
100
AcDbSymbolTable
 70
     0
  0
ENDTAB
  0
TABLE
  2
UCS
  5
7
330
0
100
AcDbSymbolTable
 70
     0
  0
ENDTAB
  0
TABLE
  2
APPID
  5
9
330
0
100
AcDbSymbolTable
 70
     2
  0
APPID
  5
12
330
9
100
AcDbSymbolTableRecord
100
AcDbRegAppTableRecord
  2
ACAD
 70
     0
  0
APPID
  5
1CA
330
9
100
AcDbSymbolTableRecord
100
AcDbRegAppTableRecord
  2
PE_URL
 70
     0
  0
ENDTAB
  0
TABLE
  2
DIMSTYLE
  5
A
330
0
100
AcDbSymbolTable
 70
     3
100
AcDbDimStyleTable
  0
DIMSTYLE
105
27
102
{ACAD_REACTORS
330
1C7
102
}
330
A
100
AcDbSymbolTableRecord
100
AcDbDimStyleTableRecord
  2
ISO-25
 70
     0
 41
2.5
 42
0.625
 43
3.75
 44
1.25
 73
     0
 74
     0
 77
     1
 78
     8
140
2.5
141
2.5
143
0.03937007874016
147
0.625
171
     3
172
     1
178
     0
271
     2
272
     2
274
     3
278
    44
283
     0
284
     8
340
11
  0
DIMSTYLE
105
CD
102
{ACAD_REACTORS
330
CC
102
}
330
A
100
AcDbSymbolTableRecord
100
AcDbDimStyleTableRecord
  2
SLDDIMSTYLE0
 70
     0
 41
3.302
 44
0.0
 45
0.000000001
 73
     0
 74
     0
 77
     1
 78
     4
 79
     1
140
3.5
143
0.0393700787401575
147
0.875
148
0.000000001
170
     1
173
     1
178
     0
271
     2
272
     2
276
     2
284
    12
340
94
  0
DIMSTYLE
105
E1
102
{ACAD_REACTORS
330
E0
330
F5
330
10A
102
}
330
A
100
AcDbSymbolTableRecord
100
AcDbDimStyleTableRecord
  2
SLDDIMSTYLE1
 70
     0
 41
3.302
 44
0.0
 45
0.000000001
 73
     0
 74
     0
 77
     1
 78
    12
 79
     3
140
3.5
143
0.0393700787401575
147
0.875
148
0.000000001
170
     1
172
     1
173
     1
178
     0
271
     2
272
     2
276
     2
284
    12
289
     0
340
94
  0
ENDTAB
  0
TABLE
  2
BLOCK_RECORD
  5
1
330
0
100
AcDbSymbolTable
 70
     7
  0
BLOCK_RECORD
  5
1F
330
1
100
AcDbSymbolTableRecord
100
AcDbBlockTableRecord
  2
*Model_Space
340
22
  0
BLOCK_RECORD
  5
1B
330
1
100
AcDbSymbolTableRecord
100
AcDbBlockTableRecord
  2
*Paper_Space
340
1E
  0
BLOCK_RECORD
  5
23
330
1
100
AcDbSymbolTableRecord
100
AcDbBlockTableRecord
  2
*Paper_Space0
340
26
  0
BLOCK_RECORD
  5
7F
330
1
100
AcDbSymbolTableRecord
100
AcDbBlockTableRecord
  2
블럭10
340
0
102
{BLKREFS
331
C5
102
}
  0
BLOCK_RECORD
  5
CE
330
1
100
AcDbSymbolTableRecord
100
AcDbBlockTableRecord
  2
_D
340
0
  0
BLOCK_RECORD
  5
E2
330
1
100
AcDbSymbolTableRecord
100
AcDbBlockTableRecord
  2
_D_1
340
0
  0
BLOCK_RECORD
  5
F6
330
1
100
AcDbSymbolTableRecord
100
AcDbBlockTableRecord
  2
_D_2
340
0
  0
BLOCK_RECORD
  5
10B
330
1
100
AcDbSymbolTableRecord
100
AcDbBlockTableRecord
  2
_D_3
340
0
  0
BLOCK_RECORD
  5
125
330
1
100
AcDbSymbolTableRecord
100
AcDbBlockTableRecord
  2
SW_DOWELSYMBOL_0
340
0
102
{BLKREFS
331
12B
102
}
  0
ENDTAB
  0
ENDSEC
  0
SECTION
  2
BLOCKS
  0
BLOCK
  5
20
330
1F
100
AcDbEntity
  8
0
100
AcDbBlockBegin
  2
*Model_Space
 70
     0
 10
0.0
 20
0.0
 30
0.0
  3
*Model_Space
  1

  0
ENDBLK
  5
21
330
1F
100
AcDbEntity
  8
0
100
AcDbBlockEnd
  0
BLOCK
  5
1C
330
1B
100
AcDbEntity
 67
     1
  8
0
100
AcDbBlockBegin
  2
*Paper_Space
 70
     0
 10
0.0
 20
0.0
 30
0.0
  3
*Paper_Space
  1

  0
ENDBLK
  5
1D
330
1B
100
AcDbEntity
 67
     1
  8
0
100
AcDbBlockEnd
  0
BLOCK
  5
24
330
23
100
AcDbEntity
  8
0
100
AcDbBlockBegin
  2
*Paper_Space0
 70
     0
 10
0.0
 20
0.0
 30
0.0
  3
*Paper_Space0
  1

  0
ENDBLK
  5
25
330
23
100
AcDbEntity
  8
0
100
AcDbBlockEnd
  0
BLOCK
  5
80
330
7F
100
AcDbEntity
  8
0
100
AcDbBlockBegin
  2
블럭10
 70
     2
 10
0.0
 20
0.0
 30
0.0
  3
블럭10
  1

  0
ELLIPSE
  5
82
330
7F
100
AcDbEntity
  8
중심선
100
AcDbEllipse
 10
20.54032771741204
 20
12.0471743016438
 30
0.0
 11
6.600054785286829
 21
-1.261213355974178E-13
 31
0.0
210
0.0
220
0.0
230
1.0
 40
0.636358354079598
 41
0.9219305317359503
 42
6.513795318482858
  0
ELLIPSE
  5
83
330
7F
100
AcDbEntity
  8
중심선
100
AcDbEllipse
 10
20.54032771746488
 20
12.04717430159265
 30
0.0
 11
3.960054785062283
 21
1.540847449632565E-10
 31
0.0
210
0.0
220
0.0
230
1.0
 40
0.3939339440162632
 41
1.131841032648279
 42
5.62031148352944
  0
LINE
  5
84
330
7F
100
AcDbEntity
  8
중심선
100
AcDbLine
 10
2.268634060543552
 20
16.24717430164393
 30
0.0
 11
5.714909304380834
 21
16.24717430164393
 31
0.0
  0
LINE
  5
85
330
7F
100
AcDbEntity
  8
중심선
100
AcDbLine
 10
5.245725140726316
 20
7.84717430164391
 30
0.0
 11
8.692000384563599
 21
7.84717430164391
 31
0.0
  0
LINE
  5
86
330
7F
100
AcDbEntity
  8
중심선
100
AcDbLine
 10
15.74043728645272
 20
16.24717430164393
 30
0.0
 11
8.692000384563599
 21
7.84717430164391
 31
0.0
  0
LINE
  5
87
330
7F
100
AcDbEntity
  8
중심선
100
AcDbLine
 10
0.1404042013395286
 20
13.71084872107135
 30
0.0
 11
3.58671253028996
 21
13.71088815037384
 31
0.0
  0
LINE
  5
88
330
7F
100
AcDbEntity
  8
중심선
100
AcDbLine
 10
2.750260043222114
 20
10.84717430164391
 30
0.0
 11
6.196535287059397
 21
10.84717430164391
 31
0.0
  0
LINE
  5
89
330
7F
100
AcDbEntity
  8
중심선
100
AcDbLine
 10
12.29416204261559
 20
16.24717430164393
 30
0.0
 11
5.245725140726316
 21
7.84717430164391
 31
0.0
  0
LINE
  5
8A
330
7F
100
AcDbEntity
  8
중심선
100
AcDbLine
 10
10.72767329541681
 20
16.24717430164393
 30
0.0
 11
6.196535287059397
 21
10.84717430164391
 31
0.0
  0
LINE
  5
8B
330
7F
100
AcDbEntity
  8
중심선
100
AcDbLine
 10
7.28139805157953
 20
16.24717430164393
 30
0.0
 11
2.750260043222114
 21
10.84717430164391
 31
0.0
  0
LINE
  5
8C
330
7F
100
AcDbEntity
  8
중심선
100
AcDbLine
 10
5.714909304380834
 20
16.24717430164393
 30
0.0
 11
3.58671253028996
 21
13.71088815037384
 31
0.0
  0
LINE
  5
8D
330
7F
100
AcDbEntity
  8
중심선
100
AcDbLine
 10
2.268634060543552
 20
16.24717430164393
 30
0.0
 11
0.1404042013395286
 21
13.71084872107135
 31
0.0
  0
LINE
  5
8E
330
7F
100
AcDbEntity
  8
중심선
100
AcDbLine
 10
7.28139805157953
 20
16.24717430164393
 30
0.0
 11
10.72767329541681
 21
16.24717430164393
 31
0.0
  0
LINE
  5
8F
330
7F
100
AcDbEntity
  8
중심선
100
AcDbLine
 10
12.29416204261559
 20
16.24717430164393
 30
0.0
 11
15.74043728645272
 21
16.24717430164393
 31
0.0
  0
LINE
  5
90
330
7F
100
AcDbEntity
  8
중심선
100
AcDbLine
 10
19.22036997980202
 20
11.08717430171403
 30
0.0
 11
23.66174974927406
 21
11.08717430171406
 31
0.0
  0
LINE
  5
91
330
7F
100
AcDbEntity
  8
중심선
100
AcDbLine
 10
19.22039502424796
 20
13.00717430171391
 30
0.0
 11
19.22036997980202
 21
11.08717430171403
 31
0.0
  0
LINE
  5
92
330
7F
100
AcDbEntity
  8
중심선
100
AcDbLine
 10
19.22039502424796
 20
13.00717430171391
 30
0.0
 11
26.96566020931264
 21
13.00717430171391
 31
0.0
  0
LINE
  5
93
330
7F
100
AcDbEntity
  8
중심선
100
AcDbLine
 10
22.22332737316547
 20
13.45928029700563
 30
0.0
 11
24.52862924686651
 21
15.39360700705356
 31
0.0
  0
ATTDEF
  5
95
330
7F
100
AcDbEntity
  8
FORMAT
 62
     2
100
AcDbText
 10
4.408487351596664
 20
2.075366912832191
 30
0.0
 40
4.233333333333333
  1
E5075016
 41
0.75
  7
SLDTEXTSTYLE0
 11
4.408487351596664
 21
-0.0412997538344756
 31
0.0
100
AcDbAttributeDefinition
  3

  2
AUTOATTR0
 70
     0
 74
     1
  0
ENDBLK
  5
81
330
7F
100
AcDbEntity
  8
0
100
AcDbBlockEnd
  0
BLOCK
  5
CF
330
CE
100
AcDbEntity
  8
0
100
AcDbBlockBegin
  2
_D
 70
     0
 10
0.0
 20
0.0
 30
0.0
  3
_D
  1

  0
LINE
  5
D1
330
CE
100
AcDbEntity
  8
치수문자_일반주서
 62
     0
370
    -2
100
AcDbLine
 10
-31.27499999999999
 20
2.737499999999994
 30
0.0
 11
-31.27499999999998
 21
38.85126808987568
 31
0.0
  0
LINE
  5
D2
330
CE
100
AcDbEntity
  8
치수문자_일반주서
 62
     0
370
    -2
100
AcDbLine
 10
19.52500000000001
 20
3.300000000000034
 30
0.0
 11
19.52500000000002
 21
38.85126808987568
 31
0.0
  0
LINE
  5
D3
330
CE
100
AcDbEntity
  8
치수문자_일반주서
 62
     0
370
    -2
100
AcDbLine
 10
-27.97299999999998
 20
38.85126808987568
 30
0.0
 11
16.22300000000002
 21
38.85126808987568
 31
0.0
  0
SOLID
  5
D4
330
CE
100
AcDbEntity
  8
치수문자_일반주서
 62
     0
100
AcDbTrace
 10
-27.97299999999998
 20
39.40160142320902
 30
0.0
 11
-27.97299999999998
 21
38.30093475654235
 31
0.0
 12
-31.27499999999998
 22
38.85126808987568
 32
0.0
 13
-31.27499999999998
 23
38.85126808987568
 33
0.0
  0
SOLID
  5
D5
330
CE
100
AcDbEntity
  8
치수문자_일반주서
 62
     0
100
AcDbTrace
 10
16.22300000000002
 20
38.30093475654235
 30
0.0
 11
16.22300000000002
 21
39.40160142320902
 31
0.0
 12
19.52500000000002
 22
38.85126808987568
 32
0.0
 13
19.52500000000002
 23
38.85126808987568
 33
0.0
  0
MTEXT
  5
D6
330
CE
100
AcDbEntity
  8
치수문자_일반주서
 62
     0
100
AcDbMText
 10
-5.874999999999939
 20
43.22626808987568
 30
0.0
 40
3.5
 41
0.0
 71
     2
 72
     1
  1
\A1;50.80 [2]
  7
SLDTEXTSTYLE0
 73
     1
 44
1.0
  0
POINT
  5
D7
330
CE
100
AcDbEntity
  8
Defpoints
 62
     0
100
AcDbPoint
 10
-31.27499999999999
 20
2.674999999999994
 30
0.0
  0
POINT
  5
D8
330
CE
100
AcDbEntity
  8
Defpoints
 62
     0
100
AcDbPoint
 10
19.52500000000001
 20
3.237500000000034
 30
0.0
  0
POINT
  5
D9
330
CE
100
AcDbEntity
  8
Defpoints
 62
     0
100
AcDbPoint
 10
19.52500000000001
 20
38.85126808987568
 30
0.0
  0
ENDBLK
  5
D0
330
CE
100
AcDbEntity
  8
0
100
AcDbBlockEnd
  0
BLOCK
  5
E3
330
E2
100
AcDbEntity
  8
0
100
AcDbBlockBegin
  2
_D_1
 70
     0
 10
0.0
 20
0.0
 30
0.0
  3
_D_1
  1

  0
LINE
  5
E5
330
E2
100
AcDbEntity
  8
치수문자_일반주서
 62
     0
370
    -2
100
AcDbLine
 10
-30.8375
 20
3.175000000000007
 30
0.0
 11
-42.05625000000001
 21
3.174999999999965
 31
0.0
  0
LINE
  5
E6
330
E2
100
AcDbEntity
  8
치수문자_일반주서
 62
     0
370
    -2
100
AcDbLine
 10
-30.8375
 20
-3.175000000000015
 30
0.0
 11
-42.05624999999998
 21
-3.175000000000058
 31
0.0
  0
LINE
  5
E7
330
E2
100
AcDbEntity
  8
치수문자_일반주서
 62
     0
370
    -2
100
AcDbLine
 10
-42.05625000000001
 20
3.174999999999965
 30
0.0
 11
-42.05625000000011
 21
35.15399999999998
 31
0.0
  0
LINE
  5
E8
330
E2
100
AcDbEntity
  8
치수문자_일반주서
 62
     0
370
    -2
100
AcDbLine
 10
-42.05625000000001
 20
3.174999999999965
 30
0.0
 11
-42.05624999999998
 21
-3.175000000000058
 31
0.0
  0
LINE
  5
E9
330
E2
100
AcDbEntity
  8
치수문자_일반주서
 62
     0
370
    -2
100
AcDbLine
 10
-42.05625000000002
 20
6.476999999999965
 30
0.0
 11
-42.05625000000003
 21
9.778999999999964
 31
0.0
  0
LINE
  5
EA
330
E2
100
AcDbEntity
  8
치수문자_일반주서
 62
     0
370
    -2
100
AcDbLine
 10
-42.05624999999997
 20
-6.477000000000057
 30
0.0
 11
-42.05624999999996
 21
-9.779000000000057
 31
0.0
  0
SOLID
  5
EB
330
E2
100
AcDbEntity
  8
치수문자_일반주서
 62
     0
100
AcDbTrace
 10
-42.60658333333335
 20
6.476999999999963
 30
0.0
 11
-41.50591666666669
 21
6.476999999999967
 31
0.0
 12
-42.05625000000001
 22
3.174999999999965
 32
0.0
 13
-42.05625000000001
 23
3.174999999999965
 33
0.0
  0
SOLID
  5
EC
330
E2
100
AcDbEntity
  8
치수문자_일반주서
 62
     0
100
AcDbTrace
 10
-41.50591666666664
 20
-6.477000000000055
 30
0.0
 11
-42.6065833333333
 21
-6.477000000000059
 31
0.0
 12
-42.05624999999998
 22
-3.175000000000058
 32
0.0
 13
-42.05624999999998
 23
-3.175000000000058
 33
0.0
  0
MTEXT
  5
ED
330
E2
100
AcDbEntity
  8
치수문자_일반주서
 62
     0
100
AcDbMText
 10
-46.43125000000007
 20
22.46649999999996
 30
0.0
 40
3.5
 41
0.0
 71
     2
 72
     1
  1
\A1;%%c6.35 [1/4]
  7
SLDTEXTSTYLE0
 11
-3.356894814614635E-15
 21
1.0
 31
0.0
 73
     1
 44
1.0
  0
POINT
  5
14F
330
E2
100
AcDbEntity
  8
Defpoints
 62
     0
100
AcDbPoint
 10
-30.775
 20
3.175000000000007
 30
0.0
  0
POINT
  5
150
330
E2
100
AcDbEntity
  8
Defpoints
 62
     0
100
AcDbPoint
 10
-30.775
 20
-3.175000000000014
 30
0.0
  0
POINT
  5
151
330
E2
100
AcDbEntity
  8
Defpoints
 62
     0
100
AcDbPoint
 10
-42.05624999999998
 20
-3.175000000000057
 30
0.0
  0
ENDBLK
  5
E4
330
E2
100
AcDbEntity
  8
0
100
AcDbBlockEnd
  0
BLOCK
  5
F7
330
F6
100
AcDbEntity
  8
0
100
AcDbBlockBegin
  2
_D_2
 70
     0
 10
0.0
 20
0.0
 30
0.0
  3
_D_2
  1

  0
LINE
  5
F9
330
F6
100
AcDbEntity
  8
치수문자_일반주서
 62
     0
370
    -2
100
AcDbLine
 10
19.52500000000001
 20
3.300000000000034
 30
0.0
 11
19.52500000000001
 21
21.07563404493786
 31
0.0
  0
LINE
  5
FA
330
F6
100
AcDbEntity
  8
치수문자_일반주서
 62
     0
370
    -2
100
AcDbLine
 10
10.00000000000001
 20
3.237499999999997
 30
0.0
 11
10.00000000000001
 21
21.07563404493786
 31
0.0
  0
LINE
  5
FB
330
F6
100
AcDbEntity
  8
치수문자_일반주서
 62
     0
370
    -2
100
AcDbLine
 10
10.00000000000001
 20
21.07563404493786
 30
0.0
 11
-20.22899999999998
 21
21.07563404493786
 31
0.0
  0
LINE
  5
FC
330
F6
100
AcDbEntity
  8
치수문자_일반주서
 62
     0
370
    -2
100
AcDbLine
 10
19.52500000000001
 20
21.07563404493786
 30
0.0
 11
10.00000000000001
 21
21.07563404493786
 31
0.0
  0
LINE
  5
FD
330
F6
100
AcDbEntity
  8
치수문자_일반주서
 62
     0
370
    -2
100
AcDbLine
 10
22.82700000000001
 20
21.07563404493786
 30
0.0
 11
26.12900000000001
 21
21.07563404493786
 31
0.0
  0
LINE
  5
FE
330
F6
100
AcDbEntity
  8
치수문자_일반주서
 62
     0
370
    -2
100
AcDbLine
 10
6.698000000000013
 20
21.07563404493786
 30
0.0
 11
3.396000000000013
 21
21.07563404493786
 31
0.0
  0
SOLID
  5
FF
330
F6
100
AcDbEntity
  8
치수문자_일반주서
 62
     0
100
AcDbTrace
 10
22.82700000000001
 20
21.6259673782712
 30
0.0
 11
22.82700000000001
 21
20.52530071160453
 31
0.0
 12
19.52500000000001
 22
21.07563404493786
 32
0.0
 13
19.52500000000001
 23
21.07563404493786
 33
0.0
  0
SOLID
  5
100
330
F6
100
AcDbEntity
  8
치수문자_일반주서
 62
     0
100
AcDbTrace
 10
6.698000000000013
 20
20.52530071160453
 30
0.0
 11
6.698000000000013
 21
21.6259673782712
 31
0.0
 12
10.00000000000001
 22
21.07563404493786
 32
0.0
 13
10.00000000000001
 23
21.07563404493786
 33
0.0
  0
MTEXT
  5
101
330
F6
100
AcDbEntity
  8
치수문자_일반주서
 62
     0
100
AcDbMText
 10
-8.416499999999987
 20
25.45063404493786
 30
0.0
 40
3.5
 41
0.0
 71
     2
 72
     1
  1
\A1;9.53 [3/8]
  7
SLDTEXTSTYLE0
 73
     1
 44
1.0
  0
POINT
  5
152
330
F6
100
AcDbEntity
  8
Defpoints
 62
     0
100
AcDbPoint
 10
19.52500000000001
 20
3.237500000000034
 30
0.0
  0
POINT
  5
153
330
F6
100
AcDbEntity
  8
Defpoints
 62
     0
100
AcDbPoint
 10
10.00000000000001
 20
3.174999999999997
 30
0.0
  0
POINT
  5
154
330
F6
100
AcDbEntity
  8
Defpoints
 62
     0
100
AcDbPoint
 10
10.00000000000001
 20
21.07563404493786
 30
0.0
  0
ENDBLK
  5
F8
330
F6
100
AcDbEntity
  8
0
100
AcDbBlockEnd
  0
BLOCK
  5
10C
330
10B
100
AcDbEntity
  8
0
100
AcDbBlockBegin
  2
_D_3
 70
     0
 10
0.0
 20
0.0
 30
0.0
  3
_D_3
  1

  0
LINE
  5
10E
330
10B
100
AcDbEntity
  8
치수문자_일반주서
 62
     0
370
    -2
100
AcDbLine
 10
19.58750000000001
 20
3.237500000000034
 30
0.0
 11
29.525
 21
3.237500000000068
 31
0.0
  0
LINE
  5
10F
330
10B
100
AcDbEntity
  8
치수문자_일반주서
 62
     0
370
    -2
100
AcDbLine
 10
19.59351448215214
 20
-3.174999999999955
 30
0.0
 11
29.52500000000002
 21
-3.174999999999919
 31
0.0
  0
LINE
  5
110
330
10B
100
AcDbEntity
  8
치수문자_일반주서
 62
     0
370
    -2
100
AcDbLine
 10
29.525
 20
3.237500000000068
 30
0.0
 11
29.5249999999999
 21
34.34150000000007
 31
0.0
  0
LINE
  5
111
330
10B
100
AcDbEntity
  8
치수문자_일반주서
 62
     0
370
    -2
100
AcDbLine
 10
29.525
 20
3.237500000000068
 30
0.0
 11
29.52500000000002
 21
-3.174999999999919
 31
0.0
  0
LINE
  5
112
330
10B
100
AcDbEntity
  8
치수문자_일반주서
 62
     0
370
    -2
100
AcDbLine
 10
29.52499999999999
 20
6.539500000000068
 30
0.0
 11
29.52499999999998
 21
9.841500000000067
 31
0.0
  0
LINE
  5
113
330
10B
100
AcDbEntity
  8
치수문자_일반주서
 62
     0
370
    -2
100
AcDbLine
 10
29.52500000000003
 20
-6.476999999999919
 30
0.0
 11
29.52500000000004
 21
-9.778999999999918
 31
0.0
  0
SOLID
  5
114
330
10B
100
AcDbEntity
  8
치수문자_일반주서
 62
     0
100
AcDbTrace
 10
28.97466666666665
 20
6.539500000000066
 30
0.0
 11
30.07533333333332
 21
6.53950000000007
 31
0.0
 12
29.525
 22
3.237500000000068
 32
0.0
 13
29.525
 23
3.237500000000068
 33
0.0
  0
SOLID
  5
115
330
10B
100
AcDbEntity
  8
치수문자_일반주서
 62
     0
100
AcDbTrace
 10
30.07533333333337
 20
-6.476999999999917
 30
0.0
 11
28.9746666666667
 21
-6.47699999999992
 31
0.0
 12
29.52500000000002
 22
-3.174999999999919
 32
0.0
 13
29.52500000000002
 23
-3.174999999999919
 33
0.0
  0
MTEXT
  5
116
330
10B
100
AcDbEntity
  8
치수문자_일반주서
 62
     0
100
AcDbMText
 10
25.14999999999993
 20
22.09150000000006
 30
0.0
 40
3.5
 41
0.0
 71
     2
 72
     1
  1
\A1;%%c6.41 [1/4]
  7
SLDTEXTSTYLE0
 11
-3.324176541567726E-15
 21
1.0
 31
0.0
 73
     1
 44
1.0
  0
POINT
  5
117
330
10B
100
AcDbEntity
  8
Defpoints
 62
     0
100
AcDbPoint
 10
19.52500000000001
 20
3.237500000000034
 30
0.0
  0
POINT
  5
118
330
10B
100
AcDbEntity
  8
Defpoints
 62
     0
100
AcDbPoint
 10
19.53101448215214
 20
-3.174999999999955
 30
0.0
  0
POINT
  5
119
330
10B
100
AcDbEntity
  8
Defpoints
 62
     0
100
AcDbPoint
 10
29.52500000000002
 20
-3.174999999999918
 30
0.0
  0
ENDBLK
  5
10D
330
10B
100
AcDbEntity
  8
0
100
AcDbBlockEnd
  0
BLOCK
  5
126
330
125
100
AcDbEntity
  8
0
100
AcDbBlockBegin
  2
SW_DOWELSYMBOL_0
 70
     0
 10
0.0
 20
0.0
 30
0.0
  3
SW_DOWELSYMBOL_0
  1

  0
CIRCLE
  5
128
330
125
100
AcDbEntity
  8
해칭선
 62
     0
100
AcDbCircle
 10
0.0
 20
0.0
 30
0.0
 40
3.000000000000002
  0
HATCH
  5
129
330
125
100
AcDbEntity
  8
0
  6
Continuous
 62
     0
370
     0
100
AcDbHatch
 10
0.0
 20
0.0
 30
0.0
210
0.0
220
0.0
230
1.0
  2
SOLID
 70
     1
 71
     0
 91
        1
 92
        0
 93
        3
 72
     2
 10
0.0000000000000069
 20
0.0
 40
3.000000000000002
 50
0.0
 51
90.0
 73
     1
 72
     1
 10
0.0000000000000069
 20
3.000000000000002
 11
0.0000000000000069
 21
0.0
 72
     1
 10
0.0000000000000069
 20
0.0
 11
3.000000000000009
 21
0.0
 97
        0
 75
     0
 76
     1
 98
        1
 10
0.0
 20
0.0
  0
HATCH
  5
12A
330
125
100
AcDbEntity
  8
0
  6
Continuous
 62
     0
370
     0
100
AcDbHatch
 10
0.0
 20
0.0
 30
0.0
210
0.0
220
0.0
230
1.0
  2
SOLID
 70
     1
 71
     0
 91
        1
 92
        0
 93
        3
 72
     2
 10
0.0000000000000069
 20
0.0
 40
3.000000000000002
 50
180.0
 51
270.0000000000007
 73
     1
 72
     1
 10
0.0000000000000069
 20
-3.000000000000002
 11
0.0000000000000069
 21
0.0
 72
     1
 10
0.0000000000000069
 20
0.0
 11
-2.999999999999995
 21
0.0
 97
        0
 75
     0
 76
     1
 98
        1
 10
0.0
 20
0.0
  0
ENDBLK
  5
127
330
125
100
AcDbEntity
  8
0
100
AcDbBlockEnd
  0
ENDSEC
  0
SECTION
  2
ENTITIES
  0
LINE
  5
96
330
1F
100
AcDbEntity
  8
외형선
  6
Continuous
370
    15
100
AcDbLine
 10
10.00000000000001
 20
3.174999999999997
 30
0.0
 11
-30.77499999999999
 21
3.174999999999997
 31
0.0
  0
LINE
  5
97
330
1F
100
AcDbEntity
  8
외형선
  6
Continuous
370
    15
100
AcDbLine
 10
-30.77499999999999
 20
-3.175000000000002
 30
0.0
 11
8.479829890514091
 21
-3.175000000000002
 31
0.0
  0
LINE
  5
98
330
1F
100
AcDbEntity
  8
외형선
  6
Continuous
370
    15
100
AcDbLine
 10
-30.77499999999999
 20
3.174999999999994
 30
0.0
 11
-31.27499999999999
 21
2.674999999999994
 31
0.0
  0
LINE
  5
99
330
1F
100
AcDbEntity
  8
외형선
  6
Continuous
370
    15
100
AcDbLine
 10
-31.27499999999999
 20
-2.675
 30
0.0
 11
-30.77499999999999
 21
-3.175
 31
0.0
  0
LINE
  5
9A
330
1F
100
AcDbEntity
  8
외형선
  6
Continuous
 62
     1
370
    15
100
AcDbLine
 10
13.42109735823197
 20
-3.175000000000002
 30
0.0
 11
14.04074795386842
 21
-3.175000000000002
 31
0.0
  0
LINE
  5
9B
330
1F
100
AcDbEntity
  8
외형선
  6
Continuous
370
    15
100
AcDbLine
 10
10.00000000000001
 20
3.174999999999997
 30
0.0
 11
10.00000000000001
 21
2.892429883726912
 31
0.0
  0
SPLINE
  5
9C
330
1F
100
AcDbEntity
  8
외형선
  6
Continuous
370
    15
100
AcDbSpline
210
0.0
220
0.0
230
1.0
 70
     8
 71
     3
 72
    10
 73
     6
 74
     0
 42
0.000000001
 43
0.00000001
 40
0.0
 40
0.0
 40
0.0
 40
0.0
 40
0.5000000000000001
 40
0.5000000000000001
 40
1.0
 40
1.0
 40
1.0
 40
1.0
 10
10.00000000000067
 20
2.892429883726757
 30
0.0
 10
9.745767933614184
 20
2.952817729853674
 30
0.0
 10
9.494545695255436
 20
3.003760167253252
 30
0.0
 10
8.989056553751071
 20
3.086500758034012
 30
0.0
 10
8.73385275604362
 20
3.118280664656179
 30
0.0
 10
8.479829890514091
 20
3.139967112122275
 30
0.0
  0
SPLINE
  5
9D
330
1F
100
AcDbEntity
  8
외형선
  6
Continuous
370
    15
100
AcDbSpline
210
0.0
220
0.0
230
1.0
 70
     8
 71
     3
 72
    10
 73
     6
 74
     0
 42
0.000000001
 43
0.00000001
 40
0.0
 40
0.0
 40
0.0
 40
0.0
 40
0.5000000000000001
 40
0.5000000000000001
 40
1.0
 40
1.0
 40
1.0
 40
1.0
 10
10.00000000000068
 20
-0.9375558464127312
 30
0.0
 10
9.745767933614186
 20
-0.7976563833034311
 30
0.0
 10
9.494545695255436
 20
-0.655326748958367
 30
0.0
 10
8.989056553751075
 20
-0.3668518825982321
 30
0.0
 10
8.73385275604362
 20
-0.2205166941664281
 30
0.0
 10
8.479829890514091
 20
-0.0741675786564256
 30
0.0
  0
LINE
  5
9E
330
1F
100
AcDbEntity
  8
외형선
  6
Continuous
370
    15
100
AcDbLine
 10
10.00000000000001
 20
-0.9375558464123652
 30
0.0
 11
10.00000000000001
 21
-2.580170750434784
 31
0.0
  0
SPLINE
  5
9F
330
1F
100
AcDbEntity
  8
외형선
  6
Continuous
370
    15
100
AcDbSpline
210
0.0
220
0.0
230
1.0
 70
     8
 71
     3
 72
    10
 73
     6
 74
     0
 42
0.000000001
 43
0.00000001
 40
0.0
 40
0.0
 40
0.0
 40
0.0
 40
0.5
 40
0.5
 40
1.0
 40
1.0
 40
1.0
 40
1.0
 10
10.00000000000067
 20
-2.580170750435007
 30
0.0
 10
9.745767933614184
 20
-2.494839264947883
 30
0.0
 10
9.494545695255436
 20
-2.401633269154722
 30
0.0
 10
8.989056553751071
 20
-2.200229796230757
 30
0.0
 10
8.73385275604362
 20
-2.091855397281836
 30
0.0
 10
8.479829890514091
 20
-1.97732082552328
 30
0.0
  0
LINE
  5
A0
330
1F
100
AcDbEntity
  8
외형선
  6
Continuous
370
    15
100
AcDbLine
 10
8.479829890514091
 20
-1.977294265067811
 30
0.0
 11
8.479829890514091
 21
-3.175000000000002
 31
0.0
  0
SPLINE
  5
A1
330
1F
100
AcDbEntity
  8
외형선
  6
Continuous
370
    15
100
AcDbSpline
210
0.0
220
0.0
230
1.0
 70
     8
 71
     3
 72
     9
 73
     5
 74
     0
 42
0.000000001
 43
0.00000001
 40
0.0
 40
0.0
 40
0.0
 40
0.0
 40
0.3031818442706715
 40
0.9999999999999999
 40
0.9999999999999999
 40
0.9999999999999999
 40
0.9999999999999999
 10
9.442378497022002
 20
-2.376851234385708
 30
0.0
 10
9.34516854728026
 20
-2.415894662755505
 30
0.0
 10
9.024536056981946
 20
-2.54467357583231
 30
0.0
 10
8.703519827500521
 20
-2.643165553311004
 30
0.0
 10
8.479829890514091
 20
-2.711796551411843
 30
0.0
  0
LINE
  5
A2
330
1F
100
AcDbEntity
  8
외형선
  6
Continuous
370
    15
100
AcDbLine
 10
-30.77499999999999
 20
3.174999999999994
 30
0.0
 11
-30.77499999999999
 21
-3.175000000000002
 31
0.0
  0
LINE
  5
A3
330
1F
100
AcDbEntity
  8
외형선
  6
Continuous
370
    15
100
AcDbLine
 10
8.479829890514091
 20
3.139972140987406
 30
0.0
 11
8.479829890514091
 21
-0.0741642385677792
 31
0.0
  0
LINE
  5
A4
330
1F
100
AcDbEntity
  8
외형선
  6
Continuous
370
    15
100
AcDbLine
 10
-31.27499999999999
 20
2.674999999999994
 30
0.0
 11
-31.27499999999999
 21
-2.675
 31
0.0
  0
SPLINE
  5
A5
330
1F
100
AcDbEntity
  8
외형선
  6
Continuous
370
    15
100
AcDbSpline
210
0.0
220
0.0
230
1.0
 70
    24
 71
     3
 72
    14
 73
    10
 74
     0
 42
0.000000001
 43
0.00000001
 40
0.0
 40
0.0
 40
0.0
 40
0.0
 40
0.25
 40
0.25
 40
0.5
 40
0.5
 40
0.75
 40
0.75
 40
1.0
 40
1.0
 40
1.0
 40
1.0
 10
10.00000000000001
 20
2.892429883726909
 30
0.0
 10
10.00000000000001
 20
2.648560331238392
 30
0.0
 10
10.00000000000001
 20
2.366895860252986
 30
0.0
 10
10.00000000000001
 20
1.729716226049343
 30
0.0
 10
10.00000000000001
 20
1.373088626096156
 30
0.0
 10
10.00000000000001
 20
0.6312334046820645
 30
0.0
 10
10.00000000000001
 20
0.2463441394536099
 30
0.0
 10
10.00000000000001
 20
-0.4409507644980978
 30
0.0
 10
10.00000000000001
 20
-0.7396240893893308
 30
0.0
 10
10.00000000000001
 20
-0.9375558464178833
 30
0.0
  0
SPLINE
  5
A6
330
1F
100
AcDbEntity
  8
외형선
  6
Continuous
 62
     1
370
    15
100
AcDbSpline
210
0.0
220
0.0
230
1.0
 70
     8
 71
     3
 72
    18
 73
    14
 74
     0
 42
0.000000001
 43
0.00000001
 40
0.0
 40
0.0
 40
0.0
 40
0.0
 40
0.25
 40
0.25
 40
0.5
 40
0.5
 40
0.75
 40
0.75
 40
0.8750000000000001
 40
0.8750000000000001
 40
0.9375000000000001
 40
0.9375000000000001
 40
1.0
 40
1.0
 40
1.0
 40
1.0
 10
19.41772751245146
 20
0.2756048853300431
 30
0.0
 10
19.43429214445399
 20
0.1337570824283718
 30
0.0
 10
19.44239342401903
 20
-0.0083325780581314
 30
0.0
 10
19.44626955311874
 20
-0.293024277136646
 30
0.0
 10
19.44231384945577
 20
-0.435865902210742
 30
0.0
 10
19.41476987045175
 20
-0.7214978193157924
 30
0.0
 10
19.39392431793052
 20
-0.8651595803004533
 30
0.0
 10
19.31280538672791
 20
-1.064629903179181
 30
0.0
 10
19.2763610606316
 20
-1.130941887424686
 30
0.0
 10
19.18884961662204
 20
-1.193911322807824
 30
0.0
 10
19.15413985374714
 20
-1.206734173277425
 30
0.0
 10
19.08370217292178
 20
-1.208375271564079
 30
0.0
 10
19.04855114879726
 20
-1.197792657323715
 30
0.0
 10
19.01699999999831
 20
-1.18091928855249
 30
0.0
  0
SPLINE
  5
A7
330
1F
100
AcDbEntity
  8
외형선
  6
Continuous
 62
     1
370
    15
100
AcDbSpline
210
0.0
220
0.0
230
1.0
 70
     8
 71
     3
 72
    25
 73
    21
 74
     0
 42
0.000000001
 43
0.00000001
 40
0.0
 40
0.0
 40
0.0
 40
0.0
 40
0.0313379335410324
 40
0.0626809744906776
 40
0.1249700746210099
 40
0.178743192350475
 40
0.232558687014473
 40
0.2501296905738076
 40
0.3751000090499845
 40
0.4374182346404358
 40
0.4999806575229602
 40
0.5625071690796778
 40
0.6248714061568484
 40
0.687550033708378
 40
0.7499128554854758
 40
0.8124214474581221
 40
0.8750532796215665
 40
0.9373309838353049
 40
0.9538988749683854
 40
1.0
 40
1.0
 40
1.0
 40
1.0
 10
19.01699999999998
 20
-1.18091928855338
 30
0.0
 10
18.92277684797967
 20
-1.130216524843955
 30
0.0
 10
18.73431518759345
 20
-1.028802733966006
 30
0.0
 10
18.35838467475776
 20
-0.8222664298667512
 30
0.0
 10
17.91605749551012
 20
-0.5716086632518182
 30
0.0
 10
17.40521865832364
 20
-0.2796187920161701
 30
0.0
 10
17.02869066960498
 20
-0.0630398671287146
 30
0.0
 10
16.43901689610696
 20
0.2782968462445368
 30
0.0
 10
15.82221818060992
 20
0.6318709073631927
 30
0.0
 10
15.07215717840592
 20
1.049696518912538
 30
0.0
 10
14.50864699425189
 20
1.350790825399893
 30
0.0
 10
13.94488387353448
 20
1.637650030250099
 30
0.0
 10
13.3819425400093
 20
1.909166131183708
 30
0.0
 10
12.81784995693929
 20
2.15816466811666
 30
0.0
 10
12.25473884073642
 20
2.386581659945875
 30
0.0
 10
11.6911664253821
 20
2.589039670524206
 30
0.0
 10
11.12726363101018
 20
2.763936007855595
 30
0.0
 10
10.70280500158449
 20
2.874812305236849
 30
0.0
 10
10.32708477534346
 20
2.959738068220696
 30
0.0
 10
10.13863157625962
 20
2.995219429385882
 30
0.0
 10
9.999999999999675
 20
3.021320535921038
 30
0.0
  0
SPLINE
  5
A8
330
1F
100
AcDbEntity
  8
외형선
  6
Continuous
 62
     1
370
    15
100
AcDbSpline
210
0.0
220
0.0
230
1.0
 70
     8
 71
     3
 72
    19
 73
    15
 74
     0
 42
0.000000001
 43
0.00000001
 40
0.0
 40
0.0
 40
0.0
 40
0.0
 40
0.0429209644703999
 40
0.1291095297297123
 40
0.2168848434610786
 40
0.304660148109151
 40
0.4114670333459901
 40
0.5190207282991743
 40
0.6251128349164395
 40
0.7319421909882583
 40
0.7985920087875144
 40
0.8652416162388685
 40
0.9326208144029406
 40
0.9999999999999999
 40
0.9999999999999999
 40
0.9999999999999999
 40
0.9999999999999999
 10
10.39057426501689
 20
2.932218472937214
 30
0.0
 10
10.51972155589606
 20
2.944977577142922
 30
0.0
 10
10.90820644194225
 20
2.983357934250396
 30
0.0
 10
11.56085857785912
 20
2.983851851791142
 30
0.0
 10
12.34844032939407
 20
2.934441969576553
 30
0.0
 10
13.19818643526816
 20
2.813464965921245
 30
0.0
 10
14.10685982387536
 20
2.609472919352432
 30
0.0
 10
15.0717981971405
 20
2.313699853376522
 30
0.0
 10
16.03604396121488
 20
1.946469026512947
 30
0.0
 10
16.87692356969172
 20
1.573328610347525
 30
0.0
 10
17.59978644066555
 20
1.225970295101786
 30
0.0
 10
18.20327512621901
 20
0.9198095849290893
 30
0.0
 10
18.80947801912609
 20
0.602548778271686
 30
0.0
 10
19.21497769394752
 20
0.3845861762021283
 30
0.0
 10
19.41772751245062
 20
0.2756048853304977
 30
0.0
  0
SPLINE
  5
A9
330
1F
100
AcDbEntity
  8
외형선
  6
Continuous
 62
     1
370
    15
100
AcDbSpline
210
0.0
220
0.0
230
1.0
 70
     8
 71
     3
 72
    30
 73
    26
 74
     0
 42
0.000000001
 43
0.00000001
 40
0.0
 40
0.0
 40
0.0
 40
0.0
 40
0.0293678288021848
 40
0.1035496271484643
 40
0.1894560612482444
 40
0.2687733331645493
 40
0.3210529314089895
 40
0.3732550235457456
 40
0.4253796479155306
 40
0.4775114411923558
 40
0.529925237102127
 40
0.5682853592293373
 40
0.6342721760167082
 40
0.6628703317287516
 40
0.6980571525805884
 40
0.7412912848803389
 40
0.781793545414472
 40
0.8101165915976687
 40
0.8391613491206802
 40
0.8658855215487915
 40
0.8925883321246162
 40
0.91023291271505
 40
0.9252907595344417
 40
0.9552132937100957
 40
0.9999999999999999
 40
0.9999999999999999
 40
0.9999999999999999
 40
0.9999999999999999
 10
16.16567804994299
 20
-2.938283867208709
 30
0.0
 10
16.10531595569472
 20
-2.952124448834954
 30
0.0
 10
15.89248195984812
 20
-3.000925709444619
 30
0.0
 10
15.50287008104115
 20
-3.066452089582755
 30
0.0
 10
15.01144469204758
 20
-3.13061668209173
 30
0.0
 10
14.56410989104298
 20
-3.163520405888487
 30
0.0
 10
14.1861627829922
 20
-3.175710980293216
 30
0.0
 10
13.86432794088471
 20
-3.175175845675413
 30
0.0
 10
13.54292018617182
 20
-3.163786623226561
 30
0.0
 10
13.22134574456955
 20
-3.141435140747042
 30
0.0
 10
12.92728926928085
 20
-3.111389784582383
 30
0.0
 10
12.60468866428989
 20
-3.069302456247407
 30
0.0
 10
12.33188937462827
 20
-3.024296105598558
 30
0.0
 10
12.06534104303904
 20
-2.972710800299335
 30
0.0
 10
11.84535381128418
 20
-2.926016015031831
 30
0.0
 10
11.60077431573929
 20
-2.868501837415003
 30
0.0
 10
11.3703405651826
 20
-2.808673941127755
 30
0.0
 10
11.16912670558114
 20
-2.752450344780172
 30
0.0
 10
10.99636865917072
 20
-2.70124790103011
 30
0.0
 10
10.82698103683751
 20
-2.648385076966049
 30
0.0
 10
10.68102494310513
 20
-2.600697055688975
 30
0.0
 10
10.55911957850774
 20
-2.559310233219168
 30
0.0
 10
10.43030460505356
 20
-2.514863929093881
 30
0.0
 10
10.24574013652159
 20
-2.449164666790046
 30
0.0
 10
10.09210263290797
 20
-2.390764764363861
 30
0.0
 10
9.999999999999675
 20
-2.355755182402894
 30
0.0
  0
LINE
  5
AA
330
1F
100
AcDbEntity
  8
외형선
  6
Continuous
370
    15
100
AcDbLine
 10
10.00000000000001
 20
-0.9552704059110353
 30
0.0
 11
10.00000000000001
 21
-2.355755182403025
 31
0.0
  0
SPLINE
  5
AB
330
1F
100
AcDbEntity
  8
외형선
  6
Continuous
 62
     1
370
    15
100
AcDbSpline
210
0.0
220
0.0
230
1.0
 70
     8
 71
     3
 72
    30
 73
    26
 74
     0
 42
0.000000001
 43
0.00000001
 40
0.0
 40
0.0
 40
0.0
 40
0.0
 40
0.0625
 40
0.0625
 40
0.1249999999999999
 40
0.1249999999999999
 40
0.25
 40
0.25
 40
0.375
 40
0.375
 40
0.4374999999999998
 40
0.4374999999999998
 40
0.4999999999999997
 40
0.4999999999999997
 40
0.6249999999999996
 40
0.6249999999999996
 40
0.6874999999999997
 40
0.6874999999999997
 40
0.7499999999999998
 40
0.7499999999999998
 40
0.8124999999999998
 40
0.8124999999999998
 40
0.8749999999999999
 40
0.8749999999999999
 40
1.0
 40
1.0
 40
1.0
 40
1.0
 10
10.00000000000033
 20
-0.8501434376232222
 30
0.0
 10
10.19688078811036
 20
-0.9521236752571973
 30
0.0
 10
10.3942396903732
 20
-1.052554330802809
 30
0.0
 10
10.7865288974738
 20
-1.248607392787367
 30
0.0
 10
10.9804128610718
 20
-1.344070775164557
 30
0.0
 10
11.56876390034535
 20
-1.623325315033574
 30
0.0
 10
11.96515313570819
 20
-1.799051842995088
 30
0.0
 10
12.74390513695186
 20
-2.118546795058416
 30
0.0
 10
13.14120211493507
 20
-2.264311733233808
 30
0.0
 10
13.72879748373456
 20
-2.454411412444586
 30
0.0
 10
13.92279153369771
 20
-2.513035020529633
 30
0.0
 10
14.3155155311483
 20
-2.620947743736335
 30
0.0
 10
14.51293008022694
 20
-2.670083087422099
 30
0.0
 10
15.10324939627959
 20
-2.801729370711337
 30
0.0
 10
15.49169113369676
 20
-2.868396042787411
 30
0.0
 10
16.08271629241258
 20
-2.935329974574589
 30
0.0
 10
16.27983694336611
 20
-2.952053225224847
 30
0.0
 10
16.67093147676947
 20
-2.974120317807539
 30
0.0
 10
16.86528159835342
 20
-2.979503971389799
 30
0.0
 10
17.25841816157635
 20
-2.978913491369617
 30
0.0
 10
17.45585757314586
 20
-2.972907094958344
 30
0.0
 10
17.84908925474662
 20
-2.949572358305712
 30
0.0
 10
18.04357309028229
 20
-2.932300828919423
 30
0.0
 10
18.6299465167223
 20
-2.863795472967289
 30
0.0
 10
19.02734502526154
 20
-2.795463207991339
 30
0.0
 10
19.41772751245062
 20
-2.706819037387407
 30
0.0
  0
SPLINE
  5
AC
330
1F
100
AcDbEntity
  8
외형선
  6
Continuous
 62
     1
370
    15
100
AcDbSpline
210
0.0
220
0.0
230
1.0
 70
     8
 71
     3
 72
    32
 73
    28
 74
     0
 42
0.000000001
 43
0.00000001
 40
0.0
 40
0.0
 40
0.0
 40
0.0
 40
0.0625000000000001
 40
0.0625000000000001
 40
0.1250000000000001
 40
0.1250000000000001
 40
0.2500000000000003
 40
0.2500000000000003
 40
0.3125000000000002
 40
0.3125000000000002
 40
0.3750000000000002
 40
0.3750000000000002
 40
0.4375000000000002
 40
0.4375000000000002
 40
0.5000000000000001
 40
0.5000000000000001
 40
0.5625000000000001
 40
0.5625000000000001
 40
0.625
 40
0.625
 40
0.7499999999999999
 40
0.7499999999999999
 40
0.875
 40
0.875
 40
0.9375
 40
0.9375
 40
1.0
 40
1.0
 40
1.0
 40
1.0
 10
19.01699999999998
 20
-1.504833091515706
 30
0.0
 10
18.82857908046445
 20
-1.409245926484267
 30
0.0
 10
18.63960117986925
 20
-1.310919525710703
 30
0.0
 10
18.26350528824141
 20
-1.110345244236778
 30
0.0
 10
18.07763856201825
 20
-1.008333489804713
 30
0.0
 10
17.51559620855333
 20
-0.6967570347180619
 30
0.0
 10
17.13539115810846
 20
-0.4816529843883699
 30
0.0
 10
16.57459644646055
 20
-0.1579894254360799
 30
0.0
 10
16.38811315916433
 20
-0.0497237845181891
 30
0.0
 10
16.01155277222857
 20
0.1672941420080575
 30
0.0
 10
15.82255161521319
 20
0.2758377351155908
 30
0.0
 10
15.44608245863442
 20
0.4912857696489185
 30
0.0
 10
15.25976676241784
 20
0.5979722690988546
 30
0.0
 10
14.88571256209951
 20
0.8091610440925141
 30
0.0
 10
14.69714723932676
 20
0.9138135774262175
 30
0.0
 10
14.31989253342064
 20
1.119565764732936
 30
0.0
 10
14.13120834992587
 20
1.220662574969063
 30
0.0
 10
13.7566848911164
 20
1.417738544668559
 30
0.0
 10
13.57071704295216
 20
1.513754265062017
 30
0.0
 10
13.00640639279502
 20
1.79444622197753
 30
0.0
 10
12.62841980225217
 20
1.970512436391662
 30
0.0
 10
11.88173329428644
 20
2.291402936146235
 30
0.0
 10
11.50158173500467
 20
2.437801048113752
 30
0.0
 10
10.93891188192312
 20
2.629367128503319
 30
0.0
 10
10.75322083283374
 20
2.688544091612941
 30
0.0
 10
10.37743862928352
 20
2.797759914620216
 30
0.0
 10
10.18850008230928
 20
2.847655382511578
 30
0.0
 10
9.999999999999675
 20
2.892429883726995
 30
0.0
  0
SPLINE
  5
AD
330
1F
100
AcDbEntity
  8
외형선
  6
Continuous
 62
     1
370
    15
100
AcDbSpline
210
0.0
220
0.0
230
1.0
 70
     8
 71
     3
 72
    10
 73
     6
 74
     0
 42
0.000000001
 43
0.00000001
 40
0.0
 40
0.0
 40
0.0
 40
0.0
 40
0.5
 40
0.5
 40
1.0
 40
1.0
 40
1.0
 40
1.0
 10
19.01700000000001
 20
-1.504833091515722
 30
0.0
 10
19.14730973568022
 20
-1.5709400728444
 30
0.0
 10
19.27244739270416
 20
-1.613805944537861
 30
0.0
 10
19.46438743542019
 20
-1.63291126482538
 30
0.0
 10
19.52500000000001
 20
-1.607820872353778
 30
0.0
 10
19.52500000000001
 20
-1.563804854310346
 30
0.0
  0
SPLINE
  5
AE
330
1F
100
AcDbEntity
  8
외형선
  6
Continuous
 62
     1
370
    15
100
AcDbSpline
210
0.0
220
0.0
230
1.0
 70
     8
 71
     3
 72
    11
 73
     7
 74
     0
 42
0.000000001
 43
0.00000001
 40
0.0
 40
0.0
 40
0.0
 40
0.0
 40
0.109849841017533
 40
0.5003924684742984
 40
0.9020329334718956
 40
1.0
 40
1.0
 40
1.0
 40
1.0
 10
18.814256888631
 20
-1.397357300653624
 30
0.0
 10
18.78313295992656
 20
-1.401678788134824
 30
0.0
 10
18.64135597264309
 20
-1.421364203863856
 30
0.0
 10
18.36318508142438
 20
-1.496623043427028
 30
0.0
 10
18.08510973452176
 20
-1.590834984897316
 30
0.0
 10
17.92817541296244
 20
-1.653166940663296
 30
0.0
 10
17.89740246789935
 20
-1.665389492310395
 30
0.0
  0
SPLINE
  5
AF
330
1F
100
AcDbEntity
  8
외형선
  6
Continuous
 62
     1
370
    15
100
AcDbSpline
210
0.0
220
0.0
230
1.0
 70
     8
 71
     3
 72
     8
 73
     4
 74
     0
 42
0.000000001
 43
0.00000001
 40
0.0
 40
0.0
 40
0.0
 40
0.0
 40
1.0
 40
1.0
 40
1.0
 40
1.0
 10
19.52500000000001
 20
-1.856130954124578
 30
0.0
 10
18.97071882808216
 20
-1.851336859996784
 30
0.0
 10
18.42720730604703
 20
-1.792655019827311
 30
0.0
 10
17.89740246789933
 20
-1.66538949231039
 30
0.0
  0
LINE
  5
B0
330
1F
100
AcDbEntity
  8
외형선
  6
Continuous
 62
     1
370
    15
100
AcDbLine
 10
19.52500000000001
 20
-2.434503434492072
 30
0.0
 11
19.52500000000001
 21
-1.856130954124581
 31
0.0
  0
SPLINE
  5
B1
330
1F
100
AcDbEntity
  8
외형선
  6
Continuous
 62
     1
370
    15
100
AcDbSpline
210
0.0
220
0.0
230
1.0
 70
     8
 71
     3
 72
    10
 73
     6
 74
     0
 42
0.000000001
 43
0.00000001
 40
0.0
 40
0.0
 40
0.0
 40
0.0
 40
0.5
 40
0.5
 40
1.0
 40
1.0
 40
1.0
 40
1.0
 10
19.52500000000001
 20
-2.434503434492072
 30
0.0
 10
19.52500000000001
 20
-2.476423211476193
 30
0.0
 10
19.51618809133604
 20
-2.52178150432416
 30
0.0
 10
19.47973562217328
 20
-2.615097312125274
 30
0.0
 10
19.45203564907184
 20
-2.662715440488097
 30
0.0
 10
19.41772751245152
 20
-2.70681903738737
 30
0.0
  0
SPLINE
  5
B2
330
1F
100
AcDbEntity
  8
외형선
  6
Continuous
370
    15
100
AcDbSpline
210
0.0
220
0.0
230
1.0
 70
    24
 71
     3
 72
    14
 73
    10
 74
     0
 42
0.000000001
 43
0.00000001
 40
0.0
 40
0.0
 40
0.0
 40
0.0
 40
0.25
 40
0.25
 40
0.5
 40
0.5
 40
0.75
 40
0.75
 40
1.0
 40
1.0
 40
1.0
 40
1.0
 10
10.00000000000001
 20
2.892429883744629
 30
0.0
 10
10.00000000000001
 20
2.656972139905625
 30
0.0
 10
10.00000000000001
 20
2.38636587276797
 30
0.0
 10
10.00000000000001
 20
1.775926263974856
 30
0.0
 10
10.00000000000001
 20
1.435151053537007
 30
0.0
 10
10.00000000000001
 20
0.722345978005329
 30
0.0
 10
10.00000000000001
 20
0.3504263848703781
 30
0.0
 10
10.00000000000001
 20
-0.3290465024547027
 30
0.0
 10
10.00000000000001
 20
-0.6336862923170558
 30
0.0
 10
10.00000000000001
 20
-0.8501434376230033
 30
0.0
  0
LINE
  5
B3
330
1F
100
AcDbEntity
  8
외형선
  6
Continuous
370
    15
100
AcDbLine
 10
10.00000000000001
 20
2.892429883727869
 30
0.0
 11
10.00000000000001
 21
3.021320535921038
 31
0.0
  0
LINE
  5
B4
330
1F
100
AcDbEntity
  8
외형선
  6
Continuous
 62
     1
370
    15
100
AcDbLine
 10
19.52500000000001
 20
-1.563804854310347
 30
0.0
 11
19.52500000000001
 21
0.2740860262962804
 31
0.0
  0
SPLINE
  5
B5
330
1F
100
AcDbEntity
  8
외형선
  6
Continuous
 62
     1
370
    15
100
AcDbSpline
210
0.0
220
0.0
230
1.0
 70
     8
 71
     3
 72
    10
 73
     6
 74
     0
 42
0.000000001
 43
0.00000001
 40
0.0
 40
0.0
 40
0.0
 40
0.0
 40
0.5
 40
0.5
 40
1.0
 40
1.0
 40
1.0
 40
1.0
 10
19.52500000000001
 20
0.27408602629628
 30
0.0
 10
19.52500000000001
 20
0.261181347450939
 30
0.0
 10
19.51618809133603
 20
0.2539537726322759
 30
0.0
 10
19.47973562217327
 20
0.2541618096876007
 30
0.0
 10
19.45203564907183
 20
0.2617681630599832
 30
0.0
 10
19.41772751245151
 20
0.2756048853300622
 30
0.0
  0
SPLINE
  5
B6
330
1F
100
AcDbEntity
  8
외형선
  6
Continuous
 62
     1
370
    15
100
AcDbSpline
210
0.0
220
0.0
230
1.0
 70
     8
 71
     3
 72
    12
 73
     8
 74
     0
 42
0.000000001
 43
0.00000001
 40
0.0
 40
0.0
 40
0.0
 40
0.0
 40
0.0042617964011937
 40
0.2531071744490834
 40
0.5017114824423321
 40
0.7509821000594191
 40
0.9999999999999999
 40
0.9999999999999999
 40
0.9999999999999999
 40
0.9999999999999999
 10
15.03330527483028
 20
2.313336944610433
 30
0.0
 10
15.03896658179809
 20
2.315773747050739
 30
0.0
 10
15.37519038871431
 20
2.460494921479329
 30
0.0
 10
16.04126215889199
 20
2.680961906613887
 30
0.0
 10
17.03235854643805
 20
2.952314114810171
 30
0.0
 10
18.02467989234598
 20
3.126201652205499
 30
0.0
 10
18.68633848888377
 20
3.157798658478219
 30
0.0
 10
19.01699999999998
 20
3.173589149065895
 30
0.0
  0
LINE
  5
B8
330
1F
100
AcDbEntity
  8
외형선
  6
Continuous
 62
     1
370
    15
100
AcDbLine
 10
19.52500000000001
 20
2.055825087594492
 30
0.0
 11
19.52500000000001
 21
2.652878785430858
 31
0.0
  0
SPLINE
  5
B9
330
1F
100
AcDbEntity
  8
외형선
  6
Continuous
 62
     1
370
    15
100
AcDbSpline
210
0.0
220
0.0
230
1.0
 70
     8
 71
     3
 72
    14
 73
    10
 74
     0
 42
0.000000001
 43
0.00000001
 40
0.0
 40
0.0
 40
0.0
 40
0.0
 40
0.25
 40
0.25
 40
0.5
 40
0.5
 40
0.75
 40
0.75
 40
1.0
 40
1.0
 40
1.0
 40
1.0
 10
19.52500000000001
 20
2.055825087594495
 30
0.0
 10
19.44088241697797
 20
1.906983563949203
 30
0.0
 10
19.33808922344052
 20
1.776677286859757
 30
0.0
 10
19.09613981405973
 20
1.552154454267375
 30
0.0
 10
18.96047139894201
 20
1.461570532406767
 30
0.0
 10
18.67210561974316
 20
1.320997461148334
 30
0.0
 10
18.51972792322937
 20
1.271144798500733
 30
0.0
 10
18.21255794581423
 20
1.206808280619517
 30
0.0
 10
18.05477892060089
 20
1.191732638713451
 30
0.0
 10
17.89740246789935
 20
1.191330439205751
 30
0.0
  0
SPLINE
  5
BA
330
1F
100
AcDbEntity
  8
외형선
  6
Continuous
 62
     1
370
    15
100
AcDbSpline
210
0.0
220
0.0
230
1.0
 70
     8
 71
     3
 72
     8
 73
     4
 74
     0
 42
0.000000001
 43
0.00000001
 40
0.0
 40
0.0
 40
0.0
 40
0.0
 40
1.0
 40
1.0
 40
1.0
 40
1.0
 10
19.52500000000001
 20
0.6124588087644173
 30
0.0
 10
18.97071882808216
 20
0.8351177584014409
 30
0.0
 10
18.42720730604705
 20
1.030550002859964
 30
0.0
 10
17.89740246789935
 20
1.191330439205755
 30
0.0
  0
LINE
  5
BB
330
1F
100
AcDbEntity
  8
외형선
  6
Continuous
 62
     1
370
    15
100
AcDbLine
 10
19.52500000000001
 20
0.2740860262962804
 30
0.0
 11
19.52500000000001
 21
0.6124588087644176
 31
0.0
  0
SPLINE
  5
BC
330
1F
100
AcDbEntity
  8
외형선
  6
Continuous
 62
     1
370
    15
100
AcDbSpline
210
0.0
220
0.0
230
1.0
 70
     8
 71
     3
 72
    11
 73
     7
 74
     0
 42
0.000000001
 43
0.00000001
 40
0.0
 40
0.0
 40
0.0
 40
0.0
 40
0.295121412000608
 40
0.5907584640490412
 40
0.8856038386631774
 40
1.0
 40
1.0
 40
1.0
 40
1.0
 10
9.999999999999675
 20
-2.580170750434672
 30
0.0
 10
10.33649155697258
 20
-2.685388097071546
 30
0.0
 10
11.01006259343256
 20
-2.896006627489763
 30
0.0
 10
12.02062097035732
 20
-3.084315764594059
 30
0.0
 10
12.82405552953759
 20
-3.177203855679696
 30
0.0
 10
13.29066501213864
 20
-3.165564952416235
 30
0.0
 10
13.42109735823197
 20
-3.162311504907743
 30
0.0
  0
LINE
  5
BD
330
1F
100
AcDbEntity
  8
외형선
  6
Continuous
370
    15
100
AcDbLine
 10
10.00000000000001
 20
-2.580170750433433
 30
0.0
 11
10.00000000000001
 21
-2.355755182402894
 31
0.0
  0
LINE
  5
BE
330
1F
100
AcDbEntity
  8
외형선
  6
Continuous
 62
     1
370
    15
100
AcDbLine
 10
19.52500000000001
 20
0.6124588087644173
 30
0.0
 11
19.52500000000001
 21
2.055825087594492
 31
0.0
  0
LINE
  5
BF
330
1F
100
AcDbEntity
  8
외형선
  6
Continuous
 62
     1
370
    15
100
AcDbLine
 10
19.52500000000001
 20
-1.563804854310347
 30
0.0
 11
19.52500000000001
 21
-1.856130954124579
 31
0.0
  0
LINE
  5
C0
330
1F
100
AcDbEntity
  8
외형선
  6
Continuous
 62
     1
370
    15
100
AcDbLine
 10
19.52500000000001
 20
2.652878785430858
 30
0.0
 11
19.52500000000001
 21
2.666999999999998
 31
0.0
  0
LINE
  5
C1
330
1F
100
AcDbEntity
  8
중심선
 62
     1
100
AcDbLine
 10
-34.275
 20
-0.0000000000000042
 30
0.0
 11
22.525
 21
0.0000000000000028
 31
0.0
  0
LINE
  5
C2
330
1F
100
AcDbEntity
  8
참조1
100
AcDbLine
 10
-5.874999999999998
 20
0.2211007829333229
 30
0.0
 11
-5.874999999999993
 21
-39.77889921706668
 31
0.0
  0
LINE
  5
C3
330
1F
100
AcDbEntity
  8
참조1
100
AcDbLine
 10
-5.874999999999993
 20
-39.77889921706668
 30
0.0
 11
-11.49933783948571
 21
-39.77889921706667
 31
0.0
  0
CIRCLE
  5
C4
330
1F
100
AcDbEntity
  8
해칭선
100
AcDbCircle
 10
0.0
 20
0.0
 30
0.0
 40
3.000000000000001
  0
INSERT
  5
C5
330
1F
100
AcDbEntity
  8
0
  6
Continuous
 62
     7
100
AcDbBlockReference
 66
     1
  2
블럭10
 10
-19.81527293212521
 20
-51.82607351871061
 30
0.0
  0
ATTRIB
  5
C6
330
C5
100
AcDbEntity
  8
FORMAT
 62
     2
100
AcDbText
 10
-28.99656822086649
 20
-49.75070660587842
 30
0.0
 40
4.233333333333333
  1
E5075016 [ 3 FLUTE ]
 41
0.75
  7
SLDTEXTSTYLE0
 11
-28.99656822086649
 21
-51.86737327254509
 31
0.0
100
AcDbAttribute
  2
AUTOATTR0
 70
     0
 74
     1
  0
SEQEND
  5
C7
330
C5
100
AcDbEntity
  8
0
  6
Continuous
 62
     7
  0
HATCH
  5
C8
330
1F
100
AcDbEntity
  8
중심선
100
AcDbHatch
 10
0.0
 20
0.0
 30
0.0
210
0.0
220
0.0
230
1.0
  2
SOLID
 70
     1
 71
     0
 91
        1
 92
        0
 93
        4
 72
     1
 10
-14.10036362774437
 20
-35.57889921706667
 11
-17.54663887158165
 21
-35.57889921706667
 72
     1
 10
-17.54663887158165
 20
-35.57889921706667
 11
-19.67486873078567
 21
-38.11522479763927
 72
     1
 10
-19.67486873078567
 20
-38.11522479763927
 11
-16.22856040183522
 21
-38.11518536833677
 72
     1
 10
-16.22856040183522
 20
-38.11518536833677
 11
-14.10036362774437
 21
-35.57889921706667
 97
        0
 75
     0
 76
     1
 98
        1
 10
-0.0000000000000069
 20
0.2200258542094337
  0
HATCH
  5
C9
330
1F
100
AcDbEntity
  8
중심선
100
AcDbHatch
 10
0.0
 20
0.0
 30
0.0
210
0.0
220
0.0
230
1.0
  2
SOLID
 70
     1
 71
     0
 91
        1
 92
        0
 93
        4
 72
     1
 10
-9.087599636708417
 20
-35.5788992170667
 11
-12.5338748805457
 21
-35.57889921706667
 72
     1
 10
-12.5338748805457
 20
-35.57889921706667
 11
-17.06501288890309
 21
-40.97889921706669
 72
     1
 10
-17.06501288890309
 20
-40.97889921706669
 11
-13.61873764506581
 21
-40.97889921706669
 72
     1
 10
-13.61873764506581
 20
-40.97889921706669
 11
-9.087599636708417
 21
-35.5788992170667
 97
        0
 75
     0
 76
     1
 98
        1
 10
-0.0000000000000069
 20
0.2200258542094337
  0
HATCH
  5
CA
330
1F
100
AcDbEntity
  8
중심선
100
AcDbHatch
 10
0.0
 20
0.0
 30
0.0
210
0.0
220
0.0
230
1.0
  2
SOLID
 70
     1
 71
     0
 91
        1
 92
        0
 93
        4
 72
     1
 10
-4.074835645672493
 20
-35.57889921706667
 11
-7.521110889509638
 21
-35.57889921706667
 72
     1
 10
-7.521110889509638
 20
-35.57889921706667
 11
-14.56954779139889
 21
-43.97889921706669
 72
     1
 10
-14.56954779139889
 20
-43.97889921706669
 11
-11.12327254756161
 21
-43.97889921706669
 72
     1
 10
-11.12327254756161
 20
-43.97889921706669
 11
-4.074835645672493
 21
-35.57889921706667
 97
        0
 75
     0
 76
     1
 98
        1
 10
-0.0000000000000069
 20
0.2200258542094337
  0
HATCH
  5
CB
330
1F
100
AcDbEntity
  8
중심선
100
AcDbHatch
 10
0.0
 20
0.0
 30
0.0
210
0.0
220
0.0
230
1.0
  2
SOLID
 70
     1
 71
     0
 91
        1
 92
        0
 93
        6
 72
     3
 10
0.725054785339678
 20
-39.77889921711795
 11
3.960054785062284
 21
1.540882976769353E-10
 40
0.3939339440162627
 50
17.09539180608436
 51
320.0019657685073
 73
     0
 72
     1
 10
2.408054441040274
 20
-38.36679322170495
 11
4.713356314741311
 21
-36.43246651165703
 72
     3
 10
0.7250547852868314
 20
-39.77889921706682
 11
6.600054785286829
 21
-1.278976924368180E-13
 40
0.636358354079598
 50
39.99873849337429
 51
368.4976242363724
 73
     1
 72
     1
 10
7.150387277187439
 20
-38.8188992169967
 11
-0.5948779078772466
 21
-38.8188992169967
 72
     1
 10
-0.5948779078772461
 20
-38.8188992169967
 11
-0.5949029523231799
 21
-40.73889921699659
 72
     1
 10
-0.5949029523231799
 20
-40.73889921699659
 11
3.846476817148858
 21
-40.73889921699656
 97
        0
 75
     0
 76
     1
 98
        1
 10
-0.0000000000000069
 20
0.2200258542094337
  0
DIMENSION
  5
CC
330
1F
100
AcDbEntity
  8
치수문자_일반주서
100
AcDbDimension
  2
_D
 10
19.52500000000002
 20
38.85126808987568
 30
0.0
 11
-5.874999999999939
 21
38.85126808987568
 31
0.0
 70
   160
  1
<>
 71
     2
 42
50.8
  3
SLDDIMSTYLE0
100
AcDbAlignedDimension
 13
-31.27499999999999
 23
2.674999999999994
 33
0.0
 14
19.52500000000001
 24
3.237500000000034
 34
0.0
100
AcDbRotatedDimension
1001
ACAD
1000
DSTYLE
1002
{
1070
   273
1070
     7
1002
}
  0
DIMENSION
  5
E0
330
1F
100
AcDbEntity
  8
치수문자_일반주서
100
AcDbDimension
  2
_D_1
 10
-42.05624999999998
 20
-3.175000000000058
 30
0.0
 11
-42.05625000000007
 21
22.46649999999998
 31
0.0
 70
   160
  1
%%c<>
 71
     2
 42
6.350000000000022
 52
-270.0
  3
SLDDIMSTYLE1
100
AcDbAlignedDimension
 13
-30.775
 23
3.175000000000007
 33
0.0
 14
-30.775
 24
-3.175000000000014
 34
0.0
 50
90.0000000000002
100
AcDbRotatedDimension
1001
ACAD
1000
DSTYLE
1002
{
1070
   273
1070
     7
1002
}
  0
DIMENSION
  5
F5
330
1F
100
AcDbEntity
  8
치수문자_일반주서
100
AcDbDimension
  2
_D_2
 10
10.00000000000001
 20
21.07563404493786
 30
0.0
 11
-8.416499999999987
 21
21.07563404493786
 31
0.0
 70
   160
  1
<>
 71
     2
 42
9.525
  3
SLDDIMSTYLE1
100
AcDbAlignedDimension
 13
19.52500000000001
 23
3.237500000000034
 33
0.0
 14
10.00000000000001
 24
3.174999999999997
 34
0.0
100
AcDbRotatedDimension
1001
ACAD
1000
DSTYLE
1002
{
1070
   171
1070
     3
1070
   273
1070
     7
1002
}
  0
DIMENSION
  5
10A
330
1F
100
AcDbEntity
  8
치수문자_일반주서
100
AcDbDimension
  2
_D_3
 10
29.52500000000002
 20
-3.174999999999919
 30
0.0
 11
29.52499999999993
 21
22.09150000000007
 31
0.0
 70
   160
  1
%%c<>
 71
     2
 42
6.412499999999989
 52
-270.0
  3
SLDDIMSTYLE1
100
AcDbAlignedDimension
 13
19.52500000000001
 23
3.237500000000034
 33
0.0
 14
19.53101448215214
 24
-3.174999999999955
 34
0.0
 50
90.0000000000002
100
AcDbRotatedDimension
1001
ACAD
1000
DSTYLE
1002
{
1070
   273
1070
     7
1002
}
  0
LINE
  5
11E
330
1F
100
AcDbEntity
  8
참조1
100
AcDbLine
 10
86.47300279016856
 20
7.66110078293333
 30
0.0
 11
86.47300279016856
 21
-7.218899217066675
 31
0.0
  0
LINE
  5
11F
330
1F
100
AcDbEntity
  8
참조1
100
AcDbLine
 10
99.17300279016857
 20
5.66110078293333
 30
0.0
 11
86.47300279016856
 21
5.66110078293333
 31
0.0
  0
SOLID
  5
120
330
1F
100
AcDbEntity
  8
참조1
100
AcDbTrace
 10
86.47300279016856
 20
5.66110078293333
 30
0.0
 11
92.82300279016856
 21
4.64510078293333
 31
0.0
 12
92.82300279016856
 22
6.67710078293333
 32
0.0
 13
92.82300279016856
 23
6.67710078293333
 33
0.0
  0
LINE
  5
121
330
1F
100
AcDbEntity
  8
참조1
100
AcDbLine
 10
99.17300279016857
 20
-5.218899217066675
 30
0.0
 11
86.47300279016856
 21
-5.218899217066675
 31
0.0
  0
SOLID
  5
122
330
1F
100
AcDbEntity
  8
참조1
100
AcDbTrace
 10
86.47300279016856
 20
-5.218899217066675
 30
0.0
 11
92.82300279016856
 21
-6.234899217066675
 31
0.0
 12
92.82300279016856
 22
-4.202899217066675
 32
0.0
 13
92.82300279016856
 23
-4.202899217066675
 33
0.0
  0
MTEXT
  5
123
330
1F
100
AcDbEntity
  8
참조1
100
AcDbMText
 10
95.87049288263884
 20
11.20931742758326
 30
0.0
 40
3.5
 41
0.0
 71
     1
 72
     1
  1
A
  7
SLDTEXTSTYLE0
 73
     1
 44
1.0
  0
MTEXT
  5
124
330
1F
100
AcDbEntity
  8
참조1
100
AcDbMText
 10
95.87049288263884
 20
0.3293174275832597
 30
0.0
 40
3.5
 41
0.0
 71
     1
 72
     1
  1
A
  7
SLDTEXTSTYLE0
 73
     1
 44
1.0
  0
INSERT
  5
12B
330
1F
100
AcDbEntity
  8
해칭선
100
AcDbBlockReference
  2
SW_DOWELSYMBOL_0
 10
0.0
 20
0.0
 30
0.0
  0
ARC
  5
156
330
1F
100
AcDbEntity
  8
외형선
  6
Continuous
 62
     1
370
    15
100
AcDbCircle
 10
19.01699999999998
 20
2.665589149065895
 30
0.0
 40
0.508
100
AcDbArc
 50
359.2918332382996
 51
90.0
1001
PE_URL
1000

  0
MTEXT
  5
1C6
102
{ACAD_REACTORS
330
1C7
102
}
330
1F
100
AcDbEntity
  8
0
100
AcDbMText
 10
29.85933227937883
 20
-18.22571130558607
 30
0.0
 40
3.5
 41
0.0
 71
     7
 72
     1
  1
{R0.51[.020"]}
 73
     1
 44
1.0
1001
ACAD
1000
ACAD_MTEXT_DEFINED_HEIGHT_BEGIN
1070
    46
1040
3.5
1000
ACAD_MTEXT_DEFINED_HEIGHT_END
  0
LEADER
  5
1C7
102
{ACAD_XDICTIONARY
360
1C8
102
}
330
1F
100
AcDbEntity
  8
0
100
AcDbLeader
  3
ISO-25
 73
     0
 74
     0
 75
     1
 40
3.5
 41
29.75
 76
     3
 10
19.09711071003941
 20
-2.774750498888575
 30
0.0
 10
25.03333227937883
 20
-16.47571130558607
 30
0.0
 10
28.33533227937883
 20
-16.47571130558607
 30
0.0
340
1C6
213
0.0
223
1.75
233
0.0
1001
ACAD
1000
DSTYLE
1002
{
1070
    77
1070
     0
1070
   179
1070
     2
1070
   143
1040
0.0393700787401575
1070
    41
1040
3.302
1070
    44
1040
1.0
1070
    42
1040
1.0
1070
   147
1040
1.524
1070
    73
1070
     1
1070
    74
1070
     1
1070
   140
1040
3.5
1070
   284
1070
     0
1070
    78
1070
     0
1002
}
  0
ENDSEC
  0
SECTION
  2
OBJECTS
  0
DICTIONARY
  5
C
330
0
100
AcDbDictionary
281
     1
  3
ACAD_GROUP
350
D
  3
ACAD_LAYOUT
350
1A
  3
ACAD_MLINESTYLE
350
17
  3
ACAD_PLOTSETTINGS
350
19
  3
ACAD_PLOTSTYLENAME
350
E
  3
ACAD_SCALELIST
350
47
  3
APPDATA
350
14D
  3
DWGPROPS
350
20F
  0
DICTIONARY
  5
1C8
330
1C7
100
AcDbDictionary
280
     1
281
     1
  3
*A1
360
1C9
  0
DICTIONARY
  5
D
102
{ACAD_REACTORS
330
C
102
}
330
C
100
AcDbDictionary
281
     1
  0
DICTIONARY
  5
1A
102
{ACAD_REACTORS
330
C
102
}
330
C
100
AcDbDictionary
281
     1
  3
Layout1
350
1E
  3
Layout2
350
26
  3
Model
350
22
  0
DICTIONARY
  5
17
102
{ACAD_REACTORS
330
C
102
}
330
C
100
AcDbDictionary
281
     1
  3
Standard
350
18
  0
DICTIONARY
  5
19
102
{ACAD_REACTORS
330
C
102
}
330
C
100
AcDbDictionary
281
     1
  0
ACDBDICTIONARYWDFLT
  5
E
102
{ACAD_REACTORS
330
C
102
}
330
C
100
AcDbDictionary
281
     1
  3
Normal
350
F
100
AcDbDictionaryWithDefault
340
F
  0
DICTIONARY
  5
47
102
{ACAD_REACTORS
330
C
102
}
330
C
100
AcDbDictionary
281
     1
  3
A0
350
48
  3
A1
350
49
  3
A2
350
4A
  3
A3
350
4B
  3
A4
350
4C
  3
A5
350
4D
  3
A6
350
4E
  3
A7
350
4F
  3
A8
350
50
  3
A9
350
51
  3
B0
350
52
  3
B1
350
53
  3
B2
350
54
  3
B3
350
55
  3
B4
350
56
  3
B5
350
57
  3
B6
350
58
  3
B7
350
59
  3
B8
350
5A
  3
B9
350
5B
  3
C0
350
5C
  3
C1
350
5D
  3
C2
350
5E
  3
C3
350
5F
  3
C4
350
60
  3
C5
350
61
  3
C6
350
62
  3
C7
350
63
  3
C8
350
64
  3
C9
350
65
  3
D0
350
66
  3
D1
350
67
  3
D2
350
68
  0
DICTIONARY
  5
14D
102
{ACAD_REACTORS
330
C
102
}
330
C
100
AcDbDictionary
281
     1
  0
XRECORD
  5
20F
102
{ACAD_REACTORS
330
C
102
}
330
C
100
AcDbXrecord
280
     1
  1
DWGPROPS COOKIE
  2

  3

  4

  6

  7

  8
12017103
  9

300
=
301
=
302
=
303
=
304
=
305
=
306
=
307
=
308
=
309
=
 40
0.0
 41
2458290.300481505
 42
2458299.386279005
  1

 90
        0
  0
SPLINE
  5
1C9
102
{ACAD_REACTORS
330
1C8
102
}
330
1C8
100
AcDbEntity
  8
외형선
  6
Continuous
 62
     1
370
    15
100
AcDbSpline
210
0.0
220
0.0
230
1.0
 70
     8
 71
     3
 72
    29
 73
    25
 74
     0
 42
0.000000001
 43
0.00000001
 40
0.0
 40
0.0
 40
0.0
 40
0.0
 40
0.0422644495549575
 40
0.0894133481135558
 40
0.1360887908804358
 40
0.183088732683559
 40
0.2297638819666308
 40
0.2767625414519669
 40
0.323437633749297
 40
0.3704354120323877
 40
0.4171106810586105
 40
0.464107897037571
 40
0.5107833946634068
 40
0.5577805359514474
 40
0.6044561394422602
 40
0.651453806121575
 40
0.6980998941979074
 40
0.7450685450090514
 40
0.7915976398774139
 40
0.8384484734548767
 40
0.8795785645527328
 40
0.920930788652952
 40
0.9603675209920361
 40
1.0
 40
1.0
 40
1.0
 40
1.0
 10
12.38189177007194
 20
1.248479460924195
 30
0.0
 10
12.52654344348548
 20
1.258273475674198
 30
0.0
 10
12.8325640013379
 20
1.278993387077104
 30
0.0
 10
13.29773257188337
 20
1.254108412177238
 30
0.0
 10
13.78025596066385
 20
1.187861475668798
 30
0.0
 10
14.25966703328228
 20
1.076843206459327
 30
0.0
 10
14.7418375996466
 20
0.9278143507748849
 30
0.0
 10
15.22126826210304
 20
0.7422259995311946
 30
0.0
 10
15.70321466955698
 20
0.5287568400491983
 30
0.0
 10
16.18301476867187
 20
0.291415106865743
 30
0.0
 10
16.66438564818222
 20
0.0386509998105593
 30
0.0
 10
17.14481199956303
 20
-0.2211140264741509
 30
0.0
 10
17.62559449395425
 20
-0.4827611477767423
 30
0.0
 10
18.10652182376923
 20
-0.7336501666871716
 30
0.0
 10
18.58700798445997
 20
-0.9720014204249832
 30
0.0
 10
19.06797035806053
 20
-1.184275237010919
 30
0.0
 10
19.54830862416817
 20
-1.369853183592872
 30
0.0
 10
20.02843114246354
 20
-1.518172522965445
 30
0.0
 10
20.50823986679071
 20
-1.62831800107122
 30
0.0
 10
20.96857053986777
 20
-1.692379933129987
 30
0.0
 10
21.41107311362818
 20
-1.715381820442324
 30
0.0
 10
21.82821005632637
 20
-1.70162911792889
 30
0.0
 10
22.2401103516564
 20
-1.656726206160658
 30
0.0
 10
22.51072264209905
 20
-1.601263250205901
 30
0.0
 10
22.64636375622617
 20
-1.573463119154277
 30
0.0
  0
LAYOUT
  5
1E
102
{ACAD_REACTORS
330
1A
102
}
330
1A
100
AcDbPlotSettings
  1

  2
none_device
  4

  6

 40
0.0
 41
0.0
 42
0.0
 43
0.0
 44
0.0
 45
0.0
 46
0.0
 47
0.0
 48
0.0
 49
0.0
140
0.0
141
0.0
142
1.0
143
1.0
 70
   688
 72
     1
 73
     0
 74
     5
  7

 75
    16
147
1.0
148
0.0
149
0.0
100
AcDbLayout
  1
Layout1
 70
     1
 71
     1
 10
0.0
 20
0.0
 11
420.0
 21
297.0
 12
0.0
 22
0.0
 32
0.0
 14
1.000000000000000E+20
 24
1.000000000000000E+20
 34
1.000000000000000E+20
 15
-1.000000000000000E+20
 25
-1.000000000000000E+20
 35
-1.000000000000000E+20
146
0.0
 13
0.0
 23
0.0
 33
0.0
 16
1.0
 26
0.0
 36
0.0
 17
0.0
 27
1.0
 37
0.0
 76
     0
330
1B
  0
LAYOUT
  5
26
102
{ACAD_REACTORS
330
1A
102
}
330
1A
100
AcDbPlotSettings
  1

  2
none_device
  4

  6

 40
0.0
 41
0.0
 42
0.0
 43
0.0
 44
0.0
 45
0.0
 46
0.0
 47
0.0
 48
0.0
 49
0.0
140
0.0
141
0.0
142
1.0
143
1.0
 70
   688
 72
     1
 73
     0
 74
     5
  7

 75
    16
147
1.0
148
0.0
149
0.0
100
AcDbLayout
  1
Layout2
 70
     1
 71
     2
 10
0.0
 20
0.0
 11
0.0
 21
0.0
 12
0.0
 22
0.0
 32
0.0
 14
0.0
 24
0.0
 34
0.0
 15
0.0
 25
0.0
 35
0.0
146
0.0
 13
0.0
 23
0.0
 33
0.0
 16
1.0
 26
0.0
 36
0.0
 17
0.0
 27
1.0
 37
0.0
 76
     0
330
23
  0
LAYOUT
  5
22
102
{ACAD_REACTORS
330
1A
102
}
330
1A
100
AcDbPlotSettings
  1

  2
none_device
  4
ANSI_A_(11.00_x_8.50_Inches)
  6

 40
6.35
 41
19.05
 42
6.35000508
 43
19.05000254
 44
279.4
 45
215.9
 46
103.6077942453998
 47
80.79699931413808
 48
0.0
 49
0.0
140
0.0
141
0.0
142
0.0667112288256784
143
1.0
 70
  1696
 72
     0
 73
     0
 74
     0
  7

 75
     0
147
0.0235690232323232
148
0.0
149
0.0
100
AcDbLayout
  1
Model
 70
     1
 71
     0
 10
0.0
 20
0.0
 11
420.0
 21
297.0
 12
0.0
 22
0.0
 32
0.0
 14
-46.43125000000011
 24
-49.75070660587842
 34
0.0
 15
99.17300279016858
 25
43.22626808987567
 35
0.0
146
0.0
 13
0.0
 23
0.0
 33
0.0
 16
1.0
 26
0.0
 36
0.0
 17
0.0
 27
1.0
 37
0.0
 76
     0
330
1F
331
29
  0
MLINESTYLE
  5
18
102
{ACAD_REACTORS
330
17
102
}
330
17
100
AcDbMlineStyle
  2
Standard
 70
     0
  3

 62
   256
 51
90.0
 52
90.0
 71
     2
 49
0.5
 62
   256
  6
BYLAYER
 49
-0.5
 62
   256
  6
BYLAYER
  0
ACDBPLACEHOLDER
  5
F
102
{ACAD_REACTORS
330
E
102
}
330
E
  0
SCALE
  5
48
102
{ACAD_REACTORS
330
47
102
}
330
47
100
AcDbScale
 70
     0
300
1:1
140
1.0
141
1.0
290
     1
  0
SCALE
  5
49
102
{ACAD_REACTORS
330
47
102
}
330
47
100
AcDbScale
 70
     0
300
1:2
140
1.0
141
2.0
290
     0
  0
SCALE
  5
4A
102
{ACAD_REACTORS
330
47
102
}
330
47
100
AcDbScale
 70
     0
300
1:4
140
1.0
141
4.0
290
     0
  0
SCALE
  5
4B
102
{ACAD_REACTORS
330
47
102
}
330
47
100
AcDbScale
 70
     0
300
1:5
140
1.0
141
5.0
290
     0
  0
SCALE
  5
4C
102
{ACAD_REACTORS
330
47
102
}
330
47
100
AcDbScale
 70
     0
300
1:8
140
1.0
141
8.0
290
     0
  0
SCALE
  5
4D
102
{ACAD_REACTORS
330
47
102
}
330
47
100
AcDbScale
 70
     0
300
1:10
140
1.0
141
10.0
290
     0
  0
SCALE
  5
4E
102
{ACAD_REACTORS
330
47
102
}
330
47
100
AcDbScale
 70
     0
300
1:16
140
1.0
141
16.0
290
     0
  0
SCALE
  5
4F
102
{ACAD_REACTORS
330
47
102
}
330
47
100
AcDbScale
 70
     0
300
1:20
140
1.0
141
20.0
290
     0
  0
SCALE
  5
50
102
{ACAD_REACTORS
330
47
102
}
330
47
100
AcDbScale
 70
     0
300
1:30
140
1.0
141
30.0
290
     0
  0
SCALE
  5
51
102
{ACAD_REACTORS
330
47
102
}
330
47
100
AcDbScale
 70
     0
300
1:40
140
1.0
141
40.0
290
     0
  0
SCALE
  5
52
102
{ACAD_REACTORS
330
47
102
}
330
47
100
AcDbScale
 70
     0
300
1:50
140
1.0
141
50.0
290
     0
  0
SCALE
  5
53
102
{ACAD_REACTORS
330
47
102
}
330
47
100
AcDbScale
 70
     0
300
1:100
140
1.0
141
100.0
290
     0
  0
SCALE
  5
54
102
{ACAD_REACTORS
330
47
102
}
330
47
100
AcDbScale
 70
     0
300
2:1
140
2.0
141
1.0
290
     0
  0
SCALE
  5
55
102
{ACAD_REACTORS
330
47
102
}
330
47
100
AcDbScale
 70
     0
300
4:1
140
4.0
141
1.0
290
     0
  0
SCALE
  5
56
102
{ACAD_REACTORS
330
47
102
}
330
47
100
AcDbScale
 70
     0
300
8:1
140
8.0
141
1.0
290
     0
  0
SCALE
  5
57
102
{ACAD_REACTORS
330
47
102
}
330
47
100
AcDbScale
 70
     0
300
10:1
140
10.0
141
1.0
290
     0
  0
SCALE
  5
58
102
{ACAD_REACTORS
330
47
102
}
330
47
100
AcDbScale
 70
     0
300
100:1
140
100.0
141
1.0
290
     0
  0
SCALE
  5
59
102
{ACAD_REACTORS
330
47
102
}
330
47
100
AcDbScale
 70
     0
300
1/128" = 1'-0"
140
0.0078125
141
12.0
290
     0
  0
SCALE
  5
5A
102
{ACAD_REACTORS
330
47
102
}
330
47
100
AcDbScale
 70
     0
300
1/64" = 1'-0"
140
0.015625
141
12.0
290
     0
  0
SCALE
  5
5B
102
{ACAD_REACTORS
330
47
102
}
330
47
100
AcDbScale
 70
     0
300
1/32" = 1'-0"
140
0.03125
141
12.0
290
     0
  0
SCALE
  5
5C
102
{ACAD_REACTORS
330
47
102
}
330
47
100
AcDbScale
 70
     0
300
1/16" = 1'-0"
140
0.0625
141
12.0
290
     0
  0
SCALE
  5
5D
102
{ACAD_REACTORS
330
47
102
}
330
47
100
AcDbScale
 70
     0
300
3/32" = 1'-0"
140
0.09375
141
12.0
290
     0
  0
SCALE
  5
5E
102
{ACAD_REACTORS
330
47
102
}
330
47
100
AcDbScale
 70
     0
300
1/8" = 1'-0"
140
0.125
141
12.0
290
     0
  0
SCALE
  5
5F
102
{ACAD_REACTORS
330
47
102
}
330
47
100
AcDbScale
 70
     0
300
3/16" = 1'-0"
140
0.1875
141
12.0
290
     0
  0
SCALE
  5
60
102
{ACAD_REACTORS
330
47
102
}
330
47
100
AcDbScale
 70
     0
300
1/4" = 1'-0"
140
0.25
141
12.0
290
     0
  0
SCALE
  5
61
102
{ACAD_REACTORS
330
47
102
}
330
47
100
AcDbScale
 70
     0
300
3/8" = 1'-0"
140
0.375
141
12.0
290
     0
  0
SCALE
  5
62
102
{ACAD_REACTORS
330
47
102
}
330
47
100
AcDbScale
 70
     0
300
1/2" = 1'-0"
140
0.5
141
12.0
290
     0
  0
SCALE
  5
63
102
{ACAD_REACTORS
330
47
102
}
330
47
100
AcDbScale
 70
     0
300
3/4" = 1'-0"
140
0.75
141
12.0
290
     0
  0
SCALE
  5
64
102
{ACAD_REACTORS
330
47
102
}
330
47
100
AcDbScale
 70
     0
300
1" = 1'-0"
140
1.0
141
12.0
290
     0
  0
SCALE
  5
65
102
{ACAD_REACTORS
330
47
102
}
330
47
100
AcDbScale
 70
     0
300
1-1/2" = 1'-0"
140
1.5
141
12.0
290
     0
  0
SCALE
  5
66
102
{ACAD_REACTORS
330
47
102
}
330
47
100
AcDbScale
 70
     0
300
3" = 1'-0"
140
3.0
141
12.0
290
     0
  0
SCALE
  5
67
102
{ACAD_REACTORS
330
47
102
}
330
47
100
AcDbScale
 70
     0
300
6" = 1'-0"
140
6.0
141
12.0
290
     0
  0
SCALE
  5
68
102
{ACAD_REACTORS
330
47
102
}
330
47
100
AcDbScale
 70
     0
300
1'-0" = 1'-0"
140
12.0
141
12.0
290
     0
  0
ENDSEC
  0
EOF
