  0
SECTION
  2
HEADER
  9
$ACADVER
  1
AC1015
  9
$ACADMAINTVER
 70
     6
  9
$DWGCODEPAGE
  3
ANSI_949
  9
$INSBASE
 10
0.0
 20
0.0
 30
0.0
  9
$EXTMIN
 10
-36.86002923458575
 20
-49.75070660587841
 30
0.0
  9
$EXTMAX
 10
99.17300279016857
 20
41.09532433616207
 30
0.0
  9
$LIMMIN
 10
0.0
 20
0.0
  9
$LIMMAX
 10
420.0
 20
297.0
  9
$ORTHOMODE
 70
     1
  9
$REGENMODE
 70
     1
  9
$FILLMODE
 70
     1
  9
$QTEXTMODE
 70
     0
  9
$MIRRTEXT
 70
     1
  9
$LTSCALE
 40
1.0
  9
$ATTMODE
 70
     1
  9
$TEXTSIZE
 40
3.5
  9
$TRACEWID
 40
1.0
  9
$TEXTSTYLE
  7
Standard
  9
$CLAYER
  8
0
  9
$CELTYPE
  6
ByLayer
  9
$CECOLOR
 62
   256
  9
$CELTSCALE
 40
1.0
  9
$DISPSILH
 70
     0
  9
$DIMSCALE
 40
1.0
  9
$DIMASZ
 40
3.302
  9
$DIMEXO
 40
1.0
  9
$DIMDLI
 40
3.75
  9
$DIMRND
 40
0.0
  9
$DIMDLE
 40
0.0
  9
$DIMEXE
 40
1.0
  9
$DIMTP
 40
0.0
  9
$DIMTM
 40
0.0
  9
$DIMTXT
 40
3.5
  9
$DIMCEN
 40
2.5
  9
$DIMTSZ
 40
0.0
  9
$DIMTOL
 70
     0
  9
$DIMLIM
 70
     0
  9
$DIMTIH
 70
     1
  9
$DIMTOH
 70
     1
  9
$DIMSE1
 70
     0
  9
$DIMSE2
 70
     0
  9
$DIMTAD
 70
     1
  9
$DIMZIN
 70
     0
  9
$DIMBLK
  1

  9
$DIMASO
 70
     1
  9
$DIMSHO
 70
     1
  9
$DIMPOST
  1

  9
$DIMAPOST
  1

  9
$DIMALT
 70
     0
  9
$DIMALTD
 70
     3
  9
$DIMALTF
 40
0.0393700787401575
  9
$DIMLFAC
 40
1.0
  9
$DIMTOFL
 70
     1
  9
$DIMTVP
 40
0.0
  9
$DIMTIX
 70
     0
  9
$DIMSOXD
 70
     0
  9
$DIMSAH
 70
     0
  9
$DIMBLK1
  1

  9
$DIMBLK2
  1

  9
$DIMSTYLE
  2
ISO-25
  9
$DIMCLRD
 70
     0
  9
$DIMCLRE
 70
     0
  9
$DIMCLRT
 70
     0
  9
$DIMTFAC
 40
1.0
  9
$DIMGAP
 40
1.524
  9
$DIMJUST
 70
     0
  9
$DIMSD1
 70
     0
  9
$DIMSD2
 70
     0
  9
$DIMTOLJ
 70
     0
  9
$DIMTZIN
 70
     0
  9
$DIMALTZ
 70
     0
  9
$DIMALTTZ
 70
     0
  9
$DIMUPT
 70
     0
  9
$DIMDEC
 70
     2
  9
$DIMTDEC
 70
     2
  9
$DIMALTU
 70
     2
  9
$DIMALTTD
 70
     3
  9
$DIMTXSTY
  7
Standard
  9
$DIMAUNIT
 70
     0
  9
$DIMADEC
 70
     2
  9
$DIMALTRND
 40
0.0
  9
$DIMAZIN
 70
     0
  9
$DIMDSEP
 70
    44
  9
$DIMATFIT
 70
     3
  9
$DIMFRAC
 70
     0
  9
$DIMLDRBLK
  1

  9
$DIMLUNIT
 70
     2
  9
$DIMLWD
 70
    -2
  9
$DIMLWE
 70
    -2
  9
$DIMTMOVE
 70
     0
  9
$LUNITS
 70
     2
  9
$LUPREC
 70
     2
  9
$SKETCHINC
 40
1.0
  9
$FILLETRAD
 40
10.0
  9
$AUNITS
 70
     0
  9
$AUPREC
 70
     2
  9
$MENU
  1
.
  9
$ELEVATION
 40
0.0
  9
$PELEVATION
 40
0.0
  9
$THICKNESS
 40
0.0
  9
$LIMCHECK
 70
     0
  9
$CHAMFERA
 40
0.0
  9
$CHAMFERB
 40
0.0
  9
$CHAMFERC
 40
0.0
  9
$CHAMFERD
 40
0.0
  9
$SKPOLY
 70
     0
  9
$TDCREATE
 40
2458290.674725336
  9
$TDUCREATE
 40
2458290.299725336
  9
$TDUPDATE
 40
2458299.761153438
  9
$TDUUPDATE
 40
2458299.386153438
  9
$TDINDWG
 40
0.0077512269
  9
$TDUSRTIMER
 40
0.0033355324
  9
$USRTIMER
 70
     1
  9
$ANGBASE
 50
0.0
  9
$ANGDIR
 70
     0
  9
$PDMODE
 70
     0
  9
$PDSIZE
 40
-1.0
  9
$PLINEWID
 40
0.0
  9
$SPLFRAME
 70
     0
  9
$SPLINETYPE
 70
     6
  9
$SPLINESEGS
 70
     8
  9
$HANDSEED
  5
21D
  9
$SURFTAB1
 70
     6
  9
$SURFTAB2
 70
     6
  9
$SURFTYPE
 70
     6
  9
$SURFU
 70
     6
  9
$SURFV
 70
     6
  9
$UCSBASE
  2

  9
$UCSNAME
  2

  9
$UCSORG
 10
0.0
 20
0.0
 30
0.0
  9
$UCSXDIR
 10
1.0
 20
0.0
 30
0.0
  9
$UCSYDIR
 10
0.0
 20
1.0
 30
0.0
  9
$UCSORTHOREF
  2

  9
$UCSORTHOVIEW
 70
     0
  9
$UCSORGTOP
 10
0.0
 20
0.0
 30
0.0
  9
$UCSORGBOTTOM
 10
0.0
 20
0.0
 30
0.0
  9
$UCSORGLEFT
 10
0.0
 20
0.0
 30
0.0
  9
$UCSORGRIGHT
 10
0.0
 20
0.0
 30
0.0
  9
$UCSORGFRONT
 10
0.0
 20
0.0
 30
0.0
  9
$UCSORGBACK
 10
0.0
 20
0.0
 30
0.0
  9
$PUCSBASE
  2

  9
$PUCSNAME
  2

  9
$PUCSORG
 10
0.0
 20
0.0
 30
0.0
  9
$PUCSXDIR
 10
1.0
 20
0.0
 30
0.0
  9
$PUCSYDIR
 10
0.0
 20
1.0
 30
0.0
  9
$PUCSORTHOREF
  2

  9
$PUCSORTHOVIEW
 70
     0
  9
$PUCSORGTOP
 10
0.0
 20
0.0
 30
0.0
  9
$PUCSORGBOTTOM
 10
0.0
 20
0.0
 30
0.0
  9
$PUCSORGLEFT
 10
0.0
 20
0.0
 30
0.0
  9
$PUCSORGRIGHT
 10
0.0
 20
0.0
 30
0.0
  9
$PUCSORGFRONT
 10
0.0
 20
0.0
 30
0.0
  9
$PUCSORGBACK
 10
0.0
 20
0.0
 30
0.0
  9
$USERI1
 70
     0
  9
$USERI2
 70
     0
  9
$USERI3
 70
     0
  9
$USERI4
 70
     0
  9
$USERI5
 70
     0
  9
$USERR1
 40
0.0
  9
$USERR2
 40
0.0
  9
$USERR3
 40
0.0
  9
$USERR4
 40
0.0
  9
$USERR5
 40
0.0
  9
$WORLDVIEW
 70
     1
  9
$SHADEDGE
 70
     3
  9
$SHADEDIF
 70
    70
  9
$TILEMODE
 70
     1
  9
$MAXACTVP
 70
    64
  9
$PINSBASE
 10
0.0
 20
0.0
 30
0.0
  9
$PLIMCHECK
 70
     0
  9
$PEXTMIN
 10
1.000000000000000E+20
 20
1.000000000000000E+20
 30
1.000000000000000E+20
  9
$PEXTMAX
 10
-1.000000000000000E+20
 20
-1.000000000000000E+20
 30
-1.000000000000000E+20
  9
$PLIMMIN
 10
0.0
 20
0.0
  9
$PLIMMAX
 10
0.0
 20
0.0
  9
$UNITMODE
 70
     0
  9
$VISRETAIN
 70
     1
  9
$PLINEGEN
 70
     0
  9
$PSLTSCALE
 70
     1
  9
$TREEDEPTH
 70
  3020
  9
$CMLSTYLE
  2
Standard
  9
$CMLJUST
 70
     0
  9
$CMLSCALE
 40
20.0
  9
$PROXYGRAPHICS
 70
     1
  9
$MEASUREMENT
 70
     1
  9
$CELWEIGHT
370
    -1
  9
$ENDCAPS
280
     0
  9
$JOINSTYLE
280
     0
  9
$LWDISPLAY
290
     1
  9
$INSUNITS
 70
     4
  9
$HYPERLINKBASE
  1

  9
$STYLESHEET
  1

  9
$XEDIT
290
     1
  9
$CEPSNTYPE
380
     0
  9
$PSTYLEMODE
290
     1
  9
$FINGERPRINTGUID
  2
{CA7347FF-7A4F-42EC-8B9E-1FD17A48B8BA}
  9
$VERSIONGUID
  2
{FAEB1C32-E019-11D5-929B-00C0DF256EC4}
  9
$EXTNAMES
290
     1
  9
$PSVPSCALE
 40
0.0
  9
$OLESTARTUP
290
     0
  0
ENDSEC
  0
SECTION
  2
CLASSES
  0
CLASS
  1
ACDBDICTIONARYWDFLT
  2
AcDbDictionaryWithDefault
  3
ObjectDBX Classes
 90
        0
280
     0
281
     0
  0
CLASS
  1
VISUALSTYLE
  2
AcDbVisualStyle
  3
ObjectDBX Classes
 90
     4095
280
     0
281
     0
  0
CLASS
  1
MATERIAL
  2
AcDbMaterial
  3
ObjectDBX Classes
 90
     1153
280
     0
281
     0
  0
CLASS
  1
SCALE
  2
AcDbScale
  3
ObjectDBX Classes
 90
     1153
280
     0
281
     0
  0
CLASS
  1
SUN
  2
AcDbSun
  3
SCENEOE
 90
     1153
280
     0
281
     0
  0
CLASS
  1
ACDBPLACEHOLDER
  2
AcDbPlaceHolder
  3
ObjectDBX Classes
 90
        0
280
     0
281
     0
  0
CLASS
  1
LAYOUT
  2
AcDbLayout
  3
ObjectDBX Classes
 90
        0
280
     0
281
     0
  0
CLASS
  1
TABLESTYLE
  2
AcDbTableStyle
  3
ObjectDBX Classes
 90
     4095
280
     0
281
     0
  0
CLASS
  1
MLEADERSTYLE
  2
AcDbMLeaderStyle
  3
ACDB_MLEADERSTYLE_CLASS
 90
     4095
280
     0
281
     0
  0
CLASS
  1
DICTIONARYVAR
  2
AcDbDictionaryVar
  3
ObjectDBX Classes
 90
        0
280
     0
281
     0
  0
ENDSEC
  0
SECTION
  2
TABLES
  0
TABLE
  2
VPORT
  5
8
330
0
100
AcDbSymbolTable
 70
     1
  0
VPORT
  5
29
330
8
100
AcDbSymbolTableRecord
100
AcDbViewportTableRecord
  2
*Active
 70
     0
 10
0.0
 20
0.0
 11
1.0
 21
1.0
 12
31.15648677779141
 22
-4.327691134858171
 13
0.0
 23
0.0
 14
10.0
 24
10.0
 15
10.0
 25
10.0
 16
0.0
 26
0.0
 36
1.0
 17
0.0
 27
0.0
 37
0.0
 40
92.6629515608813
 41
2.148876404494382
 42
50.0
 43
0.0
 44
0.0
 50
0.0
 51
0.0
 71
    16
 72
  2000
 73
     1
 74
     3
 75
     0
 76
     0
 77
     0
 78
     0
281
     0
 65
     1
110
0.0
120
0.0
130
0.0
111
1.0
121
0.0
131
0.0
112
0.0
122
1.0
132
0.0
 79
     0
146
0.0
  0
ENDTAB
  0
TABLE
  2
LTYPE
  5
5
330
0
100
AcDbSymbolTable
 70
     6
  0
LTYPE
  5
14
330
5
100
AcDbSymbolTableRecord
100
AcDbLinetypeTableRecord
  2
ByBlock
 70
     0
  3

 72
    65
 73
     0
 40
0.0
  0
LTYPE
  5
15
330
5
100
AcDbSymbolTableRecord
100
AcDbLinetypeTableRecord
  2
ByLayer
 70
     0
  3

 72
    65
 73
     0
 40
0.0
  0
LTYPE
  5
16
330
5
100
AcDbSymbolTableRecord
100
AcDbLinetypeTableRecord
  2
Continuous
 70
     0
  3
Solid line
 72
    65
 73
     0
 40
0.0
  0
LTYPE
  5
6A
330
5
100
AcDbSymbolTableRecord
100
AcDbLinetypeTableRecord
  2
HIDDEN
 70
     0
  3
Hidden __ __ __ __ __ __ __ __ __ __ __ __ __ __
 72
    65
 73
     2
 40
1.905
 49
1.27
 74
     0
 49
-0.635
 74
     0
  0
LTYPE
  5
6B
330
5
100
AcDbSymbolTableRecord
100
AcDbLinetypeTableRecord
  2
PHANTOM
 70
     0
  3
Phantom ______  __  __  ______  __  __  ______
 72
    65
 73
     6
 40
12.7
 49
6.35
 74
     0
 49
-1.27
 74
     0
 49
1.27
 74
     0
 49
-1.27
 74
     0
 49
1.27
 74
     0
 49
-1.27
 74
     0
  0
LTYPE
  5
6C
330
5
100
AcDbSymbolTableRecord
100
AcDbLinetypeTableRecord
  2
CENTER
 70
     0
  3
Center ____ _ ____ _ ____ _ ____ _ ____ _ ____
 72
    65
 73
     4
 40
10.16
 49
6.35
 74
     0
 49
-1.27
 74
     0
 49
1.27
 74
     0
 49
-1.27
 74
     0
  0
LTYPE
  5
6D
330
5
100
AcDbSymbolTableRecord
100
AcDbLinetypeTableRecord
  2
CENTERX2
 70
     0
  3
Center (2x) ________  __  ________  __  _____
 72
    65
 73
     4
 40
20.32
 49
12.7
 74
     0
 49
-2.54
 74
     0
 49
2.54
 74
     0
 49
-2.54
 74
     0
  0
LTYPE
  5
6E
330
5
100
AcDbSymbolTableRecord
100
AcDbLinetypeTableRecord
  2
DOT2
 70
     0
  3
Dot (.5x) ........................................
 72
    65
 73
     2
 40
0.635
 49
0.0
 74
     0
 49
-0.635
 74
     0
  0
ENDTAB
  0
TABLE
  2
LAYER
  5
2
330
0
100
AcDbSymbolTable
 70
    18
  0
LAYER
  5
10
330
2
100
AcDbSymbolTableRecord
100
AcDbLayerTableRecord
  2
0
 70
     0
 62
     7
  6
Continuous
370
    -3
390
F
  0
LAYER
  5
6F
330
2
100
AcDbSymbolTableRecord
100
AcDbLayerTableRecord
  2
FORMAT
 70
     0
 62
     2
  6
Continuous
370
    -3
390
F
  0
LAYER
  5
70
330
2
100
AcDbSymbolTableRecord
100
AcDbLayerTableRecord
  2
외형선
 70
     0
 62
     4
  6
Continuous
370
    30
390
F
  0
LAYER
  5
71
330
2
100
AcDbSymbolTableRecord
100
AcDbLayerTableRecord
  2
숨은선
 70
     0
 62
     2
  6
HIDDEN
370
    15
390
F
  0
LAYER
  5
72
330
2
100
AcDbSymbolTableRecord
100
AcDbLayerTableRecord
  2
중심선
 70
     0
 62
     1
  6
CENTERX2
370
    -3
390
F
  0
LAYER
  5
73
330
2
100
AcDbSymbolTableRecord
100
AcDbLayerTableRecord
  2
파단선
 70
     0
 62
     4
  6
Continuous
370
    -3
390
F
  0
LAYER
  5
74
330
2
100
AcDbSymbolTableRecord
100
AcDbLayerTableRecord
  2
해칭선
 70
     0
 62
   100
  6
Continuous
370
    -3
390
F
  0
LAYER
  5
75
330
2
100
AcDbSymbolTableRecord
100
AcDbLayerTableRecord
  2
가는실선
 70
     0
 62
     4
  6
Continuous
370
    -3
390
F
  0
LAYER
  5
76
330
2
100
AcDbSymbolTableRecord
100
AcDbLayerTableRecord
  2
치수_보조선
 70
     0
 62
     4
  6
Continuous
370
    -3
390
F
  0
LAYER
  5
77
330
2
100
AcDbSymbolTableRecord
100
AcDbLayerTableRecord
  2
치수문자_일반주서
 70
     0
 62
     7
  6
Continuous
370
    15
390
F
  0
LAYER
  5
78
330
2
100
AcDbSymbolTableRecord
100
AcDbLayerTableRecord
  2
개별주서
 70
     0
 62
   100
  6
Continuous
370
    30
390
F
  0
LAYER
  5
79
330
2
100
AcDbSymbolTableRecord
100
AcDbLayerTableRecord
  2
중간선
 70
     0
 62
     2
  6
Continuous
370
    15
390
F
  0
LAYER
  5
7A
330
2
100
AcDbSymbolTableRecord
100
AcDbLayerTableRecord
  2
윤곽선
 70
     0
 62
     3
  6
Continuous
370
    40
390
F
  0
LAYER
  5
7B
330
2
100
AcDbSymbolTableRecord
100
AcDbLayerTableRecord
  2
중심마크
 70
     0
 62
   100
  6
Continuous
370
    30
390
F
  0
LAYER
  5
7C
330
2
100
AcDbSymbolTableRecord
100
AcDbLayerTableRecord
  2
가상선
 70
     0
 62
     4
  6
PHANTOM
370
    -3
390
F
  0
LAYER
  5
7D
330
2
100
AcDbSymbolTableRecord
100
AcDbLayerTableRecord
  2
특수지정선
 70
     0
 62
     5
  6
CENTERX2
370
    60
390
F
  0
LAYER
  5
7E
330
2
100
AcDbSymbolTableRecord
100
AcDbLayerTableRecord
  2
참조1
 70
     0
 62
    -4
  6
Continuous
370
    -3
390
F
  0
LAYER
  5
151
330
2
100
AcDbSymbolTableRecord
100
AcDbLayerTableRecord
  2
Defpoints
 70
     0
 62
     7
  6
Continuous
290
     0
370
    -3
390
F
  0
ENDTAB
  0
TABLE
  2
STYLE
  5
3
330
0
100
AcDbSymbolTable
 70
     2
  0
STYLE
  5
11
330
3
100
AcDbSymbolTableRecord
100
AcDbTextStyleTableRecord
  2
Standard
 70
     0
 40
0.0
 41
1.0
 50
0.0
 71
     0
 42
3.5
  3
txt
  4

  0
STYLE
  5
94
330
3
100
AcDbSymbolTableRecord
100
AcDbTextStyleTableRecord
  2
SLDTEXTSTYLE0
 70
     0
 40
0.0
 41
0.75
 50
0.0
 71
     0
 42
3.5
  3
TXT
  4

  0
ENDTAB
  0
TABLE
  2
VIEW
  5
6
330
0
100
AcDbSymbolTable
 70
     0
  0
ENDTAB
  0
TABLE
  2
UCS
  5
7
330
0
100
AcDbSymbolTable
 70
     0
  0
ENDTAB
  0
TABLE
  2
APPID
  5
9
330
0
100
AcDbSymbolTable
 70
     2
  0
APPID
  5
12
330
9
100
AcDbSymbolTableRecord
100
AcDbRegAppTableRecord
  2
ACAD
 70
     0
  0
APPID
  5
152
330
9
100
AcDbSymbolTableRecord
100
AcDbRegAppTableRecord
  2
PE_URL
 70
     0
  0
ENDTAB
  0
TABLE
  2
DIMSTYLE
  5
A
330
0
100
AcDbSymbolTable
 70
     3
100
AcDbDimStyleTable
  0
DIMSTYLE
105
27
102
{ACAD_REACTORS
330
1CE
102
}
330
A
100
AcDbSymbolTableRecord
100
AcDbDimStyleTableRecord
  2
ISO-25
 70
     0
 41
2.5
 42
0.625
 43
3.75
 44
1.25
 73
     0
 74
     0
 77
     1
 78
     8
140
2.5
141
2.5
143
0.03937007874016
147
0.625
171
     3
172
     1
178
     0
271
     2
272
     2
274
     3
278
    44
283
     0
284
     8
340
11
  0
DIMSTYLE
105
D0
330
A
100
AcDbSymbolTableRecord
100
AcDbDimStyleTableRecord
  2
SLDDIMSTYLE0
 70
     0
 41
3.302
 44
0.0
 45
0.000000001
 73
     0
 74
     0
 77
     1
 78
     4
 79
     1
140
3.5
143
0.0393700787401575
147
0.875
148
0.000000001
170
     1
173
     1
178
     0
271
     2
272
     2
276
     2
284
    12
340
94
  0
DIMSTYLE
105
E4
102
{ACAD_REACTORS
330
E3
330
F8
330
10D
330
CF
102
}
330
A
100
AcDbSymbolTableRecord
100
AcDbDimStyleTableRecord
  2
SLDDIMSTYLE1
 70
     0
 41
3.302
 44
0.0
 45
0.000000001
 73
     0
 74
     0
 77
     1
 78
    12
 79
     3
140
3.5
143
0.0393700787401575
147
0.875
148
0.000000001
170
     1
172
     1
173
     1
178
     0
271
     2
272
     2
276
     2
284
    12
289
     0
340
94
  0
ENDTAB
  0
TABLE
  2
BLOCK_RECORD
  5
1
330
0
100
AcDbSymbolTable
 70
     7
  0
BLOCK_RECORD
  5
1F
330
1
100
AcDbSymbolTableRecord
100
AcDbBlockTableRecord
  2
*Model_Space
340
22
  0
BLOCK_RECORD
  5
1B
330
1
100
AcDbSymbolTableRecord
100
AcDbBlockTableRecord
  2
*Paper_Space
340
1E
  0
BLOCK_RECORD
  5
23
330
1
100
AcDbSymbolTableRecord
100
AcDbBlockTableRecord
  2
*Paper_Space0
340
26
  0
BLOCK_RECORD
  5
7F
330
1
100
AcDbSymbolTableRecord
100
AcDbBlockTableRecord
  2
블럭10
340
0
102
{BLKREFS
331
C8
102
}
  0
BLOCK_RECORD
  5
D1
330
1
100
AcDbSymbolTableRecord
100
AcDbBlockTableRecord
  2
_D
340
0
  0
BLOCK_RECORD
  5
E5
330
1
100
AcDbSymbolTableRecord
100
AcDbBlockTableRecord
  2
_D_1
340
0
  0
BLOCK_RECORD
  5
F9
330
1
100
AcDbSymbolTableRecord
100
AcDbBlockTableRecord
  2
_D_2
340
0
  0
BLOCK_RECORD
  5
10E
330
1
100
AcDbSymbolTableRecord
100
AcDbBlockTableRecord
  2
_D_3
340
0
  0
BLOCK_RECORD
  5
128
330
1
100
AcDbSymbolTableRecord
100
AcDbBlockTableRecord
  2
SW_DOWELSYMBOL_0
340
0
102
{BLKREFS
331
12E
102
}
  0
ENDTAB
  0
ENDSEC
  0
SECTION
  2
BLOCKS
  0
BLOCK
  5
20
330
1F
100
AcDbEntity
  8
0
100
AcDbBlockBegin
  2
*Model_Space
 70
     0
 10
0.0
 20
0.0
 30
0.0
  3
*Model_Space
  1

  0
ENDBLK
  5
21
330
1F
100
AcDbEntity
  8
0
100
AcDbBlockEnd
  0
BLOCK
  5
1C
330
1B
100
AcDbEntity
 67
     1
  8
0
100
AcDbBlockBegin
  2
*Paper_Space
 70
     0
 10
0.0
 20
0.0
 30
0.0
  3
*Paper_Space
  1

  0
ENDBLK
  5
1D
330
1B
100
AcDbEntity
 67
     1
  8
0
100
AcDbBlockEnd
  0
BLOCK
  5
24
330
23
100
AcDbEntity
  8
0
100
AcDbBlockBegin
  2
*Paper_Space0
 70
     0
 10
0.0
 20
0.0
 30
0.0
  3
*Paper_Space0
  1

  0
ENDBLK
  5
25
330
23
100
AcDbEntity
  8
0
100
AcDbBlockEnd
  0
BLOCK
  5
80
330
7F
100
AcDbEntity
  8
0
100
AcDbBlockBegin
  2
블럭10
 70
     2
 10
0.0
 20
0.0
 30
0.0
  3
블럭10
  1

  0
ELLIPSE
  5
82
330
7F
100
AcDbEntity
  8
중심선
100
AcDbEllipse
 10
20.54032771741204
 20
12.0471743016438
 30
0.0
 11
6.600054785286829
 21
-1.261213355974178E-13
 31
0.0
210
0.0
220
0.0
230
1.0
 40
0.636358354079598
 41
0.9219305317359503
 42
6.513795318482858
  0
ELLIPSE
  5
83
330
7F
100
AcDbEntity
  8
중심선
100
AcDbEllipse
 10
20.54032771746488
 20
12.04717430159265
 30
0.0
 11
3.960054785062283
 21
1.540847449632565E-10
 31
0.0
210
0.0
220
0.0
230
1.0
 40
0.3939339440162632
 41
1.131841032648279
 42
5.62031148352944
  0
LINE
  5
84
330
7F
100
AcDbEntity
  8
중심선
100
AcDbLine
 10
2.268634060543552
 20
16.24717430164393
 30
0.0
 11
5.714909304380834
 21
16.24717430164393
 31
0.0
  0
LINE
  5
85
330
7F
100
AcDbEntity
  8
중심선
100
AcDbLine
 10
5.245725140726316
 20
7.84717430164391
 30
0.0
 11
8.692000384563599
 21
7.84717430164391
 31
0.0
  0
LINE
  5
86
330
7F
100
AcDbEntity
  8
중심선
100
AcDbLine
 10
15.74043728645272
 20
16.24717430164393
 30
0.0
 11
8.692000384563599
 21
7.84717430164391
 31
0.0
  0
LINE
  5
87
330
7F
100
AcDbEntity
  8
중심선
100
AcDbLine
 10
0.1404042013395286
 20
13.71084872107135
 30
0.0
 11
3.58671253028996
 21
13.71088815037384
 31
0.0
  0
LINE
  5
88
330
7F
100
AcDbEntity
  8
중심선
100
AcDbLine
 10
2.750260043222114
 20
10.84717430164391
 30
0.0
 11
6.196535287059397
 21
10.84717430164391
 31
0.0
  0
LINE
  5
89
330
7F
100
AcDbEntity
  8
중심선
100
AcDbLine
 10
12.29416204261559
 20
16.24717430164393
 30
0.0
 11
5.245725140726316
 21
7.84717430164391
 31
0.0
  0
LINE
  5
8A
330
7F
100
AcDbEntity
  8
중심선
100
AcDbLine
 10
10.72767329541681
 20
16.24717430164393
 30
0.0
 11
6.196535287059397
 21
10.84717430164391
 31
0.0
  0
LINE
  5
8B
330
7F
100
AcDbEntity
  8
중심선
100
AcDbLine
 10
7.28139805157953
 20
16.24717430164393
 30
0.0
 11
2.750260043222114
 21
10.84717430164391
 31
0.0
  0
LINE
  5
8C
330
7F
100
AcDbEntity
  8
중심선
100
AcDbLine
 10
5.714909304380834
 20
16.24717430164393
 30
0.0
 11
3.58671253028996
 21
13.71088815037384
 31
0.0
  0
LINE
  5
8D
330
7F
100
AcDbEntity
  8
중심선
100
AcDbLine
 10
2.268634060543552
 20
16.24717430164393
 30
0.0
 11
0.1404042013395286
 21
13.71084872107135
 31
0.0
  0
LINE
  5
8E
330
7F
100
AcDbEntity
  8
중심선
100
AcDbLine
 10
7.28139805157953
 20
16.24717430164393
 30
0.0
 11
10.72767329541681
 21
16.24717430164393
 31
0.0
  0
LINE
  5
8F
330
7F
100
AcDbEntity
  8
중심선
100
AcDbLine
 10
12.29416204261559
 20
16.24717430164393
 30
0.0
 11
15.74043728645272
 21
16.24717430164393
 31
0.0
  0
LINE
  5
90
330
7F
100
AcDbEntity
  8
중심선
100
AcDbLine
 10
19.22036997980202
 20
11.08717430171403
 30
0.0
 11
23.66174974927406
 21
11.08717430171406
 31
0.0
  0
LINE
  5
91
330
7F
100
AcDbEntity
  8
중심선
100
AcDbLine
 10
19.22039502424796
 20
13.00717430171391
 30
0.0
 11
19.22036997980202
 21
11.08717430171403
 31
0.0
  0
LINE
  5
92
330
7F
100
AcDbEntity
  8
중심선
100
AcDbLine
 10
19.22039502424796
 20
13.00717430171391
 30
0.0
 11
26.96566020931264
 21
13.00717430171391
 31
0.0
  0
LINE
  5
93
330
7F
100
AcDbEntity
  8
중심선
100
AcDbLine
 10
22.22332737316547
 20
13.45928029700563
 30
0.0
 11
24.52862924686651
 21
15.39360700705356
 31
0.0
  0
ATTDEF
  5
95
330
7F
100
AcDbEntity
  8
FORMAT
 62
     2
100
AcDbText
 10
4.408487351596664
 20
2.075366912832191
 30
0.0
 40
4.233333333333333
  1
E5075008
 41
0.75
  7
SLDTEXTSTYLE0
 11
4.408487351596664
 21
-0.0412997538344756
 31
0.0
100
AcDbAttributeDefinition
  3

  2
AUTOATTR0
 70
     0
 74
     1
  0
ENDBLK
  5
81
330
7F
100
AcDbEntity
  8
0
100
AcDbBlockEnd
  0
BLOCK
  5
D2
330
D1
100
AcDbEntity
  8
0
100
AcDbBlockBegin
  2
_D
 70
     0
 10
0.0
 20
0.0
 30
0.0
  3
_D
  1

  0
LINE
  5
D4
330
D1
100
AcDbEntity
  8
치수문자_일반주서
 62
     0
370
    -2
100
AcDbLine
 10
-21.74999999999999
 20
1.649999999999988
 30
0.0
 11
-21.74999999999998
 21
36.72032433616207
 31
0.0
  0
LINE
  5
D5
330
D1
100
AcDbEntity
  8
치수문자_일반주서
 62
     0
370
    -2
100
AcDbLine
 10
16.35000000000001
 20
1.650000000000023
 30
0.0
 11
16.35000000000002
 21
36.72032433616207
 31
0.0
  0
LINE
  5
D6
330
D1
100
AcDbEntity
  8
치수문자_일반주서
 62
     0
370
    -2
100
AcDbLine
 10
-18.44799999999998
 20
36.72032433616207
 30
0.0
 11
13.04800000000002
 21
36.72032433616207
 31
0.0
  0
SOLID
  5
D7
330
D1
100
AcDbEntity
  8
치수문자_일반주서
 62
     0
100
AcDbTrace
 10
-18.44799999999998
 20
37.27065766949541
 30
0.0
 11
-18.44799999999998
 21
36.16999100282874
 31
0.0
 12
-21.74999999999998
 22
36.72032433616207
 32
0.0
 13
-21.74999999999998
 23
36.72032433616207
 33
0.0
  0
SOLID
  5
D8
330
D1
100
AcDbEntity
  8
치수문자_일반주서
 62
     0
100
AcDbTrace
 10
13.04800000000002
 20
36.16999100282874
 30
0.0
 11
13.04800000000002
 21
37.27065766949541
 31
0.0
 12
16.35000000000002
 22
36.72032433616207
 32
0.0
 13
16.35000000000002
 23
36.72032433616207
 33
0.0
  0
MTEXT
  5
D9
330
D1
100
AcDbEntity
  8
치수문자_일반주서
 62
     0
100
AcDbMText
 10
-2.699999999999981
 20
41.09532433616207
 30
0.0
 40
3.5
 41
0.0
 71
     2
 72
     1
  1
\A1;38.1 [1 1/2]
  7
SLDTEXTSTYLE0
 73
     1
 44
1.0
  0
POINT
  5
DA
330
D1
100
AcDbEntity
  8
Defpoints
 62
     0
100
AcDbPoint
 10
-21.74999999999999
 20
1.587499999999988
 30
0.0
  0
POINT
  5
DB
330
D1
100
AcDbEntity
  8
Defpoints
 62
     0
100
AcDbPoint
 10
16.35000000000001
 20
1.587500000000023
 30
0.0
  0
POINT
  5
DC
330
D1
100
AcDbEntity
  8
Defpoints
 62
     0
100
AcDbPoint
 10
16.35000000000001
 20
36.72032433616207
 30
0.0
  0
ENDBLK
  5
D3
330
D1
100
AcDbEntity
  8
0
100
AcDbBlockEnd
  0
BLOCK
  5
E6
330
E5
100
AcDbEntity
  8
0
100
AcDbBlockBegin
  2
_D_1
 70
     0
 10
0.0
 20
0.0
 30
0.0
  3
_D_1
  1

  0
LINE
  5
E8
330
E5
100
AcDbEntity
  8
치수문자_일반주서
 62
     0
370
    -2
100
AcDbLine
 10
-21.81249999999999
 20
1.587499999999988
 30
0.0
 11
-32.48502923458562
 21
1.587499999999949
 31
0.0
  0
LINE
  5
E9
330
E5
100
AcDbEntity
  8
치수문자_일반주서
 62
     0
370
    -2
100
AcDbLine
 10
-21.81215237711917
 20
-1.587499999999995
 30
0.0
 11
-32.48502923458561
 21
-1.587500000000034
 31
0.0
  0
LINE
  5
EA
330
E5
100
AcDbEntity
  8
치수문자_일반주서
 62
     0
370
    -2
100
AcDbLine
 10
-32.48502923458562
 20
1.587499999999949
 30
0.0
 11
-32.48502923458577
 21
32.69149999999996
 31
0.0
  0
LINE
  5
EB
330
E5
100
AcDbEntity
  8
치수문자_일반주서
 62
     0
370
    -2
100
AcDbLine
 10
-32.48502923458562
 20
1.587499999999949
 30
0.0
 11
-32.48502923458561
 21
-1.587500000000034
 31
0.0
  0
LINE
  5
EC
330
E5
100
AcDbEntity
  8
치수문자_일반주서
 62
     0
370
    -2
100
AcDbLine
 10
-32.48502923458564
 20
4.889499999999948
 30
0.0
 11
-32.48502923458565
 21
8.191499999999948
 31
0.0
  0
LINE
  5
ED
330
E5
100
AcDbEntity
  8
치수문자_일반주서
 62
     0
370
    -2
100
AcDbLine
 10
-32.4850292345856
 20
-4.889500000000034
 30
0.0
 11
-32.48502923458558
 21
-8.191500000000033
 31
0.0
  0
SOLID
  5
EE
330
E5
100
AcDbEntity
  8
치수문자_일반주서
 62
     0
100
AcDbTrace
 10
-33.03536256791897
 20
4.889499999999946
 30
0.0
 11
-31.9346959012523
 21
4.889499999999951
 31
0.0
 12
-32.48502923458562
 22
1.587499999999949
 32
0.0
 13
-32.48502923458562
 23
1.587499999999949
 33
0.0
  0
SOLID
  5
EF
330
E5
100
AcDbEntity
  8
치수문자_일반주서
 62
     0
100
AcDbTrace
 10
-31.93469590125226
 20
-4.889500000000031
 30
0.0
 11
-33.03536256791893
 21
-4.889500000000036
 31
0.0
 12
-32.48502923458561
 22
-1.587500000000034
 32
0.0
 13
-32.48502923458561
 23
-1.587500000000034
 33
0.0
  0
MTEXT
  5
F0
330
E5
100
AcDbEntity
  8
치수문자_일반주서
 62
     0
100
AcDbMText
 10
-36.86002923458571
 20
20.44149999999994
 30
0.0
 40
3.5
 41
0.0
 71
     2
 72
     1
  1
\A1;%%c3.18 [1/8]
  7
SLDTEXTSTYLE0
 11
-4.475859752819553E-15
 21
1.0
 31
0.0
 73
     1
 44
1.0
  0
POINT
  5
156
330
E5
100
AcDbEntity
  8
Defpoints
 62
     0
100
AcDbPoint
 10
-21.74999999999999
 20
1.587499999999988
 30
0.0
  0
POINT
  5
157
330
E5
100
AcDbEntity
  8
Defpoints
 62
     0
100
AcDbPoint
 10
-21.74965237711917
 20
-1.587499999999995
 30
0.0
  0
POINT
  5
158
330
E5
100
AcDbEntity
  8
Defpoints
 62
     0
100
AcDbPoint
 10
-32.48502923458561
 20
-1.587500000000035
 30
0.0
  0
ENDBLK
  5
E7
330
E5
100
AcDbEntity
  8
0
100
AcDbBlockEnd
  0
BLOCK
  5
FA
330
F9
100
AcDbEntity
  8
0
100
AcDbBlockBegin
  2
_D_2
 70
     0
 10
0.0
 20
0.0
 30
0.0
  3
_D_2
  1

  0
LINE
  5
FC
330
F9
100
AcDbEntity
  8
치수문자_일반주서
 62
     0
370
    -2
100
AcDbLine
 10
16.35000000000001
 20
1.650000000000023
 30
0.0
 11
16.35000000000002
 21
20.91954639065414
 31
0.0
  0
LINE
  5
FD
330
F9
100
AcDbEntity
  8
치수문자_일반주서
 62
     0
370
    -2
100
AcDbLine
 10
10.00000000000001
 20
1.650000000000002
 30
0.0
 11
10.00000000000001
 21
20.91954639065414
 31
0.0
  0
LINE
  5
FE
330
F9
100
AcDbEntity
  8
치수문자_일반주서
 62
     0
370
    -2
100
AcDbLine
 10
10.00000000000001
 20
20.91954639065414
 30
0.0
 11
-19.35399999999998
 21
20.91954639065414
 31
0.0
  0
LINE
  5
FF
330
F9
100
AcDbEntity
  8
치수문자_일반주서
 62
     0
370
    -2
100
AcDbLine
 10
16.35000000000002
 20
20.91954639065414
 30
0.0
 11
10.00000000000001
 21
20.91954639065414
 31
0.0
  0
LINE
  5
100
330
F9
100
AcDbEntity
  8
치수문자_일반주서
 62
     0
370
    -2
100
AcDbLine
 10
19.65200000000002
 20
20.91954639065414
 30
0.0
 11
22.95400000000001
 21
20.91954639065414
 31
0.0
  0
LINE
  5
101
330
F9
100
AcDbEntity
  8
치수문자_일반주서
 62
     0
370
    -2
100
AcDbLine
 10
6.698000000000013
 20
20.91954639065414
 30
0.0
 11
3.396000000000013
 21
20.91954639065414
 31
0.0
  0
SOLID
  5
102
330
F9
100
AcDbEntity
  8
치수문자_일반주서
 62
     0
100
AcDbTrace
 10
19.65200000000002
 20
21.46987972398748
 30
0.0
 11
19.65200000000002
 21
20.36921305732081
 31
0.0
 12
16.35000000000002
 22
20.91954639065414
 32
0.0
 13
16.35000000000002
 23
20.91954639065414
 33
0.0
  0
SOLID
  5
103
330
F9
100
AcDbEntity
  8
치수문자_일반주서
 62
     0
100
AcDbTrace
 10
6.698000000000013
 20
20.36921305732081
 30
0.0
 11
6.698000000000013
 21
21.46987972398748
 31
0.0
 12
10.00000000000001
 22
20.91954639065414
 32
0.0
 13
10.00000000000001
 23
20.91954639065414
 33
0.0
  0
MTEXT
  5
104
330
F9
100
AcDbEntity
  8
치수문자_일반주서
 62
     0
100
AcDbMText
 10
-7.978999999999987
 20
25.29454639065414
 30
0.0
 40
3.5
 41
0.0
 71
     2
 72
     1
  1
\A1;6.35 [1/4]
  7
SLDTEXTSTYLE0
 73
     1
 44
1.0
  0
POINT
  5
153
330
F9
100
AcDbEntity
  8
Defpoints
 62
     0
100
AcDbPoint
 10
16.35000000000001
 20
1.587500000000023
 30
0.0
  0
POINT
  5
154
330
F9
100
AcDbEntity
  8
Defpoints
 62
     0
100
AcDbPoint
 10
10.00000000000001
 20
1.587500000000002
 30
0.0
  0
POINT
  5
155
330
F9
100
AcDbEntity
  8
Defpoints
 62
     0
100
AcDbPoint
 10
10.00000000000001
 20
20.91954639065414
 30
0.0
  0
ENDBLK
  5
FB
330
F9
100
AcDbEntity
  8
0
100
AcDbBlockEnd
  0
BLOCK
  5
10F
330
10E
100
AcDbEntity
  8
0
100
AcDbBlockBegin
  2
_D_3
 70
     0
 10
0.0
 20
0.0
 30
0.0
  3
_D_3
  1

  0
LINE
  5
111
330
10E
100
AcDbEntity
  8
치수문자_일반주서
 62
     0
370
    -2
100
AcDbLine
 10
16.41250000000001
 20
1.587500000000023
 30
0.0
 11
26.35000000000001
 21
1.587500000000059
 31
0.0
  0
LINE
  5
112
330
10E
100
AcDbEntity
  8
치수문자_일반주서
 62
     0
370
    -2
100
AcDbLine
 10
16.4137714590958
 20
-1.587500000000002
 30
0.0
 11
26.35000000000002
 21
-1.587499999999967
 31
0.0
  0
LINE
  5
113
330
10E
100
AcDbEntity
  8
치수문자_일반주서
 62
     0
370
    -2
100
AcDbLine
 10
26.35000000000001
 20
1.587500000000059
 30
0.0
 11
26.3499999999999
 21
32.69150000000006
 31
0.0
  0
LINE
  5
114
330
10E
100
AcDbEntity
  8
치수문자_일반주서
 62
     0
370
    -2
100
AcDbLine
 10
26.35000000000001
 20
1.587500000000059
 30
0.0
 11
26.35000000000002
 21
-1.587499999999967
 31
0.0
  0
LINE
  5
115
330
10E
100
AcDbEntity
  8
치수문자_일반주서
 62
     0
370
    -2
100
AcDbLine
 10
26.35
 20
4.889500000000059
 30
0.0
 11
26.34999999999999
 21
8.191500000000058
 31
0.0
  0
LINE
  5
116
330
10E
100
AcDbEntity
  8
치수문자_일반주서
 62
     0
370
    -2
100
AcDbLine
 10
26.35000000000003
 20
-4.889499999999966
 30
0.0
 11
26.35000000000004
 21
-8.191499999999966
 31
0.0
  0
SOLID
  5
117
330
10E
100
AcDbEntity
  8
치수문자_일반주서
 62
     0
100
AcDbTrace
 10
25.79966666666666
 20
4.889500000000057
 30
0.0
 11
26.90033333333333
 21
4.88950000000006
 31
0.0
 12
26.35000000000001
 22
1.587500000000059
 32
0.0
 13
26.35000000000001
 23
1.587500000000059
 33
0.0
  0
SOLID
  5
118
330
10E
100
AcDbEntity
  8
치수문자_일반주서
 62
     0
100
AcDbTrace
 10
26.90033333333336
 20
-4.889499999999964
 30
0.0
 11
25.7996666666667
 21
-4.889499999999968
 31
0.0
 12
26.35000000000002
 22
-1.587499999999967
 32
0.0
 13
26.35000000000002
 23
-1.587499999999967
 33
0.0
  0
MTEXT
  5
119
330
10E
100
AcDbEntity
  8
치수문자_일반주서
 62
     0
100
AcDbMText
 10
21.97499999999994
 20
20.44150000000004
 30
0.0
 40
3.5
 41
0.0
 71
     2
 72
     1
  1
\A1;%%c3.18 [1/8]
  7
SLDTEXTSTYLE0
 11
-3.356894814614620E-15
 21
1.0
 31
0.0
 73
     1
 44
1.0
  0
POINT
  5
11A
330
10E
100
AcDbEntity
  8
Defpoints
 62
     0
100
AcDbPoint
 10
16.35000000000001
 20
1.587500000000023
 30
0.0
  0
POINT
  5
11B
330
10E
100
AcDbEntity
  8
Defpoints
 62
     0
100
AcDbPoint
 10
16.3512714590958
 20
-1.587500000000003
 30
0.0
  0
POINT
  5
11C
330
10E
100
AcDbEntity
  8
Defpoints
 62
     0
100
AcDbPoint
 10
26.35000000000002
 20
-1.587499999999965
 30
0.0
  0
ENDBLK
  5
110
330
10E
100
AcDbEntity
  8
0
100
AcDbBlockEnd
  0
BLOCK
  5
129
330
128
100
AcDbEntity
  8
0
100
AcDbBlockBegin
  2
SW_DOWELSYMBOL_0
 70
     0
 10
0.0
 20
0.0
 30
0.0
  3
SW_DOWELSYMBOL_0
  1

  0
CIRCLE
  5
12B
330
128
100
AcDbEntity
  8
해칭선
 62
     0
100
AcDbCircle
 10
0.0
 20
0.0
 30
0.0
 40
3.000000000000002
  0
HATCH
  5
12C
330
128
100
AcDbEntity
  8
0
  6
Continuous
 62
     0
370
     0
100
AcDbHatch
 10
0.0
 20
0.0
 30
0.0
210
0.0
220
0.0
230
1.0
  2
SOLID
 70
     1
 71
     0
 91
        1
 92
        0
 93
        3
 72
     2
 10
0.0000000000000069
 20
0.0
 40
3.000000000000002
 50
0.0
 51
90.0
 73
     1
 72
     1
 10
0.0000000000000069
 20
3.000000000000002
 11
0.0000000000000069
 21
0.0
 72
     1
 10
0.0000000000000069
 20
0.0
 11
3.000000000000009
 21
0.0
 97
        0
 75
     0
 76
     1
 98
        1
 10
0.0
 20
0.0
  0
HATCH
  5
12D
330
128
100
AcDbEntity
  8
0
  6
Continuous
 62
     0
370
     0
100
AcDbHatch
 10
0.0
 20
0.0
 30
0.0
210
0.0
220
0.0
230
1.0
  2
SOLID
 70
     1
 71
     0
 91
        1
 92
        0
 93
        3
 72
     2
 10
0.0000000000000069
 20
0.0
 40
3.000000000000002
 50
180.0
 51
270.0000000000007
 73
     1
 72
     1
 10
0.0000000000000069
 20
-3.000000000000002
 11
0.0000000000000069
 21
0.0
 72
     1
 10
0.0000000000000069
 20
0.0
 11
-2.999999999999995
 21
0.0
 97
        0
 75
     0
 76
     1
 98
        1
 10
0.0
 20
0.0
  0
ENDBLK
  5
12A
330
128
100
AcDbEntity
  8
0
100
AcDbBlockEnd
  0
ENDSEC
  0
SECTION
  2
ENTITIES
  0
LINE
  5
96
330
1F
100
AcDbEntity
  8
외형선
  6
Continuous
370
    15
100
AcDbLine
 10
9.110108493853339
 20
1.587499999999999
 30
0.0
 11
-21.24999999999999
 21
1.587499999999999
 31
0.0
  0
LINE
  5
97
330
1F
100
AcDbEntity
  8
외형선
  6
Continuous
370
    15
100
AcDbLine
 10
-21.24999999999999
 20
-1.587500000000002
 30
0.0
 11
9.323761273874233
 21
-1.587500000000002
 31
0.0
  0
LINE
  5
98
330
1F
100
AcDbEntity
  8
외형선
  6
Continuous
370
    15
100
AcDbLine
 10
-21.24999999999999
 20
1.587499999999996
 30
0.0
 11
-21.74999999999999
 21
1.087499999999997
 31
0.0
  0
LINE
  5
99
330
1F
100
AcDbEntity
  8
외형선
  6
Continuous
370
    15
100
AcDbLine
 10
-21.74999999999999
 20
-1.0875
 30
0.0
 11
-21.24999999999999
 21
-1.587499999999999
 31
0.0
  0
LINE
  5
9A
330
1F
100
AcDbEntity
  8
외형선
  6
Continuous
 62
     1
370
    15
100
AcDbLine
 10
10.72858559364201
 20
1.587499999999999
 30
0.0
 11
10.41912748416578
 21
1.587499999999999
 31
0.0
  0
LINE
  5
9B
330
1F
100
AcDbEntity
  8
외형선
  6
Continuous
 62
     1
370
    15
100
AcDbLine
 10
13.2990156946146
 20
-1.587500000000002
 30
0.0
 11
13.60856463161365
 21
-1.587500000000002
 31
0.0
  0
SPLINE
  5
9C
330
1F
100
AcDbEntity
  8
외형선
  6
Continuous
370
    15
100
AcDbSpline
210
0.0
220
0.0
230
1.0
 70
     8
 71
     3
 72
    10
 73
     6
 74
     0
 42
0.000000001
 43
0.00000001
 40
0.0
 40
0.0
 40
0.0
 40
0.0
 40
0.5
 40
0.5
 40
1.0
 40
1.0
 40
1.0
 40
1.0
 10
10.00000000000001
 20
1.569071910356057
 30
0.0
 10
9.851030329455005
 20
1.556044558357469
 30
0.0
 10
9.70121979520911
 20
1.536081701247616
 30
0.0
 10
9.405763802300605
 20
1.483176951813776
 30
0.0
 10
9.259166697536957
 20
1.450242345174141
 30
0.0
 10
9.110108493853339
 20
1.410932973363321
 30
0.0
  0
LINE
  5
9D
330
1F
100
AcDbEntity
  8
외형선
  6
Continuous
370
    15
100
AcDbLine
 10
9.110108493853339
 20
1.587499999999999
 30
0.0
 11
9.110108493853339
 21
0.8982674982654708
 31
0.0
  0
SPLINE
  5
9E
330
1F
100
AcDbEntity
  8
외형선
  6
Continuous
370
    15
100
AcDbSpline
210
0.0
220
0.0
230
1.0
 70
     8
 71
     3
 72
    10
 73
     6
 74
     0
 42
0.000000001
 43
0.00000001
 40
0.0
 40
0.0
 40
0.0
 40
0.0
 40
0.5
 40
0.5
 40
1.0
 40
1.0
 40
1.0
 40
1.0
 10
9.999999999999794
 20
0.4354260494355567
 30
0.0
 10
9.851030329454822
 20
0.5178850996126928
 30
0.0
 10
9.701219795208965
 20
0.5985778918161062
 30
0.0
 10
9.405763802300536
 20
0.7533183901178035
 30
0.0
 10
9.25916669753692
 20
0.8275612867152509
 30
0.0
 10
9.110108493853339
 20
0.8982752990731167
 30
0.0
  0
SPLINE
  5
9F
330
1F
100
AcDbEntity
  8
외형선
  6
Continuous
370
    15
100
AcDbSpline
210
0.0
220
0.0
230
1.0
 70
     8
 71
     3
 72
    10
 73
     6
 74
     0
 42
0.000000001
 43
0.00000001
 40
0.0
 40
0.0
 40
0.0
 40
0.0
 40
0.5
 40
0.5
 40
1.0
 40
1.0
 40
1.0
 40
1.0
 10
10.00000000000001
 20
-0.5756647206848883
 30
0.0
 10
9.851030329455005
 20
-0.4957534842092546
 30
0.0
 10
9.70121979520911
 20
-0.4131594858859904
 30
0.0
 10
9.405763802300605
 20
-0.2458661494727269
 30
0.0
 10
9.259166697536957
 20
-0.1610008729225512
 30
0.0
 10
9.110108493853339
 20
-0.0753329325781752
 30
0.0
  0
SPLINE
  5
A0
330
1F
100
AcDbEntity
  8
외형선
  6
Continuous
370
    15
100
AcDbSpline
210
0.0
220
0.0
230
1.0
 70
     8
 71
     3
 72
    10
 73
     6
 74
     0
 42
0.000000001
 43
0.00000001
 40
0.0
 40
0.0
 40
0.0
 40
0.0
 40
0.5
 40
0.5
 40
1.0
 40
1.0
 40
1.0
 40
1.0
 10
9.999999999999794
 20
-1.539802395412782
 30
0.0
 10
9.851030329454822
 20
-1.560663695447114
 30
0.0
 10
9.701219795208965
 20
-1.574780775866502
 30
0.0
 10
9.405763802300536
 20
-1.58908840126096
 30
0.0
 10
9.25916669753692
 20
-1.589361603922825
 30
0.0
 10
9.110108493853339
 20
-1.582691046076101
 30
0.0
  0
LINE
  5
A1
330
1F
100
AcDbEntity
  8
외형선
  6
Continuous
370
    15
100
AcDbLine
 10
-21.24999999999999
 20
1.587499999999996
 30
0.0
 11
-21.24999999999999
 21
-1.587500000000002
 31
0.0
  0
LINE
  5
A2
330
1F
100
AcDbEntity
  8
외형선
  6
Continuous
370
    15
100
AcDbLine
 10
10.00000000000001
 20
0.4354260494354369
 30
0.0
 11
10.00000000000001
 21
-0.5756647206848884
 31
0.0
  0
LINE
  5
A3
330
1F
100
AcDbEntity
  8
외형선
  6
Continuous
370
    15
100
AcDbLine
 10
9.110108493853339
 20
-0.0753313717440271
 30
0.0
 11
9.110108493853339
 21
-1.582691781908263
 31
0.0
  0
LINE
  5
A4
330
1F
100
AcDbEntity
  8
외형선
  6
Continuous
370
    15
100
AcDbLine
 10
-21.74999999999999
 20
1.087499999999997
 30
0.0
 11
-21.74999999999999
 21
-1.087499999999999
 31
0.0
  0
SPLINE
  5
A5
330
1F
100
AcDbEntity
  8
외형선
  6
Continuous
370
    15
100
AcDbSpline
210
0.0
220
0.0
230
1.0
 70
    24
 71
     3
 72
    10
 73
     6
 74
     0
 42
0.000000001
 43
0.00000001
 40
0.0
 40
0.0
 40
0.0
 40
0.0
 40
0.4384601880949879
 40
0.9085444212152765
 40
1.0
 40
1.0
 40
1.0
 40
1.0
 10
10.00000000000001
 20
-0.5283041008843886
 30
0.0
 10
10.00000000000001
 20
-0.5293342882990003
 30
0.0
 10
10.00000000000001
 20
-0.53146896563976
 30
0.0
 10
10.00000000000001
 20
-0.5413712950350894
 30
0.0
 10
10.00000000000001
 20
-0.5522752176824925
 30
0.0
 10
10.00000000000001
 20
-0.5540510927595578
 30
0.0
  0
SPLINE
  5
A6
330
1F
100
AcDbEntity
  8
외형선
  6
Continuous
370
    15
100
AcDbSpline
210
0.0
220
0.0
230
1.0
 70
    24
 71
     3
 72
    10
 73
     6
 74
     0
 42
0.000000001
 43
0.00000001
 40
0.0
 40
0.0
 40
0.0
 40
0.0
 40
0.5
 40
0.5
 40
1.0
 40
1.0
 40
1.0
 40
1.0
 10
10.00000000000001
 20
-0.5756565228226671
 30
0.0
 10
10.00000000000001
 20
-0.6273097292839892
 30
0.0
 10
10.00000000000001
 20
-0.7281390372423867
 30
0.0
 10
10.00000000000001
 20
-1.054151449364451
 30
0.0
 10
10.00000000000001
 20
-1.280750481043584
 30
0.0
 10
10.00000000000001
 20
-1.539802395410806
 30
0.0
  0
SPLINE
  5
A7
330
1F
100
AcDbEntity
  8
외형선
  6
Continuous
370
    15
100
AcDbSpline
210
0.0
220
0.0
230
1.0
 70
    24
 71
     3
 72
    14
 73
    10
 74
     0
 42
0.000000001
 43
0.00000001
 40
0.0
 40
0.0
 40
0.0
 40
0.0
 40
0.1397023941164533
 40
0.2831675361482642
 40
0.4278730600977781
 40
0.5767750540448765
 40
0.7214805779943902
 40
0.8703825719414885
 40
1.0
 40
1.0
 40
1.0
 40
1.0
 10
10.00000000000001
 20
1.569071910356057
 30
0.0
 10
10.00000000000001
 20
1.488480774455641
 30
0.0
 10
10.00000000000001
 20
1.32512785890512
 30
0.0
 10
10.00000000000001
 20
1.099335227080767
 30
0.0
 10
10.00000000000001
 20
0.8929313367391936
 30
0.0
 10
10.00000000000001
 20
0.7172053723362475
 30
0.0
 10
10.00000000000001
 20
0.5776063385164181
 30
0.0
 10
10.00000000000001
 20
0.4790579639729333
 30
0.0
 10
10.00000000000001
 20
0.4492828147403375
 30
0.0
 10
10.00000000000001
 20
0.4354260494354403
 30
0.0
  0
SPLINE
  5
A8
330
1F
100
AcDbEntity
  8
외형선
  6
Continuous
 62
     1
370
    15
100
AcDbSpline
210
0.0
220
0.0
230
1.0
 70
     8
 71
     3
 72
    16
 73
    12
 74
     0
 42
0.000000001
 43
0.00000001
 40
0.0
 40
0.0
 40
0.0
 40
0.0
 40
0.4999999999999997
 40
0.4999999999999997
 40
0.7499999999999996
 40
0.7499999999999996
 40
0.8749999999999998
 40
0.8749999999999998
 40
0.9374999999999999
 40
0.9374999999999999
 40
1.0
 40
1.0
 40
1.0
 40
1.0
 10
16.29636375622573
 20
0.1378685807079567
 30
0.0
 10
16.31292483930326
 20
-0.003967223973657
 30
0.0
 10
16.31554304526713
 20
-0.1464362640196476
 30
0.0
 10
16.29489090407452
 20
-0.3606422347141374
 30
0.0
 10
16.2844719026988
 20
-0.4324676800220827
 30
0.0
 10
16.24390832755146
 20
-0.5321923886982358
 30
0.0
 10
16.22568293452651
 20
-0.5653427932384495
 30
0.0
 10
16.18191646338399
 20
-0.5968067675360386
 30
0.0
 10
16.1645620109311
 20
-0.6032067945148697
 30
0.0
 10
16.12934586532626
 20
-0.6040130488423803
 30
0.0
 10
16.11177388695042
 20
-0.5987188046009763
 30
0.0
 10
16.09599999999936
 20
-0.5902819081732527
 30
0.0
  0
SPLINE
  5
A9
330
1F
100
AcDbEntity
  8
외형선
  6
Continuous
 62
     1
370
    15
100
AcDbSpline
210
0.0
220
0.0
230
1.0
 70
     8
 71
     3
 72
    43
 73
    39
 74
     0
 42
0.000000001
 43
0.00000001
 40
0.0
 40
0.0
 40
0.0
 40
0.0
 40
0.0797945994167427
 40
0.0902002305124561
 40
0.100587437748457
 40
0.1109562320307125
 40
0.1213066243233937
 40
0.1316386256492559
 40
0.1419522470900199
 40
0.1449713800136933
 40
0.1593790371543971
 40
0.1846110429152124
 40
0.2077685672691389
 40
0.2265454966802062
 40
0.2455116033537334
 40
0.2646669022415346
 40
0.284011407846913
 40
0.3099328003462967
 40
0.3454615830100179
 40
0.3849110408447662
 40
0.4152982855647303
 40
0.4431337833626328
 40
0.4587151900834168
 40
0.474311911473455
 40
0.4899239525681344
 40
0.5055513183880345
 40
0.5211940139389775
 40
0.5368520442120841
 40
0.552525414183825
 40
0.5682141288160735
 40
0.5695192195441713
 40
0.5787566118029656
 40
0.652234348915521
 40
0.7190468504478452
 40
0.7818239586058835
 40
0.8520513730976269
 40
0.941893321486813
 40
0.9999999999999999
 40
0.9999999999999999
 40
0.9999999999999999
 40
0.9999999999999999
 10
16.09599918351259
 20
-0.5902814714632195
 30
0.0
 10
15.95306695458251
 20
-0.5127495021733995
 30
0.0
 10
15.79149561903612
 20
-0.4251069605334317
 30
0.0
 10
15.6114792360765
 20
-0.3236867485215137
 30
0.0
 10
15.5557497011192
 20
-0.292094386951978
 30
0.0
 10
15.50014921590799
 20
-0.2603794860606058
 30
0.0
 10
15.44468563327802
 20
-0.2285506077131833
 30
0.0
 10
15.38933634997562
 20
-0.1966571964706255
 30
0.0
 10
15.34715353095843
 20
-0.1721171049667461
 30
0.0
 10
15.29758513161351
 20
-0.1435182893507007
 30
0.0
 10
15.22120690838418
 20
-0.0997276791608191
 30
0.0
 10
15.10878411057656
 20
-0.035063475804665
 30
0.0
 10
14.98849848229757
 20
0.0340938697992882
 30
0.0
 10
14.87951424549504
 20
0.0968741458949327
 30
0.0
 10
14.7777441199203
 20
0.1554873250230668
 30
0.0
 10
14.67500299930525
 20
0.2145452110175081
 30
0.0
 10
14.55992382918118
 20
0.2805765915760561
 30
0.0
 10
14.41546296418584
 20
0.3625288451268799
 30
0.0
 10
14.23482333130331
 20
0.4631062858548162
 30
0.0
 10
14.04613319165819
 20
0.5657639827349814
 30
0.0
 10
13.87135848955852
 20
0.6586596021761674
 30
0.0
 10
13.73953302924243
 20
0.7274229417510942
 30
0.0
 10
13.6340533182751
 20
0.7810753946774395
 30
0.0
 10
13.55039761910735
 20
0.822854256466186
 30
0.0
 10
13.46663139779072
 20
0.863866432193486
 30
0.0
 10
13.38275536788329
 20
0.9040756000939986
 30
0.0
 10
13.29877114989504
 20
0.9434462268254311
 30
0.0
 10
13.2146715365867
 20
0.9819325275549441
 30
0.0
 10
13.13048377402179
 20
1.019533686057107
 30
0.0
 10
13.07191970278065
 20
1.044902090749198
 30
0.0
 10
13.02497613989581
 20
1.065082116745627
 30
0.0
 10
12.87491030621538
 20
1.129503470843246
 30
0.0
 10
12.60763248201364
 20
1.235435350008133
 30
0.0
 10
12.24348096509509
 20
1.355614414519423
 30
0.0
 10
11.88691970969208
 20
1.453481941966086
 30
0.0
 10
11.48742111661451
 20
1.532313409632567
 30
0.0
 10
11.09764890187158
 20
1.583563826719321
 30
0.0
 10
10.83265980303477
 20
1.581199226084012
 30
0.0
 10
10.72858559364201
 20
1.580270531497217
 30
0.0
  0
SPLINE
  5
AA
330
1F
100
AcDbEntity
  8
외형선
  6
Continuous
 62
     1
370
    15
100
AcDbSpline
210
0.0
220
0.0
230
1.0
 70
     8
 71
     3
 72
    17
 73
    13
 74
     0
 42
0.000000001
 43
0.00000001
 40
0.0
 40
0.0
 40
0.0
 40
0.0
 40
0.0577141121788269
 40
0.1655033981076127
 40
0.2721430258825111
 40
0.3795213425079404
 40
0.4860136785402572
 40
0.5932428968666145
 40
0.6936706102983728
 40
0.794098049724963
 40
0.8970493232057172
 40
1.0
 40
1.0
 40
1.0
 40
1.0
 10
11.79203358594698
 20
1.464997107729114
 30
0.0
 10
11.87867646524472
 20
1.473377218926691
 30
0.0
 10
12.12713720394886
 20
1.497408375733216
 30
0.0
 10
12.53603737905872
 20
1.486844357713021
 30
0.0
 10
13.01861240694393
 20
1.436470089568337
 30
0.0
 10
13.50059566321533
 20
1.340959207954317
 30
0.0
 10
13.981910166295
 20
1.203528058645961
 30
0.0
 10
14.454250828544
 20
1.034308611834801
 30
0.0
 10
14.9167106273628
 20
0.838223742458311
 30
0.0
 10
15.37275417104745
 20
0.6219467925014102
 30
0.0
 10
15.83280679535143
 20
0.3871323540691861
 30
0.0
 10
16.14184506778991
 20
0.2209563446403494
 30
0.0
 10
16.29636375622573
 20
0.137868580707955
 30
0.0
  0
SPLINE
  5
AB
330
1F
100
AcDbEntity
  8
외형선
  6
Continuous
 62
     1
370
    15
100
AcDbSpline
210
0.0
220
0.0
230
1.0
 70
     8
 71
     3
 72
    30
 73
    26
 74
     0
 42
0.000000001
 43
0.00000001
 40
0.0
 40
0.0
 40
0.0
 40
0.0
 40
0.0624999999999999
 40
0.0624999999999999
 40
0.1249999999999999
 40
0.1249999999999999
 40
0.2500000000000001
 40
0.2500000000000001
 40
0.3750000000000003
 40
0.3750000000000003
 40
0.5000000000000006
 40
0.5000000000000006
 40
0.5625000000000004
 40
0.5625000000000004
 40
0.6250000000000004
 40
0.6250000000000004
 40
0.6875000000000003
 40
0.6875000000000003
 40
0.7500000000000003
 40
0.7500000000000003
 40
0.8750000000000002
 40
0.8750000000000002
 40
0.9375000000000001
 40
0.9375000000000001
 40
1.0
 40
1.0
 40
1.0
 40
1.0
 10
16.09599999999983
 20
-0.7522479436118776
 30
0.0
 10
15.96861539908798
 20
-0.6876152923728974
 30
0.0
 10
15.84037447668989
 20
-0.620415422102491
 30
0.0
 10
15.58586597775006
 20
-0.4828170598376711
 30
0.0
 10
15.46091422357307
 20
-0.4126755614820895
 30
0.0
 10
15.08052253685593
 20
-0.1979611408497985
 30
0.0
 10
14.82356491378986
 20
-0.0497964503190997
 30
0.0
 10
14.31975409160962
 20
0.2421482749176992
 30
0.0
 10
14.06053488206078
 20
0.3882451767540792
 30
0.0
 10
13.55674676946558
 20
0.6641872770554279
 30
0.0
 10
13.29976545109718
 20
0.7962730618844206
 30
0.0
 10
12.91938633643886
 20
0.9758326326923206
 30
0.0
 10
12.79443130422354
 20
1.032486476053212
 30
0.0
 10
12.53991666470909
 20
1.139519680955811
 30
0.0
 10
12.41167554008501
 20
1.189676767606083
 30
0.0
 10
12.15691168909624
 20
1.281822963065921
 30
0.0
 10
12.03176477593149
 20
1.323683132686717
 30
0.0
 10
11.77855907692315
 20
1.399038433600637
 30
0.0
 10
11.65048527859838
 20
1.432493376688546
 30
0.0
 10
11.26735628211564
 20
1.518631910156298
 30
0.0
 10
11.01696293605203
 20
1.556953852149085
 30
0.0
 10
10.63364091036704
 20
1.584331798370849
 30
0.0
 10
10.50574524043565
 20
1.58837539572978
 30
0.0
 10
10.25336390060687
 20
1.586307597363858
 30
0.0
 10
10.12757451220711
 20
1.580228262320122
 30
0.0
 10
9.99999999999982
 20
1.569071910356041
 30
0.0
  0
SPLINE
  5
AC
330
1F
100
AcDbEntity
  8
외형선
  6
Continuous
 62
     1
370
    15
100
AcDbSpline
210
0.0
220
0.0
230
1.0
 70
     8
 71
     3
 72
    10
 73
     6
 74
     0
 42
0.000000001
 43
0.00000001
 40
0.0
 40
0.0
 40
0.0
 40
0.0
 40
0.5
 40
0.5
 40
1.0
 40
1.0
 40
1.0
 40
1.0
 10
16.09600000000001
 20
-0.752247943611966
 30
0.0
 10
16.1611659147244
 20
-0.7853119545591376
 30
0.0
 10
16.22372604197322
 20
-0.8067806525838017
 30
0.0
 10
16.31968743478486
 20
-0.8164196937372477
 30
0.0
 10
16.35000000000001
 20
-0.8039146948970046
 30
0.0
 10
16.35000000000001
 20
-0.7819024271551727
 30
0.0
  0
SPLINE
  5
AD
330
1F
100
AcDbEntity
  8
외형선
  6
Continuous
 62
     1
370
    15
100
AcDbSpline
210
0.0
220
0.0
230
1.0
 70
     8
 71
     3
 72
    13
 73
     9
 74
     0
 42
0.000000001
 43
0.00000001
 40
0.0
 40
0.0
 40
0.0
 40
0.0
 40
0.1107030869759203
 40
0.3052112218333138
 40
0.5012395365704779
 40
0.7014162207220389
 40
0.9027795324807538
 40
1.0
 40
1.0
 40
1.0
 40
1.0
 10
15.99577820486955
 20
-0.6984864913265015
 30
0.0
 10
15.98007855265725
 20
-0.7006189666065462
 30
0.0
 10
15.93679421285274
 20
-0.70649825510275
 30
0.0
 10
15.86087010926707
 20
-0.7245976101673244
 30
0.0
 10
15.77036650373688
 20
-0.749232423453415
 30
0.0
 10
15.67710393851582
 20
-0.7793920616028852
 30
0.0
 10
15.59868728835444
 20
-0.8078282234571357
 30
0.0
 10
15.55165778549019
 20
-0.8265035093441178
 30
0.0
 10
15.53634472907864
 20
-0.8325842818140046
 30
0.0
  0
SPLINE
  5
AE
330
1F
100
AcDbEntity
  8
외형선
  6
Continuous
 62
     1
370
    15
100
AcDbSpline
210
0.0
220
0.0
230
1.0
 70
     8
 71
     3
 72
     8
 73
     4
 74
     0
 42
0.000000001
 43
0.00000001
 40
0.0
 40
0.0
 40
0.0
 40
0.0
 40
1.0
 40
1.0
 40
1.0
 40
1.0
 10
16.35000000000001
 20
-0.9280654770622887
 30
0.0
 10
16.07286540829225
 20
-0.9258645304284316
 30
0.0
 10
15.80126050350153
 20
-0.8959728289468207
 30
0.0
 10
15.53634472907864
 20
-0.8325842818140017
 30
0.0
  0
LINE
  5
AF
330
1F
100
AcDbEntity
  8
외형선
  6
Continuous
 62
     1
370
    15
100
AcDbLine
 10
16.35000000000001
 20
-1.217251717246036
 30
0.0
 11
16.35000000000001
 21
-0.9280654770622896
 31
0.0
  0
SPLINE
  5
B0
330
1F
100
AcDbEntity
  8
외형선
  6
Continuous
 62
     1
370
    15
100
AcDbSpline
210
0.0
220
0.0
230
1.0
 70
     8
 71
     3
 72
     8
 73
     4
 74
     0
 42
0.000000001
 43
0.00000001
 40
0.0
 40
0.0
 40
0.0
 40
0.0
 40
1.0
 40
1.0
 40
1.0
 40
1.0
 10
16.35000000000001
 20
-1.217251717246035
 30
0.0
 10
16.35000000000001
 20
-1.259171505467129
 30
0.0
 10
16.33066784106286
 20
-1.309322788491108
 30
0.0
 10
16.29636375622576
 20
-1.353437264945005
 30
0.0
  0
SPLINE
  5
B1
330
1F
100
AcDbEntity
  8
외형선
  6
Continuous
 62
     1
370
    15
100
AcDbSpline
210
0.0
220
0.0
230
1.0
 70
     8
 71
     3
 72
    30
 73
    26
 74
     0
 42
0.000000001
 43
0.00000001
 40
0.0
 40
0.0
 40
0.0
 40
0.0
 40
0.0624999999999999
 40
0.0624999999999999
 40
0.1249999999999999
 40
0.1249999999999999
 40
0.2499999999999999
 40
0.2499999999999999
 40
0.3749999999999999
 40
0.3749999999999999
 40
0.4374999999999998
 40
0.4374999999999998
 40
0.4999999999999998
 40
0.4999999999999998
 40
0.5624999999999998
 40
0.5624999999999998
 40
0.6249999999999997
 40
0.6249999999999997
 40
0.6874999999999996
 40
0.6874999999999996
 40
0.7499999999999996
 40
0.7499999999999996
 40
0.8749999999999998
 40
0.8749999999999998
 40
1.0
 40
1.0
 40
1.0
 40
1.0
 10
9.999999999999226
 20
0.423427198931813
 30
0.0
 10
10.13177538078998
 20
0.3551898499804793
 30
0.0
 10
10.26156648987504
 20
0.2858507779050793
 30
0.0
 10
10.52248536871707
 20
0.1454736041580685
 30
0.0
 10
10.65470141507479
 20
0.0742337686371587
 30
0.0
 10
11.05056928392237
 20
-0.1393831931269139
 30
0.0
 10
11.30929071974821
 20
-0.2808972113766589
 30
0.0
 10
11.83721794318576
 20
-0.5543165398198133
 30
0.0
 10
12.0961758154404
 20
-0.6844371928007669
 30
0.0
 10
12.49173430088782
 20
-0.8641950979689517
 30
0.0
 10
12.62411349859069
 20
-0.9214232698989326
 30
0.0
 10
12.88587478985912
 20
-1.028789363923818
 30
0.0
 10
13.01505974026092
 20
-1.078935149103432
 30
0.0
 10
13.27819879635736
 20
-1.172130219671693
 30
0.0
 10
13.41069253982292
 20
-1.214965910146453
 30
0.0
 10
13.67346705236596
 20
-1.291811718812314
 30
0.0
 10
13.80245471312371
 20
-1.325742799104465
 30
0.0
 10
14.06472073164219
 20
-1.384729577890487
 30
0.0
 10
14.19717219924929
 20
-1.40967176257614
 30
0.0
 10
14.46065491479027
 20
-1.449645453740736
 30
0.0
 10
14.59030104916595
 20
-1.464647559932578
 30
0.0
 10
14.9819359549524
 20
-1.494717549482505
 30
0.0
 10
15.24887681403483
 20
-1.494475448298746
 30
0.0
 10
15.7681075360827
 20
-1.453665215565538
 30
0.0
 10
16.03610524426341
 20
-1.412647296148212
 30
0.0
 10
16.29636375622574
 20
-1.353437264944936
 30
0.0
  0
SPLINE
  5
B2
330
1F
100
AcDbEntity
  8
외형선
  6
Continuous
370
    15
100
AcDbSpline
210
0.0
220
0.0
230
1.0
 70
    24
 71
     3
 72
    22
 73
    18
 74
     0
 42
0.000000001
 43
0.00000001
 40
0.0
 40
0.0
 40
0.0
 40
0.0
 40
0.0644492289940192
 40
0.1293153357385369
 40
0.1954916330567623
 40
0.2621195072315236
 40
0.3288649750053685
 40
0.3960738681528189
 40
0.4647443792975725
 40
0.5339199426374333
 40
0.6006654104109316
 40
0.6678743035587279
 40
0.7365448147033874
 40
0.8057203780433422
 40
0.8724658458168277
 40
0.9396747389646375
 40
1.0
 40
1.0
 40
1.0
 40
1.0
 10
10.00000000000001
 20
1.569071910355576
 30
0.0
 10
10.00000000000001
 20
1.528633375753501
 30
0.0
 10
10.00000000000001
 20
1.447494737472399
 30
0.0
 10
10.00000000000001
 20
1.329199761814493
 30
0.0
 10
10.00000000000001
 20
1.213863354926871
 30
0.0
 10
10.00000000000001
 20
1.10286151594873
 30
0.0
 10
10.00000000000001
 20
0.997459697886201
 30
0.0
 10
10.00000000000001
 20
0.8980011931997103
 30
0.0
 10
10.00000000000001
 20
0.805254156867223
 30
0.0
 10
10.00000000000001
 20
0.7213936684498198
 30
0.0
 10
10.00000000000001
 20
0.6472345847870089
 30
0.0
 10
10.00000000000001
 20
0.5827061856657846
 30
0.0
 10
10.00000000000001
 20
0.5275873105740881
 30
0.0
 10
10.00000000000001
 20
0.4832021912054496
 30
0.0
 10
10.00000000000001
 20
0.4502038731567727
 30
0.0
 10
10.00000000000001
 20
0.4279997703923294
 30
0.0
 10
10.00000000000001
 20
0.4223887708363167
 30
0.0
 10
10.00000000000001
 20
0.4197346973839641
 30
0.0
  0
SPLINE
  5
B3
330
1F
100
AcDbEntity
  8
외형선
  6
Continuous
 62
     1
370
    15
100
AcDbSpline
210
0.0
220
0.0
230
1.0
 70
     8
 71
     3
 72
    12
 73
     8
 74
     0
 42
0.000000001
 43
0.00000001
 40
0.0
 40
0.0
 40
0.0
 40
0.0
 40
0.2066841403621507
 40
0.4134563301744577
 40
0.6206144926202598
 40
0.8278691879780214
 40
1.0
 40
1.0
 40
1.0
 40
1.0
 10
9.99999999999982
 20
-0.5756647206847866
 30
0.0
 10
10.22722801604376
 20
-0.6945819703066684
 30
0.0
 10
10.68178084947227
 20
-0.9324671294531457
 30
0.0
 10
11.36408337664207
 20
-1.223543467591304
 30
0.0
 10
12.04736125094135
 20
-1.439196995401573
 30
0.0
 10
12.69266175516267
 20
-1.568487987294271
 30
0.0
 10
13.10976980596382
 20
-1.576883276033398
 30
0.0
 10
13.2990156946146
 20
-1.580692298359543
 30
0.0
  0
LINE
  5
B4
330
1F
100
AcDbEntity
  8
외형선
  6
Continuous
370
    15
100
AcDbLine
 10
10.00000000000001
 20
-0.5756647206849466
 30
0.0
 11
10.00000000000001
 21
-0.4056550597106162
 31
0.0
  0
SPLINE
  5
B5
330
1F
100
AcDbEntity
  8
외형선
  6
Continuous
 62
     1
370
    15
100
AcDbSpline
210
0.0
220
0.0
230
1.0
 70
     8
 71
     3
 72
    30
 73
    26
 74
     0
 42
0.000000001
 43
0.00000001
 40
0.0
 40
0.0
 40
0.0
 40
0.0
 40
0.0039401040759727
 40
0.0370036993330194
 40
0.0724620526974889
 40
0.1174798796356017
 40
0.1567972952348366
 40
0.1870100156176934
 40
0.2237661020601457
 40
0.2605964068592289
 40
0.2750862724937038
 40
0.2895876030896784
 40
0.3041004016595328
 40
0.3186246712085104
 40
0.3331604147347405
 40
0.3477076352292572
 40
0.3492076541071087
 40
0.3598247419236693
 40
0.4442771032755458
 40
0.5210687103940993
 40
0.5932221983699975
 40
0.6739387693497224
 40
0.7771994981670562
 40
0.8914338387330882
 40
1.0
 40
1.0
 40
1.0
 40
1.0
 10
14.66987276138237
 20
-1.47031288342109
 30
0.0
 10
14.66374424105608
 20
-1.471740162707987
 30
0.0
 10
14.60618791281258
 20
-1.485144532891672
 30
0.0
 10
14.49359830263528
 20
-1.506548981156424
 30
0.0
 10
14.31679515629592
 20
-1.536457788795457
 30
0.0
 10
14.13014754493791
 20
-1.560242882228709
 30
0.0
 10
13.95172699981191
 20
-1.575992004449018
 30
0.0
 10
13.78642654597563
 20
-1.585013933780324
 30
0.0
 10
13.62507269325865
 20
-1.588510776211124
 30
0.0
 10
13.48801829565134
 20
-1.586501811764426
 30
0.0
 10
13.385561528633
 20
-1.582433279722712
 30
0.0
 10
13.31782422662917
 20
-1.578789157888539
 30
0.0
 10
13.25001718374235
 20
-1.574189662974302
 30
0.0
 10
13.18213413780064
 20
-1.568639562439787
 30
0.0
 10
13.11419672897667
 20
-1.562134644664617
 30
0.0
 10
13.06649346954685
 20
-1.556929653658613
 30
0.0
 10
13.02497630213684
 20
-1.55204892276773
 30
0.0
 10
12.87490971729768
 20
-1.53339513634722
 30
0.0
 10
12.60763268115609
 20
-1.487858974416323
 30
0.0
 10
12.24348099851961
 20
-1.400243046534022
 30
0.0
 10
11.88691940525909
 20
-1.289532190050357
 30
0.0
 10
11.48742263021154
 20
-1.143559430816239
 30
0.0
 10
11.02388917671552
 20
-0.9409609470441076
 30
0.0
 10
10.5154525654526
 20
-0.6902517841528907
 30
0.0
 10
10.16887850398826
 20
-0.4988979152523981
 30
0.0
 10
9.999999999952934
 20
-0.4056550597866813
 30
0.0
  0
LINE
  5
B6
330
1F
100
AcDbEntity
  8
외형선
  6
Continuous
370
    15
100
AcDbLine
 10
10.00000000000001
 20
0.4234271989314048
 30
0.0
 11
10.00000000000001
 21
-0.405655059812879
 31
0.0
  0
LINE
  5
B7
330
1F
100
AcDbEntity
  8
외형선
  6
Continuous
 62
     1
370
    15
100
AcDbLine
 10
16.35000000000001
 20
-0.7819024271551727
 30
0.0
 11
16.35000000000001
 21
0.1370430131481395
 31
0.0
  0
SPLINE
  5
B8
330
1F
100
AcDbEntity
  8
외형선
  6
Continuous
 62
     1
370
    15
100
AcDbSpline
210
0.0
220
0.0
230
1.0
 70
     8
 71
     3
 72
     8
 73
     4
 74
     0
 42
0.000000001
 43
0.00000001
 40
0.0
 40
0.0
 40
0.0
 40
0.0
 40
1.0
 40
1.0
 40
1.0
 40
1.0
 10
16.35000000000001
 20
0.1370430131481394
 30
0.0
 10
16.35000000000001
 20
0.1241383308435836
 30
0.0
 10
16.33066784106286
 20
0.1239942354735534
 30
0.0
 10
16.29636375622576
 20
0.1378685807079654
 30
0.0
  0
SPLINE
  5
B9
330
1F
100
AcDbEntity
  8
외형선
  6
Continuous
 62
     1
370
    15
100
AcDbSpline
210
0.0
220
0.0
230
1.0
 70
     8
 71
     3
 72
    10
 73
     6
 74
     0
 42
0.000000001
 43
0.00000001
 40
0.0
 40
0.0
 40
0.0
 40
0.0
 40
0.3268864373129779
 40
0.663705911160278
 40
1.0
 40
1.0
 40
1.0
 40
1.0
 10
14.10107732813772
 20
1.155070224004628
 30
0.0
 10
14.31837092161534
 20
1.234874412943854
 30
0.0
 10
14.75956096802364
 20
1.396907785664068
 30
0.0
 10
15.42488226379288
 20
1.546887691101185
 30
0.0
 10
15.87241052427065
 20
1.573495390172331
 30
0.0
 10
16.09599999999984
 20
1.586788855660581
 30
0.0
  0
LINE
  5
BB
330
1F
100
AcDbEntity
  8
외형선
  6
Continuous
 62
     1
370
    15
100
AcDbLine
 10
16.35000000000001
 20
1.027912543797246
 30
0.0
 11
16.35000000000001
 21
1.326439392715429
 31
0.0
  0
SPLINE
  5
BC
330
1F
100
AcDbEntity
  8
외형선
  6
Continuous
 62
     1
370
    15
100
AcDbSpline
210
0.0
220
0.0
230
1.0
 70
     8
 71
     3
 72
    10
 73
     6
 74
     0
 42
0.000000001
 43
0.00000001
 40
0.0
 40
0.0
 40
0.0
 40
0.0
 40
0.5
 40
0.5
 40
1.0
 40
1.0
 40
1.0
 40
1.0
 10
16.35000000000001
 20
1.027912543797247
 30
0.0
 10
16.26595568682692
 20
0.8790422834969844
 30
0.0
 10
16.13990249164926
 20
0.7659178407197218
 30
0.0
 10
15.85153291274171
 20
0.6253930426220512
 30
0.0
 10
15.69369731361757
 20
0.5959306405240415
 30
0.0
 10
15.53634472907864
 20
0.5955601874240743
 30
0.0
  0
SPLINE
  5
BD
330
1F
100
AcDbEntity
  8
외형선
  6
Continuous
 62
     1
370
    15
100
AcDbSpline
210
0.0
220
0.0
230
1.0
 70
     8
 71
     3
 72
     8
 73
     4
 74
     0
 42
0.000000001
 43
0.00000001
 40
0.0
 40
0.0
 40
0.0
 40
0.0
 40
1.0
 40
1.0
 40
1.0
 40
1.0
 10
16.35000000000001
 20
0.3062294043822086
 30
0.0
 10
16.07286540829225
 20
0.4176396414642969
 30
0.0
 10
15.80126050350153
 20
0.5150609506489322
 30
0.0
 10
15.53634472907864
 20
0.5955601874240771
 30
0.0
  0
LINE
  5
BE
330
1F
100
AcDbEntity
  8
외형선
  6
Continuous
 62
     1
370
    15
100
AcDbLine
 10
16.35000000000001
 20
0.1370430131481395
 30
0.0
 11
16.35000000000001
 21
0.3062294043822089
 31
0.0
  0
SPLINE
  5
BF
330
1F
100
AcDbEntity
  8
외형선
  6
Continuous
 62
     1
370
    15
100
AcDbSpline
210
0.0
220
0.0
230
1.0
 70
     8
 71
     3
 72
    11
 73
     7
 74
     0
 42
0.000000001
 43
0.00000001
 40
0.0
 40
0.0
 40
0.0
 40
0.0
 40
0.3154240607171847
 40
0.6322742647842038
 40
0.953480829368848
 40
1.0
 40
1.0
 40
1.0
 40
1.0
 10
9.999999999999565
 20
-1.448538468352493
 30
0.0
 10
10.12923169210261
 20
-1.429453172155326
 30
0.0
 10
10.38827937833646
 20
-1.391196288410266
 30
0.0
 10
10.77963986176101
 20
-1.296189053457135
 30
0.0
 10
11.0602210811345
 20
-1.216290789973661
 30
0.0
 10
11.21101224734925
 20
-1.161071193551597
 30
0.0
 10
11.230088094697
 20
-1.154085634527196
 30
0.0
  0
SPLINE
  5
C0
330
1F
100
AcDbEntity
  8
외형선
  6
Continuous
370
    15
100
AcDbSpline
210
0.0
220
0.0
230
1.0
 70
    24
 71
     3
 72
    15
 73
    11
 74
     0
 42
0.000000001
 43
0.00000001
 40
0.0
 40
0.0
 40
0.0
 40
0.0
 40
0.0657348538730496
 40
0.2126061965571313
 40
0.3637368181288226
 40
0.5106081608129036
 40
0.6617387823845946
 40
0.8086101250686766
 40
0.959740746640368
 40
1.0
 40
1.0
 40
1.0
 40
1.0
 10
10.00000000000001
 20
-0.5333264455145438
 30
0.0
 10
10.00000000000001
 20
-0.5323417579839341
 30
0.0
 10
10.00000000000001
 20
-0.5291569837227105
 30
0.0
 10
10.00000000000001
 20
-0.5706054432035903
 30
0.0
 10
10.00000000000001
 20
-0.655629056341849
 30
0.0
 10
10.00000000000001
 20
-0.7856214257664897
 30
0.0
 10
10.00000000000001
 20
-0.9513193610014268
 30
0.0
 10
10.00000000000001
 20
-1.152017431678886
 30
0.0
 10
10.00000000000001
 20
-1.323589459012823
 30
0.0
 10
10.00000000000001
 20
-1.426823066869378
 30
0.0
 10
10.00000000000001
 20
-1.448538468352436
 30
0.0
  0
LINE
  5
C1
330
1F
100
AcDbEntity
  8
외형선
  6
Continuous
 62
     1
370
    15
100
AcDbLine
 10
16.35000000000001
 20
0.3062294043822086
 30
0.0
 11
16.35000000000001
 21
1.027912543797246
 31
0.0
  0
LINE
  5
C2
330
1F
100
AcDbEntity
  8
외형선
  6
Continuous
 62
     1
370
    15
100
AcDbLine
 10
16.35000000000001
 20
-0.7819024271551727
 30
0.0
 11
16.35000000000001
 21
-0.9280654770622887
 31
0.0
  0
LINE
  5
C4
330
1F
100
AcDbEntity
  8
중심선
 62
     1
100
AcDbLine
 10
-24.75
 20
-0.000000000000003
 30
0.0
 11
19.35
 21
0.0000000000000024
 31
0.0
  0
LINE
  5
C5
330
1F
100
AcDbEntity
  8
참조1
100
AcDbLine
 10
-2.700000000000001
 20
0.2211007829333246
 30
0.0
 11
-2.699999999999997
 21
-39.77889921706667
 31
0.0
  0
LINE
  5
C6
330
1F
100
AcDbEntity
  8
참조1
100
AcDbLine
 10
-2.699999999999997
 20
-39.77889921706667
 30
0.0
 11
-11.49933783948571
 21
-39.77889921706666
 31
0.0
  0
CIRCLE
  5
C7
330
1F
100
AcDbEntity
  8
해칭선
100
AcDbCircle
 10
0.0
 20
0.0
 30
0.0
 40
3.000000000000001
  0
INSERT
  5
C8
330
1F
100
AcDbEntity
  8
0
  6
Continuous
 62
     7
100
AcDbBlockReference
 66
     1
  2
블럭10
 10
-16.64027293212521
 20
-51.8260735187106
 30
0.0
  0
ATTRIB
  5
C9
330
C8
100
AcDbEntity
  8
FORMAT
 62
     2
100
AcDbText
 10
-25.82156822086649
 20
-49.75070660587841
 30
0.0
 40
4.233333333333333
  1
E5075008 [ 3 FLUTE ]
 41
0.75
  7
SLDTEXTSTYLE0
 11
-25.82156822086649
 21
-51.86737327254508
 31
0.0
100
AcDbAttribute
  2
AUTOATTR0
 70
     0
 74
     1
  0
SEQEND
  5
CA
330
C8
100
AcDbEntity
  8
0
  6
Continuous
 62
     7
  0
HATCH
  5
CB
330
1F
100
AcDbEntity
  8
중심선
100
AcDbHatch
 10
0.0
 20
0.0
 30
0.0
210
0.0
220
0.0
230
1.0
  2
SOLID
 70
     1
 71
     0
 91
        1
 92
        0
 93
        4
 72
     1
 10
-10.92536362774436
 20
-35.57889921706666
 11
-14.37163887158164
 21
-35.57889921706666
 72
     1
 10
-14.37163887158164
 20
-35.57889921706666
 11
-16.49986873078566
 21
-38.11522479763926
 72
     1
 10
-16.49986873078566
 20
-38.11522479763926
 11
-13.05356040183523
 21
-38.11518536833677
 72
     1
 10
-13.05356040183523
 20
-38.11518536833677
 11
-10.92536362774436
 21
-35.57889921706666
 97
        0
 75
     0
 76
     1
 98
        1
 10
-0.0000000000000069
 20
0.2200258542094354
  0
HATCH
  5
CC
330
1F
100
AcDbEntity
  8
중심선
100
AcDbHatch
 10
0.0
 20
0.0
 30
0.0
210
0.0
220
0.0
230
1.0
  2
SOLID
 70
     1
 71
     0
 91
        1
 92
        0
 93
        4
 72
     1
 10
-5.91259963670838
 20
-35.57889921706666
 11
-9.35887488054566
 21
-35.57889921706666
 72
     1
 10
-9.35887488054566
 20
-35.57889921706666
 11
-13.89001288890308
 21
-40.97889921706668
 72
     1
 10
-13.89001288890308
 20
-40.97889921706668
 11
-10.4437376450658
 21
-40.97889921706668
 72
     1
 10
-10.4437376450658
 20
-40.97889921706668
 11
-5.91259963670838
 21
-35.57889921706666
 97
        0
 75
     0
 76
     1
 98
        1
 10
-0.0000000000000069
 20
0.2200258542094354
  0
HATCH
  5
CD
330
1F
100
AcDbEntity
  8
중심선
100
AcDbHatch
 10
0.0
 20
0.0
 30
0.0
210
0.0
220
0.0
230
1.0
  2
SOLID
 70
     1
 71
     0
 91
        1
 92
        0
 93
        4
 72
     1
 10
-0.8998356456725101
 20
-35.57889921706669
 11
-4.346110889509598
 21
-35.57889921706666
 72
     1
 10
-4.346110889509598
 20
-35.57889921706666
 11
-11.39454779139888
 21
-43.97889921706668
 72
     1
 10
-11.39454779139888
 20
-43.97889921706668
 11
-7.948272547561593
 21
-43.97889921706668
 72
     1
 10
-7.948272547561593
 20
-43.97889921706668
 11
-0.8998356456725105
 21
-35.57889921706669
 97
        0
 75
     0
 76
     1
 98
        1
 10
-0.0000000000000069
 20
0.2200258542094354
  0
HATCH
  5
CE
330
1F
100
AcDbEntity
  8
중심선
100
AcDbHatch
 10
0.0
 20
0.0
 30
0.0
210
0.0
220
0.0
230
1.0
  2
SOLID
 70
     1
 71
     0
 91
        1
 92
        0
 93
        6
 72
     3
 10
3.900054785339689
 20
-39.77889921711794
 11
3.960054785062284
 21
1.540882976769353E-10
 40
0.3939339440162627
 50
17.09539180608438
 51
320.0019657685082
 73
     0
 72
     1
 10
5.583054441040256
 20
-38.36679322170499
 11
7.888356314741323
 21
-36.43246651165707
 72
     3
 10
3.900054785286843
 20
-39.77889921706681
 11
6.600054785286829
 21
-1.278976924368180E-13
 40
0.636358354079598
 50
39.99873849337382
 51
368.4976242363724
 73
     1
 72
     1
 10
10.32538727718745
 20
-38.81889921699669
 11
2.580122092122766
 21
-38.81889921699669
 72
     1
 10
2.580122092122765
 20
-38.81889921699669
 11
2.580097047676831
 21
-40.73889921699658
 72
     1
 10
2.580097047676831
 20
-40.73889921699658
 11
7.021476817148868
 21
-40.73889921699655
 97
        0
 75
     0
 76
     1
 98
        1
 10
-0.0000000000000069
 20
0.2200258542094354
  0
DIMENSION
  5
CF
330
1F
100
AcDbEntity
  8
치수문자_일반주서
100
AcDbDimension
  2
_D
 10
16.35000000000002
 20
36.72032433616207
 30
0.0
 11
-2.699999999999981
 21
36.72032433616207
 31
0.0
 70
   160
  1
<>
 71
     2
 42
38.09999999999999
  3
SLDDIMSTYLE1
100
AcDbAlignedDimension
 13
-21.74999999999999
 23
1.587499999999988
 33
0.0
 14
16.35000000000001
 24
1.587500000000023
 34
0.0
100
AcDbRotatedDimension
1001
PE_URL
1000

1001
ACAD
1000
DSTYLE
1002
{
1070
   171
1070
     3
1070
   273
1070
     7
1002
}
  0
DIMENSION
  5
E3
330
1F
100
AcDbEntity
  8
치수문자_일반주서
100
AcDbDimension
  2
_D_1
 10
-32.48502923458561
 20
-1.587500000000034
 30
0.0
 11
-32.48502923458571
 21
20.44149999999996
 31
0.0
 70
   160
  1
%%c<>
 71
     2
 42
3.174999999999983
 52
-270.0
  3
SLDDIMSTYLE1
100
AcDbAlignedDimension
 13
-21.74999999999999
 23
1.587499999999988
 33
0.0
 14
-21.74965237711917
 24
-1.587499999999995
 34
0.0
 50
90.0000000000002
100
AcDbRotatedDimension
1001
PE_URL
1000

1001
ACAD
1000
DSTYLE
1002
{
1070
   171
1070
     3
1070
   273
1070
     7
1002
}
  0
DIMENSION
  5
F8
330
1F
100
AcDbEntity
  8
치수문자_일반주서
100
AcDbDimension
  2
_D_2
 10
10.00000000000001
 20
20.91954639065414
 30
0.0
 11
-7.978999999999987
 21
20.91954639065414
 31
0.0
 70
   160
  1
<>
 71
     2
 42
6.35
  3
SLDDIMSTYLE1
100
AcDbAlignedDimension
 13
16.35000000000001
 23
1.587500000000023
 33
0.0
 14
10.00000000000001
 24
1.587500000000002
 34
0.0
100
AcDbRotatedDimension
1001
PE_URL
1000

1001
ACAD
1000
DSTYLE
1002
{
1070
   171
1070
     3
1070
   273
1070
     7
1002
}
  0
DIMENSION
  5
10D
330
1F
100
AcDbEntity
  8
치수문자_일반주서
100
AcDbDimension
  2
_D_3
 10
26.35000000000002
 20
-1.587499999999967
 30
0.0
 11
26.34999999999994
 21
20.44150000000006
 31
0.0
 70
   160
  1
%%c<>
 71
     2
 42
3.175000000000026
 52
-270.0
  3
SLDDIMSTYLE1
100
AcDbAlignedDimension
 13
16.35000000000001
 23
1.587500000000023
 33
0.0
 14
16.3512714590958
 24
-1.587500000000003
 34
0.0
 50
90.0000000000002
100
AcDbRotatedDimension
1001
ACAD
1000
DSTYLE
1002
{
1070
   171
1070
     3
1070
   273
1070
     7
1002
}
  0
LINE
  5
121
330
1F
100
AcDbEntity
  8
참조1
100
AcDbLine
 10
86.47300279016856
 20
7.661100782933332
 30
0.0
 11
86.47300279016856
 21
-7.218899217066673
 31
0.0
  0
LINE
  5
122
330
1F
100
AcDbEntity
  8
참조1
100
AcDbLine
 10
99.17300279016857
 20
5.661100782933332
 30
0.0
 11
86.47300279016856
 21
5.661100782933332
 31
0.0
  0
SOLID
  5
123
330
1F
100
AcDbEntity
  8
참조1
100
AcDbTrace
 10
86.47300279016856
 20
5.661100782933332
 30
0.0
 11
92.82300279016856
 21
4.645100782933332
 31
0.0
 12
92.82300279016856
 22
6.677100782933332
 32
0.0
 13
92.82300279016856
 23
6.677100782933332
 33
0.0
  0
LINE
  5
124
330
1F
100
AcDbEntity
  8
참조1
100
AcDbLine
 10
99.17300279016857
 20
-5.218899217066673
 30
0.0
 11
86.47300279016856
 21
-5.218899217066673
 31
0.0
  0
SOLID
  5
125
330
1F
100
AcDbEntity
  8
참조1
100
AcDbTrace
 10
86.47300279016856
 20
-5.218899217066673
 30
0.0
 11
92.82300279016856
 21
-6.234899217066673
 31
0.0
 12
92.82300279016856
 22
-4.202899217066673
 32
0.0
 13
92.82300279016856
 23
-4.202899217066673
 33
0.0
  0
MTEXT
  5
126
330
1F
100
AcDbEntity
  8
참조1
100
AcDbMText
 10
95.87049288263884
 20
11.20931742758327
 30
0.0
 40
3.5
 41
0.0
 71
     1
 72
     1
  1
A
  7
SLDTEXTSTYLE0
 73
     1
 44
1.0
  0
MTEXT
  5
127
330
1F
100
AcDbEntity
  8
참조1
100
AcDbMText
 10
95.87049288263884
 20
0.3293174275832613
 30
0.0
 40
3.5
 41
0.0
 71
     1
 72
     1
  1
A
  7
SLDTEXTSTYLE0
 73
     1
 44
1.0
  0
INSERT
  5
12E
330
1F
100
AcDbEntity
  8
해칭선
100
AcDbBlockReference
  2
SW_DOWELSYMBOL_0
 10
0.0
 20
0.0
 30
0.0
  0
ARC
  5
15B
330
1F
100
AcDbEntity
  8
외형선
  6
Continuous
 62
     1
370
    15
100
AcDbCircle
 10
16.09600000000001
 20
1.332788855660582
 30
0.0
 40
0.254
100
AcDbArc
 50
359.2925019397467
 51
90.0
1001
PE_URL
1000

  0
MTEXT
  5
1CD
102
{ACAD_REACTORS
330
1CE
102
}
330
1F
100
AcDbEntity
  8
0
100
AcDbMText
 10
26.60126298497676
 20
-15.33274305751218
 30
0.0
 40
3.5
 41
0.0
 71
     7
 72
     1
  1
{R0.25[.010"]}
 73
     1
 44
1.0
1001
ACAD
1000
ACAD_MTEXT_DEFINED_HEIGHT_BEGIN
1070
    46
1040
3.5
1000
ACAD_MTEXT_DEFINED_HEIGHT_END
  0
LEADER
  5
1CE
102
{ACAD_XDICTIONARY
360
1CF
102
}
330
1F
100
AcDbEntity
  8
0
100
AcDbLeader
  3
ISO-25
 73
     0
 74
     0
 75
     1
 40
3.5
 41
29.75
 76
     3
 10
16.06688416373025
 20
-1.400575954782768
 30
0.0
 10
21.77526298497676
 20
-13.58274305751218
 30
0.0
 10
25.07726298497676
 20
-13.58274305751218
 30
0.0
340
1CD
213
0.0
223
1.75
233
0.0
1001
ACAD
1000
DSTYLE
1002
{
1070
    77
1070
     0
1070
   179
1070
     2
1070
   143
1040
0.0393700787401575
1070
    41
1040
3.302
1070
    44
1040
1.0
1070
    42
1040
1.0
1070
   147
1040
1.524
1070
    73
1070
     1
1070
    74
1070
     1
1070
   140
1040
3.5
1070
   284
1070
     0
1070
    78
1070
     0
1002
}
  0
SPLINE
  5
1D0
330
1F
100
AcDbEntity
  8
외형선
  6
Continuous
 62
     1
370
    15
100
AcDbSpline
210
0.0
220
0.0
230
1.0
 70
     8
 71
     3
 72
     8
 73
     4
 74
     0
 42
0.000000001
 43
0.00000001
 40
0.99269632826093
 40
0.99269632826093
 40
0.99269632826093
 40
0.99269632826093
 40
1.0
 40
1.0
 40
1.0
 40
1.0
 10
16.34998063562678
 20
1.329652500032714
 30
0.0
 10
16.34999353207206
 20
1.328582549682487
 30
0.0
 10
16.35000000000001
 20
1.327511497092731
 30
0.0
 10
16.35000000000001
 20
1.326439392715428
 30
0.0
  0
ENDSEC
  0
SECTION
  2
OBJECTS
  0
DICTIONARY
  5
C
330
0
100
AcDbDictionary
281
     1
  3
ACAD_DETAILVIEWSTYLE
350
21A
  3
ACAD_GROUP
350
D
  3
ACAD_LAYOUT
350
1A
  3
ACAD_MLINESTYLE
350
17
  3
ACAD_PLOTSETTINGS
350
19
  3
ACAD_PLOTSTYLENAME
350
E
  3
ACAD_SCALELIST
350
47
  3
ACAD_SECTIONVIEWSTYLE
350
21B
  3
AcDbVariableDictionary
350
215
  3
APPDATA
350
150
  3
DWGPROPS
350
21C
  0
DICTIONARY
  5
1CF
330
1CE
100
AcDbDictionary
280
     1
281
     1
  0
DICTIONARY
  5
21A
102
{ACAD_REACTORS
330
C
102
}
330
C
100
AcDbDictionary
281
     1
  0
DICTIONARY
  5
D
102
{ACAD_REACTORS
330
C
102
}
330
C
100
AcDbDictionary
281
     1
  0
DICTIONARY
  5
1A
102
{ACAD_REACTORS
330
C
102
}
330
C
100
AcDbDictionary
281
     1
  3
Layout1
350
1E
  3
Layout2
350
26
  3
Model
350
22
  0
DICTIONARY
  5
17
102
{ACAD_REACTORS
330
C
102
}
330
C
100
AcDbDictionary
281
     1
  3
Standard
350
18
  0
DICTIONARY
  5
19
102
{ACAD_REACTORS
330
C
102
}
330
C
100
AcDbDictionary
281
     1
  0
ACDBDICTIONARYWDFLT
  5
E
102
{ACAD_REACTORS
330
C
102
}
330
C
100
AcDbDictionary
281
     1
  3
Normal
350
F
100
AcDbDictionaryWithDefault
340
F
  0
DICTIONARY
  5
47
102
{ACAD_REACTORS
330
C
102
}
330
C
100
AcDbDictionary
281
     1
  3
A0
350
48
  3
A1
350
49
  3
A2
350
4A
  3
A3
350
4B
  3
A4
350
4C
  3
A5
350
4D
  3
A6
350
4E
  3
A7
350
4F
  3
A8
350
50
  3
A9
350
51
  3
B0
350
52
  3
B1
350
53
  3
B2
350
54
  3
B3
350
55
  3
B4
350
56
  3
B5
350
57
  3
B6
350
58
  3
B7
350
59
  3
B8
350
5A
  3
B9
350
5B
  3
C0
350
5C
  3
C1
350
5D
  3
C2
350
5E
  3
C3
350
5F
  3
C4
350
60
  3
C5
350
61
  3
C6
350
62
  3
C7
350
63
  3
C8
350
64
  3
C9
350
65
  3
D0
350
66
  3
D1
350
67
  3
D2
350
68
  0
DICTIONARY
  5
21B
102
{ACAD_REACTORS
330
C
102
}
330
C
100
AcDbDictionary
281
     1
  0
DICTIONARY
  5
215
102
{ACAD_REACTORS
330
C
102
}
330
C
100
AcDbDictionary
281
     1
  0
DICTIONARY
  5
150
102
{ACAD_REACTORS
330
C
102
}
330
C
100
AcDbDictionary
281
     1
  0
XRECORD
  5
21C
102
{ACAD_REACTORS
330
C
102
}
330
C
100
AcDbXrecord
280
     1
  1
DWGPROPS COOKIE
  2

  3

  4

  6

  7

  8
12017103
  9

300
=
301
=
302
=
303
=
304
=
305
=
306
=
307
=
308
=
309
=
 40
0.0
 41
2458290.299725336
 42
2458299.386153438
  1

 90
        0
  0
LAYOUT
  5
1E
102
{ACAD_REACTORS
330
1A
102
}
330
1A
100
AcDbPlotSettings
  1

  2
none_device
  4

  6

 40
0.0
 41
0.0
 42
0.0
 43
0.0
 44
0.0
 45
0.0
 46
0.0
 47
0.0
 48
0.0
 49
0.0
140
0.0
141
0.0
142
1.0
143
1.0
 70
   688
 72
     1
 73
     0
 74
     5
  7

 75
    16
147
1.0
148
0.0
149
0.0
100
AcDbLayout
  1
Layout1
 70
     1
 71
     1
 10
0.0
 20
0.0
 11
420.0
 21
297.0
 12
0.0
 22
0.0
 32
0.0
 14
1.000000000000000E+20
 24
1.000000000000000E+20
 34
1.000000000000000E+20
 15
-1.000000000000000E+20
 25
-1.000000000000000E+20
 35
-1.000000000000000E+20
146
0.0
 13
0.0
 23
0.0
 33
0.0
 16
1.0
 26
0.0
 36
0.0
 17
0.0
 27
1.0
 37
0.0
 76
     0
330
1B
  0
LAYOUT
  5
26
102
{ACAD_REACTORS
330
1A
102
}
330
1A
100
AcDbPlotSettings
  1

  2
none_device
  4

  6

 40
0.0
 41
0.0
 42
0.0
 43
0.0
 44
0.0
 45
0.0
 46
0.0
 47
0.0
 48
0.0
 49
0.0
140
0.0
141
0.0
142
1.0
143
1.0
 70
   688
 72
     1
 73
     0
 74
     5
  7

 75
    16
147
1.0
148
0.0
149
0.0
100
AcDbLayout
  1
Layout2
 70
     1
 71
     2
 10
0.0
 20
0.0
 11
0.0
 21
0.0
 12
0.0
 22
0.0
 32
0.0
 14
0.0
 24
0.0
 34
0.0
 15
0.0
 25
0.0
 35
0.0
146
0.0
 13
0.0
 23
0.0
 33
0.0
 16
1.0
 26
0.0
 36
0.0
 17
0.0
 27
1.0
 37
0.0
 76
     0
330
23
  0
LAYOUT
  5
22
102
{ACAD_REACTORS
330
1A
102
}
330
1A
100
AcDbPlotSettings
  1

  2
none_device
  4
ANSI_A_(11.00_x_8.50_Inches)
  6

 40
6.35
 41
19.05
 42
6.35000508
 43
19.05000254
 44
279.4
 45
215.9
 46
93.19487845754325
 47
81.72322072268848
 48
0.0
 49
0.0
140
0.0
141
0.0
142
0.0708449880438996
143
1.0
 70
  1696
 72
     0
 73
     0
 74
     0
  7

 75
     0
147
0.0235690232323232
148
0.0
149
0.0
100
AcDbLayout
  1
Model
 70
     1
 71
     0
 10
0.0
 20
0.0
 11
420.0
 21
297.0
 12
0.0
 22
0.0
 32
0.0
 14
-36.86002923458575
 24
-49.75070660587841
 34
0.0
 15
99.17300279016857
 25
41.09532433616207
 35
0.0
146
0.0
 13
0.0
 23
0.0
 33
0.0
 16
1.0
 26
0.0
 36
0.0
 17
0.0
 27
1.0
 37
0.0
 76
     0
330
1F
331
29
  0
MLINESTYLE
  5
18
102
{ACAD_REACTORS
330
17
102
}
330
17
100
AcDbMlineStyle
  2
Standard
 70
     0
  3

 62
   256
 51
90.0
 52
90.0
 71
     2
 49
0.5
 62
   256
  6
BYLAYER
 49
-0.5
 62
   256
  6
BYLAYER
  0
ACDBPLACEHOLDER
  5
F
102
{ACAD_REACTORS
330
E
102
}
330
E
  0
SCALE
  5
48
102
{ACAD_REACTORS
330
47
102
}
330
47
100
AcDbScale
 70
     0
300
1:1
140
1.0
141
1.0
290
     1
  0
SCALE
  5
49
102
{ACAD_REACTORS
330
47
102
}
330
47
100
AcDbScale
 70
     0
300
1:2
140
1.0
141
2.0
290
     0
  0
SCALE
  5
4A
102
{ACAD_REACTORS
330
47
102
}
330
47
100
AcDbScale
 70
     0
300
1:4
140
1.0
141
4.0
290
     0
  0
SCALE
  5
4B
102
{ACAD_REACTORS
330
47
102
}
330
47
100
AcDbScale
 70
     0
300
1:5
140
1.0
141
5.0
290
     0
  0
SCALE
  5
4C
102
{ACAD_REACTORS
330
47
102
}
330
47
100
AcDbScale
 70
     0
300
1:8
140
1.0
141
8.0
290
     0
  0
SCALE
  5
4D
102
{ACAD_REACTORS
330
47
102
}
330
47
100
AcDbScale
 70
     0
300
1:10
140
1.0
141
10.0
290
     0
  0
SCALE
  5
4E
102
{ACAD_REACTORS
330
47
102
}
330
47
100
AcDbScale
 70
     0
300
1:16
140
1.0
141
16.0
290
     0
  0
SCALE
  5
4F
102
{ACAD_REACTORS
330
47
102
}
330
47
100
AcDbScale
 70
     0
300
1:20
140
1.0
141
20.0
290
     0
  0
SCALE
  5
50
102
{ACAD_REACTORS
330
47
102
}
330
47
100
AcDbScale
 70
     0
300
1:30
140
1.0
141
30.0
290
     0
  0
SCALE
  5
51
102
{ACAD_REACTORS
330
47
102
}
330
47
100
AcDbScale
 70
     0
300
1:40
140
1.0
141
40.0
290
     0
  0
SCALE
  5
52
102
{ACAD_REACTORS
330
47
102
}
330
47
100
AcDbScale
 70
     0
300
1:50
140
1.0
141
50.0
290
     0
  0
SCALE
  5
53
102
{ACAD_REACTORS
330
47
102
}
330
47
100
AcDbScale
 70
     0
300
1:100
140
1.0
141
100.0
290
     0
  0
SCALE
  5
54
102
{ACAD_REACTORS
330
47
102
}
330
47
100
AcDbScale
 70
     0
300
2:1
140
2.0
141
1.0
290
     0
  0
SCALE
  5
55
102
{ACAD_REACTORS
330
47
102
}
330
47
100
AcDbScale
 70
     0
300
4:1
140
4.0
141
1.0
290
     0
  0
SCALE
  5
56
102
{ACAD_REACTORS
330
47
102
}
330
47
100
AcDbScale
 70
     0
300
8:1
140
8.0
141
1.0
290
     0
  0
SCALE
  5
57
102
{ACAD_REACTORS
330
47
102
}
330
47
100
AcDbScale
 70
     0
300
10:1
140
10.0
141
1.0
290
     0
  0
SCALE
  5
58
102
{ACAD_REACTORS
330
47
102
}
330
47
100
AcDbScale
 70
     0
300
100:1
140
100.0
141
1.0
290
     0
  0
SCALE
  5
59
102
{ACAD_REACTORS
330
47
102
}
330
47
100
AcDbScale
 70
     0
300
1/128" = 1'-0"
140
0.0078125
141
12.0
290
     0
  0
SCALE
  5
5A
102
{ACAD_REACTORS
330
47
102
}
330
47
100
AcDbScale
 70
     0
300
1/64" = 1'-0"
140
0.015625
141
12.0
290
     0
  0
SCALE
  5
5B
102
{ACAD_REACTORS
330
47
102
}
330
47
100
AcDbScale
 70
     0
300
1/32" = 1'-0"
140
0.03125
141
12.0
290
     0
  0
SCALE
  5
5C
102
{ACAD_REACTORS
330
47
102
}
330
47
100
AcDbScale
 70
     0
300
1/16" = 1'-0"
140
0.0625
141
12.0
290
     0
  0
SCALE
  5
5D
102
{ACAD_REACTORS
330
47
102
}
330
47
100
AcDbScale
 70
     0
300
3/32" = 1'-0"
140
0.09375
141
12.0
290
     0
  0
SCALE
  5
5E
102
{ACAD_REACTORS
330
47
102
}
330
47
100
AcDbScale
 70
     0
300
1/8" = 1'-0"
140
0.125
141
12.0
290
     0
  0
SCALE
  5
5F
102
{ACAD_REACTORS
330
47
102
}
330
47
100
AcDbScale
 70
     0
300
3/16" = 1'-0"
140
0.1875
141
12.0
290
     0
  0
SCALE
  5
60
102
{ACAD_REACTORS
330
47
102
}
330
47
100
AcDbScale
 70
     0
300
1/4" = 1'-0"
140
0.25
141
12.0
290
     0
  0
SCALE
  5
61
102
{ACAD_REACTORS
330
47
102
}
330
47
100
AcDbScale
 70
     0
300
3/8" = 1'-0"
140
0.375
141
12.0
290
     0
  0
SCALE
  5
62
102
{ACAD_REACTORS
330
47
102
}
330
47
100
AcDbScale
 70
     0
300
1/2" = 1'-0"
140
0.5
141
12.0
290
     0
  0
SCALE
  5
63
102
{ACAD_REACTORS
330
47
102
}
330
47
100
AcDbScale
 70
     0
300
3/4" = 1'-0"
140
0.75
141
12.0
290
     0
  0
SCALE
  5
64
102
{ACAD_REACTORS
330
47
102
}
330
47
100
AcDbScale
 70
     0
300
1" = 1'-0"
140
1.0
141
12.0
290
     0
  0
SCALE
  5
65
102
{ACAD_REACTORS
330
47
102
}
330
47
100
AcDbScale
 70
     0
300
1-1/2" = 1'-0"
140
1.5
141
12.0
290
     0
  0
SCALE
  5
66
102
{ACAD_REACTORS
330
47
102
}
330
47
100
AcDbScale
 70
     0
300
3" = 1'-0"
140
3.0
141
12.0
290
     0
  0
SCALE
  5
67
102
{ACAD_REACTORS
330
47
102
}
330
47
100
AcDbScale
 70
     0
300
6" = 1'-0"
140
6.0
141
12.0
290
     0
  0
SCALE
  5
68
102
{ACAD_REACTORS
330
47
102
}
330
47
100
AcDbScale
 70
     0
300
1'-0" = 1'-0"
140
12.0
141
12.0
290
     0
  0
ENDSEC
  0
EOF
