  0
SECTION
  2
HEADER
  9
$ACADVER
  1
AC1015
  9
$ACADMAINTVER
 70
     6
  9
$DWGCODEPAGE
  3
ANSI_949
  9
$INSBASE
 10
0.0
 20
0.0
 30
0.0
  9
$EXTMIN
 10
1.000000000000000E+20
 20
1.000000000000000E+20
 30
1.000000000000000E+20
  9
$EXTMAX
 10
-1.000000000000000E+20
 20
-1.000000000000000E+20
 30
-1.000000000000000E+20
  9
$LIMMIN
 10
0.0
 20
0.0
  9
$LIMMAX
 10
420.0
 20
297.0
  9
$ORTHOMODE
 70
     1
  9
$REGENMODE
 70
     1
  9
$FILLMODE
 70
     1
  9
$QTEXTMODE
 70
     0
  9
$MIRRTEXT
 70
     1
  9
$LTSCALE
 40
1.0
  9
$ATTMODE
 70
     1
  9
$TEXTSIZE
 40
3.5
  9
$TRACEWID
 40
1.0
  9
$TEXTSTYLE
  7
Standard
  9
$CLAYER
  8
0
  9
$CELTYPE
  6
ByLayer
  9
$CECOLOR
 62
   256
  9
$CELTSCALE
 40
1.0
  9
$DISPSILH
 70
     0
  9
$DIMSCALE
 40
1.0
  9
$DIMASZ
 40
3.302
  9
$DIMEXO
 40
1.0
  9
$DIMDLI
 40
3.75
  9
$DIMRND
 40
0.0
  9
$DIMDLE
 40
0.0
  9
$DIMEXE
 40
1.0
  9
$DIMTP
 40
0.0
  9
$DIMTM
 40
0.0
  9
$DIMTXT
 40
3.5
  9
$DIMCEN
 40
2.5
  9
$DIMTSZ
 40
0.0
  9
$DIMTOL
 70
     0
  9
$DIMLIM
 70
     0
  9
$DIMTIH
 70
     1
  9
$DIMTOH
 70
     1
  9
$DIMSE1
 70
     0
  9
$DIMSE2
 70
     0
  9
$DIMTAD
 70
     1
  9
$DIMZIN
 70
     0
  9
$DIMBLK
  1

  9
$DIMASO
 70
     1
  9
$DIMSHO
 70
     1
  9
$DIMPOST
  1

  9
$DIMAPOST
  1

  9
$DIMALT
 70
     0
  9
$DIMALTD
 70
     3
  9
$DIMALTF
 40
0.0393700787401575
  9
$DIMLFAC
 40
1.0
  9
$DIMTOFL
 70
     1
  9
$DIMTVP
 40
0.0
  9
$DIMTIX
 70
     0
  9
$DIMSOXD
 70
     0
  9
$DIMSAH
 70
     0
  9
$DIMBLK1
  1

  9
$DIMBLK2
  1

  9
$DIMSTYLE
  2
ISO-25
  9
$DIMCLRD
 70
     0
  9
$DIMCLRE
 70
     0
  9
$DIMCLRT
 70
     0
  9
$DIMTFAC
 40
1.0
  9
$DIMGAP
 40
1.524
  9
$DIMJUST
 70
     0
  9
$DIMSD1
 70
     0
  9
$DIMSD2
 70
     0
  9
$DIMTOLJ
 70
     0
  9
$DIMTZIN
 70
     0
  9
$DIMALTZ
 70
     0
  9
$DIMALTTZ
 70
     0
  9
$DIMUPT
 70
     0
  9
$DIMDEC
 70
     2
  9
$DIMTDEC
 70
     2
  9
$DIMALTU
 70
     2
  9
$DIMALTTD
 70
     3
  9
$DIMTXSTY
  7
Standard
  9
$DIMAUNIT
 70
     0
  9
$DIMADEC
 70
     2
  9
$DIMALTRND
 40
0.0
  9
$DIMAZIN
 70
     0
  9
$DIMDSEP
 70
    44
  9
$DIMATFIT
 70
     3
  9
$DIMFRAC
 70
     0
  9
$DIMLDRBLK
  1

  9
$DIMLUNIT
 70
     2
  9
$DIMLWD
 70
    -2
  9
$DIMLWE
 70
    -2
  9
$DIMTMOVE
 70
     0
  9
$LUNITS
 70
     2
  9
$LUPREC
 70
     2
  9
$SKETCHINC
 40
1.0
  9
$FILLETRAD
 40
10.0
  9
$AUNITS
 70
     0
  9
$AUPREC
 70
     2
  9
$MENU
  1
.
  9
$ELEVATION
 40
0.0
  9
$PELEVATION
 40
0.0
  9
$THICKNESS
 40
0.0
  9
$LIMCHECK
 70
     0
  9
$CHAMFERA
 40
0.0
  9
$CHAMFERB
 40
0.0
  9
$CHAMFERC
 40
0.0
  9
$CHAMFERD
 40
0.0
  9
$SKPOLY
 70
     0
  9
$TDCREATE
 40
2458324.341051308
  9
$TDUCREATE
 40
2458323.966051308
  9
$TDUPDATE
 40
2458324.57429765
  9
$TDUUPDATE
 40
2458324.19929765
  9
$TDINDWG
 40
0.0008060069
  9
$TDUSRTIMER
 40
2458324.198491979
  9
$USRTIMER
 70
     1
  9
$ANGBASE
 50
0.0
  9
$ANGDIR
 70
     0
  9
$PDMODE
 70
     0
  9
$PDSIZE
 40
-1.0
  9
$PLINEWID
 40
0.0
  9
$SPLFRAME
 70
     0
  9
$SPLINETYPE
 70
     6
  9
$SPLINESEGS
 70
     8
  9
$HANDSEED
  5
2D9
  9
$SURFTAB1
 70
     6
  9
$SURFTAB2
 70
     6
  9
$SURFTYPE
 70
     6
  9
$SURFU
 70
     6
  9
$SURFV
 70
     6
  9
$UCSBASE
  2

  9
$UCSNAME
  2

  9
$UCSORG
 10
0.0
 20
0.0
 30
0.0
  9
$UCSXDIR
 10
1.0
 20
0.0
 30
0.0
  9
$UCSYDIR
 10
0.0
 20
1.0
 30
0.0
  9
$UCSORTHOREF
  2

  9
$UCSORTHOVIEW
 70
     0
  9
$UCSORGTOP
 10
0.0
 20
0.0
 30
0.0
  9
$UCSORGBOTTOM
 10
0.0
 20
0.0
 30
0.0
  9
$UCSORGLEFT
 10
0.0
 20
0.0
 30
0.0
  9
$UCSORGRIGHT
 10
0.0
 20
0.0
 30
0.0
  9
$UCSORGFRONT
 10
0.0
 20
0.0
 30
0.0
  9
$UCSORGBACK
 10
0.0
 20
0.0
 30
0.0
  9
$PUCSBASE
  2

  9
$PUCSNAME
  2

  9
$PUCSORG
 10
0.0
 20
0.0
 30
0.0
  9
$PUCSXDIR
 10
1.0
 20
0.0
 30
0.0
  9
$PUCSYDIR
 10
0.0
 20
1.0
 30
0.0
  9
$PUCSORTHOREF
  2

  9
$PUCSORTHOVIEW
 70
     0
  9
$PUCSORGTOP
 10
0.0
 20
0.0
 30
0.0
  9
$PUCSORGBOTTOM
 10
0.0
 20
0.0
 30
0.0
  9
$PUCSORGLEFT
 10
0.0
 20
0.0
 30
0.0
  9
$PUCSORGRIGHT
 10
0.0
 20
0.0
 30
0.0
  9
$PUCSORGFRONT
 10
0.0
 20
0.0
 30
0.0
  9
$PUCSORGBACK
 10
0.0
 20
0.0
 30
0.0
  9
$USERI1
 70
     0
  9
$USERI2
 70
     0
  9
$USERI3
 70
     0
  9
$USERI4
 70
     0
  9
$USERI5
 70
     0
  9
$USERR1
 40
0.0
  9
$USERR2
 40
0.0
  9
$USERR3
 40
0.0
  9
$USERR4
 40
0.0
  9
$USERR5
 40
0.0
  9
$WORLDVIEW
 70
     1
  9
$SHADEDGE
 70
     3
  9
$SHADEDIF
 70
    70
  9
$TILEMODE
 70
     1
  9
$MAXACTVP
 70
    64
  9
$PINSBASE
 10
0.0
 20
0.0
 30
0.0
  9
$PLIMCHECK
 70
     0
  9
$PEXTMIN
 10
1.000000000000000E+20
 20
1.000000000000000E+20
 30
1.000000000000000E+20
  9
$PEXTMAX
 10
-1.000000000000000E+20
 20
-1.000000000000000E+20
 30
-1.000000000000000E+20
  9
$PLIMMIN
 10
0.0
 20
0.0
  9
$PLIMMAX
 10
0.0
 20
0.0
  9
$UNITMODE
 70
     0
  9
$VISRETAIN
 70
     1
  9
$PLINEGEN
 70
     0
  9
$PSLTSCALE
 70
     1
  9
$TREEDEPTH
 70
  3020
  9
$CMLSTYLE
  2
Standard
  9
$CMLJUST
 70
     0
  9
$CMLSCALE
 40
20.0
  9
$PROXYGRAPHICS
 70
     1
  9
$MEASUREMENT
 70
     1
  9
$CELWEIGHT
370
    -1
  9
$ENDCAPS
280
     0
  9
$JOINSTYLE
280
     0
  9
$LWDISPLAY
290
     1
  9
$INSUNITS
 70
     4
  9
$HYPERLINKBASE
  1

  9
$STYLESHEET
  1

  9
$XEDIT
290
     1
  9
$CEPSNTYPE
380
     0
  9
$PSTYLEMODE
290
     1
  9
$FINGERPRINTGUID
  2
{D15DF3D0-9BA6-4A5C-948D-EC859A73F5AA}
  9
$VERSIONGUID
  2
{FAEB1C32-E019-11D5-929B-00C0DF256EC4}
  9
$EXTNAMES
290
     1
  9
$PSVPSCALE
 40
0.0
  9
$OLESTARTUP
290
     0
  0
ENDSEC
  0
SECTION
  2
CLASSES
  0
CLASS
  1
ACDBDICTIONARYWDFLT
  2
AcDbDictionaryWithDefault
  3
ObjectDBX Classes
 90
        0
280
     0
281
     0
  0
CLASS
  1
VISUALSTYLE
  2
AcDbVisualStyle
  3
ObjectDBX Classes
 90
     4095
280
     0
281
     0
  0
CLASS
  1
MATERIAL
  2
AcDbMaterial
  3
ObjectDBX Classes
 90
     1153
280
     0
281
     0
  0
CLASS
  1
SCALE
  2
AcDbScale
  3
ObjectDBX Classes
 90
     1153
280
     0
281
     0
  0
CLASS
  1
SUN
  2
AcDbSun
  3
SCENEOE
 90
     1153
280
     0
281
     0
  0
CLASS
  1
ACDBPLACEHOLDER
  2
AcDbPlaceHolder
  3
ObjectDBX Classes
 90
        0
280
     0
281
     0
  0
CLASS
  1
LAYOUT
  2
AcDbLayout
  3
ObjectDBX Classes
 90
        0
280
     0
281
     0
  0
CLASS
  1
TABLESTYLE
  2
AcDbTableStyle
  3
ObjectDBX Classes
 90
     4095
280
     0
281
     0
  0
CLASS
  1
MLEADERSTYLE
  2
AcDbMLeaderStyle
  3
ACDB_MLEADERSTYLE_CLASS
 90
     4095
280
     0
281
     0
  0
CLASS
  1
RASTERVARIABLES
  2
AcDbRasterVariables
  3
ISM
 90
        0
280
     0
281
     0
  0
ENDSEC
  0
SECTION
  2
TABLES
  0
TABLE
  2
VPORT
  5
8
330
0
100
AcDbSymbolTable
 70
     1
  0
VPORT
  5
29
330
8
100
AcDbSymbolTableRecord
100
AcDbViewportTableRecord
  2
*Active
 70
     0
 10
0.0
 20
0.0
 11
1.0
 21
1.0
 12
55.08518191594189
 22
-5.467516264166228
 13
0.0
 23
0.0
 14
10.0
 24
10.0
 15
10.0
 25
10.0
 16
0.0
 26
0.0
 36
1.0
 17
0.0
 27
0.0
 37
0.0
 40
136.1591480548886
 41
1.970186335403727
 42
50.0
 43
0.0
 44
0.0
 50
0.0
 51
0.0
 71
    16
 72
  2000
 73
     1
 74
     3
 75
     0
 76
     0
 77
     0
 78
     0
281
     0
 65
     1
110
0.0
120
0.0
130
0.0
111
1.0
121
0.0
131
0.0
112
0.0
122
1.0
132
0.0
 79
     0
146
0.0
  0
ENDTAB
  0
TABLE
  2
LTYPE
  5
5
330
0
100
AcDbSymbolTable
 70
     6
  0
LTYPE
  5
14
330
5
100
AcDbSymbolTableRecord
100
AcDbLinetypeTableRecord
  2
ByBlock
 70
     0
  3

 72
    65
 73
     0
 40
0.0
  0
LTYPE
  5
15
330
5
100
AcDbSymbolTableRecord
100
AcDbLinetypeTableRecord
  2
ByLayer
 70
     0
  3

 72
    65
 73
     0
 40
0.0
  0
LTYPE
  5
16
330
5
100
AcDbSymbolTableRecord
100
AcDbLinetypeTableRecord
  2
Continuous
 70
     0
  3
Solid line
 72
    65
 73
     0
 40
0.0
  0
LTYPE
  5
6A
330
5
100
AcDbSymbolTableRecord
100
AcDbLinetypeTableRecord
  2
HIDDEN
 70
     0
  3
Hidden __ __ __ __ __ __ __ __ __ __ __ __ __ __
 72
    65
 73
     2
 40
1.905
 49
1.27
 74
     0
 49
-0.635
 74
     0
  0
LTYPE
  5
6B
330
5
100
AcDbSymbolTableRecord
100
AcDbLinetypeTableRecord
  2
PHANTOM
 70
     0
  3
Phantom ______  __  __  ______  __  __  ______
 72
    65
 73
     6
 40
12.7
 49
6.35
 74
     0
 49
-1.27
 74
     0
 49
1.27
 74
     0
 49
-1.27
 74
     0
 49
1.27
 74
     0
 49
-1.27
 74
     0
  0
LTYPE
  5
6C
330
5
100
AcDbSymbolTableRecord
100
AcDbLinetypeTableRecord
  2
CENTER
 70
     0
  3
Center ____ _ ____ _ ____ _ ____ _ ____ _ ____
 72
    65
 73
     4
 40
10.16
 49
6.35
 74
     0
 49
-1.27
 74
     0
 49
1.27
 74
     0
 49
-1.27
 74
     0
  0
LTYPE
  5
6D
330
5
100
AcDbSymbolTableRecord
100
AcDbLinetypeTableRecord
  2
CENTERX2
 70
     0
  3
Center (2x) ________  __  ________  __  _____
 72
    65
 73
     4
 40
20.32
 49
12.7
 74
     0
 49
-2.54
 74
     0
 49
2.54
 74
     0
 49
-2.54
 74
     0
  0
LTYPE
  5
6E
330
5
100
AcDbSymbolTableRecord
100
AcDbLinetypeTableRecord
  2
DOT2
 70
     0
  3
Dot (.5x) ........................................
 72
    65
 73
     2
 40
0.635
 49
0.0
 74
     0
 49
-0.635
 74
     0
  0
ENDTAB
  0
TABLE
  2
LAYER
  5
2
102
{ACAD_XDICTIONARY
360
21C
102
}
330
0
100
AcDbSymbolTable
 70
    18
  0
LAYER
  5
10
330
2
100
AcDbSymbolTableRecord
100
AcDbLayerTableRecord
  2
0
 70
     0
 62
     7
  6
Continuous
370
    -3
390
F
  0
LAYER
  5
6F
330
2
100
AcDbSymbolTableRecord
100
AcDbLayerTableRecord
  2
FORMAT
 70
     0
 62
     2
  6
Continuous
370
    -3
390
F
  0
LAYER
  5
70
330
2
100
AcDbSymbolTableRecord
100
AcDbLayerTableRecord
  2
외형선
 70
     0
 62
     4
  6
Continuous
370
    30
390
F
  0
LAYER
  5
71
330
2
100
AcDbSymbolTableRecord
100
AcDbLayerTableRecord
  2
숨은선
 70
     0
 62
     2
  6
HIDDEN
370
    15
390
F
  0
LAYER
  5
72
330
2
100
AcDbSymbolTableRecord
100
AcDbLayerTableRecord
  2
중심선
 70
     0
 62
     1
  6
CENTERX2
370
    -3
390
F
  0
LAYER
  5
73
330
2
100
AcDbSymbolTableRecord
100
AcDbLayerTableRecord
  2
파단선
 70
     0
 62
     4
  6
Continuous
370
    -3
390
F
  0
LAYER
  5
74
330
2
100
AcDbSymbolTableRecord
100
AcDbLayerTableRecord
  2
해칭선
 70
     0
 62
   100
  6
Continuous
370
    -3
390
F
  0
LAYER
  5
75
330
2
100
AcDbSymbolTableRecord
100
AcDbLayerTableRecord
  2
가는실선
 70
     0
 62
     4
  6
Continuous
370
    -3
390
F
  0
LAYER
  5
76
330
2
100
AcDbSymbolTableRecord
100
AcDbLayerTableRecord
  2
치수_보조선
 70
     0
 62
     4
  6
Continuous
370
    -3
390
F
  0
LAYER
  5
77
330
2
100
AcDbSymbolTableRecord
100
AcDbLayerTableRecord
  2
치수문자_일반주서
 70
     0
 62
     7
  6
Continuous
370
    15
390
F
  0
LAYER
  5
78
330
2
100
AcDbSymbolTableRecord
100
AcDbLayerTableRecord
  2
개별주서
 70
     0
 62
   100
  6
Continuous
370
    30
390
F
  0
LAYER
  5
79
330
2
100
AcDbSymbolTableRecord
100
AcDbLayerTableRecord
  2
중간선
 70
     0
 62
     2
  6
Continuous
370
    15
390
F
  0
LAYER
  5
7A
330
2
100
AcDbSymbolTableRecord
100
AcDbLayerTableRecord
  2
윤곽선
 70
     0
 62
     3
  6
Continuous
370
    40
390
F
  0
LAYER
  5
7B
330
2
100
AcDbSymbolTableRecord
100
AcDbLayerTableRecord
  2
중심마크
 70
     0
 62
   100
  6
Continuous
370
    30
390
F
  0
LAYER
  5
7C
330
2
100
AcDbSymbolTableRecord
100
AcDbLayerTableRecord
  2
가상선
 70
     0
 62
     4
  6
PHANTOM
370
    -3
390
F
  0
LAYER
  5
7D
330
2
100
AcDbSymbolTableRecord
100
AcDbLayerTableRecord
  2
특수지정선
 70
     0
 62
     5
  6
CENTERX2
370
    60
390
F
  0
LAYER
  5
7E
330
2
100
AcDbSymbolTableRecord
100
AcDbLayerTableRecord
  2
참조1
 70
     0
 62
    -4
  6
Continuous
370
    -3
390
F
  0
LAYER
  5
164
330
2
100
AcDbSymbolTableRecord
100
AcDbLayerTableRecord
  2
Defpoints
 70
     0
 62
     7
  6
Continuous
290
     0
370
    -3
390
F
  0
ENDTAB
  0
TABLE
  2
STYLE
  5
3
330
0
100
AcDbSymbolTable
 70
     2
  0
STYLE
  5
11
330
3
100
AcDbSymbolTableRecord
100
AcDbTextStyleTableRecord
  2
Standard
 70
     0
 40
0.0
 41
1.0
 50
0.0
 71
     0
 42
3.5
  3
txt
  4

  0
STYLE
  5
94
330
3
100
AcDbSymbolTableRecord
100
AcDbTextStyleTableRecord
  2
SLDTEXTSTYLE0
 70
     0
 40
0.0
 41
0.75
 50
0.0
 71
     0
 42
3.5
  3
TXT
  4

  0
ENDTAB
  0
TABLE
  2
VIEW
  5
6
330
0
100
AcDbSymbolTable
 70
     0
  0
ENDTAB
  0
TABLE
  2
UCS
  5
7
330
0
100
AcDbSymbolTable
 70
     0
  0
ENDTAB
  0
TABLE
  2
APPID
  5
9
330
0
100
AcDbSymbolTable
 70
     3
  0
APPID
  5
12
330
9
100
AcDbSymbolTableRecord
100
AcDbRegAppTableRecord
  2
ACAD
 70
     0
  0
APPID
  5
170
330
9
100
AcDbSymbolTableRecord
100
AcDbRegAppTableRecord
  2
PE_URL
 70
     0
  0
APPID
  5
171
330
9
100
AcDbSymbolTableRecord
100
AcDbRegAppTableRecord
  2
ACAD_DSTYLE_DIMRADIAL_EXTENSION
 70
     0
  0
ENDTAB
  0
TABLE
  2
DIMSTYLE
  5
A
330
0
100
AcDbSymbolTable
 70
     4
100
AcDbDimStyleTable
  0
DIMSTYLE
105
27
330
A
100
AcDbSymbolTableRecord
100
AcDbDimStyleTableRecord
  2
ISO-25
 70
     0
 41
2.5
 42
0.625
 43
3.75
 44
1.25
 73
     0
 74
     0
 77
     1
 78
     8
140
2.5
141
2.5
143
0.03937007874016
147
0.625
171
     3
172
     1
178
     0
271
     2
272
     2
274
     3
278
    44
283
     0
284
     8
340
11
  0
DIMSTYLE
105
E2
102
{ACAD_REACTORS
330
E1
330
1D0
330
1DD
330
F6
330
10A
330
11E
102
}
330
A
100
AcDbSymbolTableRecord
100
AcDbDimStyleTableRecord
  2
SLDDIMSTYLE0
 70
     0
 41
3.302
 44
0.0
 45
0.000000001
 73
     0
 74
     0
 77
     1
 78
    12
 79
     3
140
3.5
143
0.0393700787401575
147
0.875
148
0.000000001
170
     1
172
     1
173
     1
178
     0
271
     2
272
     2
276
     2
284
    12
289
     0
340
94
  0
DIMSTYLE
105
F7
102
{ACAD_REACTORS
330
213
102
}
330
A
100
AcDbSymbolTableRecord
100
AcDbDimStyleTableRecord
  2
SLDDIMSTYLE1
 70
     0
 41
3.302
 44
0.0
 45
0.000000001
 73
     0
 74
     0
 77
     1
 78
    12
 79
     3
140
3.5
143
0.0393700787401575
147
0.875
148
0.000000001
170
     1
173
     1
178
     0
271
     2
272
     2
276
     2
284
    12
340
94
  0
DIMSTYLE
105
10B
102
{ACAD_REACTORS
330
1EA
330
1F9
102
}
330
A
100
AcDbSymbolTableRecord
100
AcDbDimStyleTableRecord
  2
SLDDIMSTYLE2
 70
     0
 41
3.302
 44
0.0
 45
0.000000001
 73
     0
 74
     0
 77
     1
 78
     4
 79
     1
140
3.5
143
0.0393700787401575
147
0.875
148
0.000000001
170
     1
173
     1
178
     0
271
     2
272
     2
276
     2
284
    12
340
94
  0
ENDTAB
  0
TABLE
  2
BLOCK_RECORD
  5
1
330
0
100
AcDbSymbolTable
 70
    18
  0
BLOCK_RECORD
  5
1F
330
1
100
AcDbSymbolTableRecord
100
AcDbBlockTableRecord
  2
*Model_Space
340
22
  0
BLOCK_RECORD
  5
1B
330
1
100
AcDbSymbolTableRecord
100
AcDbBlockTableRecord
  2
*Paper_Space
340
1E
  0
BLOCK_RECORD
  5
23
330
1
100
AcDbSymbolTableRecord
100
AcDbBlockTableRecord
  2
*Paper_Space0
340
26
  0
BLOCK_RECORD
  5
7F
330
1
100
AcDbSymbolTableRecord
100
AcDbBlockTableRecord
  2
블럭10
340
0
102
{BLKREFS
331
DA
102
}
  0
BLOCK_RECORD
  5
E3
330
1
100
AcDbSymbolTableRecord
100
AcDbBlockTableRecord
  2
_D
340
0
  0
BLOCK_RECORD
  5
F8
330
1
100
AcDbSymbolTableRecord
100
AcDbBlockTableRecord
  2
_D_1
340
0
  0
BLOCK_RECORD
  5
10C
330
1
100
AcDbSymbolTableRecord
100
AcDbBlockTableRecord
  2
_D_2
340
0
  0
BLOCK_RECORD
  5
11F
330
1
100
AcDbSymbolTableRecord
100
AcDbBlockTableRecord
  2
_D_3
340
0
  0
BLOCK_RECORD
  5
138
330
1
100
AcDbSymbolTableRecord
100
AcDbBlockTableRecord
  2
SW_DOWELSYMBOL_0
340
0
102
{BLKREFS
331
13E
331
208
331
0
102
}
  0
BLOCK_RECORD
  5
1FA
330
1
100
AcDbSymbolTableRecord
100
AcDbBlockTableRecord
  2
_D_4
340
0
  0
BLOCK_RECORD
  5
214
330
1
100
AcDbSymbolTableRecord
100
AcDbBlockTableRecord
  2
*D9
340
0
  0
BLOCK_RECORD
  5
220
330
1
100
AcDbSymbolTableRecord
100
AcDbBlockTableRecord
  2
*D10
340
0
  0
BLOCK_RECORD
  5
22C
330
1
100
AcDbSymbolTableRecord
100
AcDbBlockTableRecord
  2
*D11
340
0
  0
BLOCK_RECORD
  5
238
330
1
100
AcDbSymbolTableRecord
100
AcDbBlockTableRecord
  2
*D12
340
0
  0
BLOCK_RECORD
  5
293
330
1
100
AcDbSymbolTableRecord
100
AcDbBlockTableRecord
  2
*D13
340
0
  0
BLOCK_RECORD
  5
29F
330
1
100
AcDbSymbolTableRecord
100
AcDbBlockTableRecord
  2
*D14
340
0
  0
BLOCK_RECORD
  5
2AB
330
1
100
AcDbSymbolTableRecord
100
AcDbBlockTableRecord
  2
*D15
340
0
  0
BLOCK_RECORD
  5
2B9
330
1
100
AcDbSymbolTableRecord
100
AcDbBlockTableRecord
  2
*D16
340
0
  0
BLOCK_RECORD
  5
2C7
330
1
100
AcDbSymbolTableRecord
100
AcDbBlockTableRecord
  2
*D17
340
0
  0
ENDTAB
  0
ENDSEC
  0
SECTION
  2
BLOCKS
  0
BLOCK
  5
20
330
1F
100
AcDbEntity
  8
0
100
AcDbBlockBegin
  2
*Model_Space
 70
     0
 10
0.0
 20
0.0
 30
0.0
  3
*Model_Space
  1
*Model_Space
  0
ENDBLK
  5
21
330
1F
100
AcDbEntity
  8
0
100
AcDbBlockEnd
  0
BLOCK
  5
1C
330
1B
100
AcDbEntity
 67
     1
  8
0
100
AcDbBlockBegin
  2
*Paper_Space
 70
     0
 10
0.0
 20
0.0
 30
0.0
  3
*Paper_Space
  1
*Paper_Space
  0
ENDBLK
  5
1D
330
1B
100
AcDbEntity
 67
     1
  8
0
100
AcDbBlockEnd
  0
BLOCK
  5
24
330
23
100
AcDbEntity
  8
0
100
AcDbBlockBegin
  2
*Paper_Space0
 70
     0
 10
0.0
 20
0.0
 30
0.0
  3
*Paper_Space0
  1
*Paper_Space0
  0
ENDBLK
  5
25
330
23
100
AcDbEntity
  8
0
100
AcDbBlockEnd
  0
BLOCK
  5
80
330
7F
100
AcDbEntity
  8
0
100
AcDbBlockBegin
  2
블럭10
 70
     2
 10
0.0
 20
0.0
 30
0.0
  3
블럭10
  1
블럭10
  0
ELLIPSE
  5
82
330
7F
100
AcDbEntity
  8
중심선
100
AcDbEllipse
 10
20.54032771741204
 20
12.0471743016438
 30
0.0
 11
6.600054785286829
 21
-1.261213355974178E-13
 31
0.0
210
0.0
220
0.0
230
1.0
 40
0.636358354079598
 41
0.9219305317359503
 42
6.513795318482858
  0
ELLIPSE
  5
83
330
7F
100
AcDbEntity
  8
중심선
100
AcDbEllipse
 10
20.54032771746488
 20
12.04717430159265
 30
0.0
 11
3.960054785062283
 21
1.540847449632565E-10
 31
0.0
210
0.0
220
0.0
230
1.0
 40
0.3939339440162632
 41
1.131841032648279
 42
5.62031148352944
  0
LINE
  5
84
330
7F
100
AcDbEntity
  8
중심선
100
AcDbLine
 10
2.268634060543552
 20
16.24717430164393
 30
0.0
 11
5.714909304380834
 21
16.24717430164393
 31
0.0
  0
LINE
  5
85
330
7F
100
AcDbEntity
  8
중심선
100
AcDbLine
 10
5.245725140726316
 20
7.84717430164391
 30
0.0
 11
8.692000384563599
 21
7.84717430164391
 31
0.0
  0
LINE
  5
86
330
7F
100
AcDbEntity
  8
중심선
100
AcDbLine
 10
15.74043728645272
 20
16.24717430164393
 30
0.0
 11
8.692000384563599
 21
7.84717430164391
 31
0.0
  0
LINE
  5
87
330
7F
100
AcDbEntity
  8
중심선
100
AcDbLine
 10
0.1404042013395286
 20
13.71084872107135
 30
0.0
 11
3.58671253028996
 21
13.71088815037384
 31
0.0
  0
LINE
  5
88
330
7F
100
AcDbEntity
  8
중심선
100
AcDbLine
 10
2.750260043222114
 20
10.84717430164391
 30
0.0
 11
6.196535287059397
 21
10.84717430164391
 31
0.0
  0
LINE
  5
89
330
7F
100
AcDbEntity
  8
중심선
100
AcDbLine
 10
12.29416204261559
 20
16.24717430164393
 30
0.0
 11
5.245725140726316
 21
7.84717430164391
 31
0.0
  0
LINE
  5
8A
330
7F
100
AcDbEntity
  8
중심선
100
AcDbLine
 10
10.72767329541681
 20
16.24717430164393
 30
0.0
 11
6.196535287059397
 21
10.84717430164391
 31
0.0
  0
LINE
  5
8B
330
7F
100
AcDbEntity
  8
중심선
100
AcDbLine
 10
7.28139805157953
 20
16.24717430164393
 30
0.0
 11
2.750260043222114
 21
10.84717430164391
 31
0.0
  0
LINE
  5
8C
330
7F
100
AcDbEntity
  8
중심선
100
AcDbLine
 10
5.714909304380834
 20
16.24717430164393
 30
0.0
 11
3.58671253028996
 21
13.71088815037384
 31
0.0
  0
LINE
  5
8D
330
7F
100
AcDbEntity
  8
중심선
100
AcDbLine
 10
2.268634060543552
 20
16.24717430164393
 30
0.0
 11
0.1404042013395286
 21
13.71084872107135
 31
0.0
  0
LINE
  5
8E
330
7F
100
AcDbEntity
  8
중심선
100
AcDbLine
 10
7.28139805157953
 20
16.24717430164393
 30
0.0
 11
10.72767329541681
 21
16.24717430164393
 31
0.0
  0
LINE
  5
8F
330
7F
100
AcDbEntity
  8
중심선
100
AcDbLine
 10
12.29416204261559
 20
16.24717430164393
 30
0.0
 11
15.74043728645272
 21
16.24717430164393
 31
0.0
  0
LINE
  5
90
330
7F
100
AcDbEntity
  8
중심선
100
AcDbLine
 10
19.22036997980202
 20
11.08717430171403
 30
0.0
 11
23.66174974927406
 21
11.08717430171406
 31
0.0
  0
LINE
  5
91
330
7F
100
AcDbEntity
  8
중심선
100
AcDbLine
 10
19.22039502424796
 20
13.00717430171391
 30
0.0
 11
19.22036997980202
 21
11.08717430171403
 31
0.0
  0
LINE
  5
92
330
7F
100
AcDbEntity
  8
중심선
100
AcDbLine
 10
19.22039502424796
 20
13.00717430171391
 30
0.0
 11
26.96566020931264
 21
13.00717430171391
 31
0.0
  0
LINE
  5
93
330
7F
100
AcDbEntity
  8
중심선
100
AcDbLine
 10
22.22332737316547
 20
13.45928029700563
 30
0.0
 11
24.52862924686651
 21
15.39360700705356
 31
0.0
  0
ATTDEF
  5
95
330
7F
100
AcDbEntity
  8
FORMAT
 62
     2
100
AcDbText
 10
4.408487351596664
 20
2.075366912832191
 30
0.0
 40
4.233333333333333
  1
E5073040
 41
0.75
  7
SLDTEXTSTYLE0
 11
4.408487351596664
 21
-0.0412997538344756
 31
0.0
100
AcDbAttributeDefinition
  3

  2
AUTOATTR0
 70
     0
 74
     1
  0
ENDBLK
  5
81
330
7F
100
AcDbEntity
  8
0
100
AcDbBlockEnd
  0
BLOCK
  5
E4
330
E3
100
AcDbEntity
  8
0
100
AcDbBlockBegin
  2
_D
 70
     0
 10
0.0
 20
0.0
 30
0.0
  3
_D
  1
_D
  0
LINE
  5
E6
330
E3
100
AcDbEntity
  8
치수문자_일반주서
 62
     0
370
    -2
100
AcDbLine
 10
-37.27499999999999
 20
7.916571683520034
 30
0.0
 11
-53.14094751478088
 21
7.916571683519972
 31
0.0
  0
LINE
  5
E7
330
E3
100
AcDbEntity
  8
치수문자_일반주서
 62
     0
370
    -2
100
AcDbLine
 10
-37.27499999999999
 20
-7.958428316479995
 30
0.0
 11
-53.14094751478082
 21
-7.958428316480052
 31
0.0
  0
LINE
  5
E8
330
E3
100
AcDbEntity
  8
치수문자_일반주서
 62
     0
370
    -2
100
AcDbLine
 10
-53.14094751478088
 20
7.916571683519972
 30
0.0
 11
-53.140947514781
 21
42.73932168351998
 31
0.0
  0
LINE
  5
E9
330
E3
100
AcDbEntity
  8
치수문자_일반주서
 62
     0
370
    -2
100
AcDbLine
 10
-53.14094751478088
 20
7.916571683519972
 30
0.0
 11
-53.14094751478082
 21
-7.958428316480052
 31
0.0
  0
LINE
  5
EA
330
E3
100
AcDbEntity
  8
치수문자_일반주서
 62
     0
370
    -2
100
AcDbLine
 10
-53.14094751478089
 20
11.21857168351997
 30
0.0
 11
-53.1409475147809
 21
14.52057168351997
 31
0.0
  0
LINE
  5
EB
330
E3
100
AcDbEntity
  8
치수문자_일반주서
 62
     0
370
    -2
100
AcDbLine
 10
-53.14094751478081
 20
-11.26042831648005
 30
0.0
 11
-53.14094751478079
 21
-14.56242831648005
 31
0.0
  0
SOLID
  5
EC
330
E3
100
AcDbEntity
  8
치수문자_일반주서
 62
     0
100
AcDbTrace
 10
-53.69128084811422
 20
11.21857168351997
 30
0.0
 11
-52.59061418144756
 21
11.21857168351997
 31
0.0
 12
-53.14094751478088
 22
7.916571683519972
 32
0.0
 13
-53.14094751478088
 23
7.916571683519972
 33
0.0
  0
SOLID
  5
ED
330
E3
100
AcDbEntity
  8
치수문자_일반주서
 62
     0
100
AcDbTrace
 10
-52.59061418144747
 20
-11.26042831648005
 30
0.0
 11
-53.69128084811414
 21
-11.26042831648005
 31
0.0
 12
-53.14094751478082
 22
-7.958428316480052
 32
0.0
 13
-53.14094751478082
 23
-7.958428316480052
 33
0.0
  0
MTEXT
  5
EE
330
E3
100
AcDbEntity
  8
치수문자_일반주서
 62
     0
100
AcDbMText
 10
-57.51594751478095
 20
28.73932168351996
 30
0.0
 40
3.5
 41
0.0
 71
     2
 72
     1
  1
\A1;%%c15.88 [5/8]
  7
SLDTEXTSTYLE0
 11
-3.580687802255617E-15
 21
1.0
 31
0.0
 73
     1
 44
1.0
  0
POINT
  5
2D1
330
E3
100
AcDbEntity
  8
Defpoints
 62
     0
100
AcDbPoint
 10
-37.21249999999999
 20
7.916571683520034
 30
0.0
  0
POINT
  5
2D2
330
E3
100
AcDbEntity
  8
Defpoints
 62
     0
100
AcDbPoint
 10
-37.21249999999999
 20
-7.958428316479995
 30
0.0
  0
POINT
  5
2D3
330
E3
100
AcDbEntity
  8
Defpoints
 62
     0
100
AcDbPoint
 10
-53.14094751478082
 20
-7.958428316480054
 30
0.0
  0
ENDBLK
  5
E5
330
E3
100
AcDbEntity
  8
0
100
AcDbBlockEnd
  0
BLOCK
  5
F9
330
F8
100
AcDbEntity
  8
0
100
AcDbBlockBegin
  2
_D_1
 70
     0
 10
0.0
 20
0.0
 30
0.0
  3
_D_1
  1
_D_1
  0
LINE
  5
FB
330
F8
100
AcDbEntity
  8
치수문자_일반주서
 62
     0
370
    -2
100
AcDbLine
 10
113.6625
 20
7.916571683520025
 30
0.0
 11
133.7607401878925
 21
7.9165716835201
 31
0.0
  0
LINE
  5
FC
330
F8
100
AcDbEntity
  8
치수문자_일반주서
 62
     0
370
    -2
100
AcDbLine
 10
113.6625
 20
-7.958428316479915
 30
0.0
 11
133.7607401878926
 21
-7.958428316479836
 31
0.0
  0
LINE
  5
FD
330
F8
100
AcDbEntity
  8
치수문자_일반주서
 62
     0
370
    -2
100
AcDbLine
 10
133.7607401878925
 20
7.9165716835201
 30
0.0
 11
133.7607401878924
 21
42.7393216835201
 31
0.0
  0
LINE
  5
FE
330
F8
100
AcDbEntity
  8
치수문자_일반주서
 62
     0
370
    -2
100
AcDbLine
 10
133.7607401878925
 20
7.9165716835201
 30
0.0
 11
133.7607401878926
 21
-7.958428316479836
 31
0.0
  0
LINE
  5
FF
330
F8
100
AcDbEntity
  8
치수문자_일반주서
 62
     0
370
    -2
100
AcDbLine
 10
133.7607401878925
 20
11.2185716835201
 30
0.0
 11
133.7607401878925
 21
14.5205716835201
 31
0.0
  0
LINE
  5
100
330
F8
100
AcDbEntity
  8
치수문자_일반주서
 62
     0
370
    -2
100
AcDbLine
 10
133.7607401878926
 20
-11.26042831647984
 30
0.0
 11
133.7607401878926
 21
-14.56242831647983
 31
0.0
  0
SOLID
  5
101
330
F8
100
AcDbEntity
  8
치수문자_일반주서
 62
     0
100
AcDbTrace
 10
133.2104068545592
 20
11.2185716835201
 30
0.0
 11
134.3110735212259
 21
11.2185716835201
 31
0.0
 12
133.7607401878925
 22
7.9165716835201
 32
0.0
 13
133.7607401878925
 23
7.9165716835201
 33
0.0
  0
SOLID
  5
102
330
F8
100
AcDbEntity
  8
치수문자_일반주서
 62
     0
100
AcDbTrace
 10
134.3110735212259
 20
-11.26042831647983
 30
0.0
 11
133.2104068545593
 21
-11.26042831647984
 31
0.0
 12
133.7607401878926
 22
-7.958428316479836
 32
0.0
 13
133.7607401878926
 23
-7.958428316479836
 33
0.0
  0
MTEXT
  5
103
330
F8
100
AcDbEntity
  8
치수문자_일반주서
 62
     0
100
AcDbMText
 10
129.3857401878925
 20
28.73932168352008
 30
0.0
 40
3.5
 41
0.0
 71
     2
 72
     1
  1
\A1;%%c15.88 [5/8]
  7
SLDTEXTSTYLE0
 11
-3.580687802255636E-15
 21
1.0
 31
0.0
 73
     1
 44
1.0
  0
POINT
  5
104
330
F8
100
AcDbEntity
  8
Defpoints
 62
     0
100
AcDbPoint
 10
113.6
 20
7.916571683520025
 30
0.0
  0
POINT
  5
105
330
F8
100
AcDbEntity
  8
Defpoints
 62
     0
100
AcDbPoint
 10
113.6
 20
-7.958428316479915
 30
0.0
  0
POINT
  5
106
330
F8
100
AcDbEntity
  8
Defpoints
 62
     0
100
AcDbPoint
 10
133.7607401878926
 20
-7.958428316479839
 30
0.0
  0
ENDBLK
  5
FA
330
F8
100
AcDbEntity
  8
0
100
AcDbBlockEnd
  0
BLOCK
  5
10D
330
10C
100
AcDbEntity
  8
0
100
AcDbBlockBegin
  2
_D_2
 70
     0
 10
0.0
 20
0.0
 30
0.0
  3
_D_2
  1
_D_2
  0
LINE
  5
10F
330
10C
100
AcDbEntity
  8
치수문자_일반주서
 62
     0
370
    -2
100
AcDbLine
 10
113.6
 20
7.921148181323203
 30
0.0
 11
113.6
 21
18.55909700628214
 31
0.0
  0
LINE
  5
110
330
10C
100
AcDbEntity
  8
치수문자_일반주서
 62
     0
370
    -2
100
AcDbLine
 10
12.00000000000004
 20
7.69010010959231
 30
0.0
 11
12.00000000000004
 21
18.55909700628214
 31
0.0
  0
LINE
  5
111
330
10C
100
AcDbEntity
  8
치수문자_일반주서
 62
     0
370
    -2
100
AcDbLine
 10
110.298
 20
18.55909700628214
 30
0.0
 11
15.30200000000004
 21
18.55909700628214
 31
0.0
  0
SOLID
  5
112
330
10C
100
AcDbEntity
  8
치수문자_일반주서
 62
     0
100
AcDbTrace
 10
110.298
 20
18.00876367294881
 30
0.0
 11
110.298
 21
19.10943033961547
 31
0.0
 12
113.6
 22
18.55909700628214
 32
0.0
 13
113.6
 23
18.55909700628214
 33
0.0
  0
SOLID
  5
113
330
10C
100
AcDbEntity
  8
치수문자_일반주서
 62
     0
100
AcDbTrace
 10
15.30200000000004
 20
19.10943033961547
 30
0.0
 11
15.30200000000004
 21
18.00876367294881
 31
0.0
 12
12.00000000000004
 22
18.55909700628214
 32
0.0
 13
12.00000000000004
 23
18.55909700628214
 33
0.0
  0
MTEXT
  5
114
330
10C
100
AcDbEntity
  8
치수문자_일반주서
 62
     0
100
AcDbMText
 10
62.80000000000004
 20
22.93409700628214
 30
0.0
 40
3.5
 41
0.0
 71
     2
 72
     1
  1
\A1;101.6 [4]
  7
SLDTEXTSTYLE0
 73
     1
 44
1.0
  0
POINT
  5
115
330
10C
100
AcDbEntity
  8
Defpoints
 62
     0
100
AcDbPoint
 10
113.6
 20
7.858648181323203
 30
0.0
  0
POINT
  5
116
330
10C
100
AcDbEntity
  8
Defpoints
 62
     0
100
AcDbPoint
 10
12.00000000000004
 20
7.62760010959231
 30
0.0
  0
POINT
  5
117
330
10C
100
AcDbEntity
  8
Defpoints
 62
     0
100
AcDbPoint
 10
12.00000000000004
 20
18.55909700628214
 30
0.0
  0
ENDBLK
  5
10E
330
10C
100
AcDbEntity
  8
0
100
AcDbBlockEnd
  0
BLOCK
  5
120
330
11F
100
AcDbEntity
  8
0
100
AcDbBlockBegin
  2
_D_3
 70
     0
 10
0.0
 20
0.0
 30
0.0
  3
_D_3
  1
_D_3
  0
LINE
  5
122
330
11F
100
AcDbEntity
  8
치수문자_일반주서
 62
     0
370
    -2
100
AcDbLine
 10
113.6
 20
7.921148181323203
 30
0.0
 11
113.6
 21
30.55909700628214
 31
0.0
  0
LINE
  5
123
330
11F
100
AcDbEntity
  8
치수문자_일반주서
 62
     0
370
    -2
100
AcDbLine
 10
-38.79999999999998
 20
6.391571683520023
 30
0.0
 11
-38.79999999999998
 21
30.55909700628214
 31
0.0
  0
LINE
  5
124
330
11F
100
AcDbEntity
  8
치수문자_일반주서
 62
     0
370
    -2
100
AcDbLine
 10
110.298
 20
30.55909700628214
 30
0.0
 11
-35.49799999999998
 21
30.55909700628214
 31
0.0
  0
SOLID
  5
125
330
11F
100
AcDbEntity
  8
치수문자_일반주서
 62
     0
100
AcDbTrace
 10
110.298
 20
30.00876367294881
 30
0.0
 11
110.298
 21
31.10943033961548
 31
0.0
 12
113.6
 22
30.55909700628214
 32
0.0
 13
113.6
 23
30.55909700628214
 33
0.0
  0
SOLID
  5
126
330
11F
100
AcDbEntity
  8
치수문자_일반주서
 62
     0
100
AcDbTrace
 10
-35.49799999999998
 20
31.10943033961548
 30
0.0
 11
-35.49799999999998
 21
30.00876367294881
 31
0.0
 12
-38.79999999999998
 22
30.55909700628214
 32
0.0
 13
-38.79999999999998
 23
30.55909700628214
 33
0.0
  0
MTEXT
  5
127
330
11F
100
AcDbEntity
  8
치수문자_일반주서
 62
     0
100
AcDbMText
 10
36.03391437423952
 20
34.93409700628214
 30
0.0
 40
3.5
 41
0.0
 71
     2
 72
     1
  1
\A1;152.4 [6]
  7
SLDTEXTSTYLE0
 73
     1
 44
1.0
  0
POINT
  5
128
330
11F
100
AcDbEntity
  8
Defpoints
 62
     0
100
AcDbPoint
 10
113.6
 20
7.858648181323203
 30
0.0
  0
POINT
  5
129
330
11F
100
AcDbEntity
  8
Defpoints
 62
     0
100
AcDbPoint
 10
-38.79999999999998
 20
6.329071683520023
 30
0.0
  0
POINT
  5
12A
330
11F
100
AcDbEntity
  8
Defpoints
 62
     0
100
AcDbPoint
 10
-38.79999999999998
 20
30.55909700628214
 30
0.0
  0
ENDBLK
  5
121
330
11F
100
AcDbEntity
  8
0
100
AcDbBlockEnd
  0
BLOCK
  5
139
330
138
100
AcDbEntity
  8
0
100
AcDbBlockBegin
  2
SW_DOWELSYMBOL_0
 70
     0
 10
0.0
 20
0.0
 30
0.0
  3
SW_DOWELSYMBOL_0
  1
SW_DOWELSYMBOL_0
  0
CIRCLE
  5
13B
330
138
100
AcDbEntity
  8
해칭선
 62
     0
100
AcDbCircle
 10
0.0
 20
0.0
 30
0.0
 40
3.000000000000008
  0
HATCH
  5
13C
330
138
100
AcDbEntity
  8
0
  6
Continuous
 62
     0
370
     0
100
AcDbHatch
 10
0.0
 20
0.0
 30
0.0
210
0.0
220
0.0
230
1.0
  2
SOLID
 70
     1
 71
     0
 91
        1
 92
        0
 93
        3
 72
     2
 10
0.0
 20
0.0
 40
3.000000000000008
 50
0.0
 51
90.0
 73
     1
 72
     1
 10
0.0
 20
3.000000000000008
 11
0.0
 21
0.0
 72
     1
 10
0.0
 20
0.0
 11
3.00000000000001
 21
0.0
 97
        0
 75
     0
 76
     1
 98
        1
 10
0.0
 20
0.0
  0
HATCH
  5
13D
330
138
100
AcDbEntity
  8
0
  6
Continuous
 62
     0
370
     0
100
AcDbHatch
 10
0.0
 20
0.0
 30
0.0
210
0.0
220
0.0
230
1.0
  2
SOLID
 70
     1
 71
     0
 91
        1
 92
        0
 93
        3
 72
     2
 10
0.0
 20
0.0
 40
3.000000000000008
 50
180.0
 51
270.0000000000008
 73
     1
 72
     1
 10
0.0
 20
-3.000000000000008
 11
0.0
 21
0.0
 72
     1
 10
0.0
 20
0.0
 11
-3.00000000000001
 21
0.0
 97
        0
 75
     0
 76
     1
 98
        1
 10
0.0
 20
0.0
  0
ENDBLK
  5
13A
330
138
100
AcDbEntity
  8
0
100
AcDbBlockEnd
  0
BLOCK
  5
1FB
330
1FA
100
AcDbEntity
  8
0
100
AcDbBlockBegin
  2
_D_4
 70
     0
 10
0.0
 20
0.0
 30
0.0
  3
_D_4
  1
_D_4
  0
LINE
  5
1FC
330
1FA
100
AcDbEntity
  8
치수문자_일반주서
 62
     0
370
    -2
100
AcDbLine
 10
102.4375000000001
 20
36.22143424691529
 30
0.0
 11
117.3750000000001
 21
36.22143424691535
 31
0.0
  0
LINE
  5
1FD
330
1FA
100
AcDbEntity
  8
치수문자_일반주서
 62
     0
370
    -2
100
AcDbLine
 10
102.4375000000001
 20
22.22143424691529
 30
0.0
 11
117.3750000000001
 21
22.22143424691535
 31
0.0
  0
LINE
  5
1FE
330
1FA
100
AcDbEntity
  8
치수문자_일반주서
 62
     0
370
    -2
100
AcDbLine
 10
117.3750000000001
 20
36.22143424691535
 30
0.0
 11
117.3750000000001
 21
22.22143424691535
 31
0.0
  0
LINE
  5
1FF
330
1FA
100
AcDbEntity
  8
치수문자_일반주서
 62
     0
370
    -2
100
AcDbLine
 10
117.3750000000001
 20
39.52343424691535
 30
0.0
 11
117.375
 21
42.82543424691535
 31
0.0
  0
LINE
  5
200
330
1FA
100
AcDbEntity
  8
치수문자_일반주서
 62
     0
370
    -2
100
AcDbLine
 10
117.3750000000001
 20
18.91943424691535
 30
0.0
 11
117.3750000000001
 21
15.61743424691535
 31
0.0
  0
SOLID
  5
201
330
1FA
100
AcDbEntity
  8
치수문자_일반주서
 62
     0
100
AcDbTrace
 10
116.8246666666667
 20
39.52343424691535
 30
0.0
 11
117.9253333333334
 21
39.52343424691535
 31
0.0
 12
117.3750000000001
 22
36.22143424691535
 32
0.0
 13
117.3750000000001
 23
36.22143424691535
 33
0.0
  0
SOLID
  5
202
330
1FA
100
AcDbEntity
  8
치수문자_일반주서
 62
     0
100
AcDbTrace
 10
117.9253333333335
 20
18.91943424691535
 30
0.0
 11
116.8246666666668
 21
18.91943424691535
 31
0.0
 12
117.3750000000001
 22
22.22143424691535
 32
0.0
 13
117.3750000000001
 23
22.22143424691535
 33
0.0
  0
MTEXT
  5
203
330
1FA
100
AcDbEntity
  8
치수문자_일반주서
 62
     0
100
AcDbMText
 10
113.0000000000001
 20
29.28713862862833
 30
0.0
 40
3.5
 41
0.0
 71
     2
 72
     1
  1
\A1;%%c14.00 [0.55]
  7
SLDTEXTSTYLE0
 11
-3.045183153257572E-15
 21
1.0
 31
0.0
 73
     1
 44
1.0
  0
POINT
  5
204
330
1FA
100
AcDbEntity
  8
Defpoints
 62
     0
100
AcDbPoint
 10
102.3750000000001
 20
36.22143424691529
 30
0.0
  0
POINT
  5
205
330
1FA
100
AcDbEntity
  8
Defpoints
 62
     0
100
AcDbPoint
 10
102.3750000000001
 20
22.22143424691529
 30
0.0
  0
POINT
  5
206
330
1FA
100
AcDbEntity
  8
Defpoints
 62
     0
100
AcDbPoint
 10
117.3750000000001
 20
22.22143424691535
 30
0.0
  0
ENDBLK
  5
207
330
1FA
100
AcDbEntity
  8
0
100
AcDbBlockEnd
  0
BLOCK
  5
215
330
214
100
AcDbEntity
  8
0
100
AcDbBlockBegin
  2
*D9
 70
     1
 10
0.0
 20
0.0
 30
0.0
  3
*D9
  1
*D8
  0
LINE
  5
216
330
214
100
AcDbEntity
  8
치수문자_일반주서
 62
     0
370
    -2
100
AcDbLine
 10
103.8657751816695
 20
19.48229575403651
 30
0.0
 11
119.6194267469468
 21
-6.150060756304035
 31
0.0
  0
MTEXT
  5
217
330
214
100
AcDbEntity
  8
치수문자_일반주서
 62
     0
100
AcDbMText
 10
115.6706384014277
 20
5.288158154535728
 30
0.0
 40
3.5
 41
0.0
 71
     5
 72
     1
  1
\A1;R.5 [R0.02]
  7
SLDTEXTSTYLE0
 11
0.5236126201129557
 21
-0.8519564684057781
 31
0.0
 73
     1
 44
1.0
  0
SOLID
  5
218
330
214
100
AcDbEntity
  8
치수문자_일반주서
 62
     0
100
AcDbTrace
 10
104.3346352247821
 20
19.77045723263868
 30
0.0
 11
103.3969151385569
 21
19.19413427543435
 31
0.0
 12
102.1368063100565
 22
22.29545601271239
 32
0.0
 13
102.1368063100565
 23
22.29545601271239
 33
0.0
  0
LINE
  5
219
330
214
100
AcDbEntity
  8
치수문자_일반주서
 62
     0
100
AcDbLine
 10
101.785
 20
22.72143424691529
 30
0.0
 11
101.965
 21
22.72143424691529
 31
0.0
  0
LINE
  5
21A
330
214
100
AcDbEntity
  8
치수문자_일반주서
 62
     0
100
AcDbLine
 10
101.875
 20
22.63143424691529
 30
0.0
 11
101.875
 21
22.81143424691529
 31
0.0
  0
POINT
  5
246
330
214
100
AcDbEntity
  8
Defpoints
 62
     0
100
AcDbPoint
 10
102.1368063100565
 20
22.29545601271239
 30
0.0
  0
POINT
  5
247
330
214
100
AcDbEntity
  8
Defpoints
 62
     0
100
AcDbPoint
 10
101.875
 20
22.72143424691529
 30
0.0
  0
ENDBLK
  5
21B
330
214
100
AcDbEntity
  8
0
100
AcDbBlockEnd
  0
BLOCK
  5
221
330
220
100
AcDbEntity
  8
0
100
AcDbBlockBegin
  2
*D10
 70
     1
 10
0.0
 20
0.0
 30
0.0
  3
*D10
  1
*D10
  0
LINE
  5
223
330
220
100
AcDbEntity
  8
치수문자_일반주서
 62
     0
370
    -2
100
AcDbLine
 10
19.37500000000004
 20
35.78393424691529
 30
0.0
 11
19.37500000000004
 21
70.88391841499404
 31
0.0
  0
LINE
  5
224
330
220
100
AcDbEntity
  8
치수문자_일반주서
 62
     0
370
    -2
100
AcDbLine
 10
102.3750000000001
 20
36.34643424691529
 30
0.0
 11
102.3750000000001
 21
70.88391841499404
 31
0.0
  0
LINE
  5
225
330
220
100
AcDbEntity
  8
치수문자_일반주서
 62
     0
370
    -2
100
AcDbLine
 10
22.67700000000004
 20
70.88391841499404
 30
0.0
 11
99.07300000000006
 21
70.88391841499404
 31
0.0
  0
SOLID
  5
226
330
220
100
AcDbEntity
  8
치수문자_일반주서
 62
     0
100
AcDbTrace
 10
22.67700000000004
 20
71.43425174832737
 30
0.0
 11
22.67700000000004
 21
70.33358508166071
 31
0.0
 12
19.37500000000004
 22
70.88391841499404
 32
0.0
 13
19.37500000000004
 23
70.88391841499404
 33
0.0
  0
SOLID
  5
227
330
220
100
AcDbEntity
  8
치수문자_일반주서
 62
     0
100
AcDbTrace
 10
99.07300000000006
 20
70.33358508166071
 30
0.0
 11
99.07300000000006
 21
71.43425174832737
 31
0.0
 12
102.3750000000001
 22
70.88391841499404
 32
0.0
 13
102.3750000000001
 23
70.88391841499404
 33
0.0
  0
MTEXT
  5
228
330
220
100
AcDbEntity
  8
치수문자_일반주서
 62
     0
100
AcDbMText
 10
60.87500000000005
 20
75.25891841499404
 30
0.0
 40
3.5
 41
0.0
 71
     2
 72
     1
  1
\A1;83 [3.27]
  7
SLDTEXTSTYLE0
 73
     1
 44
1.0
  0
POINT
  5
229
330
220
100
AcDbEntity
  8
Defpoints
 62
     0
100
AcDbPoint
 10
19.37500000000004
 20
35.72143424691529
 30
0.0
  0
POINT
  5
22A
330
220
100
AcDbEntity
  8
Defpoints
 62
     0
100
AcDbPoint
 10
102.3750000000001
 20
36.28393424691529
 30
0.0
  0
POINT
  5
22B
330
220
100
AcDbEntity
  8
Defpoints
 62
     0
100
AcDbPoint
 10
102.3750000000001
 20
70.88391841499404
 30
0.0
  0
ENDBLK
  5
222
330
220
100
AcDbEntity
  8
0
100
AcDbBlockEnd
  0
BLOCK
  5
22D
330
22C
100
AcDbEntity
  8
0
100
AcDbBlockBegin
  2
*D11
 70
     1
 10
0.0
 20
0.0
 30
0.0
  3
*D11
  1
*D11
  0
LINE
  5
22F
330
22C
100
AcDbEntity
  8
치수문자_일반주서
 62
     0
370
    -2
100
AcDbLine
 10
76.37504186422882
 20
28.62038676313042
 30
0.0
 11
76.37504186422882
 21
61.90091383617725
 31
0.0
  0
LINE
  5
230
330
22C
100
AcDbEntity
  8
치수문자_일반주서
 62
     0
370
    -2
100
AcDbLine
 10
102.3750000000001
 20
36.28393424691529
 30
0.0
 11
102.3750000000001
 21
61.90091383617725
 31
0.0
  0
LINE
  5
231
330
22C
100
AcDbEntity
  8
치수문자_일반주서
 62
     0
370
    -2
100
AcDbLine
 10
79.67704186422881
 20
61.90091383617725
 30
0.0
 11
99.07300000000006
 21
61.90091383617725
 31
0.0
  0
SOLID
  5
232
330
22C
100
AcDbEntity
  8
치수문자_일반주서
 62
     0
100
AcDbTrace
 10
79.67704186422881
 20
62.45124716951059
 30
0.0
 11
79.67704186422881
 21
61.35058050284392
 31
0.0
 12
76.37504186422882
 22
61.90091383617725
 32
0.0
 13
76.37504186422882
 23
61.90091383617725
 33
0.0
  0
SOLID
  5
233
330
22C
100
AcDbEntity
  8
치수문자_일반주서
 62
     0
100
AcDbTrace
 10
99.07300000000006
 20
61.35058050284392
 30
0.0
 11
99.07300000000006
 21
62.45124716951059
 31
0.0
 12
102.3750000000001
 22
61.90091383617725
 32
0.0
 13
102.3750000000001
 23
61.90091383617725
 33
0.0
  0
MTEXT
  5
234
330
22C
100
AcDbEntity
  8
치수문자_일반주서
 62
     0
100
AcDbMText
 10
89.42159572693208
 20
66.27591383617725
 30
0.0
 40
3.5
 41
0.0
 71
     2
 72
     1
  1
\A1;26 [1.02]
  7
SLDTEXTSTYLE0
 73
     1
 44
1.0
  0
POINT
  5
235
330
22C
100
AcDbEntity
  8
Defpoints
 62
     0
100
AcDbPoint
 10
76.37504186422882
 20
28.55788676313042
 30
0.0
  0
POINT
  5
236
330
22C
100
AcDbEntity
  8
Defpoints
 62
     0
100
AcDbPoint
 10
102.3750000000001
 20
36.22143424691529
 30
0.0
  0
POINT
  5
237
330
22C
100
AcDbEntity
  8
Defpoints
 62
     0
100
AcDbPoint
 10
102.3750000000001
 20
61.90091383617725
 30
0.0
  0
ENDBLK
  5
22E
330
22C
100
AcDbEntity
  8
0
100
AcDbBlockEnd
  0
BLOCK
  5
239
330
238
100
AcDbEntity
  8
0
100
AcDbBlockBegin
  2
*D12
 70
     1
 10
0.0
 20
0.0
 30
0.0
  3
*D12
  1
*D12
  0
LINE
  5
23B
330
238
100
AcDbEntity
  8
치수문자_일반주서
 62
     0
370
    -2
100
AcDbLine
 10
19.81250000000005
 20
36.22143424691529
 30
0.0
 11
4.374999999999983
 21
36.22143424691524
 31
0.0
  0
LINE
  5
23C
330
238
100
AcDbEntity
  8
치수문자_일반주서
 62
     0
370
    -2
100
AcDbLine
 10
19.81250000000005
 20
22.22143424691529
 30
0.0
 11
4.375000000000032
 21
22.22143424691524
 31
0.0
  0
LINE
  5
23D
330
238
100
AcDbEntity
  8
치수문자_일반주서
 62
     0
370
    -2
100
AcDbLine
 10
4.374999999999983
 20
36.22143424691524
 30
0.0
 11
4.375000000000032
 21
22.22143424691524
 31
0.0
  0
LINE
  5
23E
330
238
100
AcDbEntity
  8
치수문자_일반주서
 62
     0
370
    -2
100
AcDbLine
 10
4.374999999999972
 20
39.52343424691524
 30
0.0
 11
4.37499999999996
 21
42.82543424691524
 31
0.0
  0
LINE
  5
23F
330
238
100
AcDbEntity
  8
치수문자_일반주서
 62
     0
370
    -2
100
AcDbLine
 10
4.375000000000044
 20
18.91943424691524
 30
0.0
 11
4.375000000000055
 21
15.61743424691524
 31
0.0
  0
SOLID
  5
240
330
238
100
AcDbEntity
  8
치수문자_일반주서
 62
     0
100
AcDbTrace
 10
3.824666666666638
 20
39.52343424691524
 30
0.0
 11
4.925333333333305
 21
39.52343424691524
 31
0.0
 12
4.374999999999983
 22
36.22143424691524
 32
0.0
 13
4.374999999999983
 23
36.22143424691524
 33
0.0
  0
SOLID
  5
241
330
238
100
AcDbEntity
  8
치수문자_일반주서
 62
     0
100
AcDbTrace
 10
4.925333333333377
 20
18.91943424691524
 30
0.0
 11
3.82466666666671
 21
18.91943424691523
 31
0.0
 12
4.375000000000032
 22
22.22143424691524
 32
0.0
 13
4.375000000000032
 23
22.22143424691524
 33
0.0
  0
MTEXT
  5
242
330
238
100
AcDbEntity
  8
치수문자_일반주서
 62
     0
100
AcDbMText
 10
0.0000000000000071
 20
29.22143424691528
 30
0.0
 40
3.5
 41
0.0
 71
     2
 72
     1
  1
\A1;%%c14.00 [0.55]
  7
SLDTEXTSTYLE0
 11
-3.489272363107635E-15
 21
1.0
 31
0.0
 73
     1
 44
1.0
  0
POINT
  5
243
330
238
100
AcDbEntity
  8
Defpoints
 62
     0
100
AcDbPoint
 10
19.87500000000005
 20
36.22143424691529
 30
0.0
  0
POINT
  5
244
330
238
100
AcDbEntity
  8
Defpoints
 62
     0
100
AcDbPoint
 10
19.87500000000005
 20
22.22143424691529
 30
0.0
  0
POINT
  5
245
330
238
100
AcDbEntity
  8
Defpoints
 62
     0
100
AcDbPoint
 10
4.375000000000043
 20
22.22143424691524
 30
0.0
  0
ENDBLK
  5
23A
330
238
100
AcDbEntity
  8
0
100
AcDbBlockEnd
  0
BLOCK
  5
294
330
293
100
AcDbEntity
  8
0
100
AcDbBlockBegin
  2
*D13
 70
     1
 10
0.0
 20
0.0
 30
0.0
  3
*D13
  1
*D13
  0
LINE
  5
296
330
293
100
AcDbEntity
  8
치수문자_일반주서
 62
     0
370
    -2
100
AcDbLine
 10
-42.34541793843954
 20
94.49401772178777
 30
0.0
 11
-42.34541793843954
 21
129.5940018898665
 31
0.0
  0
LINE
  5
297
330
293
100
AcDbEntity
  8
치수문자_일반주서
 62
     0
370
    -2
100
AcDbLine
 10
40.65458206156048
 20
95.05651772178777
 30
0.0
 11
40.65458206156048
 21
129.5940018898665
 31
0.0
  0
LINE
  5
298
330
293
100
AcDbEntity
  8
치수문자_일반주서
 62
     0
370
    -2
100
AcDbLine
 10
-39.04341793843954
 20
129.5940018898665
 30
0.0
 11
37.35258206156048
 21
129.5940018898665
 31
0.0
  0
SOLID
  5
299
330
293
100
AcDbEntity
  8
치수문자_일반주서
 62
     0
100
AcDbTrace
 10
-39.04341793843954
 20
130.1443352231998
 30
0.0
 11
-39.04341793843954
 21
129.0436685565332
 31
0.0
 12
-42.34541793843954
 22
129.5940018898665
 32
0.0
 13
-42.34541793843954
 23
129.5940018898665
 33
0.0
  0
SOLID
  5
29A
330
293
100
AcDbEntity
  8
치수문자_일반주서
 62
     0
100
AcDbTrace
 10
37.35258206156048
 20
129.0436685565332
 30
0.0
 11
37.35258206156048
 21
130.1443352231998
 31
0.0
 12
40.65458206156048
 22
129.5940018898665
 32
0.0
 13
40.65458206156048
 23
129.5940018898665
 33
0.0
  0
MTEXT
  5
29B
330
293
100
AcDbEntity
  8
치수문자_일반주서
 62
     0
100
AcDbMText
 10
-0.8454179384395317
 20
133.9690018898665
 30
0.0
 40
3.5
 41
0.0
 71
     2
 72
     1
  1
\A1;83 [3.27]
  7
SLDTEXTSTYLE0
 73
     1
 44
1.0
  0
POINT
  5
29C
330
293
100
AcDbEntity
  8
Defpoints
 62
     0
100
AcDbPoint
 10
-42.34541793843954
 20
94.43151772178777
 30
0.0
  0
POINT
  5
29D
330
293
100
AcDbEntity
  8
Defpoints
 62
     0
100
AcDbPoint
 10
40.65458206156048
 20
94.99401772178777
 30
0.0
  0
POINT
  5
29E
330
293
100
AcDbEntity
  8
Defpoints
 62
     0
100
AcDbPoint
 10
40.65458206156048
 20
129.5940018898665
 30
0.0
  0
ENDBLK
  5
295
330
293
100
AcDbEntity
  8
0
100
AcDbBlockEnd
  0
BLOCK
  5
2A0
330
29F
100
AcDbEntity
  8
0
100
AcDbBlockBegin
  2
*D14
 70
     1
 10
0.0
 20
0.0
 30
0.0
  3
*D14
  1
*D14
  0
LINE
  5
2A2
330
29F
100
AcDbEntity
  8
치수문자_일반주서
 62
     0
370
    -2
100
AcDbLine
 10
14.65462392578924
 20
87.3304702380029
 30
0.0
 11
14.65462392578924
 21
120.6109973110497
 31
0.0
  0
LINE
  5
2A3
330
29F
100
AcDbEntity
  8
치수문자_일반주서
 62
     0
370
    -2
100
AcDbLine
 10
40.65458206156048
 20
94.99401772178777
 30
0.0
 11
40.65458206156048
 21
120.6109973110497
 31
0.0
  0
LINE
  5
2A4
330
29F
100
AcDbEntity
  8
치수문자_일반주서
 62
     0
370
    -2
100
AcDbLine
 10
17.95662392578924
 20
120.6109973110497
 30
0.0
 11
37.35258206156048
 21
120.6109973110497
 31
0.0
  0
SOLID
  5
2A5
330
29F
100
AcDbEntity
  8
치수문자_일반주서
 62
     0
100
AcDbTrace
 10
17.95662392578924
 20
121.1613306443831
 30
0.0
 11
17.95662392578924
 21
120.0606639777164
 31
0.0
 12
14.65462392578924
 22
120.6109973110497
 32
0.0
 13
14.65462392578924
 23
120.6109973110497
 33
0.0
  0
SOLID
  5
2A6
330
29F
100
AcDbEntity
  8
치수문자_일반주서
 62
     0
100
AcDbTrace
 10
37.35258206156048
 20
120.0606639777164
 30
0.0
 11
37.35258206156048
 21
121.1613306443831
 31
0.0
 12
40.65458206156048
 22
120.6109973110497
 32
0.0
 13
40.65458206156048
 23
120.6109973110497
 33
0.0
  0
MTEXT
  5
2A7
330
29F
100
AcDbEntity
  8
치수문자_일반주서
 62
     0
100
AcDbMText
 10
27.7011777884925
 20
124.9859973110497
 30
0.0
 40
3.5
 41
0.0
 71
     2
 72
     1
  1
\A1;26 [1.02]
  7
SLDTEXTSTYLE0
 73
     1
 44
1.0
  0
POINT
  5
2A8
330
29F
100
AcDbEntity
  8
Defpoints
 62
     0
100
AcDbPoint
 10
14.65462392578924
 20
87.2679702380029
 30
0.0
  0
POINT
  5
2A9
330
29F
100
AcDbEntity
  8
Defpoints
 62
     0
100
AcDbPoint
 10
40.65458206156048
 20
94.93151772178777
 30
0.0
  0
POINT
  5
2AA
330
29F
100
AcDbEntity
  8
Defpoints
 62
     0
100
AcDbPoint
 10
40.65458206156048
 20
120.6109973110497
 30
0.0
  0
ENDBLK
  5
2A1
330
29F
100
AcDbEntity
  8
0
100
AcDbBlockEnd
  0
BLOCK
  5
2AC
330
2AB
100
AcDbEntity
  8
0
100
AcDbBlockBegin
  2
*D15
 70
     1
 10
0.0
 20
0.0
 30
0.0
  3
*D15
  1
*D15
  0
LINE
  5
2AE
330
2AB
100
AcDbEntity
  8
치수문자_일반주서
 62
     0
370
    -2
100
AcDbLine
 10
-41.90791793843953
 20
94.93151772178777
 30
0.0
 11
-57.3454179384396
 21
94.93151772178771
 31
0.0
  0
LINE
  5
2AF
330
2AB
100
AcDbEntity
  8
치수문자_일반주서
 62
     0
370
    -2
100
AcDbLine
 10
-41.90791793843953
 20
80.93151772178777
 30
0.0
 11
-57.34541793843955
 21
80.93151772178771
 31
0.0
  0
LINE
  5
2B0
330
2AB
100
AcDbEntity
  8
치수문자_일반주서
 62
     0
370
    -2
100
AcDbLine
 10
-57.3454179384396
 20
94.93151772178771
 30
0.0
 11
-57.34541793843955
 21
80.93151772178771
 31
0.0
  0
LINE
  5
2B1
330
2AB
100
AcDbEntity
  8
치수문자_일반주서
 62
     0
370
    -2
100
AcDbLine
 10
-57.34541793843961
 20
98.2335177217877
 30
0.0
 11
-57.34541793843962
 21
101.5355177217877
 31
0.0
  0
LINE
  5
2B2
330
2AB
100
AcDbEntity
  8
치수문자_일반주서
 62
     0
370
    -2
100
AcDbLine
 10
-57.34541793843953
 20
77.62951772178772
 30
0.0
 11
-57.34541793843952
 21
74.32751772178773
 31
0.0
  0
SOLID
  5
2B3
330
2AB
100
AcDbEntity
  8
치수문자_일반주서
 62
     0
100
AcDbTrace
 10
-57.89575127177294
 20
98.2335177217877
 30
0.0
 11
-56.79508460510628
 21
98.2335177217877
 31
0.0
 12
-57.3454179384396
 22
94.93151772178771
 32
0.0
 13
-57.3454179384396
 23
94.93151772178771
 33
0.0
  0
SOLID
  5
2B4
330
2AB
100
AcDbEntity
  8
치수문자_일반주서
 62
     0
100
AcDbTrace
 10
-56.7950846051062
 20
77.62951772178772
 30
0.0
 11
-57.89575127177287
 21
77.62951772178772
 31
0.0
 12
-57.34541793843955
 22
80.93151772178771
 32
0.0
 13
-57.34541793843955
 23
80.93151772178771
 33
0.0
  0
MTEXT
  5
2B5
330
2AB
100
AcDbEntity
  8
치수문자_일반주서
 62
     0
100
AcDbMText
 10
-61.72041793843957
 20
87.93151772178776
 30
0.0
 40
3.5
 41
0.0
 71
     2
 72
     1
  1
\A1;%%c14.00 [0.55]
  7
SLDTEXTSTYLE0
 11
-3.552713678800501E-15
 21
1.0
 31
0.0
 73
     1
 44
1.0
  0
POINT
  5
2B6
330
2AB
100
AcDbEntity
  8
Defpoints
 62
     0
100
AcDbPoint
 10
-41.84541793843953
 20
94.93151772178777
 30
0.0
  0
POINT
  5
2B7
330
2AB
100
AcDbEntity
  8
Defpoints
 62
     0
100
AcDbPoint
 10
-41.84541793843953
 20
80.93151772178777
 30
0.0
  0
POINT
  5
2B8
330
2AB
100
AcDbEntity
  8
Defpoints
 62
     0
100
AcDbPoint
 10
-57.34541793843955
 20
80.93151772178771
 30
0.0
  0
ENDBLK
  5
2AD
330
2AB
100
AcDbEntity
  8
0
100
AcDbBlockEnd
  0
BLOCK
  5
2BA
330
2B9
100
AcDbEntity
  8
0
100
AcDbBlockBegin
  2
*D16
 70
     1
 10
0.0
 20
0.0
 30
0.0
  3
*D16
  1
*D16
  0
LINE
  5
2BC
330
2B9
100
AcDbEntity
  8
치수문자_일반주서
 62
     0
370
    -2
100
AcDbLine
 10
40.71708206156049
 20
94.93151772178777
 30
0.0
 11
55.65458206156048
 21
94.93151772178783
 31
0.0
  0
LINE
  5
2BD
330
2B9
100
AcDbEntity
  8
치수문자_일반주서
 62
     0
370
    -2
100
AcDbLine
 10
40.71708206156048
 20
80.93151772178777
 30
0.0
 11
55.65458206156053
 21
80.93151772178783
 31
0.0
  0
LINE
  5
2BE
330
2B9
100
AcDbEntity
  8
치수문자_일반주서
 62
     0
370
    -2
100
AcDbLine
 10
55.65458206156048
 20
94.93151772178783
 30
0.0
 11
55.65458206156053
 21
80.93151772178783
 31
0.0
  0
LINE
  5
2BF
330
2B9
100
AcDbEntity
  8
치수문자_일반주서
 62
     0
370
    -2
100
AcDbLine
 10
55.65458206156047
 20
98.23351772178782
 30
0.0
 11
55.65458206156045
 21
101.5355177217878
 31
0.0
  0
LINE
  5
2C0
330
2B9
100
AcDbEntity
  8
치수문자_일반주서
 62
     0
370
    -2
100
AcDbLine
 10
55.65458206156055
 20
77.62951772178783
 30
0.0
 11
55.65458206156056
 21
74.32751772178784
 31
0.0
  0
SOLID
  5
2C1
330
2B9
100
AcDbEntity
  8
치수문자_일반주서
 62
     0
100
AcDbTrace
 10
55.10424872822713
 20
98.23351772178782
 30
0.0
 11
56.2049153948938
 21
98.23351772178782
 31
0.0
 12
55.65458206156048
 22
94.93151772178783
 32
0.0
 13
55.65458206156048
 23
94.93151772178783
 33
0.0
  0
SOLID
  5
2C2
330
2B9
100
AcDbEntity
  8
치수문자_일반주서
 62
     0
100
AcDbTrace
 10
56.20491539489388
 20
77.62951772178783
 30
0.0
 11
55.10424872822721
 21
77.62951772178783
 31
0.0
 12
55.65458206156053
 22
80.93151772178783
 32
0.0
 13
55.65458206156053
 23
80.93151772178783
 33
0.0
  0
MTEXT
  5
2C3
330
2B9
100
AcDbEntity
  8
치수문자_일반주서
 62
     0
100
AcDbMText
 10
51.2795820615605
 20
87.9972221035008
 30
0.0
 40
3.5
 41
0.0
 71
     2
 72
     1
  1
\A1;%%c14.00 [0.55]
  7
SLDTEXTSTYLE0
 11
-3.552713678800501E-15
 21
1.0
 31
0.0
 73
     1
 44
1.0
  0
POINT
  5
2C4
330
2B9
100
AcDbEntity
  8
Defpoints
 62
     0
100
AcDbPoint
 10
40.65458206156049
 20
94.93151772178777
 30
0.0
  0
POINT
  5
2C5
330
2B9
100
AcDbEntity
  8
Defpoints
 62
     0
100
AcDbPoint
 10
40.65458206156048
 20
80.93151772178777
 30
0.0
  0
POINT
  5
2C6
330
2B9
100
AcDbEntity
  8
Defpoints
 62
     0
100
AcDbPoint
 10
55.65458206156053
 20
80.93151772178783
 30
0.0
  0
ENDBLK
  5
2BB
330
2B9
100
AcDbEntity
  8
0
100
AcDbBlockEnd
  0
BLOCK
  5
2C8
330
2C7
100
AcDbEntity
  8
0
100
AcDbBlockBegin
  2
*D17
 70
     1
 10
0.0
 20
0.0
 30
0.0
  3
*D17
  1
*D17
  0
LINE
  5
2CA
330
2C7
100
AcDbEntity
  8
치수문자_일반주서
 62
     0
370
    -2
100
AcDbLine
 10
42.14535724322992
 20
78.19237922890899
 30
0.0
 11
57.89900880850721
 21
52.56002271856843
 31
0.0
  0
MTEXT
  5
2CB
330
2C7
100
AcDbEntity
  8
치수문자_일반주서
 62
     0
100
AcDbMText
 10
53.95022046298809
 20
63.9982416294082
 30
0.0
 40
3.5
 41
0.0
 71
     5
 72
     1
  1
\A1;R.5 [R0.02]
  7
SLDTEXTSTYLE0
 11
0.5236126201129557
 21
-0.8519564684057781
 31
0.0
 73
     1
 44
1.0
  0
SOLID
  5
2CC
330
2C7
100
AcDbEntity
  8
치수문자_일반주서
 62
     0
100
AcDbTrace
 10
42.61421728634257
 20
78.48054070751115
 30
0.0
 11
41.67649720011728
 21
77.90421775030683
 31
0.0
 12
40.41638837161695
 22
81.00553948758487
 32
0.0
 13
40.41638837161695
 23
81.00553948758487
 33
0.0
  0
LINE
  5
2CD
330
2C7
100
AcDbEntity
  8
치수문자_일반주서
 62
     0
100
AcDbLine
 10
40.06458206156046
 20
81.43151772178777
 30
0.0
 11
40.24458206156046
 21
81.43151772178777
 31
0.0
  0
LINE
  5
2CE
330
2C7
100
AcDbEntity
  8
치수문자_일반주서
 62
     0
100
AcDbLine
 10
40.15458206156046
 20
81.34151772178777
 30
0.0
 11
40.15458206156046
 21
81.52151772178777
 31
0.0
  0
POINT
  5
2CF
330
2C7
100
AcDbEntity
  8
Defpoints
 62
     0
100
AcDbPoint
 10
40.41638837161695
 20
81.00553948758487
 30
0.0
  0
POINT
  5
2D0
330
2C7
100
AcDbEntity
  8
Defpoints
 62
     0
100
AcDbPoint
 10
40.15458206156046
 20
81.43151772178777
 30
0.0
  0
ENDBLK
  5
2C9
330
2C7
100
AcDbEntity
  8
0
100
AcDbBlockEnd
  0
ENDSEC
  0
SECTION
  2
ENTITIES
  0
LINE
  5
96
330
1F
100
AcDbEntity
  8
0
  6
Continuous
 62
     1
370
    15
100
AcDbLine
 10
68.7455035930008
 20
-7.958428316479986
 30
0.0
 11
74.948979272354
 21
-7.958428316479986
 31
0.0
  0
LINE
  5
97
330
1F
100
AcDbEntity
  8
0
  6
Continuous
 62
     1
370
    15
100
AcDbLine
 10
31.75822562619614
 20
7.916571683520025
 30
0.0
 11
25.55564460334528
 21
7.916571683520025
 31
0.0
  0
LINE
  5
98
330
1F
100
AcDbEntity
  8
0
  6
Continuous
 62
     1
370
    15
100
AcDbLine
 10
113.6
 20
7.916571683520025
 30
0.0
 11
111.9379448849966
 21
7.916571683520025
 31
0.0
  0
LINE
  5
99
330
1F
100
AcDbEntity
  8
외형선
  6
Continuous
370
    15
100
AcDbLine
 10
62.0211888585674
 20
1.363920605758629
 30
0.0
 11
61.66061998433418
 21
1.566446530190569
 31
0.0
  0
LINE
  5
9A
330
1F
100
AcDbEntity
  8
0
  6
Continuous
 62
     1
370
    15
100
AcDbLine
 10
51.47035392722309
 20
-7.958428316479986
 30
0.0
 11
57.6736651946035
 21
-7.958428316479986
 31
0.0
  0
LINE
  5
9B
330
1F
100
AcDbEntity
  8
0
  6
Continuous
 62
     1
370
    15
100
AcDbLine
 10
14.48288340508151
 20
7.916571683520025
 30
0.0
 11
12.00000000000002
 21
7.916571683520025
 31
0.0
  0
LINE
  5
9C
330
1F
100
AcDbEntity
  8
0
  6
Continuous
 62
     1
370
    15
100
AcDbLine
 10
100.8656806337397
 20
7.916571683520025
 30
0.0
 11
94.66151331873931
 21
7.916571683520025
 31
0.0
  0
LINE
  5
9D
330
1F
100
AcDbEntity
  8
0
  6
Continuous
 62
     1
370
    15
100
AcDbLine
 10
34.19328388681822
 20
-7.958428316479986
 30
0.0
 11
40.39680738390651
 21
-7.958428316479986
 31
0.0
  0
LINE
  5
9E
330
1F
100
AcDbEntity
  8
0
  6
Continuous
 62
     1
370
    15
100
AcDbLine
 10
83.5879168092248
 20
7.916571683520025
 30
0.0
 11
77.38360498657357
 21
7.916571683520025
 31
0.0
  0
LINE
  5
9F
330
1F
100
AcDbEntity
  8
0
  6
Continuous
 62
     1
370
    15
100
AcDbLine
 10
103.3002447685256
 20
-7.958428316479986
 30
0.0
 11
109.503790017488
 21
-7.958428316479986
 31
0.0
  0
LINE
  5
A0
330
1F
100
AcDbEntity
  8
0
  6
Continuous
 62
     1
370
    15
100
AcDbLine
 10
16.91798232595184
 20
-7.958428316479986
 30
0.0
 11
23.1204738935049
 21
-7.958428316479986
 31
0.0
  0
LINE
  5
A1
330
1F
100
AcDbEntity
  8
0
  6
Continuous
 62
     1
370
    15
100
AcDbLine
 10
66.31094687565647
 20
7.916571683520025
 30
0.0
 11
60.1081420035558
 21
7.916571683520025
 31
0.0
  0
LINE
  5
A2
330
1F
100
AcDbEntity
  8
0
  6
Continuous
 62
     1
370
    15
100
AcDbLine
 10
86.02244327726123
 20
-7.958428316479986
 30
0.0
 11
92.2269930436714
 21
-7.958428316479986
 31
0.0
  0
LINE
  5
A3
330
1F
100
AcDbEntity
  8
0
  6
Continuous
 62
     1
370
    15
100
AcDbLine
 10
49.03553866666546
 20
7.916571683520025
 30
0.0
 11
42.83176928224104
 21
7.916571683520025
 31
0.0
  0
LINE
  5
A4
330
1F
100
AcDbEntity
  8
외형선
  6
Continuous
370
    15
100
AcDbLine
 10
21.42684286380757
 20
-1.527951173333245
 30
0.0
 11
21.57071910763678
 21
-1.608443883915743
 31
0.0
  0
LINE
  5
A5
330
1F
100
AcDbEntity
  8
외형선
  6
Continuous
370
    15
100
AcDbLine
 10
27.22528592211608
 20
1.500654994696799
 30
0.0
 11
27.10698301913193
 21
1.566588495974237
 31
0.0
  0
SPLINE
  5
A6
330
1F
100
AcDbEntity
  8
0
  6
Continuous
 62
     1
370
    15
100
AcDbSpline
210
0.0
220
0.0
230
1.0
 70
     8
 71
     3
 72
     9
 73
     5
 74
     0
 42
0.000000001
 43
0.00000001
 40
0.0
 40
0.0
 40
0.0
 40
0.0
 40
0.6683511798712157
 40
1.0
 40
1.0
 40
1.0
 40
1.0
 10
113.6
 20
1.476871055532983
 30
0.0
 10
113.5263491985446
 20
1.52517849878318
 30
0.0
 10
113.4161514407287
 20
1.597457032441945
 30
0.0
 10
113.3072840360264
 20
1.663091945755406
 30
0.0
 10
113.2711782897064
 20
1.68485968731507
 30
0.0
  0
LINE
  5
A7
330
1F
100
AcDbEntity
  8
외형선
  6
Continuous
370
    15
100
AcDbLine
 10
-37.21249999999999
 20
-7.958428316479981
 30
0.0
 11
11.00001348460093
 21
-7.958428316479981
 31
0.0
  0
LINE
  5
A8
330
1F
100
AcDbEntity
  8
외형선
  6
Continuous
370
    15
100
AcDbLine
 10
12.00000000000002
 20
7.916571683520019
 30
0.0
 11
-37.21249999999999
 21
7.916571683520019
 31
0.0
  0
LINE
  5
A9
330
1F
100
AcDbEntity
  8
외형선
  6
Continuous
370
    15
100
AcDbLine
 10
-37.21249999999999
 20
7.916571683520018
 30
0.0
 11
-38.79999999999998
 21
6.329071683520023
 31
0.0
  0
LINE
  5
AA
330
1F
100
AcDbEntity
  8
외형선
  6
Continuous
370
    15
100
AcDbLine
 10
-38.79999999999998
 20
-6.370928316479984
 30
0.0
 11
-37.21249999999999
 21
-7.958428316479979
 31
0.0
  0
LINE
  5
AB
330
1F
100
AcDbEntity
  8
0
  6
Continuous
 62
     1
370
    15
100
AcDbLine
 10
113.6
 20
-7.608597033632636
 30
0.0
 11
113.6
 21
-6.958251881180954
 31
0.0
  0
SPLINE
  5
AC
330
1F
100
AcDbEntity
  8
0
  6
Continuous
 62
     1
370
    15
100
AcDbSpline
210
0.0
220
0.0
230
1.0
 70
     8
 71
     3
 72
    14
 73
    10
 74
     0
 42
0.000000001
 43
0.00000001
 40
0.0
 40
0.0
 40
0.0
 40
0.0
 40
0.1655827164494768
 40
0.3311658941456716
 40
0.4967494416395801
 40
0.6623332674468302
 40
0.8279172800564306
 40
0.9905411358452257
 40
0.9999999999999999
 40
0.9999999999999999
 40
0.9999999999999999
 40
0.9999999999999999
 10
12.00000000000002
 20
-5.500360997609297
 30
0.0
 10
12.92027322172573
 20
-5.863393466151112
 30
0.0
 10
14.76082222868745
 20
-6.589459414496896
 30
0.0
 10
17.52165056895979
 20
-7.356135094695262
 30
0.0
 10
20.28248833010474
 20
-7.84157604882334
 30
0.0
 10
23.04332361498667
 20
-8.016930458382678
 30
0.0
 10
25.78774017736477
 20
-7.841568968592376
 30
0.0
 10
27.66436313474223
 20
-7.589070759088054
 30
0.0
 10
28.62074283581902
 20
-7.326688941678418
 30
0.0
 10
28.67331212154298
 20
-7.31226661055549
 30
0.0
  0
SPLINE
  5
AD
330
1F
100
AcDbEntity
  8
0
  6
Continuous
 62
     1
370
    15
100
AcDbSpline
210
0.0
220
0.0
230
1.0
 70
     8
 71
     3
 72
    24
 73
    20
 74
     0
 42
0.000000001
 43
0.00000001
 40
0.0
 40
0.0
 40
0.0
 40
0.0
 40
0.0366592916766979
 40
0.0974057449570196
 40
0.1581557332480742
 40
0.2189085303475849
 40
0.2785778026165078
 40
0.3382478515460555
 40
0.397918422116446
 40
0.4575892591094332
 40
0.5183460701015259
 40
0.5791021720491455
 40
0.6398568340565998
 40
0.700609326334677
 40
0.7613589207602177
 40
0.8210225157249641
 40
0.8806840616368288
 40
0.9403433067027325
 40
1.0
 40
1.0
 40
1.0
 40
1.0
 10
66.31094687565648
 20
7.875152561648152
 30
0.0
 10
66.88879533050728
 20
7.879213403753661
 30
0.0
 10
68.42417031029126
 20
7.890003283545347
 30
0.0
 10
70.91717588823863
 20
7.520578920399724
 30
0.0
 10
73.78998544362024
 20
6.822945810489665
 30
0.0
 10
76.6458717281685
 20
5.818507659693813
 30
0.0
 10
79.4846499945454
 20
4.575543479468238
 30
0.0
 10
82.3063994830568
 20
3.146079897331555
 30
0.0
 10
85.12817983544586
 20
1.583964005755063
 30
0.0
 10
87.9670653214815
 20
-0.0554832186278952
 30
0.0
 10
90.82317522433543
 20
-1.703716468376892
 30
0.0
 10
93.69633237588228
 20
-3.288623073965551
 30
0.0
 10
96.5694173059344
 20
-4.731308745102051
 30
0.0
 10
99.44237230178162
 20
-5.969160569727899
 30
0.0
 10
102.2981191165058
 20
-6.941947621281894
 30
0.0
 10
105.1365722185086
 20
-7.615439362953863
 30
0.0
 10
107.9578397306249
 20
-7.960024623222859
 30
0.0
 10
110.7789730023427
 20
-7.994282011813858
 30
0.0
 10
112.6596710747269
 20
-7.737156860010863
 30
0.0
 10
113.6000000000001
 20
-7.608597033632638
 30
0.0
  0
SPLINE
  5
AE
330
1F
100
AcDbEntity
  8
외형선
  6
Continuous
370
    15
100
AcDbSpline
210
0.0
220
0.0
230
1.0
 70
    24
 71
     3
 72
    15
 73
    11
 74
     0
 42
0.000000001
 43
0.00000001
 40
0.0
 40
0.0
 40
0.0
 40
0.0
 40
0.0680954477111884
 40
0.2073651543944649
 40
0.3466348610777414
 40
0.4859045677610155
 40
0.6251742744442735
 40
0.7644439811275693
 40
0.903713687810845
 40
0.9999999999999999
 40
0.9999999999999999
 40
0.9999999999999999
 40
0.9999999999999999
 10
12.00000000000003
 20
0.2790705502019974
 30
0.0
 10
12.00000000000004
 20
0.2602818812277532
 30
0.0
 10
12.00000000000007
 20
0.2030663789634145
 30
0.0
 10
12.00000000000005
 20
-0.2698499930173417
 30
0.0
 10
12.00000000000003
 20
-1.056813727491495
 30
0.0
 10
12.0
 20
-2.059897391215182
 30
0.0
 10
12.00000000000006
 20
-3.144020788881368
 30
0.0
 10
12.0000000000001
 20
-4.187017418023162
 30
0.0
 10
12.00000000000002
 20
-4.999836154773256
 30
0.0
 10
12.00000000000002
 20
-5.355130305908318
 30
0.0
 10
12.00000000000002
 20
-5.500360997609296
 30
0.0
  0
SPLINE
  5
AF
330
1F
100
AcDbEntity
  8
0
  6
Continuous
 62
     1
370
    15
100
AcDbSpline
210
0.0
220
0.0
230
1.0
 70
     8
 71
     3
 72
    22
 73
    18
 74
     0
 42
0.000000001
 43
0.00000001
 40
0.0
 40
0.0
 40
0.0
 40
0.0
 40
0.0687999102605118
 40
0.137605410307418
 40
0.2064156840559155
 40
0.2752299117690574
 40
0.3440472706801402
 40
0.4116371964077925
 40
0.4792279767803549
 40
0.546819322902524
 40
0.6144109456637428
 40
0.6832326578731368
 40
0.752053516199787
 40
0.8208726927865816
 40
0.8896893610686445
 40
0.9585026964070218
 40
1.0
 40
1.0
 40
1.0
 40
1.0
 10
113.6
 20
-6.958251881180955
 30
0.0
 10
112.642629624196
 20
-6.660361546391506
 30
0.0
 10
110.7278110891159
 20
-6.064556674116208
 30
0.0
 10
107.8554175534377
 20
-4.827108691879193
 30
0.0
 10
104.9827867657894
 20
-3.402211026870003
 30
0.0
 10
102.1099645362587
 20
-1.824371719372942
 30
0.0
 10
99.2540706218062
 20
-0.1794559014252074
 30
0.0
 10
96.41528719816037
 20
1.462368700416366
 30
0.0
 10
93.59353455508905
 20
3.031946156472467
 30
0.0
 10
90.77175231818038
 20
4.4734340177617
 30
0.0
 10
87.93286636475648
 20
5.733811120560773
 30
0.0
 10
85.07675786197584
 20
6.75564414746833
 30
0.0
 10
82.20360462446669
 20
7.487785402362141
 30
0.0
 10
79.33052567752055
 20
7.896847749902638
 30
0.0
 10
76.45758091875604
 20
7.947930390919094
 30
0.0
 10
73.96485011164953
 20
7.735135963669539
 30
0.0
 10
72.42982304929232
 20
7.379663313665529
 30
0.0
 10
71.85236755953025
 20
7.245939525832187
 30
0.0
  0
SPLINE
  5
B0
330
1F
100
AcDbEntity
  8
0
  6
Continuous
 62
     1
370
    15
100
AcDbSpline
210
0.0
220
0.0
230
1.0
 70
     8
 71
     3
 72
    16
 73
    12
 74
     0
 42
0.000000001
 43
0.00000001
 40
0.0
 40
0.0
 40
0.0
 40
0.0
 40
0.013708253239968
 40
0.1381069062547539
 40
0.2625054038639755
 40
0.3869036773217822
 40
0.5113016579037613
 40
0.6334762653748864
 40
0.7556508585552265
 40
0.8778254369338804
 40
1.0
 40
1.0
 40
1.0
 40
1.0
 10
34.19328388681822
 20
-7.942773403547185
 30
0.0
 10
34.09187236366751
 20
-7.947864149703543
 30
0.0
 10
33.07017897387124
 20
-7.999152026420968
 30
0.0
 10
31.12820552495869
 20
-7.793804363853207
 30
0.0
 10
28.36736338401113
 20
-7.31045930057524
 30
0.0
 10
25.60653440625033
 20
-6.501737357793626
 30
0.0
 10
22.86213217466054
 20
-5.447586600812043
 30
0.0
 10
20.13427941091904
 20
-4.184072226600777
 30
0.0
 10
17.4228485205758
 20
-2.76764146114713
 30
0.0
 10
14.71142497496335
 20
-1.243597346022683
 30
0.0
 10
12.90380828722873
 20
-0.1983837201001478
 30
0.0
 10
12.00000000000002
 20
0.3242230601111182
 30
0.0
  0
LINE
  5
B1
330
1F
100
AcDbEntity
  8
0
  6
Continuous
 62
     1
370
    15
100
AcDbLine
 10
113.6
 20
4.712482786110284
 30
0.0
 11
113.6
 21
7.858648181323203
 31
0.0
  0
SPLINE
  5
B2
330
1F
100
AcDbEntity
  8
0
  6
Continuous
 62
     1
370
    15
100
AcDbSpline
210
0.0
220
0.0
230
1.0
 70
     8
 71
     3
 72
    26
 73
    22
 74
     0
 42
0.000000001
 43
0.00000001
 40
0.0
 40
0.0
 40
0.0
 40
0.0
 40
0.0057039884857075
 40
0.0623634353846114
 40
0.1190230088213328
 40
0.1756826774916415
 40
0.2323424100821986
 40
0.2879892327229986
 40
0.3436360563732092
 40
0.3992828807997948
 40
0.4549297057697156
 40
0.5138926154986716
 40
0.5728548805738912
 40
0.6318157916322233
 40
0.6907746403510096
 40
0.7497307199912628
 40
0.8076328345439221
 40
0.8655329818325329
 40
0.9234309174293739
 40
0.9813263977434947
 40
1.0
 40
1.0
 40
1.0
 40
1.0
 10
14.48288340508152
 20
7.902117947541883
 30
0.0
 10
14.5755289063817
 20
7.906833588497042
 30
0.0
 10
15.58845025930619
 20
7.958391120694211
 30
0.0
 10
17.52165065916061
 20
7.75497929644316
 30
0.0
 10
20.28248821356677
 20
7.274974452844036
 30
0.0
 10
23.04332399093813
 20
6.468798224596994
 30
0.0
 10
25.78773880060253
 20
5.416950260071868
 30
0.0
 10
28.51560080937222
 20
4.155308138367009
 30
0.0
 10
31.22703238705557
 20
2.739985673672118
 30
0.0
 10
33.93848030916661
 20
1.217459690198008
 30
0.0
 10
36.70370022197162
 20
-0.3842443792422939
 30
0.0
 10
39.52311950353635
 20
-2.003307449101345
 30
0.0
 10
42.39626595653719
 20
-3.567046936926039
 30
0.0
 10
45.26936093793163
 20
-4.97651535410444
 30
0.0
 10
48.14232357887757
 20
-6.170245176512512
 30
0.0
 10
50.9980808889372
 20
-7.09135605046198
 30
0.0
 10
53.83654421588628
 20
-7.703893031577812
 30
0.0
 10
56.65782175637546
 20
-7.996186404280087
 30
0.0
 10
59.47896960834446
 20
-7.931793108067829
 30
0.0
 10
61.66296336976629
 20
-7.688417035097818
 30
0.0
 10
62.90660114360109
 20
-7.36765699970646
 30
0.0
 10
63.20989845839311
 20
-7.289430317087456
 30
0.0
  0
SPLINE
  5
B3
330
1F
100
AcDbEntity
  8
0
  6
Continuous
 62
     1
370
    15
100
AcDbSpline
210
0.0
220
0.0
230
1.0
 70
     8
 71
     3
 72
    12
 73
     8
 74
     0
 42
0.000000001
 43
0.00000001
 40
0.0
 40
0.0
 40
0.0
 40
0.0
 40
0.1138259991933118
 40
0.3353818470835817
 40
0.5569300859846708
 40
0.7784697808837088
 40
0.9999999999999999
 40
0.9999999999999999
 40
0.9999999999999999
 40
0.9999999999999999
 10
100.8656806337397
 20
7.873291879759416
 30
0.0
 10
101.3488628576907
 20
7.88149360502767
 30
0.0
 10
102.772531860336
 20
7.905659523088869
 30
0.0
 10
105.1365705093957
 20
7.579582771984275
 30
0.0
 10
107.9578401863627
 20
6.932726085637661
 30
0.0
 10
110.7789728884158
 20
5.991058694733751
 30
0.0
 10
112.6596710367518
 20
5.16221112814504
 30
0.0
 10
113.6
 20
4.747796207988559
 30
0.0
  0
SPLINE
  5
B4
330
1F
100
AcDbEntity
  8
0
  6
Continuous
 62
     1
370
    15
100
AcDbSpline
210
0.0
220
0.0
230
1.0
 70
     8
 71
     3
 72
    10
 73
     6
 74
     0
 42
0.000000001
 43
0.00000001
 40
0.0
 40
0.0
 40
0.0
 40
0.0
 40
0.399268475830721
 40
0.7985693910277939
 40
1.0
 40
1.0
 40
1.0
 40
1.0
 10
113.6
 20
7.858648181323205
 30
0.0
 10
112.6426293015852
 20
7.888988995347972
 30
0.0
 10
110.7278101212573
 20
7.949673088497661
 30
0.0
 10
108.3299526468085
 20
7.705792290880804
 30
0.0
 10
106.8894609684676
 20
7.358977931452721
 30
0.0
 10
106.4064513305285
 20
7.242688000245084
 30
0.0
  0
SPLINE
  5
B5
330
1F
100
AcDbEntity
  8
0
  6
Continuous
 62
     1
370
    15
100
AcDbSpline
210
0.0
220
0.0
230
1.0
 70
     8
 71
     3
 72
    26
 73
    22
 74
     0
 42
0.000000001
 43
0.00000001
 40
0.0
 40
0.0
 40
0.0
 40
0.0
 40
0.0164824656688636
 40
0.0743613635724914
 40
0.1322377852789836
 40
0.1911633237236205
 40
0.2500936069676774
 40
0.3090279358502728
 40
0.3679656081150646
 40
0.4269059189435965
 40
0.4847948993183457
 40
0.54268459016432
 40
0.6005747440308921
 40
0.6584651132912644
 40
0.7151066441488847
 40
0.7717481355551685
 40
0.82838955620182
 40
0.8850308747873148
 40
0.941672060019889
 40
0.9973008937044412
 40
0.9999999999999999
 40
0.9999999999999999
 40
0.9999999999999999
 40
0.9999999999999999
 10
68.7455035930008
 20
-7.924431117533959
 30
0.0
 10
68.4777060582968
 20
-7.934333017136637
 30
0.0
 10
67.26952578709148
 20
-7.979005869560901
 30
0.0
 10
65.12102147500784
 20
-7.722259722669229
 30
0.0
 10
62.28296754660832
 20
-7.152213331320681
 30
0.0
 10
59.42779924956471
 20
-6.2474315569251
 30
0.0
 10
56.55539179401244
 20
-5.073320242594646
 30
0.0
 10
53.68274716756231
 20
-3.677526168533078
 30
0.0
 10
50.80991438617347
 20
-2.123117764104006
 30
0.0
 10
47.95401220817256
 20
-0.4868934540450205
 30
0.0
 10
45.11522487917312
 20
1.158942557400459
 30
0.0
 10
42.29346544137272
 20
2.745366919707664
 30
0.0
 10
39.47169530511427
 20
4.215672197094918
 30
0.0
 10
36.67016562107408
 20
5.498898973677295
 30
0.0
 10
33.88905556463604
 20
6.546423988772632
 30
0.0
 10
31.12820396741677
 20
7.322989125366074
 30
0.0
 10
28.36736373050207
 20
7.802107576412267
 30
0.0
 10
25.60653457782429
 20
7.975424595503783
 30
0.0
 10
22.86213114905279
 20
7.796368956092901
 30
0.0
 10
20.99423096739211
 20
7.544148115823312
 30
0.0
 10
20.04656954489653
 20
7.283618290267222
 30
0.0
 10
20.00271682332968
 20
7.271562358023104
 30
0.0
  0
LINE
  5
B6
330
1F
100
AcDbEntity
  8
0
  6
Continuous
 62
     1
370
    15
100
AcDbLine
 10
113.6
 20
7.858648181323203
 30
0.0
 11
113.6
 21
7.916571683520025
 31
0.0
  0
SPLINE
  5
B7
330
1F
100
AcDbEntity
  8
0
  6
Continuous
 62
     1
370
    15
100
AcDbSpline
210
0.0
220
0.0
230
1.0
 70
     8
 71
     3
 72
    25
 73
    21
 74
     0
 42
0.000000001
 43
0.00000001
 40
0.0
 40
0.0
 40
0.0
 40
0.0
 40
0.0447373082487881
 40
0.100374348847656
 40
0.1593268911389827
 40
0.2182787888899223
 40
0.2772293328620509
 40
0.3361778148572544
 40
0.3951235282608116
 40
0.4530154618952633
 40
0.5109054286115702
 40
0.5687931840249886
 40
0.6266784845873988
 40
0.6856120153219945
 40
0.7445503563830007
 40
0.803492829484223
 40
0.8624387326173859
 40
0.9213873611461552
 40
0.979284642152021
 40
1.0
 40
1.0
 40
1.0
 40
1.0
 10
31.75822562619613
 20
7.892295946457179
 30
0.0
 10
32.48497567939322
 20
7.88280673815023
 30
0.0
 10
34.11554010582213
 20
7.861516384703106
 30
0.0
 10
36.70369997348399
 20
7.453933092616578
 30
0.0
 10
39.52311957187577
 20
6.73488351968974
 30
0.0
 10
42.39626593771782
 20
5.698155267465395
 30
0.0
 10
45.26936094487134
 20
4.415290551477629
 30
0.0
 10
48.14232356993772
 20
2.938724373032827
 30
0.0
 10
50.9980809175309
 20
1.343131617943182
 30
0.0
 10
53.83654411246525
 20
-0.3005951932721251
 30
0.0
 10
56.65782214224159
 20
-1.922661785221699
 30
0.0
 10
59.47896816838087
 20
-3.46488996173026
 30
0.0
 10
62.31703302247219
 20
-4.87103303764518
 30
0.0
 10
65.17218002473768
 20
-6.078109443112353
 30
0.0
 10
68.0445569649423
 20
-7.029240823068601
 30
0.0
 10
70.91717461458882
 20
-7.674040352024451
 30
0.0
 10
73.78998557572906
 20
-7.991485942872055
 30
0.0
 10
76.64587246987352
 20
-7.941636809752941
 30
0.0
 10
78.88060179895814
 20
-7.696915397207724
 30
0.0
 10
80.15770560602229
 20
-7.372205169860273
 30
0.0
 10
80.49423752707298
 20
-7.286640193865677
 30
0.0
  0
SPLINE
  5
B8
330
1F
100
AcDbEntity
  8
0
  6
Continuous
 62
     1
370
    15
100
AcDbSpline
210
0.0
220
0.0
230
1.0
 70
     8
 71
     3
 72
    25
 73
    21
 74
     0
 42
0.000000001
 43
0.00000001
 40
0.0
 40
0.0
 40
0.0
 40
0.0
 40
0.0194076612388916
 40
0.0783715961150123
 40
0.1373340901198369
 40
0.1962944350739168
 40
0.2552519244478833
 40
0.3131554796131072
 40
0.3710570248827068
 40
0.4289563159604967
 40
0.4868531299686825
 40
0.5457994303630389
 40
0.6047504772286082
 40
0.6637055711581649
 40
0.7226640096479322
 40
0.781625087631117
 40
0.8395344647325076
 40
0.8974445525554523
 40
0.9553551035621365
 40
1.0
 40
1.0
 40
1.0
 40
1.0
 10
86.02244327726122
 20
-7.920207668717687
 30
0.0
 10
85.7072129030949
 20
-7.930810125829088
 30
0.0
 10
84.4342564523794
 20
-7.973624737869836
 30
0.0
 10
82.20360336004723
 20
-7.694726709476746
 30
0.0
 10
79.3305262969779
 20
-7.091778062505954
 30
0.0
 10
76.4575797053582
 20
-6.157057824227186
 30
0.0
 10
73.60184345046346
 20
-4.968955824742142
 30
0.0
 10
70.76340041318294
 20
-3.575823332582636
 30
0.0
 10
67.94214422706507
 20
-2.04235335107193
 30
0.0
 10
65.1210208306275
 20
-0.4239490896582386
 30
0.0
 10
62.28296772260649
 20
1.221197280331143
 30
0.0
 10
59.42779920260543
 20
2.823550750072139
 30
0.0
 10
56.555391804506
 20
4.311690149637274
 30
0.0
 10
53.68274717255281
 20
5.611353844337716
 30
0.0
 10
50.80991435571458
 20
6.666206928793934
 30
0.0
 10
47.95401232414702
 20
7.424869526840659
 30
0.0
 10
45.11522445411859
 20
7.864239961914327
 30
0.0
 10
42.29346702889838
 20
7.96018741284227
 30
0.0
 10
39.68715609716707
 20
7.77326774479638
 30
0.0
 10
38.02142932854274
 20
7.411596484759467
 30
0.0
 10
37.29629769553787
 20
7.254152132935735
 30
0.0
  0
LINE
  5
B9
330
1F
100
AcDbEntity
  8
외형선
  6
Continuous
370
    15
100
AcDbLine
 10
12.00000000000002
 20
7.627600109592317
 30
0.0
 11
12.00000000000002
 21
7.916571683520025
 31
0.0
  0
LINE
  5
BA
330
1F
100
AcDbEntity
  8
0
  6
Continuous
 62
     1
370
    15
100
AcDbLine
 10
113.6
 20
1.503668955278709
 30
0.0
 11
113.6
 21
4.74779620798856
 31
0.0
  0
SPLINE
  5
BB
330
1F
100
AcDbEntity
  8
0
  6
Continuous
 62
     1
370
    15
100
AcDbSpline
210
0.0
220
0.0
230
1.0
 70
     8
 71
     3
 72
    16
 73
    12
 74
     0
 42
0.000000001
 43
0.00000001
 40
0.0
 40
0.0
 40
0.0
 40
0.0
 40
0.1173454054103331
 40
0.2347003447829654
 40
0.3520634262003534
 40
0.4694332515158429
 40
0.5868084174152137
 40
0.7020900683088477
 40
0.8173731768882995
 40
0.9326572504125703
 40
1.0
 40
1.0
 40
1.0
 40
1.0
 10
113.6
 20
1.503668955278708
 30
0.0
 10
112.6426296240345
 20
2.0397731950277
 30
0.0
 10
110.7278110886314
 20
3.112025231387518
 30
0.0
 10
107.8554175553761
 20
4.566322929356702
 30
0.0
 10
104.9827867585193
 20
5.825799344766135
 30
0.0
 10
102.1099645634026
 20
6.829941993944496
 30
0.0
 10
99.2540705212599
 20
7.531158330428786
 30
0.0
 10
96.41528756596317
 20
7.909912141076163
 30
0.0
 10
93.59353318158263
 20
7.939675000044414
 30
0.0
 10
91.1629106045062
 20
7.722076919791219
 30
0.0
 10
89.6728712802168
 20
7.372564485220064
 30
0.0
 10
89.12342655254028
 20
7.243683481006233
 30
0.0
  0
SPLINE
  5
BC
330
1F
100
AcDbEntity
  8
0
  6
Continuous
 62
     1
370
    15
100
AcDbSpline
210
0.0
220
0.0
230
1.0
 70
     8
 71
     3
 72
    22
 73
    18
 74
     0
 42
0.000000001
 43
0.00000001
 40
0.0
 40
0.0
 40
0.0
 40
0.0
 40
0.016731281091006
 40
0.0895177431071082
 40
0.1610058980212467
 40
0.2324949303092252
 40
0.3039845343897625
 40
0.3754744044640221
 40
0.4454220612772996
 40
0.515369669371404
 40
0.5853171900831514
 40
0.6552645847577198
 40
0.7252118147523408
 40
0.793908873404781
 40
0.8626059240217142
 40
0.9313029663158681
 40
1.0
 40
1.0
 40
1.0
 40
1.0
 10
51.47035392722309
 20
-7.927801693183362
 30
0.0
 10
51.25021898458398
 20
-7.937147279838048
 30
0.0
 10
50.07242613436061
 20
-7.987149178723675
 30
0.0
 10
47.95401002679122
 20
-7.737599117064254
 30
0.0
 10
45.11522545925718
 20
-7.179917038405985
 30
0.0
 10
42.29346528582825
 20
-6.297285109013838
 30
0.0
 10
39.47169534720028
 20
-5.158665219812859
 30
0.0
 10
36.6701656086702
 20
-3.81214960113298
 30
0.0
 10
33.88905557300714
 20
-2.321154707386107
 30
0.0
 10
31.12820394618456
 20
-0.7484554266321565
 30
0.0
 10
28.36736380705957
 20
0.8534158115280053
 30
0.0
 10
25.60653429282731
 20
2.420270426302988
 30
0.0
 10
22.86213220444727
 20
3.879841193676404
 30
0.0
 10
20.13427940300135
 20
5.178360479301695
 30
0.0
 10
17.42284852268718
 20
6.261773571553144
 30
0.0
 10
14.7114249744355
 20
7.12289674595683
 30
0.0
 10
12.90380828705275
 20
7.459365662075607
 30
0.0
 10
12.00000000000001
 20
7.627600109592314
 30
0.0
  0
LINE
  5
BD
330
1F
100
AcDbEntity
  8
0
  6
Continuous
 62
     1
370
    15
100
AcDbLine
 10
113.6
 20
-6.958251881180954
 30
0.0
 11
113.6
 21
-4.582075832631906
 31
0.0
  0
LINE
  5
BE
330
1F
100
AcDbEntity
  8
외형선
  6
Continuous
370
    15
100
AcDbLine
 10
12.0
 20
0.3242230601111293
 30
0.0
 11
12.00000000000002
 21
3.747558900743531
 31
0.0
  0
SPLINE
  5
BF
330
1F
100
AcDbEntity
  8
0
  6
Continuous
 62
     1
370
    15
100
AcDbSpline
210
0.0
220
0.0
230
1.0
 70
     8
 71
     3
 72
    20
 73
    16
 74
     0
 42
0.000000001
 43
0.00000001
 40
0.0
 40
0.0
 40
0.0
 40
0.0
 40
0.0813358604394279
 40
0.1626719474477846
 40
0.2440082161044188
 40
0.3253446214713064
 40
0.4066811185973474
 40
0.4865635575510229
 40
0.5664459979537328
 40
0.6463284394709492
 40
0.7262108817681371
 40
0.8108536486581369
 40
0.8954954901311892
 40
0.9801353878783248
 40
1.0
 40
1.0
 40
1.0
 40
1.0
 10
12.00000000000003
 20
3.74755890074353
 30
0.0
 10
12.92027321951454
 20
3.265284898810285
 30
0.0
 10
14.76082222205387
 20
2.300735551522783
 30
0.0
 10
17.52165059549419
 20
0.7200271532149428
 30
0.0
 10
20.2824882306004
 20
-0.8795860460505511
 30
0.0
 10
23.04332398647024
 20
-2.447609853775035
 30
0.0
 10
25.78773880140882
 20
-3.908553812030819
 30
0.0
 10
28.51560081049802
 20
-5.207662315796292
 30
0.0
 10
31.22703238174424
 20
-6.297670299704446
 30
0.0
 10
33.93848032928624
 20
-7.144793589363183
 30
0.0
 10
36.70370014491156
 20
-7.72535582865291
 30
0.0
 10
39.52311981029549
 20
-8.004562508334654
 30
0.0
 10
42.39626481391813
 20
-7.915985555026422
 30
0.0
 10
44.53646364842699
 20
-7.66556836085553
 30
0.0
 10
45.71892192747827
 20
-7.352723279567834
 30
0.0
 10
45.94368806525455
 20
-7.293256504385062
 30
0.0
  0
SPLINE
  5
C0
330
1F
100
AcDbEntity
  8
0
  6
Continuous
 62
     1
370
    15
100
AcDbSpline
210
0.0
220
0.0
230
1.0
 70
     8
 71
     3
 72
    18
 73
    14
 74
     0
 42
0.000000001
 43
0.00000001
 40
0.0
 40
0.0
 40
0.0
 40
0.0
 40
0.0513208347012604
 40
0.1453421133960433
 40
0.2410745238458103
 40
0.3368058170786693
 40
0.4325348414475
 40
0.5282604470486256
 40
0.6239814866035099
 40
0.7179913542843057
 40
0.8119979933431857
 40
0.9060010070384839
 40
1.0
 40
1.0
 40
1.0
 40
1.0
 10
83.5879168092248
 20
7.875168194197379
 30
0.0
 10
84.1013355235276
 20
7.88163827013681
 30
0.0
 10
85.5553524238415
 20
7.89996171550444
 30
0.0
 10
87.96706504827367
 20
7.561224690781477
 30
0.0
 10
90.8231752980976
 20
6.895660472650407
 30
0.0
 10
93.69633235611838
 20
5.908653010033392
 30
0.0
 10
96.5694173112301
 20
4.668115267071359
 30
0.0
 10
99.44237230036188
 20
3.222336424777887
 30
0.0
 10
102.2981191168787
 20
1.645476255084055
 30
0.0
 10
105.1365722184095
 20
0.0064603233632266
 30
0.0
 10
107.9578397306514
 20
-1.620121312212995
 30
0.0
 10
110.7789730023361
 20
-3.193307728513322
 30
0.0
 10
112.6596710747248
 20
-4.119159731551052
 30
0.0
 10
113.6
 20
-4.582075832631906
 30
0.0
  0
SPLINE
  5
C1
330
1F
100
AcDbEntity
  8
0
  6
Continuous
 62
     1
370
    15
100
AcDbSpline
210
0.0
220
0.0
230
1.0
 70
     8
 71
     3
 72
    25
 73
    21
 74
     0
 42
0.000000001
 43
0.00000001
 40
0.0
 40
0.0
 40
0.0
 40
0.0
 40
0.0244321746883352
 40
0.0834056130974209
 40
0.1413271954575434
 40
0.1992495102106225
 40
0.2571723097861376
 40
0.3150953464291052
 40
0.3740725154226525
 40
0.4330489526763859
 40
0.4920239487533091
 40
0.5509967953238151
 40
0.6099667857087266
 40
0.6678826184146764
 40
0.725796440798835
 40
0.7837080085132178
 40
0.8416170986327728
 40
0.9005758976656266
 40
0.959539444176108
 40
1.0
 40
1.0
 40
1.0
 40
1.0
 10
103.3002447685256
 20
-7.916419185968638
 30
0.0
 10
102.9034970550423
 20
-7.926610332068752
 30
0.0
 10
101.5490950539845
 20
-7.961400472508081
 30
0.0
 10
99.25406908280364
 20
-7.658715856380223
 30
0.0
 10
96.41528760749925
 20
-7.036147814331433
 30
0.0
 10
93.59353444503279
 20
-6.102517737135145
 30
0.0
 10
90.77175234906095
 20
-4.919074903132723
 30
0.0
 10
87.93286635102228
 20
-3.520140487589477
 30
0.0
 10
85.07675788587291
 20
-1.962805203301379
 30
0.0
 10
82.20360454283991
 20
-0.3115417236730358
 30
0.0
 10
79.33052598011825
 20
1.352320967004282
 30
0.0
 10
76.45757979005643
 20
2.956413902244687
 30
0.0
 10
73.60184342914404
 20
4.422215077572206
 30
0.0
 10
70.76340041547908
 20
5.689467435443586
 30
0.0
 10
67.94214423905606
 20
6.709653829257234
 30
0.0
 10
65.12102078037064
 20
7.44651768367784
 30
0.0
 10
62.28296791308061
 20
7.875706625705271
 30
0.0
 10
59.42779847694862
 20
7.957214945197786
 30
0.0
 10
56.85591861759799
 20
7.759908712711257
 30
0.0
 10
55.24140675019122
 20
7.39711378097313
 30
0.0
 10
54.58438248740376
 20
7.249474684983618
 30
0.0
  0
SPLINE
  5
C2
330
1F
100
AcDbEntity
  8
0
  6
Continuous
 62
     1
370
    15
100
AcDbSpline
210
0.0
220
0.0
230
1.0
 70
     8
 71
     3
 72
     9
 73
     5
 74
     0
 42
0.000000001
 43
0.00000001
 40
0.0
 40
0.0
 40
0.0
 40
0.0
 40
0.4486713377326888
 40
1.0
 40
1.0
 40
1.0
 40
1.0
 10
16.91798232595184
 20
-7.935078354454292
 30
0.0
 10
16.18246307527643
 20
-7.927369521602284
 30
0.0
 10
14.5431356014238
 20
-7.910188052219904
 30
0.0
 10
12.90380818919967
 20
-7.617505655053893
 30
0.0
 10
12.00000000000001
 20
-7.456141460555165
 30
0.0
  0
LINE
  5
C3
330
1F
100
AcDbEntity
  8
외형선
  6
Continuous
370
    15
100
AcDbLine
 10
12.0
 20
-7.456141460555163
 30
0.0
 11
12.00000000000002
 21
-5.500360997609296
 31
0.0
  0
SPLINE
  5
C4
330
1F
100
AcDbEntity
  8
0
  6
Continuous
 62
     1
370
    15
100
AcDbSpline
210
0.0
220
0.0
230
1.0
 70
     8
 71
     3
 72
    25
 73
    21
 74
     0
 42
0.000000001
 43
0.00000001
 40
0.0
 40
0.0
 40
0.0
 40
0.0
 40
0.0406259433119732
 40
0.0985274467498015
 40
0.1564269829443445
 40
0.2143243074704604
 40
0.2722191767397699
 40
0.3311624494585422
 40
0.3901105332988942
 40
0.4490627498625075
 40
0.5080183970250616
 40
0.5669767700337424
 40
0.62488362172693
 40
0.6827912271409176
 40
0.7406993387883108
 40
0.7986077089891138
 40
0.8575699773340979
 40
0.9165315575772904
 40
0.975491740411089
 40
1.0
 40
1.0
 40
1.0
 40
1.0
 10
49.03553866666546
 20
7.879493314550986
 30
0.0
 10
49.69542353747221
 20
7.878382711154241
 30
0.0
 10
51.29579921293989
 20
7.875689237277391
 30
0.0
 10
53.83654313822485
 20
7.482331979073056
 30
0.0
 10
56.65782240333826
 20
6.777409382684924
 30
0.0
 10
59.47896809818492
 20
5.774648613556731
 30
0.0
 10
62.31703304271801
 20
4.524552406362921
 30
0.0
 10
65.17218001523618
 20
3.07074049259391
 30
0.0
 10
68.0445569825252
 20
1.474062722839863
 30
0.0
 10
70.91717455375388
 20
-0.1877746252162236
 30
0.0
 10
73.78998580150245
 20
-1.84237392934691
 30
0.0
 10
76.64587163392808
 20
-3.408372198956103
 30
0.0
 10
79.48465002050492
 20
-4.8203155992579
 30
0.0
 10
82.3063994727371
 20
-6.022230207491405
 30
0.0
 10
85.12817985076514
 20
-6.972608909007723
 30
0.0
 10
87.96706527012203
 20
-7.633860647071912
 30
0.0
 10
90.82317541816386
 20
-7.977977207537674
 30
0.0
 10
93.69633165341384
 20
-7.9588200657598
 30
0.0
 10
96.00984594635521
 20
-7.722748518427979
 30
0.0
 10
97.3656230497673
 20
-7.384362155942537
 30
0.0
 10
97.76371047335729
 20
-7.28500411627599
 30
0.0
  0
LINE
  5
C5
330
1F
100
AcDbEntity
  8
0
  6
Continuous
 62
     1
370
    15
100
AcDbLine
 10
113.6
 20
-4.582075832631906
 30
0.0
 11
113.6
 21
1.503668955278709
 31
0.0
  0
SPLINE
  5
C6
330
1F
100
AcDbEntity
  8
외형선
  6
Continuous
370
    15
100
AcDbSpline
210
0.0
220
0.0
230
1.0
 70
    24
 71
     3
 72
    12
 73
     8
 74
     0
 42
0.000000001
 43
0.00000001
 40
0.0
 40
0.0
 40
0.0
 40
0.0
 40
0.1106104585223312
 40
0.3676294911965887
 40
0.6246485238707861
 40
0.8816675565449831
 40
1.0
 40
1.0
 40
1.0
 40
1.0
 10
12.00000000000002
 20
7.627600109592313
 30
0.0
 10
12.00000000000002
 20
7.488350806337283
 30
0.0
 10
12.00000000000002
 20
7.025536067215739
 30
0.0
 10
12.00000000000006
 20
6.147514224078777
 30
0.0
 10
12.00000000000007
 20
5.092372837651293
 30
0.0
 10
12.0
 20
4.28023852026328
 30
0.0
 10
12.0
 20
3.95559917903988
 30
0.0
 10
12.00000000000002
 20
3.853254126651256
 30
0.0
  0
LINE
  5
C7
330
1F
100
AcDbEntity
  8
외형선
  6
Continuous
370
    15
100
AcDbLine
 10
11.00001348460093
 20
4.245573221617652
 30
0.0
 11
11.00001348460093
 21
7.76167356315284
 31
0.0
  0
SPLINE
  5
C8
330
1F
100
AcDbEntity
  8
외형선
  6
Continuous
370
    15
100
AcDbSpline
210
0.0
220
0.0
230
1.0
 70
     8
 71
     3
 72
     8
 73
     4
 74
     0
 42
0.000000001
 43
0.00000001
 40
0.0
 40
0.0
 40
0.0
 40
0.0
 40
1.0
 40
1.0
 40
1.0
 40
1.0
 10
12.00000000000001
 20
3.747558900743525
 30
0.0
 10
11.66573935357541
 20
3.917196148526988
 30
0.0
 10
11.33211929340531
 20
4.083387907959534
 30
0.0
 10
11.00001348460093
 20
4.24557204933542
 30
0.0
  0
SPLINE
  5
C9
330
1F
100
AcDbEntity
  8
외형선
  6
Continuous
370
    15
100
AcDbSpline
210
0.0
220
0.0
230
1.0
 70
     8
 71
     3
 72
     8
 73
     4
 74
     0
 42
0.000000001
 43
0.00000001
 40
0.0
 40
0.0
 40
0.0
 40
0.0
 40
1.0
 40
1.0
 40
1.0
 40
1.0
 10
12.00000000000002
 20
0.3242230601111188
 30
0.0
 10
11.66573935357543
 20
0.5167862818726265
 30
0.0
 10
11.33211929340483
 20
0.7089202894302746
 30
0.0
 10
11.00001348460093
 20
0.8999523397000303
 30
0.0
  0
SPLINE
  5
CA
330
1F
100
AcDbEntity
  8
외형선
  6
Continuous
370
    15
100
AcDbSpline
210
0.0
220
0.0
230
1.0
 70
     8
 71
     3
 72
     8
 73
     4
 74
     0
 42
0.000000001
 43
0.00000001
 40
0.0
 40
0.0
 40
0.0
 40
0.0
 40
1.0
 40
1.0
 40
1.0
 40
1.0
 10
12.00000000000001
 20
-5.500360997609291
 30
0.0
 10
11.66573935357541
 20
-5.360909209169732
 30
0.0
 10
11.33211929340531
 20
-5.216695502491337
 30
0.0
 10
11.00001348460093
 20
-5.068257540460769
 30
0.0
  0
SPLINE
  5
CB
330
1F
100
AcDbEntity
  8
외형선
  6
Continuous
370
    15
100
AcDbSpline
210
0.0
220
0.0
230
1.0
 70
     8
 71
     3
 72
     8
 73
     4
 74
     0
 42
0.000000001
 43
0.00000001
 40
0.0
 40
0.0
 40
0.0
 40
0.0
 40
1.0
 40
1.0
 40
1.0
 40
1.0
 10
12.00000000000002
 20
-7.456141460555162
 30
0.0
 10
11.66573935357543
 20
-7.388665084483987
 30
0.0
 10
11.33211929340483
 20
-7.314648952865186
 30
0.0
 10
11.00001348460093
 20
-7.234395366025999
 30
0.0
  0
LINE
  5
CC
330
1F
100
AcDbEntity
  8
외형선
  6
Continuous
370
    15
100
AcDbLine
 10
11.00001348460093
 20
-7.958428316479981
 30
0.0
 11
11.00001348460093
 21
-7.234396883648888
 31
0.0
  0
LINE
  5
CD
330
1F
100
AcDbEntity
  8
외형선
  6
Continuous
370
    15
100
AcDbLine
 10
11.00001348460093
 20
-7.406849695126115
 30
0.0
 11
11.38095062556168
 21
-7.318867828372594
 31
0.0
  0
SPLINE
  5
CE
330
1F
100
AcDbEntity
  8
외형선
  6
Continuous
370
    15
100
AcDbSpline
210
0.0
220
0.0
230
1.0
 70
     8
 71
     3
 72
     8
 73
     4
 74
     0
 42
0.000000001
 43
0.00000001
 40
0.0
 40
0.0
 40
0.0
 40
0.0
 40
1.0
 40
1.0
 40
1.0
 40
1.0
 10
12.00000000000002
 20
7.62760010959231
 30
0.0
 10
11.66573935357543
 20
7.679134349552929
 30
0.0
 10
11.33211929340483
 20
7.723863564999546
 30
0.0
 10
11.00001348460093
 20
7.761674278167582
 30
0.0
  0
LINE
  5
CF
330
1F
100
AcDbEntity
  8
외형선
  6
Continuous
370
    15
100
AcDbLine
 10
-37.21249999999999
 20
-0.0209283164799803
 30
0.0
 11
-37.21249999999999
 21
7.916571683520019
 31
0.0
  0
LINE
  5
D0
330
1F
100
AcDbEntity
  8
외형선
  6
Continuous
370
    15
100
AcDbLine
 10
-37.21249999999999
 20
-7.958428316479981
 30
0.0
 11
-37.21249999999999
 21
-0.0209283164799803
 31
0.0
  0
LINE
  5
D1
330
1F
100
AcDbEntity
  8
외형선
  6
Continuous
370
    15
100
AcDbLine
 10
11.00001348460093
 20
-5.068256467537079
 30
0.0
 11
11.00001348460093
 21
0.8999487272164578
 31
0.0
  0
LINE
  5
D2
330
1F
100
AcDbEntity
  8
외형선
  6
Continuous
370
    15
100
AcDbLine
 10
-38.79999999999998
 20
-0.0209283164799803
 30
0.0
 11
-38.79999999999998
 21
6.329071683520023
 31
0.0
  0
LINE
  5
D3
330
1F
100
AcDbEntity
  8
외형선
  6
Continuous
370
    15
100
AcDbLine
 10
-38.79999999999998
 20
-6.370928316479988
 30
0.0
 11
-38.79999999999998
 21
-0.0209283164799803
 31
0.0
  0
SPLINE
  5
D4
330
1F
100
AcDbEntity
  8
외형선
  6
Continuous
370
    15
100
AcDbSpline
210
0.0
220
0.0
230
1.0
 70
    24
 71
     3
 72
    15
 73
    11
 74
     0
 42
0.000000001
 43
0.00000001
 40
0.0
 40
0.0
 40
0.0
 40
0.0
 40
0.1235229015112041
 40
0.262736490283488
 40
0.4019500790557717
 40
0.5411636678280558
 40
0.6803772566003407
 40
0.8195908453726215
 40
0.9588044341449081
 40
0.9999999999999999
 40
0.9999999999999999
 40
0.9999999999999999
 40
0.9999999999999999
 10
12.00000000000002
 20
-5.500360997609293
 30
0.0
 10
12.00000000000003
 20
-5.30866443448194
 30
0.0
 10
12.00000000000007
 20
-4.90092075635178
 30
0.0
 10
12.00000000000004
 20
-3.989471882751147
 30
0.0
 10
12.00000000000007
 20
-2.929816133516076
 30
0.0
 10
11.99999999999995
 20
-1.853123215585471
 30
0.0
 10
12.0000000000001
 20
-0.878955246096202
 30
0.0
 10
11.99999999999994
 20
-0.1483277716576461
 30
0.0
 10
12.0000000000001
 20
0.2554698876453502
 30
0.0
 10
12.00000000000004
 20
0.2810348689604149
 30
0.0
 10
12.00000000000003
 20
0.2868725099245011
 30
0.0
  0
SPLINE
  5
D5
330
1F
100
AcDbEntity
  8
외형선
  6
Continuous
370
    15
100
AcDbSpline
210
0.0
220
0.0
230
1.0
 70
    24
 71
     3
 72
    12
 73
     8
 74
     0
 42
0.000000001
 43
0.00000001
 40
0.0
 40
0.0
 40
0.0
 40
0.0
 40
0.1676925955538708
 40
0.4251340138477093
 40
0.6825754321415584
 40
0.9400168504353991
 40
1.0
 40
1.0
 40
1.0
 40
1.0
 10
12.00000000000001
 20
3.853244126651256
 30
0.0
 10
12.00000000000003
 20
4.008194020962206
 30
0.0
 10
12.00000000000007
 20
4.401022757950356
 30
0.0
 10
11.99999999999994
 20
5.29363708308497
 30
0.0
 10
12.00000000000012
 20
6.363255158877652
 30
0.0
 10
11.99999999999994
 20
7.157986122146591
 30
0.0
 10
12.00000000000003
 20
7.552962192172594
 30
0.0
 10
12.00000000000004
 20
7.62760010959231
 30
0.0
  0
LINE
  5
D6
330
1F
100
AcDbEntity
  8
중심선
 62
     1
100
AcDbLine
 10
-41.79999999999998
 20
0.0000000000000003
 30
0.0
 11
116.6
 21
0.0000000000000003
 31
0.0
  0
LINE
  5
D7
330
1F
100
AcDbEntity
  8
참조1
100
AcDbLine
 10
-26.10051336755627
 20
-2.498925071276081
 30
0.0
 11
-26.10051336755626
 21
-39.9989250712761
 31
0.0
  0
LINE
  5
D8
330
1F
100
AcDbEntity
  8
참조1
100
AcDbLine
 10
-26.10051336755626
 20
-39.9989250712761
 30
0.0
 11
-41.25885681430871
 21
-39.9989250712761
 31
0.0
  0
CIRCLE
  5
D9
330
1F
100
AcDbEntity
  8
해칭선
100
AcDbCircle
 10
0.0
 20
0.0
 30
0.0
 40
3.000000000000004
  0
INSERT
  5
DA
330
1F
100
AcDbEntity
  8
0
  6
Continuous
 62
     7
100
AcDbBlockReference
 66
     1
  2
블럭10
 10
17.17223696765077
 20
-52.04717430164393
 30
0.0
  0
ATTRIB
  5
DB
330
DA
100
AcDbEntity
  8
FORMAT
 62
     2
100
AcDbText
 10
7.990941678909493
 20
-49.97180738881174
 30
0.0
 40
4.233333333333333
  1
E5073040 [ 5 FLUTE ]
 41
0.75
  7
SLDTEXTSTYLE0
 11
7.990941678909493
 21
-52.08847405547841
 31
0.0
100
AcDbAttribute
  2
AUTOATTR0
 70
     0
 74
     1
  0
SEQEND
  5
DC
330
DA
100
AcDbEntity
  8
0
  6
Continuous
 62
     7
  0
HATCH
  5
DD
330
1F
100
AcDbEntity
  8
중심선
100
AcDbHatch
 10
0.0
 20
0.0
 30
0.0
210
0.0
220
0.0
230
1.0
  2
SOLID
 70
     1
 71
     0
 91
        1
 92
        0
 93
        4
 72
     1
 10
22.88714627203162
 20
-35.79999999999999
 11
19.44087102819434
 21
-35.79999999999999
 72
     1
 10
19.44087102819434
 20
-35.79999999999999
 11
17.31264116899032
 21
-38.33632558057259
 72
     1
 10
17.31264116899032
 20
-38.33632558057259
 11
20.75894949794075
 21
-38.3362861512701
 72
     1
 10
20.75894949794075
 20
-38.3362861512701
 11
22.88714627203162
 21
-35.79999999999999
 97
        0
 75
     0
 76
     1
 98
        1
 10
57.21302326733225
 20
-0.0010749287238889
  0
HATCH
  5
DE
330
1F
100
AcDbEntity
  8
중심선
100
AcDbHatch
 10
0.0
 20
0.0
 30
0.0
210
0.0
220
0.0
230
1.0
  2
SOLID
 70
     1
 71
     0
 91
        1
 92
        0
 93
        4
 72
     1
 10
27.89991026306757
 20
-35.79999999999999
 11
24.45363501923029
 21
-35.79999999999999
 72
     1
 10
24.45363501923029
 20
-35.79999999999999
 11
19.9224970108729
 21
-41.20000000000001
 72
     1
 10
19.9224970108729
 20
-41.20000000000001
 11
23.36877225471019
 21
-41.20000000000001
 72
     1
 10
23.36877225471019
 20
-41.20000000000001
 11
27.89991026306757
 21
-35.79999999999999
 97
        0
 75
     0
 76
     1
 98
        1
 10
57.21302326733225
 20
-0.0010749287238889
  0
HATCH
  5
DF
330
1F
100
AcDbEntity
  8
중심선
100
AcDbHatch
 10
0.0
 20
0.0
 30
0.0
210
0.0
220
0.0
230
1.0
  2
SOLID
 70
     1
 71
     0
 91
        1
 92
        0
 93
        4
 72
     1
 10
32.91267425410346
 20
-35.80000000000002
 11
29.46639901026635
 21
-35.79999999999999
 72
     1
 10
29.46639901026635
 20
-35.79999999999999
 11
22.4179621083771
 21
-44.20000000000001
 72
     1
 10
22.4179621083771
 20
-44.20000000000001
 11
25.86423735221438
 21
-44.20000000000001
 72
     1
 10
25.86423735221438
 20
-44.20000000000001
 11
32.91267425410346
 21
-35.80000000000002
 97
        0
 75
     0
 76
     1
 98
        1
 10
57.21302326733225
 20
-0.0010749287238889
  0
HATCH
  5
E0
330
1F
100
AcDbEntity
  8
중심선
100
AcDbHatch
 10
0.0
 20
0.0
 30
0.0
210
0.0
220
0.0
230
1.0
  2
SOLID
 70
     1
 71
     0
 91
        1
 92
        0
 93
        6
 72
     3
 10
37.71256468511567
 20
-40.00000000005127
 11
3.960054785062283
 21
1.540882976769353E-10
 40
0.3939339440162628
 50
17.09539180608439
 51
320.0019657685082
 73
     0
 72
     1
 10
39.39556434081626
 20
-38.58789400463829
 11
41.7008662145173
 21
-36.65356729459037
 72
     3
 10
37.71256468506282
 20
-40.00000000000014
 11
6.600054785286829
 21
-1.278976924368180E-13
 40
0.636358354079598
 50
39.99873849337413
 51
368.4976242363725
 73
     1
 72
     1
 10
44.13789717696343
 20
-39.03999999993002
 11
36.39263199189875
 21
-39.03999999992999
 72
     1
 10
36.39263199189874
 20
-39.03999999992999
 11
36.3926069474528
 21
-40.95999999992991
 72
     1
 10
36.3926069474528
 20
-40.95999999992991
 11
40.83398671692484
 21
-40.95999999992988
 97
        0
 75
     0
 76
     1
 98
        1
 10
57.21302326733225
 20
-0.0010749287238889
  0
DIMENSION
  5
E1
330
1F
100
AcDbEntity
  8
치수문자_일반주서
100
AcDbDimension
  2
_D
 10
-53.14094751478082
 20
-7.958428316480052
 30
0.0
 11
-53.14094751478095
 21
28.73932168351998
 31
0.0
 70
   160
  1
%%c<>
 71
     2
 42
15.87500000000003
 52
-270.0
  3
SLDDIMSTYLE0
100
AcDbAlignedDimension
 13
-37.21249999999999
 23
7.916571683520034
 33
0.0
 14
-37.21249999999999
 24
-7.958428316479995
 34
0.0
 50
90.0000000000002
100
AcDbRotatedDimension
1001
ACAD
1000
DSTYLE
1002
{
1070
   171
1070
     6
1070
   273
1070
     5
1002
}
  0
DIMENSION
  5
F6
330
1F
100
AcDbEntity
  8
치수문자_일반주서
100
AcDbDimension
  2
_D_1
 10
133.7607401878926
 20
-7.958428316479836
 30
0.0
 11
133.7607401878925
 21
28.7393216835201
 31
0.0
 70
   160
  1
%%c<>
 71
     2
 42
15.87499999999994
 52
-270.0
  3
SLDDIMSTYLE0
100
AcDbAlignedDimension
 13
113.6
 23
7.916571683520025
 33
0.0
 14
113.6
 24
-7.958428316479915
 34
0.0
 50
90.0000000000002
100
AcDbRotatedDimension
1001
ACAD
1000
DSTYLE
1002
{
1070
   171
1070
     6
1070
   273
1070
     5
1002
}
  0
DIMENSION
  5
10A
330
1F
100
AcDbEntity
  8
치수문자_일반주서
100
AcDbDimension
  2
_D_2
 10
12.00000000000004
 20
18.55909700628214
 30
0.0
 11
62.80000000000004
 21
18.55909700628214
 31
0.0
 70
   160
  1
<>
 71
     2
 42
101.6
  3
SLDDIMSTYLE0
100
AcDbAlignedDimension
 13
113.6
 23
7.858648181323203
 33
0.0
 14
12.00000000000004
 24
7.62760010959231
 34
0.0
 50
0.000000000000004
100
AcDbRotatedDimension
1001
ACAD
1000
DSTYLE
1002
{
1070
   171
1070
     6
1070
   273
1070
     5
1002
}
  0
DIMENSION
  5
11E
330
1F
100
AcDbEntity
  8
치수문자_일반주서
100
AcDbDimension
  2
_D_3
 10
-38.79999999999998
 20
30.55909700628214
 30
0.0
 11
36.03391437423952
 21
30.55909700628214
 31
0.0
 70
   160
  1
<>
 71
     2
 42
152.4
  3
SLDDIMSTYLE0
100
AcDbAlignedDimension
 13
113.6
 23
7.858648181323203
 33
0.0
 14
-38.79999999999998
 24
6.329071683520023
 34
0.0
 50
0.0000000000000027
100
AcDbRotatedDimension
1001
ACAD
1000
DSTYLE
1002
{
1070
   171
1070
     6
1070
   273
1070
     5
1002
}
  0
LINE
  5
131
330
1F
100
AcDbEntity
  8
참조1
100
AcDbLine
 10
56.71348381534555
 20
7.441074928723896
 30
0.0
 11
56.71348381534555
 21
-7.438925071276109
 31
0.0
  0
LINE
  5
132
330
1F
100
AcDbEntity
  8
참조1
100
AcDbLine
 10
69.41348381534556
 20
5.441074928723896
 30
0.0
 11
56.71348381534555
 21
5.441074928723896
 31
0.0
  0
SOLID
  5
133
330
1F
100
AcDbEntity
  8
참조1
100
AcDbTrace
 10
56.71348381534555
 20
5.441074928723896
 30
0.0
 11
63.06348381534555
 21
4.425074928723896
 31
0.0
 12
63.06348381534555
 22
6.457074928723896
 32
0.0
 13
63.06348381534555
 23
6.457074928723896
 33
0.0
  0
LINE
  5
134
330
1F
100
AcDbEntity
  8
참조1
100
AcDbLine
 10
69.41348381534556
 20
-5.438925071276109
 30
0.0
 11
56.71348381534555
 21
-5.438925071276109
 31
0.0
  0
SOLID
  5
135
330
1F
100
AcDbEntity
  8
참조1
100
AcDbTrace
 10
56.71348381534555
 20
-5.438925071276109
 30
0.0
 11
63.06348381534555
 21
-6.454925071276109
 31
0.0
 12
63.06348381534555
 22
-4.422925071276109
 32
0.0
 13
63.06348381534555
 23
-4.422925071276109
 33
0.0
  0
MTEXT
  5
136
330
1F
100
AcDbEntity
  8
참조1
100
AcDbMText
 10
66.31359862590811
 20
11.06679249473997
 30
0.0
 40
3.5
 41
0.0
 71
     1
 72
     1
  1
A
  7
SLDTEXTSTYLE0
 73
     1
 44
1.0
  0
MTEXT
  5
137
330
1F
100
AcDbEntity
  8
참조1
100
AcDbMText
 10
66.31359862590811
 20
0.1867924947399659
 30
0.0
 40
3.5
 41
0.0
 71
     1
 72
     1
  1
A
  7
SLDTEXTSTYLE0
 73
     1
 44
1.0
  0
INSERT
  5
13E
330
1F
100
AcDbEntity
  8
해칭선
100
AcDbBlockReference
  2
SW_DOWELSYMBOL_0
 10
0.0
 20
0.0
 30
0.0
  0
ENDSEC
  0
SECTION
  2
OBJECTS
  0
DICTIONARY
  5
C
330
0
100
AcDbDictionary
281
     1
  3
ACAD_GROUP
350
D
  3
ACAD_IMAGE_VARS
350
162
  3
ACAD_LAYOUT
350
1A
  3
ACAD_MLINESTYLE
350
17
  3
ACAD_PLOTSETTINGS
350
19
  3
ACAD_PLOTSTYLENAME
350
E
  3
ACAD_SCALELIST
350
47
  3
APPDATA
350
160
  3
DWGPROPS
350
2D8
  0
DICTIONARY
  5
21C
330
2
100
AcDbDictionary
280
     1
281
     1
  3
ACAD_LAYERSTATES
360
21D
  0
DICTIONARY
  5
D
102
{ACAD_REACTORS
330
C
102
}
330
C
100
AcDbDictionary
281
     1
  0
RASTERVARIABLES
  5
162
102
{ACAD_REACTORS
330
C
102
}
330
C
100
AcDbRasterVariables
 90
        0
 70
     1
 71
     1
 72
     1
  0
DICTIONARY
  5
1A
102
{ACAD_REACTORS
330
C
102
}
330
C
100
AcDbDictionary
281
     1
  3
Layout1
350
1E
  3
Layout2
350
26
  3
Model
350
22
  0
DICTIONARY
  5
17
102
{ACAD_REACTORS
330
C
102
}
330
C
100
AcDbDictionary
281
     1
  3
Standard
350
18
  0
DICTIONARY
  5
19
102
{ACAD_REACTORS
330
C
102
}
330
C
100
AcDbDictionary
281
     1
  0
ACDBDICTIONARYWDFLT
  5
E
102
{ACAD_REACTORS
330
C
102
}
330
C
100
AcDbDictionary
281
     1
  3
Normal
350
F
100
AcDbDictionaryWithDefault
340
F
  0
DICTIONARY
  5
47
102
{ACAD_REACTORS
330
C
102
}
330
C
100
AcDbDictionary
281
     1
  3
A0
350
48
  3
A1
350
49
  3
A2
350
4A
  3
A3
350
4B
  3
A4
350
4C
  3
A5
350
4D
  3
A6
350
4E
  3
A7
350
4F
  3
A8
350
50
  3
A9
350
51
  3
B0
350
52
  3
B1
350
53
  3
B2
350
54
  3
B3
350
55
  3
B4
350
56
  3
B5
350
57
  3
B6
350
58
  3
B7
350
59
  3
B8
350
5A
  3
B9
350
5B
  3
C0
350
5C
  3
C1
350
5D
  3
C2
350
5E
  3
C3
350
5F
  3
C4
350
60
  3
C5
350
61
  3
C6
350
62
  3
C7
350
63
  3
C8
350
64
  3
C9
350
65
  3
D0
350
66
  3
D1
350
67
  3
D2
350
68
  0
DICTIONARY
  5
160
102
{ACAD_REACTORS
330
C
102
}
330
C
100
AcDbDictionary
281
     1
  0
XRECORD
  5
2D8
102
{ACAD_REACTORS
330
C
102
}
330
C
100
AcDbXrecord
280
     1
  1
DWGPROPS COOKIE
  2

  3

  4

  6

  7

  8
12014074
  9

300
=
301
=
302
=
303
=
304
=
305
=
306
=
307
=
308
=
309
=
 40
0.0
 41
2458323.966051308
 42
2458324.19929765
  1

 90
        0
  0
DICTIONARY
  5
21D
102
{ACAD_REACTORS
330
21C
102
}
330
21C
100
AcDbDictionary
281
     1
  0
LAYOUT
  5
1E
102
{ACAD_REACTORS
330
1A
102
}
330
1A
100
AcDbPlotSettings
  1

  2
none_device
  4

  6

 40
0.0
 41
0.0
 42
0.0
 43
0.0
 44
0.0
 45
0.0
 46
0.0
 47
0.0
 48
0.0
 49
0.0
140
0.0
141
0.0
142
1.0
143
1.0
 70
   688
 72
     1
 73
     0
 74
     5
  7

 75
    16
147
1.0
148
0.0
149
0.0
100
AcDbLayout
  1
Layout1
 70
     1
 71
     1
 10
0.0
 20
0.0
 11
420.0
 21
297.0
 12
0.0
 22
0.0
 32
0.0
 14
1.000000000000000E+20
 24
1.000000000000000E+20
 34
1.000000000000000E+20
 15
-1.000000000000000E+20
 25
-1.000000000000000E+20
 35
-1.000000000000000E+20
146
0.0
 13
0.0
 23
0.0
 33
0.0
 16
1.0
 26
0.0
 36
0.0
 17
0.0
 27
1.0
 37
0.0
 76
     0
330
1B
  0
LAYOUT
  5
26
102
{ACAD_REACTORS
330
1A
102
}
330
1A
100
AcDbPlotSettings
  1

  2
none_device
  4

  6

 40
0.0
 41
0.0
 42
0.0
 43
0.0
 44
0.0
 45
0.0
 46
0.0
 47
0.0
 48
0.0
 49
0.0
140
0.0
141
0.0
142
1.0
143
1.0
 70
   688
 72
     1
 73
     0
 74
     5
  7

 75
    16
147
1.0
148
0.0
149
0.0
100
AcDbLayout
  1
Layout2
 70
     1
 71
     2
 10
0.0
 20
0.0
 11
0.0
 21
0.0
 12
0.0
 22
0.0
 32
0.0
 14
0.0
 24
0.0
 34
0.0
 15
0.0
 25
0.0
 35
0.0
146
0.0
 13
0.0
 23
0.0
 33
0.0
 16
1.0
 26
0.0
 36
0.0
 17
0.0
 27
1.0
 37
0.0
 76
     0
330
23
  0
LAYOUT
  5
22
102
{ACAD_REACTORS
330
1A
102
}
330
1A
100
AcDbPlotSettings
  1

  2
none_device
  4
ANSI_A_(11.00_x_8.50_Inches)
  6

 40
6.35
 41
19.05
 42
6.35000508
 43
19.05000254
 44
279.4
 45
215.9
 46
126.3816612586185
 47
95.05374810725091
 48
0.0
 49
0.0
140
0.0
141
0.0
142
0.051758768732455
143
1.0
 70
  1696
 72
     0
 73
     0
 74
     0
  7

 75
     0
147
0.0235690232323232
148
0.0
149
0.0
100
AcDbLayout
  1
Model
 70
     1
 71
     0
 10
0.0
 20
0.0
 11
420.0
 21
297.0
 12
0.0
 22
0.0
 32
0.0
 14
1.000000000000000E+20
 24
1.000000000000000E+20
 34
1.000000000000000E+20
 15
-1.000000000000000E+20
 25
-1.000000000000000E+20
 35
-1.000000000000000E+20
146
0.0
 13
0.0
 23
0.0
 33
0.0
 16
1.0
 26
0.0
 36
0.0
 17
0.0
 27
1.0
 37
0.0
 76
     0
330
1F
331
29
  0
MLINESTYLE
  5
18
102
{ACAD_REACTORS
330
17
102
}
330
17
100
AcDbMlineStyle
  2
Standard
 70
     0
  3

 62
   256
 51
90.0
 52
90.0
 71
     2
 49
0.5
 62
   256
  6
BYLAYER
 49
-0.5
 62
   256
  6
BYLAYER
  0
ACDBPLACEHOLDER
  5
F
102
{ACAD_REACTORS
330
E
102
}
330
E
  0
SCALE
  5
48
102
{ACAD_REACTORS
330
47
102
}
330
47
100
AcDbScale
 70
     0
300
1:1
140
1.0
141
1.0
290
     1
  0
SCALE
  5
49
102
{ACAD_REACTORS
330
47
102
}
330
47
100
AcDbScale
 70
     0
300
1:2
140
1.0
141
2.0
290
     0
  0
SCALE
  5
4A
102
{ACAD_REACTORS
330
47
102
}
330
47
100
AcDbScale
 70
     0
300
1:4
140
1.0
141
4.0
290
     0
  0
SCALE
  5
4B
102
{ACAD_REACTORS
330
47
102
}
330
47
100
AcDbScale
 70
     0
300
1:5
140
1.0
141
5.0
290
     0
  0
SCALE
  5
4C
102
{ACAD_REACTORS
330
47
102
}
330
47
100
AcDbScale
 70
     0
300
1:8
140
1.0
141
8.0
290
     0
  0
SCALE
  5
4D
102
{ACAD_REACTORS
330
47
102
}
330
47
100
AcDbScale
 70
     0
300
1:10
140
1.0
141
10.0
290
     0
  0
SCALE
  5
4E
102
{ACAD_REACTORS
330
47
102
}
330
47
100
AcDbScale
 70
     0
300
1:16
140
1.0
141
16.0
290
     0
  0
SCALE
  5
4F
102
{ACAD_REACTORS
330
47
102
}
330
47
100
AcDbScale
 70
     0
300
1:20
140
1.0
141
20.0
290
     0
  0
SCALE
  5
50
102
{ACAD_REACTORS
330
47
102
}
330
47
100
AcDbScale
 70
     0
300
1:30
140
1.0
141
30.0
290
     0
  0
SCALE
  5
51
102
{ACAD_REACTORS
330
47
102
}
330
47
100
AcDbScale
 70
     0
300
1:40
140
1.0
141
40.0
290
     0
  0
SCALE
  5
52
102
{ACAD_REACTORS
330
47
102
}
330
47
100
AcDbScale
 70
     0
300
1:50
140
1.0
141
50.0
290
     0
  0
SCALE
  5
53
102
{ACAD_REACTORS
330
47
102
}
330
47
100
AcDbScale
 70
     0
300
1:100
140
1.0
141
100.0
290
     0
  0
SCALE
  5
54
102
{ACAD_REACTORS
330
47
102
}
330
47
100
AcDbScale
 70
     0
300
2:1
140
2.0
141
1.0
290
     0
  0
SCALE
  5
55
102
{ACAD_REACTORS
330
47
102
}
330
47
100
AcDbScale
 70
     0
300
4:1
140
4.0
141
1.0
290
     0
  0
SCALE
  5
56
102
{ACAD_REACTORS
330
47
102
}
330
47
100
AcDbScale
 70
     0
300
8:1
140
8.0
141
1.0
290
     0
  0
SCALE
  5
57
102
{ACAD_REACTORS
330
47
102
}
330
47
100
AcDbScale
 70
     0
300
10:1
140
10.0
141
1.0
290
     0
  0
SCALE
  5
58
102
{ACAD_REACTORS
330
47
102
}
330
47
100
AcDbScale
 70
     0
300
100:1
140
100.0
141
1.0
290
     0
  0
SCALE
  5
59
102
{ACAD_REACTORS
330
47
102
}
330
47
100
AcDbScale
 70
     0
300
1/128" = 1'-0"
140
0.0078125
141
12.0
290
     0
  0
SCALE
  5
5A
102
{ACAD_REACTORS
330
47
102
}
330
47
100
AcDbScale
 70
     0
300
1/64" = 1'-0"
140
0.015625
141
12.0
290
     0
  0
SCALE
  5
5B
102
{ACAD_REACTORS
330
47
102
}
330
47
100
AcDbScale
 70
     0
300
1/32" = 1'-0"
140
0.03125
141
12.0
290
     0
  0
SCALE
  5
5C
102
{ACAD_REACTORS
330
47
102
}
330
47
100
AcDbScale
 70
     0
300
1/16" = 1'-0"
140
0.0625
141
12.0
290
     0
  0
SCALE
  5
5D
102
{ACAD_REACTORS
330
47
102
}
330
47
100
AcDbScale
 70
     0
300
3/32" = 1'-0"
140
0.09375
141
12.0
290
     0
  0
SCALE
  5
5E
102
{ACAD_REACTORS
330
47
102
}
330
47
100
AcDbScale
 70
     0
300
1/8" = 1'-0"
140
0.125
141
12.0
290
     0
  0
SCALE
  5
5F
102
{ACAD_REACTORS
330
47
102
}
330
47
100
AcDbScale
 70
     0
300
3/16" = 1'-0"
140
0.1875
141
12.0
290
     0
  0
SCALE
  5
60
102
{ACAD_REACTORS
330
47
102
}
330
47
100
AcDbScale
 70
     0
300
1/4" = 1'-0"
140
0.25
141
12.0
290
     0
  0
SCALE
  5
61
102
{ACAD_REACTORS
330
47
102
}
330
47
100
AcDbScale
 70
     0
300
3/8" = 1'-0"
140
0.375
141
12.0
290
     0
  0
SCALE
  5
62
102
{ACAD_REACTORS
330
47
102
}
330
47
100
AcDbScale
 70
     0
300
1/2" = 1'-0"
140
0.5
141
12.0
290
     0
  0
SCALE
  5
63
102
{ACAD_REACTORS
330
47
102
}
330
47
100
AcDbScale
 70
     0
300
3/4" = 1'-0"
140
0.75
141
12.0
290
     0
  0
SCALE
  5
64
102
{ACAD_REACTORS
330
47
102
}
330
47
100
AcDbScale
 70
     0
300
1" = 1'-0"
140
1.0
141
12.0
290
     0
  0
SCALE
  5
65
102
{ACAD_REACTORS
330
47
102
}
330
47
100
AcDbScale
 70
     0
300
1-1/2" = 1'-0"
140
1.5
141
12.0
290
     0
  0
SCALE
  5
66
102
{ACAD_REACTORS
330
47
102
}
330
47
100
AcDbScale
 70
     0
300
3" = 1'-0"
140
3.0
141
12.0
290
     0
  0
SCALE
  5
67
102
{ACAD_REACTORS
330
47
102
}
330
47
100
AcDbScale
 70
     0
300
6" = 1'-0"
140
6.0
141
12.0
290
     0
  0
SCALE
  5
68
102
{ACAD_REACTORS
330
47
102
}
330
47
100
AcDbScale
 70
     0
300
1'-0" = 1'-0"
140
12.0
141
12.0
290
     0
  0
ENDSEC
  0
EOF
