  0
SECTION
  2
HEADER
  9
$ACADVER
  1
AC1015
  9
$ACADMAINTVER
 70
     6
  9
$DWGCODEPAGE
  3
ANSI_949
  9
$INSBASE
 10
0.0
 20
0.0
 30
0.0
  9
$EXTMIN
 10
1.000000000000000E+20
 20
1.000000000000000E+20
 30
1.000000000000000E+20
  9
$EXTMAX
 10
-1.000000000000000E+20
 20
-1.000000000000000E+20
 30
-1.000000000000000E+20
  9
$LIMMIN
 10
0.0
 20
0.0
  9
$LIMMAX
 10
420.0
 20
297.0
  9
$ORTHOMODE
 70
     1
  9
$REGENMODE
 70
     1
  9
$FILLMODE
 70
     1
  9
$QTEXTMODE
 70
     0
  9
$MIRRTEXT
 70
     1
  9
$LTSCALE
 40
1.0
  9
$ATTMODE
 70
     1
  9
$TEXTSIZE
 40
3.5
  9
$TRACEWID
 40
1.0
  9
$TEXTSTYLE
  7
Standard
  9
$CLAYER
  8
0
  9
$CELTYPE
  6
ByLayer
  9
$CECOLOR
 62
   256
  9
$CELTSCALE
 40
1.0
  9
$DISPSILH
 70
     0
  9
$DIMSCALE
 40
1.0
  9
$DIMASZ
 40
3.302
  9
$DIMEXO
 40
1.0
  9
$DIMDLI
 40
3.75
  9
$DIMRND
 40
0.0
  9
$DIMDLE
 40
0.0
  9
$DIMEXE
 40
1.0
  9
$DIMTP
 40
0.0
  9
$DIMTM
 40
0.0
  9
$DIMTXT
 40
3.5
  9
$DIMCEN
 40
2.5
  9
$DIMTSZ
 40
0.0
  9
$DIMTOL
 70
     0
  9
$DIMLIM
 70
     0
  9
$DIMTIH
 70
     1
  9
$DIMTOH
 70
     1
  9
$DIMSE1
 70
     0
  9
$DIMSE2
 70
     0
  9
$DIMTAD
 70
     1
  9
$DIMZIN
 70
     0
  9
$DIMBLK
  1

  9
$DIMASO
 70
     1
  9
$DIMSHO
 70
     1
  9
$DIMPOST
  1

  9
$DIMAPOST
  1

  9
$DIMALT
 70
     0
  9
$DIMALTD
 70
     3
  9
$DIMALTF
 40
0.0393700787401575
  9
$DIMLFAC
 40
1.0
  9
$DIMTOFL
 70
     1
  9
$DIMTVP
 40
0.0
  9
$DIMTIX
 70
     0
  9
$DIMSOXD
 70
     0
  9
$DIMSAH
 70
     0
  9
$DIMBLK1
  1

  9
$DIMBLK2
  1

  9
$DIMSTYLE
  2
ISO-25
  9
$DIMCLRD
 70
     0
  9
$DIMCLRE
 70
     0
  9
$DIMCLRT
 70
     0
  9
$DIMTFAC
 40
1.0
  9
$DIMGAP
 40
1.524
  9
$DIMJUST
 70
     0
  9
$DIMSD1
 70
     0
  9
$DIMSD2
 70
     0
  9
$DIMTOLJ
 70
     0
  9
$DIMTZIN
 70
     0
  9
$DIMALTZ
 70
     0
  9
$DIMALTTZ
 70
     0
  9
$DIMUPT
 70
     0
  9
$DIMDEC
 70
     2
  9
$DIMTDEC
 70
     2
  9
$DIMALTU
 70
     2
  9
$DIMALTTD
 70
     3
  9
$DIMTXSTY
  7
Standard
  9
$DIMAUNIT
 70
     0
  9
$DIMADEC
 70
     2
  9
$DIMALTRND
 40
0.0
  9
$DIMAZIN
 70
     0
  9
$DIMDSEP
 70
    44
  9
$DIMATFIT
 70
     3
  9
$DIMFRAC
 70
     0
  9
$DIMLDRBLK
  1

  9
$DIMLUNIT
 70
     2
  9
$DIMLWD
 70
    -2
  9
$DIMLWE
 70
    -2
  9
$DIMTMOVE
 70
     0
  9
$LUNITS
 70
     2
  9
$LUPREC
 70
     2
  9
$SKETCHINC
 40
1.0
  9
$FILLETRAD
 40
10.0
  9
$AUNITS
 70
     0
  9
$AUPREC
 70
     2
  9
$MENU
  1
.
  9
$ELEVATION
 40
0.0
  9
$PELEVATION
 40
0.0
  9
$THICKNESS
 40
0.0
  9
$LIMCHECK
 70
     0
  9
$CHAMFERA
 40
0.0
  9
$CHAMFERB
 40
0.0
  9
$CHAMFERC
 40
0.0
  9
$CHAMFERD
 40
0.0
  9
$SKPOLY
 70
     0
  9
$TDCREATE
 40
2458316.448988195
  9
$TDUCREATE
 40
2458316.073988195
  9
$TDUPDATE
 40
2458323.751005683
  9
$TDUUPDATE
 40
2458323.376005683
  9
$TDINDWG
 40
0.0011839236
  9
$TDUSRTIMER
 40
2458323.374821967
  9
$USRTIMER
 70
     1
  9
$ANGBASE
 50
0.0
  9
$ANGDIR
 70
     0
  9
$PDMODE
 70
     0
  9
$PDSIZE
 40
-1.0
  9
$PLINEWID
 40
0.0
  9
$SPLFRAME
 70
     0
  9
$SPLINETYPE
 70
     6
  9
$SPLINESEGS
 70
     8
  9
$HANDSEED
  5
2D1
  9
$SURFTAB1
 70
     6
  9
$SURFTAB2
 70
     6
  9
$SURFTYPE
 70
     6
  9
$SURFU
 70
     6
  9
$SURFV
 70
     6
  9
$UCSBASE
  2

  9
$UCSNAME
  2

  9
$UCSORG
 10
0.0
 20
0.0
 30
0.0
  9
$UCSXDIR
 10
1.0
 20
0.0
 30
0.0
  9
$UCSYDIR
 10
0.0
 20
1.0
 30
0.0
  9
$UCSORTHOREF
  2

  9
$UCSORTHOVIEW
 70
     0
  9
$UCSORGTOP
 10
0.0
 20
0.0
 30
0.0
  9
$UCSORGBOTTOM
 10
0.0
 20
0.0
 30
0.0
  9
$UCSORGLEFT
 10
0.0
 20
0.0
 30
0.0
  9
$UCSORGRIGHT
 10
0.0
 20
0.0
 30
0.0
  9
$UCSORGFRONT
 10
0.0
 20
0.0
 30
0.0
  9
$UCSORGBACK
 10
0.0
 20
0.0
 30
0.0
  9
$PUCSBASE
  2

  9
$PUCSNAME
  2

  9
$PUCSORG
 10
0.0
 20
0.0
 30
0.0
  9
$PUCSXDIR
 10
1.0
 20
0.0
 30
0.0
  9
$PUCSYDIR
 10
0.0
 20
1.0
 30
0.0
  9
$PUCSORTHOREF
  2

  9
$PUCSORTHOVIEW
 70
     0
  9
$PUCSORGTOP
 10
0.0
 20
0.0
 30
0.0
  9
$PUCSORGBOTTOM
 10
0.0
 20
0.0
 30
0.0
  9
$PUCSORGLEFT
 10
0.0
 20
0.0
 30
0.0
  9
$PUCSORGRIGHT
 10
0.0
 20
0.0
 30
0.0
  9
$PUCSORGFRONT
 10
0.0
 20
0.0
 30
0.0
  9
$PUCSORGBACK
 10
0.0
 20
0.0
 30
0.0
  9
$USERI1
 70
     0
  9
$USERI2
 70
     0
  9
$USERI3
 70
     0
  9
$USERI4
 70
     0
  9
$USERI5
 70
     0
  9
$USERR1
 40
0.0
  9
$USERR2
 40
0.0
  9
$USERR3
 40
0.0
  9
$USERR4
 40
0.0
  9
$USERR5
 40
0.0
  9
$WORLDVIEW
 70
     1
  9
$SHADEDGE
 70
     3
  9
$SHADEDIF
 70
    70
  9
$TILEMODE
 70
     1
  9
$MAXACTVP
 70
    64
  9
$PINSBASE
 10
0.0
 20
0.0
 30
0.0
  9
$PLIMCHECK
 70
     0
  9
$PEXTMIN
 10
1.000000000000000E+20
 20
1.000000000000000E+20
 30
1.000000000000000E+20
  9
$PEXTMAX
 10
-1.000000000000000E+20
 20
-1.000000000000000E+20
 30
-1.000000000000000E+20
  9
$PLIMMIN
 10
0.0
 20
0.0
  9
$PLIMMAX
 10
0.0
 20
0.0
  9
$UNITMODE
 70
     0
  9
$VISRETAIN
 70
     1
  9
$PLINEGEN
 70
     0
  9
$PSLTSCALE
 70
     1
  9
$TREEDEPTH
 70
  3020
  9
$CMLSTYLE
  2
Standard
  9
$CMLJUST
 70
     0
  9
$CMLSCALE
 40
20.0
  9
$PROXYGRAPHICS
 70
     1
  9
$MEASUREMENT
 70
     1
  9
$CELWEIGHT
370
    -1
  9
$ENDCAPS
280
     0
  9
$JOINSTYLE
280
     0
  9
$LWDISPLAY
290
     1
  9
$INSUNITS
 70
     4
  9
$HYPERLINKBASE
  1

  9
$STYLESHEET
  1

  9
$XEDIT
290
     1
  9
$CEPSNTYPE
380
     0
  9
$PSTYLEMODE
290
     1
  9
$FINGERPRINTGUID
  2
{8E1C7925-1B35-4F1F-9FB8-B159C4DFA071}
  9
$VERSIONGUID
  2
{FAEB1C32-E019-11D5-929B-00C0DF256EC4}
  9
$EXTNAMES
290
     1
  9
$PSVPSCALE
 40
0.0
  9
$OLESTARTUP
290
     0
  0
ENDSEC
  0
SECTION
  2
CLASSES
  0
CLASS
  1
ACDBDICTIONARYWDFLT
  2
AcDbDictionaryWithDefault
  3
ObjectDBX Classes
 90
        0
280
     0
281
     0
  0
CLASS
  1
VISUALSTYLE
  2
AcDbVisualStyle
  3
ObjectDBX Classes
 90
     4095
280
     0
281
     0
  0
CLASS
  1
MATERIAL
  2
AcDbMaterial
  3
ObjectDBX Classes
 90
     1153
280
     0
281
     0
  0
CLASS
  1
SCALE
  2
AcDbScale
  3
ObjectDBX Classes
 90
     1153
280
     0
281
     0
  0
CLASS
  1
SUN
  2
AcDbSun
  3
SCENEOE
 90
     1153
280
     0
281
     0
  0
CLASS
  1
ACDBPLACEHOLDER
  2
AcDbPlaceHolder
  3
ObjectDBX Classes
 90
        0
280
     0
281
     0
  0
CLASS
  1
LAYOUT
  2
AcDbLayout
  3
ObjectDBX Classes
 90
        0
280
     0
281
     0
  0
CLASS
  1
TABLESTYLE
  2
AcDbTableStyle
  3
ObjectDBX Classes
 90
     4095
280
     0
281
     0
  0
CLASS
  1
MLEADERSTYLE
  2
AcDbMLeaderStyle
  3
ACDB_MLEADERSTYLE_CLASS
 90
     4095
280
     0
281
     0
  0
CLASS
  1
RASTERVARIABLES
  2
AcDbRasterVariables
  3
ISM
 90
        0
280
     0
281
     0
  0
ENDSEC
  0
SECTION
  2
TABLES
  0
TABLE
  2
VPORT
  5
8
330
0
100
AcDbSymbolTable
 70
     1
  0
VPORT
  5
29
330
8
100
AcDbSymbolTableRecord
100
AcDbViewportTableRecord
  2
*Active
 70
     0
 10
0.0
 20
0.0
 11
1.0
 21
1.0
 12
33.63335083488163
 22
11.77737855588046
 13
0.0
 23
0.0
 14
10.0
 24
10.0
 15
10.0
 25
10.0
 16
0.0
 26
0.0
 36
1.0
 17
0.0
 27
0.0
 37
0.0
 40
158.2595267984349
 41
1.970186335403727
 42
50.0
 43
0.0
 44
0.0
 50
0.0
 51
0.0
 71
    16
 72
  2000
 73
     1
 74
     3
 75
     0
 76
     0
 77
     0
 78
     0
281
     0
 65
     1
110
0.0
120
0.0
130
0.0
111
1.0
121
0.0
131
0.0
112
0.0
122
1.0
132
0.0
 79
     0
146
0.0
  0
ENDTAB
  0
TABLE
  2
LTYPE
  5
5
330
0
100
AcDbSymbolTable
 70
     6
  0
LTYPE
  5
14
330
5
100
AcDbSymbolTableRecord
100
AcDbLinetypeTableRecord
  2
ByBlock
 70
     0
  3

 72
    65
 73
     0
 40
0.0
  0
LTYPE
  5
15
330
5
100
AcDbSymbolTableRecord
100
AcDbLinetypeTableRecord
  2
ByLayer
 70
     0
  3

 72
    65
 73
     0
 40
0.0
  0
LTYPE
  5
16
330
5
100
AcDbSymbolTableRecord
100
AcDbLinetypeTableRecord
  2
Continuous
 70
     0
  3
Solid line
 72
    65
 73
     0
 40
0.0
  0
LTYPE
  5
6A
330
5
100
AcDbSymbolTableRecord
100
AcDbLinetypeTableRecord
  2
HIDDEN
 70
     0
  3
Hidden __ __ __ __ __ __ __ __ __ __ __ __ __ __
 72
    65
 73
     2
 40
1.905
 49
1.27
 74
     0
 49
-0.635
 74
     0
  0
LTYPE
  5
6B
330
5
100
AcDbSymbolTableRecord
100
AcDbLinetypeTableRecord
  2
PHANTOM
 70
     0
  3
Phantom ______  __  __  ______  __  __  ______
 72
    65
 73
     6
 40
12.7
 49
6.35
 74
     0
 49
-1.27
 74
     0
 49
1.27
 74
     0
 49
-1.27
 74
     0
 49
1.27
 74
     0
 49
-1.27
 74
     0
  0
LTYPE
  5
6C
330
5
100
AcDbSymbolTableRecord
100
AcDbLinetypeTableRecord
  2
CENTER
 70
     0
  3
Center ____ _ ____ _ ____ _ ____ _ ____ _ ____
 72
    65
 73
     4
 40
10.16
 49
6.35
 74
     0
 49
-1.27
 74
     0
 49
1.27
 74
     0
 49
-1.27
 74
     0
  0
LTYPE
  5
6D
330
5
100
AcDbSymbolTableRecord
100
AcDbLinetypeTableRecord
  2
CENTERX2
 70
     0
  3
Center (2x) ________  __  ________  __  _____
 72
    65
 73
     4
 40
20.32
 49
12.7
 74
     0
 49
-2.54
 74
     0
 49
2.54
 74
     0
 49
-2.54
 74
     0
  0
LTYPE
  5
6E
330
5
100
AcDbSymbolTableRecord
100
AcDbLinetypeTableRecord
  2
DOT2
 70
     0
  3
Dot (.5x) ........................................
 72
    65
 73
     2
 40
0.635
 49
0.0
 74
     0
 49
-0.635
 74
     0
  0
ENDTAB
  0
TABLE
  2
LAYER
  5
2
102
{ACAD_XDICTIONARY
360
216
102
}
330
0
100
AcDbSymbolTable
 70
    18
  0
LAYER
  5
10
330
2
100
AcDbSymbolTableRecord
100
AcDbLayerTableRecord
  2
0
 70
     0
 62
     7
  6
Continuous
370
    -3
390
F
  0
LAYER
  5
6F
330
2
100
AcDbSymbolTableRecord
100
AcDbLayerTableRecord
  2
FORMAT
 70
     0
 62
     2
  6
Continuous
370
    -3
390
F
  0
LAYER
  5
70
330
2
100
AcDbSymbolTableRecord
100
AcDbLayerTableRecord
  2
외형선
 70
     0
 62
     4
  6
Continuous
370
    30
390
F
  0
LAYER
  5
71
330
2
100
AcDbSymbolTableRecord
100
AcDbLayerTableRecord
  2
숨은선
 70
     0
 62
     2
  6
HIDDEN
370
    15
390
F
  0
LAYER
  5
72
330
2
100
AcDbSymbolTableRecord
100
AcDbLayerTableRecord
  2
중심선
 70
     0
 62
     1
  6
CENTERX2
370
    -3
390
F
  0
LAYER
  5
73
330
2
100
AcDbSymbolTableRecord
100
AcDbLayerTableRecord
  2
파단선
 70
     0
 62
     4
  6
Continuous
370
    -3
390
F
  0
LAYER
  5
74
330
2
100
AcDbSymbolTableRecord
100
AcDbLayerTableRecord
  2
해칭선
 70
     0
 62
   100
  6
Continuous
370
    -3
390
F
  0
LAYER
  5
75
330
2
100
AcDbSymbolTableRecord
100
AcDbLayerTableRecord
  2
가는실선
 70
     0
 62
     4
  6
Continuous
370
    -3
390
F
  0
LAYER
  5
76
330
2
100
AcDbSymbolTableRecord
100
AcDbLayerTableRecord
  2
치수_보조선
 70
     0
 62
     4
  6
Continuous
370
    -3
390
F
  0
LAYER
  5
77
330
2
100
AcDbSymbolTableRecord
100
AcDbLayerTableRecord
  2
치수문자_일반주서
 70
     0
 62
     7
  6
Continuous
370
    15
390
F
  0
LAYER
  5
78
330
2
100
AcDbSymbolTableRecord
100
AcDbLayerTableRecord
  2
개별주서
 70
     0
 62
   100
  6
Continuous
370
    30
390
F
  0
LAYER
  5
79
330
2
100
AcDbSymbolTableRecord
100
AcDbLayerTableRecord
  2
중간선
 70
     0
 62
     2
  6
Continuous
370
    15
390
F
  0
LAYER
  5
7A
330
2
100
AcDbSymbolTableRecord
100
AcDbLayerTableRecord
  2
윤곽선
 70
     0
 62
     3
  6
Continuous
370
    40
390
F
  0
LAYER
  5
7B
330
2
100
AcDbSymbolTableRecord
100
AcDbLayerTableRecord
  2
중심마크
 70
     0
 62
   100
  6
Continuous
370
    30
390
F
  0
LAYER
  5
7C
330
2
100
AcDbSymbolTableRecord
100
AcDbLayerTableRecord
  2
가상선
 70
     0
 62
     4
  6
PHANTOM
370
    -3
390
F
  0
LAYER
  5
7D
330
2
100
AcDbSymbolTableRecord
100
AcDbLayerTableRecord
  2
특수지정선
 70
     0
 62
     5
  6
CENTERX2
370
    60
390
F
  0
LAYER
  5
7E
330
2
100
AcDbSymbolTableRecord
100
AcDbLayerTableRecord
  2
참조1
 70
     0
 62
    -4
  6
Continuous
370
    -3
390
F
  0
LAYER
  5
15E
330
2
100
AcDbSymbolTableRecord
100
AcDbLayerTableRecord
  2
Defpoints
 70
     0
 62
     7
  6
Continuous
290
     0
370
    -3
390
F
  0
ENDTAB
  0
TABLE
  2
STYLE
  5
3
330
0
100
AcDbSymbolTable
 70
     2
  0
STYLE
  5
11
330
3
100
AcDbSymbolTableRecord
100
AcDbTextStyleTableRecord
  2
Standard
 70
     0
 40
0.0
 41
1.0
 50
0.0
 71
     0
 42
3.5
  3
txt
  4

  0
STYLE
  5
94
330
3
100
AcDbSymbolTableRecord
100
AcDbTextStyleTableRecord
  2
SLDTEXTSTYLE0
 70
     0
 40
0.0
 41
0.75
 50
0.0
 71
     0
 42
3.5
  3
TXT
  4

  0
ENDTAB
  0
TABLE
  2
VIEW
  5
6
330
0
100
AcDbSymbolTable
 70
     0
  0
ENDTAB
  0
TABLE
  2
UCS
  5
7
330
0
100
AcDbSymbolTable
 70
     0
  0
ENDTAB
  0
TABLE
  2
APPID
  5
9
330
0
100
AcDbSymbolTable
 70
     3
  0
APPID
  5
12
330
9
100
AcDbSymbolTableRecord
100
AcDbRegAppTableRecord
  2
ACAD
 70
     0
  0
APPID
  5
168
330
9
100
AcDbSymbolTableRecord
100
AcDbRegAppTableRecord
  2
PE_URL
 70
     0
  0
APPID
  5
169
330
9
100
AcDbSymbolTableRecord
100
AcDbRegAppTableRecord
  2
ACAD_DSTYLE_DIMRADIAL_EXTENSION
 70
     0
  0
ENDTAB
  0
TABLE
  2
DIMSTYLE
  5
A
330
0
100
AcDbSymbolTable
 70
     4
100
AcDbDimStyleTable
  0
DIMSTYLE
105
27
330
A
100
AcDbSymbolTableRecord
100
AcDbDimStyleTableRecord
  2
ISO-25
 70
     0
 41
2.5
 42
0.625
 43
3.75
 44
1.25
 73
     0
 74
     0
 77
     1
 78
     8
140
2.5
141
2.5
143
0.03937007874016
147
0.625
171
     3
172
     1
178
     0
271
     2
272
     2
274
     3
278
    44
283
     0
284
     8
340
11
  0
DIMSTYLE
105
DA
330
A
100
AcDbSymbolTableRecord
100
AcDbDimStyleTableRecord
  2
SLDDIMSTYLE0
 70
     0
 41
3.302
 44
0.0
 45
0.000000001
 73
     0
 74
     0
 77
     1
 78
    12
 79
     3
140
3.5
143
0.0393700787401575
147
0.875
148
0.000000001
170
     1
172
     1
173
     1
178
     0
271
     2
272
     2
276
     2
284
    12
289
     0
340
94
  0
DIMSTYLE
105
EF
330
A
100
AcDbSymbolTableRecord
100
AcDbDimStyleTableRecord
  2
SLDDIMSTYLE1
 70
     0
 41
3.302
 44
0.0
 45
0.000000001
 73
     0
 74
     0
 77
     1
 78
    12
 79
     3
140
3.5
143
0.0393700787401575
147
0.875
148
0.000000001
170
     1
173
     1
178
     0
271
     2
272
     2
276
     2
284
    12
340
94
  0
DIMSTYLE
105
104
102
{ACAD_REACTORS
330
103
330
1C8
330
1D5
330
1E2
330
1FC
330
207
330
D9
330
EE
330
117
102
}
330
A
100
AcDbSymbolTableRecord
100
AcDbDimStyleTableRecord
  2
SLDDIMSTYLE2
 70
     0
 41
3.302
 44
0.0
 45
0.000000001
 73
     0
 74
     0
 77
     1
 78
     4
 79
     1
140
3.5
143
0.0393700787401575
147
0.875
148
0.000000001
170
     1
173
     1
178
     0
271
     2
272
     2
276
     2
284
    12
340
94
  0
ENDTAB
  0
TABLE
  2
BLOCK_RECORD
  5
1
330
0
100
AcDbSymbolTable
 70
    18
  0
BLOCK_RECORD
  5
1F
330
1
100
AcDbSymbolTableRecord
100
AcDbBlockTableRecord
  2
*Model_Space
340
22
  0
BLOCK_RECORD
  5
1B
330
1
100
AcDbSymbolTableRecord
100
AcDbBlockTableRecord
  2
*Paper_Space
340
1E
  0
BLOCK_RECORD
  5
23
330
1
100
AcDbSymbolTableRecord
100
AcDbBlockTableRecord
  2
*Paper_Space0
340
26
  0
BLOCK_RECORD
  5
7F
330
1
100
AcDbSymbolTableRecord
100
AcDbBlockTableRecord
  2
블럭10
340
0
102
{BLKREFS
331
D2
102
}
  0
BLOCK_RECORD
  5
DB
330
1
100
AcDbSymbolTableRecord
100
AcDbBlockTableRecord
  2
_D
340
0
  0
BLOCK_RECORD
  5
F0
330
1
100
AcDbSymbolTableRecord
100
AcDbBlockTableRecord
  2
_D_1
340
0
  0
BLOCK_RECORD
  5
105
330
1
100
AcDbSymbolTableRecord
100
AcDbBlockTableRecord
  2
_D_2
340
0
  0
BLOCK_RECORD
  5
118
330
1
100
AcDbSymbolTableRecord
100
AcDbBlockTableRecord
  2
_D_3
340
0
  0
BLOCK_RECORD
  5
132
330
1
100
AcDbSymbolTableRecord
100
AcDbBlockTableRecord
  2
SW_DOWELSYMBOL_0
340
0
102
{BLKREFS
331
138
331
1F1
331
0
102
}
  0
BLOCK_RECORD
  5
1FD
330
1
100
AcDbSymbolTableRecord
100
AcDbBlockTableRecord
  2
*D8
340
0
  0
BLOCK_RECORD
  5
208
330
1
100
AcDbSymbolTableRecord
100
AcDbBlockTableRecord
  2
*D9
340
0
  0
BLOCK_RECORD
  5
21A
330
1
100
AcDbSymbolTableRecord
100
AcDbBlockTableRecord
  2
*D10
340
0
  0
BLOCK_RECORD
  5
226
330
1
100
AcDbSymbolTableRecord
100
AcDbBlockTableRecord
  2
*D11
340
0
  0
BLOCK_RECORD
  5
232
330
1
100
AcDbSymbolTableRecord
100
AcDbBlockTableRecord
  2
*D12
340
0
  0
BLOCK_RECORD
  5
28D
330
1
100
AcDbSymbolTableRecord
100
AcDbBlockTableRecord
  2
*D13
340
0
  0
BLOCK_RECORD
  5
299
330
1
100
AcDbSymbolTableRecord
100
AcDbBlockTableRecord
  2
*D14
340
0
  0
BLOCK_RECORD
  5
2A5
330
1
100
AcDbSymbolTableRecord
100
AcDbBlockTableRecord
  2
*D15
340
0
  0
BLOCK_RECORD
  5
2B3
330
1
100
AcDbSymbolTableRecord
100
AcDbBlockTableRecord
  2
*D16
340
0
  0
BLOCK_RECORD
  5
2BD
330
1
100
AcDbSymbolTableRecord
100
AcDbBlockTableRecord
  2
*D17
340
0
  0
ENDTAB
  0
ENDSEC
  0
SECTION
  2
BLOCKS
  0
BLOCK
  5
20
330
1F
100
AcDbEntity
  8
0
100
AcDbBlockBegin
  2
*Model_Space
 70
     0
 10
0.0
 20
0.0
 30
0.0
  3
*Model_Space
  1
*Model_Space
  0
ENDBLK
  5
21
330
1F
100
AcDbEntity
  8
0
100
AcDbBlockEnd
  0
BLOCK
  5
1C
330
1B
100
AcDbEntity
 67
     1
  8
0
100
AcDbBlockBegin
  2
*Paper_Space
 70
     0
 10
0.0
 20
0.0
 30
0.0
  3
*Paper_Space
  1
*Paper_Space
  0
ENDBLK
  5
1D
330
1B
100
AcDbEntity
 67
     1
  8
0
100
AcDbBlockEnd
  0
BLOCK
  5
24
330
23
100
AcDbEntity
  8
0
100
AcDbBlockBegin
  2
*Paper_Space0
 70
     0
 10
0.0
 20
0.0
 30
0.0
  3
*Paper_Space0
  1
*Paper_Space0
  0
ENDBLK
  5
25
330
23
100
AcDbEntity
  8
0
100
AcDbBlockEnd
  0
BLOCK
  5
80
330
7F
100
AcDbEntity
  8
0
100
AcDbBlockBegin
  2
블럭10
 70
     2
 10
0.0
 20
0.0
 30
0.0
  3
블럭10
  1
블럭10
  0
ELLIPSE
  5
82
330
7F
100
AcDbEntity
  8
중심선
100
AcDbEllipse
 10
20.54032771741204
 20
12.0471743016438
 30
0.0
 11
6.600054785286829
 21
-1.261213355974178E-13
 31
0.0
210
0.0
220
0.0
230
1.0
 40
0.636358354079598
 41
0.9219305317359503
 42
6.513795318482858
  0
ELLIPSE
  5
83
330
7F
100
AcDbEntity
  8
중심선
100
AcDbEllipse
 10
20.54032771746488
 20
12.04717430159265
 30
0.0
 11
3.960054785062283
 21
1.540847449632565E-10
 31
0.0
210
0.0
220
0.0
230
1.0
 40
0.3939339440162632
 41
1.131841032648279
 42
5.62031148352944
  0
LINE
  5
84
330
7F
100
AcDbEntity
  8
중심선
100
AcDbLine
 10
2.268634060543552
 20
16.24717430164393
 30
0.0
 11
5.714909304380834
 21
16.24717430164393
 31
0.0
  0
LINE
  5
85
330
7F
100
AcDbEntity
  8
중심선
100
AcDbLine
 10
5.245725140726316
 20
7.84717430164391
 30
0.0
 11
8.692000384563599
 21
7.84717430164391
 31
0.0
  0
LINE
  5
86
330
7F
100
AcDbEntity
  8
중심선
100
AcDbLine
 10
15.74043728645272
 20
16.24717430164393
 30
0.0
 11
8.692000384563599
 21
7.84717430164391
 31
0.0
  0
LINE
  5
87
330
7F
100
AcDbEntity
  8
중심선
100
AcDbLine
 10
0.1404042013395286
 20
13.71084872107135
 30
0.0
 11
3.58671253028996
 21
13.71088815037384
 31
0.0
  0
LINE
  5
88
330
7F
100
AcDbEntity
  8
중심선
100
AcDbLine
 10
2.750260043222114
 20
10.84717430164391
 30
0.0
 11
6.196535287059397
 21
10.84717430164391
 31
0.0
  0
LINE
  5
89
330
7F
100
AcDbEntity
  8
중심선
100
AcDbLine
 10
12.29416204261559
 20
16.24717430164393
 30
0.0
 11
5.245725140726316
 21
7.84717430164391
 31
0.0
  0
LINE
  5
8A
330
7F
100
AcDbEntity
  8
중심선
100
AcDbLine
 10
10.72767329541681
 20
16.24717430164393
 30
0.0
 11
6.196535287059397
 21
10.84717430164391
 31
0.0
  0
LINE
  5
8B
330
7F
100
AcDbEntity
  8
중심선
100
AcDbLine
 10
7.28139805157953
 20
16.24717430164393
 30
0.0
 11
2.750260043222114
 21
10.84717430164391
 31
0.0
  0
LINE
  5
8C
330
7F
100
AcDbEntity
  8
중심선
100
AcDbLine
 10
5.714909304380834
 20
16.24717430164393
 30
0.0
 11
3.58671253028996
 21
13.71088815037384
 31
0.0
  0
LINE
  5
8D
330
7F
100
AcDbEntity
  8
중심선
100
AcDbLine
 10
2.268634060543552
 20
16.24717430164393
 30
0.0
 11
0.1404042013395286
 21
13.71084872107135
 31
0.0
  0
LINE
  5
8E
330
7F
100
AcDbEntity
  8
중심선
100
AcDbLine
 10
7.28139805157953
 20
16.24717430164393
 30
0.0
 11
10.72767329541681
 21
16.24717430164393
 31
0.0
  0
LINE
  5
8F
330
7F
100
AcDbEntity
  8
중심선
100
AcDbLine
 10
12.29416204261559
 20
16.24717430164393
 30
0.0
 11
15.74043728645272
 21
16.24717430164393
 31
0.0
  0
LINE
  5
90
330
7F
100
AcDbEntity
  8
중심선
100
AcDbLine
 10
19.22036997980202
 20
11.08717430171403
 30
0.0
 11
23.66174974927406
 21
11.08717430171406
 31
0.0
  0
LINE
  5
91
330
7F
100
AcDbEntity
  8
중심선
100
AcDbLine
 10
19.22039502424796
 20
13.00717430171391
 30
0.0
 11
19.22036997980202
 21
11.08717430171403
 31
0.0
  0
LINE
  5
92
330
7F
100
AcDbEntity
  8
중심선
100
AcDbLine
 10
19.22039502424796
 20
13.00717430171391
 30
0.0
 11
26.96566020931264
 21
13.00717430171391
 31
0.0
  0
LINE
  5
93
330
7F
100
AcDbEntity
  8
중심선
100
AcDbLine
 10
22.22332737316547
 20
13.45928029700563
 30
0.0
 11
24.52862924686651
 21
15.39360700705356
 31
0.0
  0
ATTDEF
  5
95
330
7F
100
AcDbEntity
  8
FORMAT
 62
     2
100
AcDbText
 10
4.408487351596664
 20
2.075366912832191
 30
0.0
 40
4.233333333333333
  1
E5068048
 41
0.75
  7
SLDTEXTSTYLE0
 11
4.408487351596664
 21
-0.0412997538344756
 31
0.0
100
AcDbAttributeDefinition
  3

  2
AUTOATTR0
 70
     0
 74
     1
  0
ENDBLK
  5
81
330
7F
100
AcDbEntity
  8
0
100
AcDbBlockEnd
  0
BLOCK
  5
DC
330
DB
100
AcDbEntity
  8
0
100
AcDbBlockBegin
  2
_D
 70
     0
 10
0.0
 20
0.0
 30
0.0
  3
_D
  1
_D
  0
LINE
  5
DE
330
DB
100
AcDbEntity
  8
치수문자_일반주서
 62
     0
370
    -2
100
AcDbLine
 10
94.6125
 20
9.471973411088069
 30
0.0
 11
111.9628043702957
 21
9.471973411088133
 31
0.0
  0
LINE
  5
DF
330
DB
100
AcDbEntity
  8
치수문자_일반주서
 62
     0
370
    -2
100
AcDbLine
 10
94.61250000000003
 20
-9.57101838627575
 30
0.0
 11
111.9628043702958
 21
-9.57101838627569
 31
0.0
  0
LINE
  5
E0
330
DB
100
AcDbEntity
  8
치수문자_일반주서
 62
     0
370
    -2
100
AcDbLine
 10
111.9628043702957
 20
9.471973411088133
 30
0.0
 11
111.9628043702956
 21
44.97197341108813
 31
0.0
  0
LINE
  5
E1
330
DB
100
AcDbEntity
  8
치수문자_일반주서
 62
     0
370
    -2
100
AcDbLine
 10
111.9628043702957
 20
5.471973411088133
 30
0.0
 11
111.9628043702958
 21
-5.571018386275689
 31
0.0
  0
SOLID
  5
E2
330
DB
100
AcDbEntity
  8
치수문자_일반주서
 62
     0
100
AcDbTrace
 10
112.6294710369624
 20
5.471973411088135
 30
0.0
 11
111.2961377036291
 21
5.47197341108813
 31
0.0
 12
111.9628043702957
 22
9.471973411088133
 32
0.0
 13
111.9628043702957
 23
9.471973411088133
 33
0.0
  0
SOLID
  5
E3
330
DB
100
AcDbEntity
  8
치수문자_일반주서
 62
     0
100
AcDbTrace
 10
111.2961377036291
 20
-5.571018386275692
 30
0.0
 11
112.6294710369624
 21
-5.571018386275687
 31
0.0
 12
111.9628043702958
 22
-9.57101838627569
 32
0.0
 13
111.9628043702958
 23
-9.57101838627569
 33
0.0
  0
MTEXT
  5
E4
330
DB
100
AcDbEntity
  8
치수문자_일반주서
 62
     0
100
AcDbMText
 10
107.0878043702956
 20
29.34697341108811
 30
0.0
 40
4.0
 41
0.0
 71
     2
 72
     1
  1
\A1;%%c19.04 [3/4]
  7
SLDTEXTSTYLE0
 11
-3.731255799093832E-15
 21
1.0
 31
0.0
 73
     1
 44
1.0
  0
POINT
  5
E5
330
DB
100
AcDbEntity
  8
Defpoints
 62
     0
100
AcDbPoint
 10
94.55
 20
9.471973411088069
 30
0.0
  0
POINT
  5
E6
330
DB
100
AcDbEntity
  8
Defpoints
 62
     0
100
AcDbPoint
 10
94.55000000000003
 20
-9.57101838627575
 30
0.0
  0
POINT
  5
E7
330
DB
100
AcDbEntity
  8
Defpoints
 62
     0
100
AcDbPoint
 10
111.9628043702958
 20
-9.571018386275684
 30
0.0
  0
ENDBLK
  5
DD
330
DB
100
AcDbEntity
  8
0
100
AcDbBlockEnd
  0
BLOCK
  5
F1
330
F0
100
AcDbEntity
  8
0
100
AcDbBlockBegin
  2
_D_1
 70
     0
 10
0.0
 20
0.0
 30
0.0
  3
_D_1
  1
_D_1
  0
LINE
  5
F3
330
F0
100
AcDbEntity
  8
치수문자_일반주서
 62
     0
370
    -2
100
AcDbLine
 10
94.55
 20
9.541481613724253
 30
0.0
 11
94.55
 21
35.80389757218053
 31
0.0
  0
LINE
  5
F4
330
F0
100
AcDbEntity
  8
치수문자_일반주서
 62
     0
370
    -2
100
AcDbLine
 10
12.0
 20
9.443310207087093
 30
0.0
 11
12.0
 21
35.80389757218053
 31
0.0
  0
LINE
  5
F5
330
F0
100
AcDbEntity
  8
치수문자_일반주서
 62
     0
370
    -2
100
AcDbLine
 10
90.55
 20
35.80389757218053
 30
0.0
 11
16.0
 21
35.80389757218053
 31
0.0
  0
SOLID
  5
F6
330
F0
100
AcDbEntity
  8
치수문자_일반주서
 62
     0
100
AcDbTrace
 10
90.55
 20
35.13723090551387
 30
0.0
 11
90.55
 21
36.4705642388472
 31
0.0
 12
94.55
 22
35.80389757218053
 32
0.0
 13
94.55
 23
35.80389757218053
 33
0.0
  0
SOLID
  5
F7
330
F0
100
AcDbEntity
  8
치수문자_일반주서
 62
     0
100
AcDbTrace
 10
16.0
 20
36.4705642388472
 30
0.0
 11
16.0
 21
35.13723090551387
 31
0.0
 12
12.0
 22
35.80389757218053
 32
0.0
 13
12.0
 23
35.80389757218053
 33
0.0
  0
MTEXT
  5
F8
330
F0
100
AcDbEntity
  8
치수문자_일반주서
 62
     0
100
AcDbMText
 10
53.27499999999999
 20
40.67889757218053
 30
0.0
 40
4.0
 41
0.0
 71
     2
 72
     1
  1
\A1;82.55 [3 1/4]
  7
SLDTEXTSTYLE0
 73
     1
 44
1.0
  0
POINT
  5
F9
330
F0
100
AcDbEntity
  8
Defpoints
 62
     0
100
AcDbPoint
 10
94.55
 20
9.478981613724253
 30
0.0
  0
POINT
  5
FA
330
F0
100
AcDbEntity
  8
Defpoints
 62
     0
100
AcDbPoint
 10
12.0
 20
9.380810207087093
 30
0.0
  0
POINT
  5
FB
330
F0
100
AcDbEntity
  8
Defpoints
 62
     0
100
AcDbPoint
 10
12.0
 20
35.80389757218053
 30
0.0
  0
ENDBLK
  5
F2
330
F0
100
AcDbEntity
  8
0
100
AcDbBlockEnd
  0
BLOCK
  5
106
330
105
100
AcDbEntity
  8
0
100
AcDbBlockBegin
  2
_D_2
 70
     0
 10
0.0
 20
0.0
 30
0.0
  3
_D_2
  1
_D_2
  0
LINE
  5
108
330
105
100
AcDbEntity
  8
치수문자_일반주서
 62
     0
370
    -2
100
AcDbLine
 10
94.55
 20
9.541481613724253
 30
0.0
 11
94.54999999999998
 21
53.01923810201994
 31
0.0
  0
LINE
  5
109
330
105
100
AcDbEntity
  8
치수문자_일반주서
 62
     0
370
    -2
100
AcDbLine
 10
-57.84999999999999
 20
7.636481613724255
 30
0.0
 11
-57.85000000000001
 21
53.01923810201994
 31
0.0
  0
LINE
  5
10A
330
105
100
AcDbEntity
  8
치수문자_일반주서
 62
     0
370
    -2
100
AcDbLine
 10
90.54999999999998
 20
53.01923810201994
 30
0.0
 11
-53.85000000000001
 21
53.01923810201994
 31
0.0
  0
SOLID
  5
10B
330
105
100
AcDbEntity
  8
치수문자_일반주서
 62
     0
100
AcDbTrace
 10
90.54999999999998
 20
52.35257143535328
 30
0.0
 11
90.54999999999998
 21
53.6859047686866
 31
0.0
 12
94.54999999999998
 22
53.01923810201994
 32
0.0
 13
94.54999999999998
 23
53.01923810201994
 33
0.0
  0
SOLID
  5
10C
330
105
100
AcDbEntity
  8
치수문자_일반주서
 62
     0
100
AcDbTrace
 10
-53.85000000000001
 20
53.6859047686866
 30
0.0
 11
-53.85000000000001
 21
52.35257143535328
 31
0.0
 12
-57.85000000000001
 22
53.01923810201994
 32
0.0
 13
-57.85000000000001
 23
53.01923810201994
 33
0.0
  0
MTEXT
  5
10D
330
105
100
AcDbEntity
  8
치수문자_일반주서
 62
     0
100
AcDbMText
 10
18.35000000000001
 20
57.89423810201994
 30
0.0
 40
4.0
 41
0.0
 71
     2
 72
     1
  1
\A1;152.40 [6]
  7
SLDTEXTSTYLE0
 73
     1
 44
1.0
  0
POINT
  5
10E
330
105
100
AcDbEntity
  8
Defpoints
 62
     0
100
AcDbPoint
 10
94.55
 20
9.478981613724253
 30
0.0
  0
POINT
  5
10F
330
105
100
AcDbEntity
  8
Defpoints
 62
     0
100
AcDbPoint
 10
-57.84999999999999
 20
7.573981613724255
 30
0.0
  0
POINT
  5
110
330
105
100
AcDbEntity
  8
Defpoints
 62
     0
100
AcDbPoint
 10
-57.84999999999999
 20
53.01923810201994
 30
0.0
  0
ENDBLK
  5
107
330
105
100
AcDbEntity
  8
0
100
AcDbBlockEnd
  0
BLOCK
  5
119
330
118
100
AcDbEntity
  8
0
100
AcDbBlockBegin
  2
_D_3
 70
     0
 10
0.0
 20
0.0
 30
0.0
  3
_D_3
  1
_D_3
  0
LINE
  5
11B
330
118
100
AcDbEntity
  8
치수문자_일반주서
 62
     0
370
    -2
100
AcDbLine
 10
-56.00750000000001
 20
9.478981613724255
 30
0.0
 11
-76.0782901597051
 21
9.47898161372418
 31
0.0
  0
LINE
  5
11C
330
118
100
AcDbEntity
  8
치수문자_일반주서
 62
     0
370
    -2
100
AcDbLine
 10
-56.00750000000001
 20
-9.571018386275757
 30
0.0
 11
-76.07829015970503
 21
-9.571018386275835
 31
0.0
  0
LINE
  5
11D
330
118
100
AcDbEntity
  8
치수문자_일반주서
 62
     0
370
    -2
100
AcDbLine
 10
-76.0782901597051
 20
9.47898161372418
 30
0.0
 11
-76.07829015970523
 21
44.97898161372419
 31
0.0
  0
LINE
  5
11E
330
118
100
AcDbEntity
  8
치수문자_일반주서
 62
     0
370
    -2
100
AcDbLine
 10
-76.07829015970509
 20
5.47898161372418
 30
0.0
 11
-76.07829015970505
 21
-5.571018386275835
 31
0.0
  0
SOLID
  5
11F
330
118
100
AcDbEntity
  8
치수문자_일반주서
 62
     0
100
AcDbTrace
 10
-75.41162349303842
 20
5.478981613724183
 30
0.0
 11
-76.74495682637176
 21
5.478981613724177
 31
0.0
 12
-76.0782901597051
 22
9.47898161372418
 32
0.0
 13
-76.0782901597051
 23
9.47898161372418
 33
0.0
  0
SOLID
  5
120
330
118
100
AcDbEntity
  8
치수문자_일반주서
 62
     0
100
AcDbTrace
 10
-76.74495682637172
 20
-5.571018386275838
 30
0.0
 11
-75.41162349303838
 21
-5.571018386275832
 31
0.0
 12
-76.07829015970503
 22
-9.571018386275835
 32
0.0
 13
-76.07829015970503
 23
-9.571018386275835
 33
0.0
  0
MTEXT
  5
121
330
118
100
AcDbEntity
  8
치수문자_일반주서
 62
     0
100
AcDbMText
 10
-80.95329015970518
 20
29.35398161372417
 30
0.0
 40
4.0
 41
0.0
 71
     2
 72
     1
  1
\A1;%%c19.05 [3/4]
  7
SLDTEXTSTYLE0
 11
-3.729883127349605E-15
 21
1.0
 31
0.0
 73
     1
 44
1.0
  0
POINT
  5
122
330
118
100
AcDbEntity
  8
Defpoints
 62
     0
100
AcDbPoint
 10
-55.94500000000001
 20
9.478981613724255
 30
0.0
  0
POINT
  5
123
330
118
100
AcDbEntity
  8
Defpoints
 62
     0
100
AcDbPoint
 10
-55.94500000000001
 20
-9.571018386275757
 30
0.0
  0
POINT
  5
2CB
330
118
100
AcDbEntity
  8
Defpoints
 62
     0
100
AcDbPoint
 10
-76.07829015970506
 20
-9.571018386275831
 30
0.0
  0
ENDBLK
  5
11A
330
118
100
AcDbEntity
  8
0
100
AcDbBlockEnd
  0
BLOCK
  5
133
330
132
100
AcDbEntity
  8
0
100
AcDbBlockBegin
  2
SW_DOWELSYMBOL_0
 70
     0
 10
0.0
 20
0.0
 30
0.0
  3
SW_DOWELSYMBOL_0
  1
SW_DOWELSYMBOL_0
  0
CIRCLE
  5
135
330
132
100
AcDbEntity
  8
해칭선
 62
     0
100
AcDbCircle
 10
0.0
 20
0.0
 30
0.0
 40
3.000000000000001
  0
HATCH
  5
136
330
132
100
AcDbEntity
  8
0
  6
Continuous
 62
     0
370
     0
100
AcDbHatch
 10
0.0
 20
0.0
 30
0.0
210
0.0
220
0.0
230
1.0
  2
SOLID
 70
     1
 71
     0
 91
        1
 92
        0
 93
        3
 72
     2
 10
0.0
 20
0.0
 40
3.000000000000001
 50
0.0
 51
90.0
 73
     1
 72
     1
 10
0.0
 20
3.000000000000001
 11
0.0
 21
0.0
 72
     1
 10
0.0
 20
0.0
 11
3.000000000000003
 21
0.0
 97
        0
 75
     0
 76
     1
 98
        1
 10
0.0
 20
0.0
  0
HATCH
  5
137
330
132
100
AcDbEntity
  8
0
  6
Continuous
 62
     0
370
     0
100
AcDbHatch
 10
0.0
 20
0.0
 30
0.0
210
0.0
220
0.0
230
1.0
  2
SOLID
 70
     1
 71
     0
 91
        1
 92
        0
 93
        3
 72
     2
 10
0.0
 20
0.0
 40
3.000000000000001
 50
180.0
 51
270.0000000000008
 73
     1
 72
     1
 10
0.0
 20
-3.000000000000001
 11
0.0
 21
0.0
 72
     1
 10
0.0
 20
0.0
 11
-3.000000000000003
 21
0.0
 97
        0
 75
     0
 76
     1
 98
        1
 10
0.0
 20
0.0
  0
ENDBLK
  5
134
330
132
100
AcDbEntity
  8
0
100
AcDbBlockEnd
  0
BLOCK
  5
1FE
330
1FD
100
AcDbEntity
  8
0
100
AcDbBlockBegin
  2
*D8
 70
     1
 10
0.0
 20
0.0
 30
0.0
  3
*D8
  1
*D19
  0
LINE
  5
1FF
330
1FD
100
AcDbEntity
  8
치수문자_일반주서
 62
     0
370
    -2
100
AcDbLine
 10
122.2075719207232
 20
21.09418497419865
 30
0.0
 11
147.6180318575932
 21
-9.6328211867206
 31
0.0
  0
MTEXT
  5
200
330
1FD
100
AcDbEntity
  8
치수문자_일반주서
 62
     0
100
AcDbMText
 10
140.03527720752
 20
4.047751970745924
 30
0.0
 40
4.0
 41
0.0
 71
     5
 72
     1
  1
\A1;R1.00 [R0.04]
  7
SLDTEXTSTYLE0
 11
0.6372880340174896
 21
-0.7706256949376417
 31
0.0
 73
     1
 44
1.0
  0
SOLID
  5
201
330
1FD
100
AcDbEntity
  8
치수문자_일반주서
 62
     0
100
AcDbTrace
 10
122.7213223840149
 20
21.51904366354364
 30
0.0
 11
121.6938214574314
 21
20.66932628485365
 31
0.0
 12
119.6584197846532
 22
24.17668775394921
 32
0.0
 13
119.6584197846532
 23
24.17668775394921
 33
0.0
  0
LINE
  5
202
330
1FD
100
AcDbEntity
  8
치수문자_일반주서
 62
     0
100
AcDbLine
 10
118.9311317506357
 20
24.94731344888685
 30
0.0
 11
119.1111317506357
 21
24.94731344888685
 31
0.0
  0
LINE
  5
203
330
1FD
100
AcDbEntity
  8
치수문자_일반주서
 62
     0
100
AcDbLine
 10
119.0211317506357
 20
24.85731344888685
 30
0.0
 11
119.0211317506357
 21
25.03731344888685
 31
0.0
  0
POINT
  5
204
330
1FD
100
AcDbEntity
  8
Defpoints
 62
     0
100
AcDbPoint
 10
119.6584197846532
 20
24.17668775394921
 30
0.0
  0
POINT
  5
240
330
1FD
100
AcDbEntity
  8
Defpoints
 62
     0
100
AcDbPoint
 10
119.0211317506357
 20
24.94731344888685
 30
0.0
  0
ENDBLK
  5
205
330
1FD
100
AcDbEntity
  8
0
100
AcDbBlockEnd
  0
BLOCK
  5
209
330
208
100
AcDbEntity
  8
0
100
AcDbBlockBegin
  2
*D9
 70
     1
 10
0.0
 20
0.0
 30
0.0
  3
*D9
  1
*D20
  0
LINE
  5
20A
330
208
100
AcDbEntity
  8
치수문자_일반주서
 62
     0
370
    -2
100
AcDbLine
 10
120.0836317506357
 20
43.94731344888685
 30
0.0
 11
136.2577258430566
 21
43.94731344888685
 31
0.0
  0
LINE
  5
20B
330
208
100
AcDbEntity
  8
치수문자_일반주서
 62
     0
370
    -2
100
AcDbLine
 10
120.0836317506357
 20
23.94731344888685
 30
0.0
 11
136.2577258430566
 21
23.94731344888685
 31
0.0
  0
LINE
  5
20C
330
208
100
AcDbEntity
  8
치수문자_일반주서
 62
     0
370
    -2
100
AcDbLine
 10
136.2577258430566
 20
43.94731344888685
 30
0.0
 11
136.2577258430566
 21
23.94731344888685
 31
0.0
  0
LINE
  5
20D
330
208
100
AcDbEntity
  8
치수문자_일반주서
 62
     0
370
    -2
100
AcDbLine
 10
136.2577258430566
 20
47.94731344888685
 30
0.0
 11
136.2577258430566
 21
51.94731344888685
 31
0.0
  0
LINE
  5
20E
330
208
100
AcDbEntity
  8
치수문자_일반주서
 62
     0
370
    -2
100
AcDbLine
 10
136.2577258430566
 20
19.94731344888685
 30
0.0
 11
136.2577258430566
 21
15.94731344888685
 31
0.0
  0
SOLID
  5
20F
330
208
100
AcDbEntity
  8
치수문자_일반주서
 62
     0
100
AcDbTrace
 10
135.59105917639
 20
47.94731344888685
 30
0.0
 11
136.9243925097233
 21
47.94731344888685
 31
0.0
 12
136.2577258430566
 22
43.94731344888685
 32
0.0
 13
136.2577258430566
 23
43.94731344888685
 33
0.0
  0
SOLID
  5
210
330
208
100
AcDbEntity
  8
치수문자_일반주서
 62
     0
100
AcDbTrace
 10
136.9243925097233
 20
19.94731344888685
 30
0.0
 11
135.59105917639
 21
19.94731344888685
 31
0.0
 12
136.2577258430566
 22
23.94731344888685
 32
0.0
 13
136.2577258430566
 23
23.94731344888685
 33
0.0
  0
MTEXT
  5
211
330
208
100
AcDbEntity
  8
치수문자_일반주서
 62
     0
100
AcDbMText
 10
133.3827258430566
 20
33.94731344888685
 30
0.0
 40
4.0
 41
0.0
 71
     5
 72
     1
  1
\A1;{%%c20.00}
  7
SLDTEXTSTYLE0
 11
0.0
 21
1.0
 31
0.0
 73
     1
 44
1.0
  0
POINT
  5
212
330
208
100
AcDbEntity
  8
Defpoints
 62
     0
100
AcDbPoint
 10
120.0211317506357
 20
43.94731344888685
 30
0.0
  0
POINT
  5
213
330
208
100
AcDbEntity
  8
Defpoints
 62
     0
100
AcDbPoint
 10
120.0211317506357
 20
23.94731344888685
 30
0.0
  0
POINT
  5
214
330
208
100
AcDbEntity
  8
Defpoints
 62
     0
100
AcDbPoint
 10
136.2577258430566
 20
23.94731344888685
 30
0.0
  0
ENDBLK
  5
215
330
208
100
AcDbEntity
  8
0
100
AcDbBlockEnd
  0
BLOCK
  5
21B
330
21A
100
AcDbEntity
  8
0
100
AcDbBlockBegin
  2
*D10
 70
     1
 10
0.0
 20
0.0
 30
0.0
  3
*D10
  1
*D10
  0
LINE
  5
21D
330
21A
100
AcDbEntity
  8
치수문자_일반주서
 62
     0
370
    -2
100
AcDbLine
 10
16.02113175063572
 20
43.50981344888685
 30
0.0
 11
16.02113175063573
 21
78.60979761696561
 31
0.0
  0
LINE
  5
21E
330
21A
100
AcDbEntity
  8
치수문자_일반주서
 62
     0
370
    -2
100
AcDbLine
 10
120.0211317506357
 20
44.00981344888685
 30
0.0
 11
120.0211317506357
 21
78.60979761696561
 31
0.0
  0
LINE
  5
21F
330
21A
100
AcDbEntity
  8
치수문자_일반주서
 62
     0
370
    -2
100
AcDbLine
 10
20.02113175063573
 20
78.60979761696561
 30
0.0
 11
116.0211317506357
 21
78.60979761696561
 31
0.0
  0
SOLID
  5
220
330
21A
100
AcDbEntity
  8
치수문자_일반주서
 62
     0
100
AcDbTrace
 10
20.02113175063573
 20
79.27646428363228
 30
0.0
 11
20.02113175063573
 21
77.94313095029894
 31
0.0
 12
16.02113175063573
 22
78.60979761696561
 32
0.0
 13
16.02113175063573
 23
78.60979761696561
 33
0.0
  0
SOLID
  5
221
330
21A
100
AcDbEntity
  8
치수문자_일반주서
 62
     0
100
AcDbTrace
 10
116.0211317506357
 20
77.94313095029894
 30
0.0
 11
116.0211317506357
 21
79.27646428363228
 31
0.0
 12
120.0211317506357
 22
78.60979761696561
 32
0.0
 13
120.0211317506357
 23
78.60979761696561
 33
0.0
  0
MTEXT
  5
222
330
21A
100
AcDbEntity
  8
치수문자_일반주서
 62
     0
100
AcDbMText
 10
68.02113175063575
 20
83.48479761696561
 30
0.0
 40
4.0
 41
0.0
 71
     2
 72
     1
  1
\A1;104.00 [4.09]
  7
SLDTEXTSTYLE0
 73
     1
 44
1.0
  0
POINT
  5
223
330
21A
100
AcDbEntity
  8
Defpoints
 62
     0
100
AcDbPoint
 10
16.02113175063572
 20
43.44731344888685
 30
0.0
  0
POINT
  5
224
330
21A
100
AcDbEntity
  8
Defpoints
 62
     0
100
AcDbPoint
 10
120.0211317506357
 20
43.94731344888685
 30
0.0
  0
POINT
  5
225
330
21A
100
AcDbEntity
  8
Defpoints
 62
     0
100
AcDbPoint
 10
120.0211317506357
 20
78.60979761696561
 30
0.0
  0
ENDBLK
  5
21C
330
21A
100
AcDbEntity
  8
0
100
AcDbBlockEnd
  0
BLOCK
  5
227
330
226
100
AcDbEntity
  8
0
100
AcDbBlockBegin
  2
*D11
 70
     1
 10
0.0
 20
0.0
 30
0.0
  3
*D11
  1
*D11
  0
LINE
  5
229
330
226
100
AcDbEntity
  8
치수문자_일반주서
 62
     0
370
    -2
100
AcDbLine
 10
82.02101279996386
 20
33.65694216895067
 30
0.0
 11
82.02101279996386
 21
65.23491305159995
 31
0.0
  0
LINE
  5
22A
330
226
100
AcDbEntity
  8
치수문자_일반주서
 62
     0
370
    -2
100
AcDbLine
 10
120.0211317506357
 20
44.07231344888685
 30
0.0
 11
120.0211317506357
 21
65.23491305159995
 31
0.0
  0
LINE
  5
22B
330
226
100
AcDbEntity
  8
치수문자_일반주서
 62
     0
370
    -2
100
AcDbLine
 10
86.02101279996386
 20
65.23491305159995
 30
0.0
 11
116.0211317506357
 21
65.23491305159995
 31
0.0
  0
SOLID
  5
22C
330
226
100
AcDbEntity
  8
치수문자_일반주서
 62
     0
100
AcDbTrace
 10
86.02101279996386
 20
65.90157971826662
 30
0.0
 11
86.02101279996386
 21
64.56824638493327
 31
0.0
 12
82.02101279996386
 22
65.23491305159995
 32
0.0
 13
82.02101279996386
 23
65.23491305159995
 33
0.0
  0
SOLID
  5
22D
330
226
100
AcDbEntity
  8
치수문자_일반주서
 62
     0
100
AcDbTrace
 10
116.0211317506357
 20
64.56824638493327
 30
0.0
 11
116.0211317506357
 21
65.90157971826662
 31
0.0
 12
120.0211317506357
 22
65.23491305159995
 32
0.0
 13
120.0211317506357
 23
65.23491305159995
 33
0.0
  0
MTEXT
  5
22E
330
226
100
AcDbEntity
  8
치수문자_일반주서
 62
     0
100
AcDbMText
 10
101.0891571575877
 20
70.10991305159995
 30
0.0
 40
4.0
 41
0.0
 71
     2
 72
     1
  1
\A1;38.00 [1.50]
  7
SLDTEXTSTYLE0
 73
     1
 44
1.0
  0
POINT
  5
22F
330
226
100
AcDbEntity
  8
Defpoints
 62
     0
100
AcDbPoint
 10
82.02101279996386
 20
33.59444216895067
 30
0.0
  0
POINT
  5
230
330
226
100
AcDbEntity
  8
Defpoints
 62
     0
100
AcDbPoint
 10
120.0211317506357
 20
44.00981344888685
 30
0.0
  0
POINT
  5
231
330
226
100
AcDbEntity
  8
Defpoints
 62
     0
100
AcDbPoint
 10
120.0211317506357
 20
65.23491305159995
 30
0.0
  0
ENDBLK
  5
228
330
226
100
AcDbEntity
  8
0
100
AcDbBlockEnd
  0
BLOCK
  5
233
330
232
100
AcDbEntity
  8
0
100
AcDbBlockBegin
  2
*D12
 70
     1
 10
0.0
 20
0.0
 30
0.0
  3
*D12
  1
*D12
  0
LINE
  5
235
330
232
100
AcDbEntity
  8
치수문자_일반주서
 62
     0
370
    -2
100
AcDbLine
 10
16.45863175063572
 20
43.94731344888685
 30
0.0
 11
4.87499999999998
 21
43.94731344888681
 31
0.0
  0
LINE
  5
236
330
232
100
AcDbEntity
  8
치수문자_일반주서
 62
     0
370
    -2
100
AcDbLine
 10
16.45863175063572
 20
23.94731344888685
 30
0.0
 11
4.87500000000005
 21
23.94731344888681
 31
0.0
  0
LINE
  5
237
330
232
100
AcDbEntity
  8
치수문자_일반주서
 62
     0
370
    -2
100
AcDbLine
 10
4.87499999999998
 20
43.94731344888681
 30
0.0
 11
4.87500000000005
 21
23.94731344888681
 31
0.0
  0
LINE
  5
238
330
232
100
AcDbEntity
  8
치수문자_일반주서
 62
     0
370
    -2
100
AcDbLine
 10
4.874999999999965
 20
47.94731344888681
 30
0.0
 11
4.874999999999951
 21
51.94731344888681
 31
0.0
  0
LINE
  5
239
330
232
100
AcDbEntity
  8
치수문자_일반주서
 62
     0
370
    -2
100
AcDbLine
 10
4.875000000000064
 20
19.94731344888681
 30
0.0
 11
4.875000000000078
 21
15.94731344888681
 31
0.0
  0
SOLID
  5
23A
330
232
100
AcDbEntity
  8
치수문자_일반주서
 62
     0
100
AcDbTrace
 10
4.208333333333298
 20
47.94731344888681
 30
0.0
 11
5.541666666666632
 21
47.94731344888681
 31
0.0
 12
4.87499999999998
 22
43.94731344888681
 32
0.0
 13
4.87499999999998
 23
43.94731344888681
 33
0.0
  0
SOLID
  5
23B
330
232
100
AcDbEntity
  8
치수문자_일반주서
 62
     0
100
AcDbTrace
 10
5.541666666666731
 20
19.94731344888681
 30
0.0
 11
4.208333333333397
 21
19.94731344888681
 31
0.0
 12
4.87500000000005
 22
23.94731344888681
 32
0.0
 13
4.87500000000005
 23
23.94731344888681
 33
0.0
  0
MTEXT
  5
23C
330
232
100
AcDbEntity
  8
치수문자_일반주서
 62
     0
100
AcDbMText
 10
0.0000000000000142
 20
33.94731344888684
 30
0.0
 40
4.0
 41
0.0
 71
     2
 72
     1
  1
\A1;%%c20.00 [0.79]
  7
SLDTEXTSTYLE0
 11
-3.508304757815495E-15
 21
1.0
 31
0.0
 73
     1
 44
1.0
  0
POINT
  5
23D
330
232
100
AcDbEntity
  8
Defpoints
 62
     0
100
AcDbPoint
 10
16.52113175063572
 20
43.94731344888685
 30
0.0
  0
POINT
  5
23E
330
232
100
AcDbEntity
  8
Defpoints
 62
     0
100
AcDbPoint
 10
16.52113175063572
 20
23.94731344888685
 30
0.0
  0
POINT
  5
23F
330
232
100
AcDbEntity
  8
Defpoints
 62
     0
100
AcDbPoint
 10
4.875000000000057
 20
23.94731344888681
 30
0.0
  0
ENDBLK
  5
234
330
232
100
AcDbEntity
  8
0
100
AcDbBlockEnd
  0
BLOCK
  5
28E
330
28D
100
AcDbEntity
  8
0
100
AcDbBlockBegin
  2
*D13
 70
     1
 10
0.0
 20
0.0
 30
0.0
  3
*D13
  1
*D13
  0
LINE
  5
290
330
28D
100
AcDbEntity
  8
치수문자_일반주서
 62
     0
370
    -2
100
AcDbLine
 10
6.814981258166704
 20
121.406599135908
 30
0.0
 11
6.814981258166711
 21
156.5065833039868
 31
0.0
  0
LINE
  5
291
330
28D
100
AcDbEntity
  8
치수문자_일반주서
 62
     0
370
    -2
100
AcDbLine
 10
110.8149812581667
 20
121.906599135908
 30
0.0
 11
110.8149812581667
 21
156.5065833039868
 31
0.0
  0
LINE
  5
292
330
28D
100
AcDbEntity
  8
치수문자_일반주서
 62
     0
370
    -2
100
AcDbLine
 10
10.81498125816671
 20
156.5065833039868
 30
0.0
 11
106.8149812581667
 21
156.5065833039868
 31
0.0
  0
SOLID
  5
293
330
28D
100
AcDbEntity
  8
치수문자_일반주서
 62
     0
100
AcDbTrace
 10
10.81498125816671
 20
157.1732499706534
 30
0.0
 11
10.81498125816671
 21
155.8399166373201
 31
0.0
 12
6.814981258166711
 22
156.5065833039868
 32
0.0
 13
6.814981258166711
 23
156.5065833039868
 33
0.0
  0
SOLID
  5
294
330
28D
100
AcDbEntity
  8
치수문자_일반주서
 62
     0
100
AcDbTrace
 10
106.8149812581667
 20
155.8399166373201
 30
0.0
 11
106.8149812581667
 21
157.1732499706534
 31
0.0
 12
110.8149812581667
 22
156.5065833039868
 32
0.0
 13
110.8149812581667
 23
156.5065833039868
 33
0.0
  0
MTEXT
  5
295
330
28D
100
AcDbEntity
  8
치수문자_일반주서
 62
     0
100
AcDbMText
 10
58.81498125816672
 20
161.3815833039868
 30
0.0
 40
4.0
 41
0.0
 71
     2
 72
     1
  1
\A1;104.00 [4.09]
  7
SLDTEXTSTYLE0
 73
     1
 44
1.0
  0
POINT
  5
296
330
28D
100
AcDbEntity
  8
Defpoints
 62
     0
100
AcDbPoint
 10
6.814981258166704
 20
121.344099135908
 30
0.0
  0
POINT
  5
297
330
28D
100
AcDbEntity
  8
Defpoints
 62
     0
100
AcDbPoint
 10
110.8149812581667
 20
121.844099135908
 30
0.0
  0
POINT
  5
298
330
28D
100
AcDbEntity
  8
Defpoints
 62
     0
100
AcDbPoint
 10
110.8149812581667
 20
156.5065833039868
 30
0.0
  0
ENDBLK
  5
28F
330
28D
100
AcDbEntity
  8
0
100
AcDbBlockEnd
  0
BLOCK
  5
29A
330
299
100
AcDbEntity
  8
0
100
AcDbBlockBegin
  2
*D14
 70
     1
 10
0.0
 20
0.0
 30
0.0
  3
*D14
  1
*D14
  0
LINE
  5
29C
330
299
100
AcDbEntity
  8
치수문자_일반주서
 62
     0
370
    -2
100
AcDbLine
 10
72.81486230749483
 20
111.5537278559719
 30
0.0
 11
72.81486230749483
 21
143.1316987386211
 31
0.0
  0
LINE
  5
29D
330
299
100
AcDbEntity
  8
치수문자_일반주서
 62
     0
370
    -2
100
AcDbLine
 10
110.8149812581667
 20
121.969099135908
 30
0.0
 11
110.8149812581667
 21
143.1316987386211
 31
0.0
  0
LINE
  5
29E
330
299
100
AcDbEntity
  8
치수문자_일반주서
 62
     0
370
    -2
100
AcDbLine
 10
76.81486230749483
 20
143.1316987386211
 30
0.0
 11
106.8149812581667
 21
143.1316987386211
 31
0.0
  0
SOLID
  5
29F
330
299
100
AcDbEntity
  8
치수문자_일반주서
 62
     0
100
AcDbTrace
 10
76.81486230749483
 20
143.7983654052878
 30
0.0
 11
76.81486230749483
 21
142.4650320719545
 31
0.0
 12
72.81486230749483
 22
143.1316987386211
 32
0.0
 13
72.81486230749483
 23
143.1316987386211
 33
0.0
  0
SOLID
  5
2A0
330
299
100
AcDbEntity
  8
치수문자_일반주서
 62
     0
100
AcDbTrace
 10
106.8149812581667
 20
142.4650320719545
 30
0.0
 11
106.8149812581667
 21
143.7983654052878
 31
0.0
 12
110.8149812581667
 22
143.1316987386211
 32
0.0
 13
110.8149812581667
 23
143.1316987386211
 33
0.0
  0
MTEXT
  5
2A1
330
299
100
AcDbEntity
  8
치수문자_일반주서
 62
     0
100
AcDbMText
 10
91.8830066651187
 20
148.0066987386211
 30
0.0
 40
4.0
 41
0.0
 71
     2
 72
     1
  1
\A1;38.00 [1.50]
  7
SLDTEXTSTYLE0
 73
     1
 44
1.0
  0
POINT
  5
2A2
330
299
100
AcDbEntity
  8
Defpoints
 62
     0
100
AcDbPoint
 10
72.81486230749483
 20
111.4912278559719
 30
0.0
  0
POINT
  5
2A3
330
299
100
AcDbEntity
  8
Defpoints
 62
     0
100
AcDbPoint
 10
110.8149812581667
 20
121.906599135908
 30
0.0
  0
POINT
  5
2A4
330
299
100
AcDbEntity
  8
Defpoints
 62
     0
100
AcDbPoint
 10
110.8149812581667
 20
143.1316987386211
 30
0.0
  0
ENDBLK
  5
29B
330
299
100
AcDbEntity
  8
0
100
AcDbBlockEnd
  0
BLOCK
  5
2A6
330
2A5
100
AcDbEntity
  8
0
100
AcDbBlockBegin
  2
*D15
 70
     1
 10
0.0
 20
0.0
 30
0.0
  3
*D15
  1
*D15
  0
LINE
  5
2A8
330
2A5
100
AcDbEntity
  8
치수문자_일반주서
 62
     0
370
    -2
100
AcDbLine
 10
7.252481258166704
 20
121.844099135908
 30
0.0
 11
-4.331150492469042
 21
121.844099135908
 31
0.0
  0
LINE
  5
2A9
330
2A5
100
AcDbEntity
  8
치수문자_일반주서
 62
     0
370
    -2
100
AcDbLine
 10
7.252481258166704
 20
101.844099135908
 30
0.0
 11
-4.331150492468971
 21
101.844099135908
 31
0.0
  0
LINE
  5
2AA
330
2A5
100
AcDbEntity
  8
치수문자_일반주서
 62
     0
370
    -2
100
AcDbLine
 10
-4.331150492469042
 20
121.844099135908
 30
0.0
 11
-4.331150492468971
 21
101.844099135908
 31
0.0
  0
LINE
  5
2AB
330
2A5
100
AcDbEntity
  8
치수문자_일반주서
 62
     0
370
    -2
100
AcDbLine
 10
-4.331150492469056
 20
125.844099135908
 30
0.0
 11
-4.33115049246907
 21
129.844099135908
 31
0.0
  0
LINE
  5
2AC
330
2A5
100
AcDbEntity
  8
치수문자_일반주서
 62
     0
370
    -2
100
AcDbLine
 10
-4.331150492468957
 20
97.844099135908
 30
0.0
 11
-4.331150492468943
 21
93.844099135908
 31
0.0
  0
SOLID
  5
2AD
330
2A5
100
AcDbEntity
  8
치수문자_일반주서
 62
     0
100
AcDbTrace
 10
-4.997817159135723
 20
125.844099135908
 30
0.0
 11
-3.664483825802389
 21
125.844099135908
 31
0.0
 12
-4.331150492469042
 22
121.844099135908
 32
0.0
 13
-4.331150492469042
 23
121.844099135908
 33
0.0
  0
SOLID
  5
2AE
330
2A5
100
AcDbEntity
  8
치수문자_일반주서
 62
     0
100
AcDbTrace
 10
-3.664483825802291
 20
97.844099135908
 30
0.0
 11
-4.997817159135624
 21
97.844099135908
 31
0.0
 12
-4.331150492468971
 22
101.844099135908
 32
0.0
 13
-4.331150492468971
 23
101.844099135908
 33
0.0
  0
MTEXT
  5
2AF
330
2A5
100
AcDbEntity
  8
치수문자_일반주서
 62
     0
100
AcDbMText
 10
-9.206150492469007
 20
111.844099135908
 30
0.0
 40
4.0
 41
0.0
 71
     2
 72
     1
  1
\A1;%%c20.00 [0.79]
  7
SLDTEXTSTYLE0
 11
-3.508304757815495E-15
 21
1.0
 31
0.0
 73
     1
 44
1.0
  0
POINT
  5
2B0
330
2A5
100
AcDbEntity
  8
Defpoints
 62
     0
100
AcDbPoint
 10
7.314981258166704
 20
121.844099135908
 30
0.0
  0
POINT
  5
2B1
330
2A5
100
AcDbEntity
  8
Defpoints
 62
     0
100
AcDbPoint
 10
7.314981258166704
 20
101.844099135908
 30
0.0
  0
POINT
  5
2B2
330
2A5
100
AcDbEntity
  8
Defpoints
 62
     0
100
AcDbPoint
 10
-4.331150492468971
 20
101.844099135908
 30
0.0
  0
ENDBLK
  5
2A7
330
2A5
100
AcDbEntity
  8
0
100
AcDbBlockEnd
  0
BLOCK
  5
2B4
330
2B3
100
AcDbEntity
  8
0
100
AcDbBlockBegin
  2
*D16
 70
     1
 10
0.0
 20
0.0
 30
0.0
  3
*D16
  1
*D16
  0
LINE
  5
2B6
330
2B3
100
AcDbEntity
  8
치수문자_일반주서
 62
     0
370
    -2
100
AcDbLine
 10
113.0014214282541
 20
98.9909706612198
 30
0.0
 11
138.4118813651239
 21
68.26396450030037
 31
0.0
  0
MTEXT
  5
2B7
330
2B3
100
AcDbEntity
  8
치수문자_일반주서
 62
     0
100
AcDbMText
 10
130.8291267150508
 20
81.94453765776696
 30
0.0
 40
4.0
 41
0.0
 71
     5
 72
     1
  1
\A1;R1.00 [R0.04]
  7
SLDTEXTSTYLE0
 11
0.6372880340174844
 21
-0.7706256949376459
 31
0.0
 73
     1
 44
1.0
  0
SOLID
  5
2B8
330
2B3
100
AcDbEntity
  8
치수문자_일반주서
 62
     0
100
AcDbTrace
 10
113.5151718915459
 20
99.41582935056479
 30
0.0
 11
112.4876709649624
 21
98.56611197187482
 31
0.0
 12
110.4522692921842
 22
102.0734734409704
 32
0.0
 13
110.4522692921842
 23
102.0734734409704
 33
0.0
  0
LINE
  5
2B9
330
2B3
100
AcDbEntity
  8
치수문자_일반주서
 62
     0
100
AcDbLine
 10
109.7249812581667
 20
102.844099135908
 30
0.0
 11
109.9049812581667
 21
102.844099135908
 31
0.0
  0
LINE
  5
2BA
330
2B3
100
AcDbEntity
  8
치수문자_일반주서
 62
     0
100
AcDbLine
 10
109.8149812581667
 20
102.754099135908
 30
0.0
 11
109.8149812581667
 21
102.934099135908
 31
0.0
  0
POINT
  5
2BB
330
2B3
100
AcDbEntity
  8
Defpoints
 62
     0
100
AcDbPoint
 10
110.4522692921842
 20
102.0734734409704
 30
0.0
  0
POINT
  5
2BC
330
2B3
100
AcDbEntity
  8
Defpoints
 62
     0
100
AcDbPoint
 10
109.8149812581667
 20
102.844099135908
 30
0.0
  0
ENDBLK
  5
2B5
330
2B3
100
AcDbEntity
  8
0
100
AcDbBlockEnd
  0
BLOCK
  5
2BE
330
2BD
100
AcDbEntity
  8
0
100
AcDbBlockBegin
  2
*D17
 70
     1
 10
0.0
 20
0.0
 30
0.0
  3
*D17
  1
*D17
  0
LINE
  5
2C0
330
2BD
100
AcDbEntity
  8
치수문자_일반주서
 62
     0
370
    -2
100
AcDbLine
 10
110.8774812581667
 20
121.844099135908
 30
0.0
 11
127.0515753505876
 21
121.844099135908
 31
0.0
  0
LINE
  5
2C1
330
2BD
100
AcDbEntity
  8
치수문자_일반주서
 62
     0
370
    -2
100
AcDbLine
 10
110.8774812581667
 20
101.844099135908
 30
0.0
 11
127.0515753505876
 21
101.844099135908
 31
0.0
  0
LINE
  5
2C2
330
2BD
100
AcDbEntity
  8
치수문자_일반주서
 62
     0
370
    -2
100
AcDbLine
 10
127.0515753505876
 20
121.844099135908
 30
0.0
 11
127.0515753505876
 21
101.844099135908
 31
0.0
  0
LINE
  5
2C3
330
2BD
100
AcDbEntity
  8
치수문자_일반주서
 62
     0
370
    -2
100
AcDbLine
 10
127.0515753505876
 20
125.844099135908
 30
0.0
 11
127.0515753505876
 21
129.844099135908
 31
0.0
  0
LINE
  5
2C4
330
2BD
100
AcDbEntity
  8
치수문자_일반주서
 62
     0
370
    -2
100
AcDbLine
 10
127.0515753505876
 20
97.84409913590804
 30
0.0
 11
127.0515753505876
 21
93.84409913590804
 31
0.0
  0
SOLID
  5
2C5
330
2BD
100
AcDbEntity
  8
치수문자_일반주서
 62
     0
100
AcDbTrace
 10
126.3849086839209
 20
125.844099135908
 30
0.0
 11
127.7182420172543
 21
125.844099135908
 31
0.0
 12
127.0515753505876
 22
121.844099135908
 32
0.0
 13
127.0515753505876
 23
121.844099135908
 33
0.0
  0
SOLID
  5
2C6
330
2BD
100
AcDbEntity
  8
치수문자_일반주서
 62
     0
100
AcDbTrace
 10
127.7182420172543
 20
97.84409913590804
 30
0.0
 11
126.3849086839209
 21
97.84409913590804
 31
0.0
 12
127.0515753505876
 22
101.844099135908
 32
0.0
 13
127.0515753505876
 23
101.844099135908
 33
0.0
  0
MTEXT
  5
2C7
330
2BD
100
AcDbEntity
  8
치수문자_일반주서
 62
     0
100
AcDbMText
 10
124.1765753505876
 20
111.844099135908
 30
0.0
 40
4.0
 41
0.0
 71
     5
 72
     1
  1
\A1;{%%c20.00}
  7
SLDTEXTSTYLE0
 11
0.0
 21
1.0
 31
0.0
 73
     1
 44
1.0
  0
POINT
  5
2C8
330
2BD
100
AcDbEntity
  8
Defpoints
 62
     0
100
AcDbPoint
 10
110.8149812581667
 20
121.844099135908
 30
0.0
  0
POINT
  5
2C9
330
2BD
100
AcDbEntity
  8
Defpoints
 62
     0
100
AcDbPoint
 10
110.8149812581667
 20
101.844099135908
 30
0.0
  0
POINT
  5
2CA
330
2BD
100
AcDbEntity
  8
Defpoints
 62
     0
100
AcDbPoint
 10
127.0515753505876
 20
101.844099135908
 30
0.0
  0
ENDBLK
  5
2BF
330
2BD
100
AcDbEntity
  8
0
100
AcDbBlockEnd
  0
ENDSEC
  0
SECTION
  2
ENTITIES
  0
SPLINE
  5
96
330
1F
100
AcDbEntity
  8
0
  6
Continuous
 62
     1
370
    15
100
AcDbSpline
210
0.0
220
0.0
230
1.0
 70
     8
 71
     3
 72
     9
 73
     5
 74
     0
 42
0.000000001
 43
0.00000001
 40
0.0
 40
0.0
 40
0.0
 40
0.0
 40
0.6128516634304222
 40
1.0
 40
1.0
 40
1.0
 40
1.0
 10
94.55000000000003
 20
1.751340851942537
 30
0.0
 10
94.48694915789885
 20
1.795514823002979
 30
0.0
 10
94.38406807612411
 20
1.867594208107655
 30
0.0
 10
94.2837452740868
 20
1.928704074098921
 30
0.0
 10
94.24490546815808
 20
1.95236265706543
 30
0.0
  0
LINE
  5
97
330
1F
100
AcDbEntity
  8
0
  6
Continuous
 62
     1
370
    15
100
AcDbLine
 10
87.65244704314667
 20
-1.88343710304676
 30
0.0
 11
87.77374454773341
 21
-1.951107858937911
 31
0.0
  0
LINE
  5
98
330
1F
100
AcDbEntity
  8
0
  6
Continuous
 62
     1
370
    15
100
AcDbLine
 10
40.72617701236155
 20
-9.571018386275755
 30
0.0
 11
48.16944720070586
 21
-9.571018386275755
 31
0.0
  0
LINE
  5
99
330
1F
100
AcDbEntity
  8
0
  6
Continuous
 62
     1
370
    15
100
AcDbLine
 10
94.55
 20
9.478981613724253
 30
0.0
 11
92.55497630464056
 21
9.478981613724253
 31
0.0
  0
LINE
  5
9A
330
1F
100
AcDbEntity
  8
0
  6
Continuous
 62
     1
370
    15
100
AcDbLine
 10
82.18997358563524
 20
-9.571018386275755
 30
0.0
 11
89.63290641413167
 21
-9.571018386275755
 31
0.0
  0
LINE
  5
9B
330
1F
100
AcDbEntity
  8
0
  6
Continuous
 62
     1
370
    15
100
AcDbLine
 10
37.80413857243352
 20
9.478981613724253
 30
0.0
 11
30.36035554890732
 21
9.478981613724253
 31
0.0
  0
LINE
  5
9C
330
1F
100
AcDbEntity
  8
0
  6
Continuous
 62
     1
370
    15
100
AcDbLine
 10
61.45782890762622
 20
-9.571018386275755
 30
0.0
 11
68.9008037151935
 21
-9.571018386275755
 31
0.0
  0
LINE
  5
9D
330
1F
100
AcDbEntity
  8
0
  6
Continuous
 62
     1
370
    15
100
AcDbLine
 10
17.07248344101534
 20
9.478981613724253
 30
0.0
 11
12.00000000000001
 21
9.478981613724253
 31
0.0
  0
LINE
  5
9E
330
1F
100
AcDbEntity
  8
0
  6
Continuous
 62
     1
370
    15
100
AcDbLine
 10
58.53577977126072
 20
9.478981613724253
 30
0.0
 11
51.09128499388564
 21
9.478981613724253
 31
0.0
  0
LINE
  5
9F
330
1F
100
AcDbEntity
  8
0
  6
Continuous
 62
     1
370
    15
100
AcDbLine
 10
19.99347941371951
 20
-9.571018386275755
 30
0.0
 11
27.43870033823813
 21
-9.571018386275755
 31
0.0
  0
LINE
  5
A0
330
1F
100
AcDbEntity
  8
0
  6
Continuous
 62
     1
370
    15
100
AcDbLine
 10
79.26786115114402
 20
9.478981613724253
 30
0.0
 11
71.82273128709478
 21
9.478981613724253
 31
0.0
  0
LINE
  5
A1
330
1F
100
AcDbEntity
  8
외형선
  6
Continuous
370
    15
100
AcDbLine
 10
-55.94499999999999
 20
-9.57101838627575
 30
0.0
 11
11.00008070105598
 21
-9.57101838627575
 31
0.0
  0
LINE
  5
A2
330
1F
100
AcDbEntity
  8
외형선
  6
Continuous
370
    15
100
AcDbLine
 10
12.00000000000001
 20
9.478981613724248
 30
0.0
 11
-55.94499999999999
 21
9.478981613724248
 31
0.0
  0
LINE
  5
A3
330
1F
100
AcDbEntity
  8
외형선
  6
Continuous
370
    15
100
AcDbLine
 10
-55.94499999999999
 20
9.47898161372425
 30
0.0
 11
-57.84999999999999
 21
7.573981613724255
 31
0.0
  0
LINE
  5
A4
330
1F
100
AcDbEntity
  8
외형선
  6
Continuous
370
    15
100
AcDbLine
 10
-57.84999999999999
 20
-7.666018386275758
 30
0.0
 11
-55.94499999999999
 21
-9.571018386275751
 31
0.0
  0
SPLINE
  5
A5
330
1F
100
AcDbEntity
  8
0
  6
Continuous
 62
     1
370
    15
100
AcDbSpline
210
0.0
220
0.0
230
1.0
 70
     8
 71
     3
 72
    27
 73
    23
 74
     0
 42
0.000000001
 43
0.00000001
 40
0.0
 40
0.0
 40
0.0
 40
0.0
 40
0.0265953797306224
 40
0.0832755379400883
 40
0.139961032013059
 40
0.1966503899119137
 40
0.2533421347476166
 40
0.3043735367381807
 40
0.3554050141561176
 40
0.4064365884724726
 40
0.4574682811511123
 40
0.5085001136471363
 40
0.5595321074052876
 40
0.610564283858369
 40
0.6615966644256592
 40
0.7126292705113279
 40
0.763662123502859
 40
0.814695244769474
 40
0.8657286556605573
 40
0.9167623775040842
 40
0.967796431605056
 40
1.0
 40
1.0
 40
1.0
 40
1.0
 10
17.07248344101533
 20
9.43114975028099
 30
0.0
 10
17.59085174288666
 20
9.441312882204814
 30
0.0
 10
19.21396822502214
 20
9.473135713338818
 30
0.0
 10
21.94202307916875
 20
9.115238743036478
 30
0.0
 10
25.25671357570565
 20
8.390717375294908
 30
0.0
 10
28.57162980720503
 20
7.305604233062514
 30
0.0
 10
31.7765435856291
 20
5.976153805323619
 30
0.0
 10
34.87055882017188
 20
4.477786954776544
 30
0.0
 10
37.85441142602743
 20
2.885638313271587
 30
0.0
 10
40.83823085108089
 20
1.197745137798141
 30
0.0
 10
43.82206929329725
 20
-0.5306989470093472
 30
0.0
 10
46.80591467504212
 20
-2.243339704827222
 30
0.0
 10
49.78977214037421
 20
-3.884296357328545
 30
0.0
 10
52.77364221781707
 20
-5.400030973958253
 30
0.0
 10
55.75752667103691
 20
-6.741113756106597
 30
0.0
 10
58.74142693274138
 20
-7.863714377131929
 30
0.0
 10
61.725344517688
 20
-8.731498193943747
 30
0.0
 10
64.70928093606564
 20
-9.315067842597172
 30
0.0
 10
67.69323762626507
 20
-9.599431554237682
 30
0.0
 10
70.6772163097264
 20
-9.560199384373249
 30
0.0
 10
73.29419968965499
 20
-9.292575487127117
 30
0.0
 10
74.91652550550677
 20
-8.919867646837789
 30
0.0
 10
75.54418255292224
 20
-8.775671764420819
 30
0.0
  0
SPLINE
  5
A6
330
1F
100
AcDbEntity
  8
0
  6
Continuous
 62
     1
370
    15
100
AcDbSpline
210
0.0
220
0.0
230
1.0
 70
     8
 71
     3
 72
    27
 73
    23
 74
     0
 42
0.000000001
 43
0.00000001
 40
0.0
 40
0.0
 40
0.0
 40
0.0
 40
0.0437915999171576
 40
0.0948235492851094
 40
0.1458551238815979
 40
0.1968863449598058
 40
0.2479172337990142
 40
0.2989478117030401
 40
0.3499780999986756
 40
0.4010081200341208
 40
0.4520378931774088
 40
0.5030674408148373
 40
0.5540967843493889
 40
0.6051259451991517
 40
0.6561549447957379
 40
0.7071838045827032
 40
0.7582125460139538
 40
0.8092411905521649
 40
0.8602697596671911
 40
0.916958357408146
 40
0.9736445683447572
 40
1.0
 40
1.0
 40
1.0
 40
1.0
 10
82.18997358563524
 20
-9.552081376546322
 30
0.0
 10
81.33641236306859
 20
-9.53762270197296
 30
0.0
 10
79.48816510083059
 20
-9.506314806312645
 30
0.0
 10
76.64524478622974
 20
-9.082257396732556
 30
0.0
 10
73.66121803004664
 20
-8.373248396288822
 30
0.0
 10
70.67721620469982
 20
-7.384282124808153
 30
0.0
 10
67.69323765440659
 20
-6.158126784615149
 30
0.0
 10
64.7092809285253
 20
-4.73197334771964
 30
0.0
 10
61.72534451970803
 20
-3.153104707867726
 30
0.0
 10
58.74142693220153
 20
-1.472829494500357
 30
0.0
 10
55.75752667117602
 20
0.2539799913708289
 30
0.0
 10
52.77364221780013
 20
1.971001777253044
 30
0.0
 10
49.78977214030255
 20
3.622217986690766
 30
0.0
 10
46.80591467534546
 20
5.153752922280274
 30
0.0
 10
43.82206929215533
 20
6.515671671111562
 30
0.0
 10
40.83823085534515
 20
7.663434153416811
 30
0.0
 10
37.85441141011232
 20
8.560006657496215
 30
0.0
 10
34.87055887956787
 20
9.174610522288067
 30
0.0
 10
31.77654335356875
 20
9.504673527978245
 30
0.0
 10
28.57163078085554
 20
9.474714335127992
 30
0.0
 10
25.84787193073419
 20
9.194693496030428
 30
0.0
 10
24.2291505421114
 20
8.798698346597417
 30
0.0
 10
23.71540708045551
 20
8.673018955258966
 30
0.0
  0
SPLINE
  5
A7
330
1F
100
AcDbEntity
  8
0
  6
Continuous
 62
     1
370
    15
100
AcDbSpline
210
0.0
220
0.0
230
1.0
 70
     8
 71
     3
 72
    21
 73
    17
 74
     0
 42
0.000000001
 43
0.00000001
 40
0.0
 40
0.0
 40
0.0
 40
0.0
 40
0.0774014581424149
 40
0.1548052997271071
 40
0.2322184303310086
 40
0.309638848598025
 40
0.3870645440355229
 40
0.4644934995248592
 40
0.5341916216189494
 40
0.6038898467309076
 40
0.6735882041856492
 40
0.7432867232982847
 40
0.812985433371951
 40
0.8826843636956395
 40
0.9523835435420349
 40
1.0
 40
1.0
 40
1.0
 40
1.0
 10
12.0
 20
5.501259070815834
 30
0.0
 10
13.10457822269168
 20
4.961137222627737
 30
0.0
 10
15.31376868162592
 20
3.880876894145653
 30
0.0
 10
18.62770938534105
 20
2.042660262871336
 30
0.0
 10
21.94202120333468
 20
0.136462861178807
 30
0.0
 10
25.25671407851941
 20
-1.781449288116222
 30
0.0
 10
28.57162967198811
 20
-3.628451744628565
 30
0.0
 10
31.77654361788002
 20
-5.274922389935867
 30
0.0
 10
34.87055881184088
 20
-6.676192206020275
 30
0.0
 10
37.85441142854729
 20
-7.811159993903862
 30
0.0
 10
40.83823084933253
 20
-8.693003890853214
 30
0.0
 10
43.82206929777075
 20
-9.291973244198797
 30
0.0
 10
46.80591465889626
 20
-9.592207326123518
 30
0.0
 10
49.78977220048448
 20
-9.570168036985086
 30
0.0
 10
52.45851253754006
 20
-9.308732292174398
 30
0.0
 10
54.13263509838168
 20
-8.931241009608845
 30
0.0
 10
54.81213347161471
 20
-8.778023605810167
 30
0.0
  0
SPLINE
  5
A8
330
1F
100
AcDbEntity
  8
0
  6
Continuous
 62
     1
370
    15
100
AcDbSpline
210
0.0
220
0.0
230
1.0
 70
     8
 71
     3
 72
    23
 73
    19
 74
     0
 42
0.000000001
 43
0.00000001
 40
0.0
 40
0.0
 40
0.0
 40
0.0
 40
0.054925162465005
 40
0.11525904710776
 40
0.1755926651288221
 40
0.2359260418335178
 40
0.2962592025450335
 40
0.3565921726025455
 40
0.4169249773593514
 40
0.477257642180986
 40
0.5375901924433526
 40
0.5979226535308421
 40
0.6649471199547574
 40
0.7319687643951703
 40
0.7989858407830571
 40
0.8659966087850345
 40
0.9329993359765409
 40
0.9999999999999999
 40
0.9999999999999999
 40
0.9999999999999999
 40
0.9999999999999999
 10
61.45782890762625
 20
-9.558329237376446
 30
0.0
 10
60.5523599585546
 20
-9.5385904308702
 30
0.0
 10
58.65225655290419
 20
-9.497169050816861
 30
0.0
 10
55.75752671710927
 20
-9.052561146936347
 30
0.0
 10
52.77364220546919
 20
-8.328004841635074
 30
0.0
 10
49.78977214369333
 20
-7.325866959339021
 30
0.0
 10
46.80591467411323
 20
-6.088212095206905
 30
0.0
 10
43.82206929369337
 20
-4.65290772008047
 30
0.0
 10
40.83823085042502
 20
-3.067452093326678
 30
0.0
 10
37.85441142825462
 20
-1.383389520844718
 30
0.0
 10
34.87055881191904
 20
0.3442936752812763
 30
0.0
 10
31.77654361785643
 20
2.122644902921029
 30
0.0
 10
28.57162967199474
 20
3.886556779842323
 30
0.0
 10
25.25671407851769
 20
5.552449963171412
 30
0.0
 10
21.94202120333517
 20
6.995013762970994
 30
0.0
 10
18.62770938534102
 20
8.146973587273532
 30
0.0
 10
15.313768681626
 20
8.996584722025165
 30
0.0
 10
13.10457822269176
 20
9.25273636000247
 30
0.0
 10
12.00000000000007
 20
9.380810207086268
 30
0.0
  0
SPLINE
  5
A9
330
1F
100
AcDbEntity
  8
외형선
  6
Continuous
370
    15
100
AcDbSpline
210
0.0
220
0.0
230
1.0
 70
    24
 71
     3
 72
    14
 73
    10
 74
     0
 42
0.000000001
 43
0.00000001
 40
0.0
 40
0.0
 40
0.0
 40
0.0
 40
0.1447453974412626
 40
0.2930278930484499
 40
0.4500952581630224
 40
0.6117175875064166
 40
0.7687849526209902
 40
0.9304072819643849
 40
1.0
 40
1.0
 40
1.0
 40
1.0
 10
12.0
 20
9.380810207087093
 30
0.0
 10
12.00000000000001
 20
9.194800712822323
 30
0.0
 10
12.00000000000004
 20
8.81823626825315
 30
0.0
 10
12.0
 20
8.213408285826292
 30
0.0
 10
12.00000000000004
 20
7.584906605964563
 30
0.0
 10
11.99999999999999
 20
6.956917884138091
 30
0.0
 10
12.00000000000007
 20
6.359806649857751
 30
0.0
 10
12.00000000000003
 20
5.904391025477298
 30
0.0
 10
12.00000000000003
 20
5.675853047232915
 30
0.0
 10
12.00000000000003
 20
5.607066092142053
 30
0.0
  0
LINE
  5
AA
330
1F
100
AcDbEntity
  8
0
  6
Continuous
 62
     1
370
    15
100
AcDbLine
 10
94.55
 20
-5.519395405658062
 30
0.0
 11
94.55
 21
1.783498339834675
 31
0.0
  0
LINE
  5
AB
330
1F
100
AcDbEntity
  8
0
  6
Continuous
 62
     1
370
    15
100
AcDbLine
 10
12.0
 20
-9.085054336284946
 30
0.0
 11
13.35200306875134
 21
-8.76634607917505
 31
0.0
  0
SPLINE
  5
AC
330
1F
100
AcDbEntity
  8
0
  6
Continuous
 62
     1
370
    15
100
AcDbSpline
210
0.0
220
0.0
230
1.0
 70
     8
 71
     3
 72
    20
 73
    16
 74
     0
 42
0.000000001
 43
0.00000001
 40
0.0
 40
0.0
 40
0.0
 40
0.0
 40
0.0057100923137439
 40
0.0885645551841406
 40
0.1714194536129411
 40
0.2542748222619693
 40
0.3371306957582905
 40
0.4199871086916708
 40
0.5028440956120332
 40
0.5857016910269304
 40
0.6685599293990153
 40
0.7514188451435228
 40
0.8342784726257602
 40
0.9171388461586041
 40
1.0
 40
1.0
 40
1.0
 40
1.0
 10
58.53577977126072
 20
9.469006369907346
 30
0.0
 10
58.60432737949992
 20
9.472291712866978
 30
0.0
 10
59.66751306881525
 20
9.523247970990301
 30
0.0
 10
61.72534471097811
 20
9.331324560451085
 30
0.0
 10
64.70928087689266
 20
8.873911696618226
 30
0.0
 10
67.6932376696656
 20
8.091506755631444
 30
0.0
 10
70.67721619529658
 20
7.052720146294851
 30
0.0
 10
73.66121805240077
 20
5.779889444999346
 30
0.0
 10
76.64524470621602
 20
4.317654874259985
 30
0.0
 10
79.62929765209249
 20
2.712807923534077
 30
0.0
 10
82.61337838684567
 20
1.018241038760625
 30
0.0
 10
85.5974883591719
 20
-0.7119869267267006
 30
0.0
 10
88.58162919595185
 20
-2.417054094680668
 30
0.0
 10
91.56580184593439
 20
-4.057591870683728
 30
0.0
 10
93.55526415948206
 20
-5.03212603111812
 30
0.0
 10
94.55
 20
-5.519395405658063
 30
0.0
  0
SPLINE
  5
AD
330
1F
100
AcDbEntity
  8
0
  6
Continuous
 62
     1
370
    15
100
AcDbSpline
210
0.0
220
0.0
230
1.0
 70
     8
 71
     3
 72
    17
 73
    13
 74
     0
 42
0.000000001
 43
0.00000001
 40
0.0
 40
0.0
 40
0.0
 40
0.0
 40
0.1016089742257206
 40
0.2032169915935178
 40
0.3048240941124001
 40
0.4064303238587295
 40
0.5080357229731666
 40
0.6096403336575938
 40
0.7112441981720414
 40
0.8128473588315959
 40
0.9144498580033055
 40
1.0
 40
1.0
 40
1.0
 40
1.0
 10
94.54999999999997
 20
1.783498339834675
 30
0.0
 10
93.5552641594801
 20
2.341303924375546
 30
0.0
 10
91.56580184592856
 20
3.456909840567988
 30
0.0
 10
88.581629195975
 20
5.000038429482746
 30
0.0
 10
85.59748835908496
 20
6.382823483625692
 30
0.0
 10
82.61337838717007
 20
7.554667612101675
 30
0.0
 10
79.62929765088148
 20
8.478990049199632
 30
0.0
 10
76.6452447107354
 20
9.124524570760862
 30
0.0
 10
73.66121803553386
 20
9.473012740029544
 30
0.0
 10
70.67721625824399
 20
9.503001155952973
 30
0.0
 10
67.85037936958925
 20
9.264327757711426
 30
0.0
 10
66.01821123171644
 20
8.875626320776657
 30
0.0
 10
65.18070104015146
 20
8.697945349156456
 30
0.0
  0
SPLINE
  5
AE
330
1F
100
AcDbEntity
  8
0
  6
Continuous
 62
     1
370
    15
100
AcDbSpline
210
0.0
220
0.0
230
1.0
 70
     8
 71
     3
 72
    10
 73
     6
 74
     0
 42
0.000000001
 43
0.00000001
 40
0.0
 40
0.0
 40
0.0
 40
0.0
 40
0.1708711727337306
 40
0.5854419691609432
 40
1.0
 40
1.0
 40
1.0
 40
1.0
 10
19.99347941371951
 20
-9.524487305061848
 30
0.0
 10
19.5381824992993
 20
-9.535489642240222
 30
0.0
 10
17.9782357987143
 20
-9.573186053167989
 30
0.0
 10
15.31377171406731
 20
-9.254015994159621
 30
0.0
 10
13.10457923349517
 20
-8.73415521639231
 30
0.0
 10
12.00000000000007
 20
-8.474228829497468
 30
0.0
  0
SPLINE
  5
AF
330
1F
100
AcDbEntity
  8
외형선
  6
Continuous
370
    15
100
AcDbSpline
210
0.0
220
0.0
230
1.0
 70
    24
 71
     3
 72
     9
 73
     5
 74
     0
 42
0.000000001
 43
0.00000001
 40
0.0
 40
0.0
 40
0.0
 40
0.0
 40
0.5058605699889966
 40
1.0
 40
1.0
 40
1.0
 40
1.0
 10
12.00000000000004
 20
-8.580045850823701
 30
0.0
 10
12.00000000000006
 20
-8.663562524139937
 30
0.0
 10
12.00000000000009
 20
-8.82866073157297
 30
0.0
 10
12.00000000000006
 20
-9.000260248701089
 30
0.0
 10
12.00000000000004
 20
-9.085054336284943
 30
0.0
  0
LINE
  5
B0
330
1F
100
AcDbEntity
  8
0
  6
Continuous
 62
     1
370
    15
100
AcDbLine
 10
94.55
 20
-9.151220846858937
 30
0.0
 11
94.55
 21
-8.370806663916921
 31
0.0
  0
SPLINE
  5
B1
330
1F
100
AcDbEntity
  8
0
  6
Continuous
 62
     1
370
    15
100
AcDbSpline
210
0.0
220
0.0
230
1.0
 70
     8
 71
     3
 72
    27
 73
    23
 74
     0
 42
0.000000001
 43
0.00000001
 40
0.0
 40
0.0
 40
0.0
 40
0.0
 40
0.000885790304945
 40
0.0534685267730639
 40
0.1060513852012225
 40
0.1586343876966722
 40
0.211217556355993
 40
0.2638009132634621
 40
0.316384480489421
 40
0.3689682800886436
 40
0.42155233409871
 40
0.4741366645383837
 40
0.5267212934059874
 40
0.5793062426777842
 40
0.6318915343063651
 40
0.6844771902190344
 40
0.7370632323162055
 40
0.7896496824697966
 40
0.8422365625216309
 40
0.8948238942818458
 40
0.9474116995273025
 40
1.0
 40
1.0
 40
1.0
 40
1.0
 10
37.80413857243352
 20
9.476408026545359
 30
0.0
 10
37.82089340260057
 20
9.477264231824797
 30
0.0
 10
38.83225701807889
 20
9.52894693217873
 30
0.0
 10
40.83823271516741
 20
9.346212422645277
 30
0.0
 10
43.82206879381555
 20
8.907120681881903
 30
0.0
 10
46.8059148088757
 20
8.13866111652566
 30
0.0
 10
49.78977210452361
 20
7.113172466780619
 30
0.0
 10
52.77364222738518
 20
5.851443248399745
 30
0.0
 10
55.75752666861513
 20
4.398028979100003
 30
0.0
 10
58.74142693286036
 20
2.799435774263548
 30
0.0
 10
61.72534451963375
 20
1.108059442844013
 30
0.0
 10
64.70928092816362
 20
-0.6209854678125004
 30
0.0
 10
67.69323765592748
 20
-2.331273052211722
 30
0.0
 10
70.67721619897775
 20
-3.967007491005031
 30
0.0
 10
73.66121805141444
 20
-5.474831282639728
 30
0.0
 10
76.64524470648026
 20
-6.805513497548493
 30
0.0
 10
79.62929765202175
 20
-7.915778044823393
 30
0.0
 10
82.6133783868646
 20
-8.768879809067748
 30
0.0
 10
85.59748835916685
 20
-9.33892483612036
 30
0.0
 10
88.58162919595325
 20
-9.600065996380435
 30
0.0
 10
91.56580184593403
 20
-9.570822950299577
 30
0.0
 10
93.55526415948195
 20
-9.291088653720381
 30
0.0
 10
94.55
 20
-9.151220846858939
 30
0.0
  0
SPLINE
  5
B2
330
1F
100
AcDbEntity
  8
0
  6
Continuous
 62
     1
370
    15
100
AcDbSpline
210
0.0
220
0.0
230
1.0
 70
     8
 71
     3
 72
    24
 73
    20
 74
     0
 42
0.000000001
 43
0.00000001
 40
0.0
 40
0.0
 40
0.0
 40
0.0
 40
0.0595635019113042
 40
0.1191264429094687
 40
0.1786888476203072
 40
0.2382507407091161
 40
0.2978121468788838
 40
0.3573730908684872
 40
0.4169335974508897
 40
0.4764936914313286
 40
0.5360533976455018
 40
0.5956127409577435
 40
0.655171746259203
 40
0.7147304384660157
 40
0.7742888425174643
 40
0.8338469833741492
 40
0.8934048860161435
 40
0.9529625754411511
 40
0.9999999999999999
 40
0.9999999999999999
 40
0.9999999999999999
 40
0.9999999999999999
 10
94.54999999999997
 20
-8.370806663916921
 30
0.0
 10
93.5552641594819
 20
-8.065467264695293
 30
0.0
 10
91.565801845934
 20
-7.45479134165183
 30
0.0
 10
88.58162919595321
 20
-6.224276600697197
 30
0.0
 10
85.59748835916676
 20
-4.811693896339257
 30
0.0
 10
82.61337838686454
 20
-3.238406254572623
 30
0.0
 10
79.62929765202175
 20
-1.562369835662646
 30
0.0
 10
76.64524470647991
 20
0.1635083100794927
 30
0.0
 10
73.66121805141528
 20
1.882444698941918
 30
0.0
 10
70.67721619897428
 20
3.538487655939109
 30
0.0
 10
67.6932376559402
 20
5.077571285006663
 30
0.0
 10
64.70928092811636
 20
6.449509004064693
 30
0.0
 10
61.72534451981028
 20
7.609483022466208
 30
0.0
 10
58.74142693220139
 20
8.519867381503348
 30
0.0
 10
55.75752667107432
 20
9.150158873781784
 30
0.0
 10
52.773642218207
 20
9.48279672973558
 30
0.0
 10
49.78977213877681
 20
9.49573312051393
 30
0.0
 10
47.01500113851391
 20
9.248933301191009
 30
0.0
 10
45.23485411046082
 20
8.863359914180762
 30
0.0
 10
44.44932531456884
 20
8.69321722728293
 30
0.0
  0
LINE
  5
B3
330
1F
100
AcDbEntity
  8
0
  6
Continuous
 62
     1
370
    15
100
AcDbLine
 10
94.55
 20
5.669187909950091
 30
0.0
 11
94.55
 21
9.409473411088069
 31
0.0
  0
SPLINE
  5
B4
330
1F
100
AcDbEntity
  8
0
  6
Continuous
 62
     1
370
    15
100
AcDbSpline
210
0.0
220
0.0
230
1.0
 70
     8
 71
     3
 72
    14
 73
    10
 74
     0
 42
0.000000001
 43
0.00000001
 40
0.0
 40
0.0
 40
0.0
 40
0.0
 40
0.1500783229867289
 40
0.3001612673724404
 40
0.4502622227938429
 40
0.6003773087017376
 40
0.7505026268315437
 40
0.9006342660711132
 40
1.0
 40
1.0
 40
1.0
 40
1.0
 10
12.00000000000001
 20
-5.695802308322538
 30
0.0
 10
13.10457821895329
 20
-6.187294606379357
 30
0.0
 10
15.31376867041055
 20
-7.170294337137097
 30
0.0
 10
18.62770943020645
 20
-8.297569977488713
 30
0.0
 10
21.94202103506051
 20
-9.108394691054093
 30
0.0
 10
25.25671470682429
 20
-9.553363364363777
 30
0.0
 10
28.57162732685285
 20
-9.605589911195512
 30
0.0
 10
31.51320769590234
 20
-9.348204698032387
 30
0.0
 10
33.3493912311786
 20
-8.94266328269755
 30
0.0
 10
34.08067638377884
 20
-8.781150879334094
 30
0.0
  0
SPLINE
  5
B5
330
1F
100
AcDbEntity
  8
0
  6
Continuous
 62
     1
370
    15
100
AcDbSpline
210
0.0
220
0.0
230
1.0
 70
     8
 71
     3
 72
    13
 73
     9
 74
     0
 42
0.000000001
 43
0.00000001
 40
0.0
 40
0.0
 40
0.0
 40
0.0
 40
0.0236505711741006
 40
0.218917102453532
 40
0.4141852300517593
 40
0.6094550349552303
 40
0.8047265980268326
 40
1.0
 40
1.0
 40
1.0
 40
1.0
 10
79.26786115114402
 20
9.462427045232332
 30
0.0
 10
79.38833766043427
 20
9.467789596289203
 30
0.0
 10
80.50350600598479
 20
9.517427050306175
 30
0.0
 10
82.6133786701169
 20
9.315182680687888
 30
0.0
 10
85.59748828329471
 20
8.840495736145302
 30
0.0
 10
88.58162921618607
 20
8.041262184693007
 30
0.0
 10
91.56580184087578
 20
6.999844016824739
 30
0.0
 10
93.55526415779583
 20
6.117583419056096
 30
0.0
 10
94.55
 20
5.676451043086496
 30
0.0
  0
SPLINE
  5
B6
330
1F
100
AcDbEntity
  8
0
  6
Continuous
 62
     1
370
    15
100
AcDbSpline
210
0.0
220
0.0
230
1.0
 70
     8
 71
     3
 72
    10
 73
     6
 74
     0
 42
0.000000001
 43
0.00000001
 40
0.0
 40
0.0
 40
0.0
 40
0.0
 40
0.3454957802121586
 40
0.690988306869429
 40
0.9999999999999999
 40
0.9999999999999999
 40
0.9999999999999999
 40
0.9999999999999999
 10
94.55
 20
9.40947341108807
 30
0.0
 10
93.55526418411652
 20
9.447501351963147
 30
0.0
 10
91.56580191983755
 20
9.523556875601859
 30
0.0
 10
88.68665367206292
 20
9.27639567529902
 30
0.0
 10
86.80224301332422
 20
8.887215558712091
 30
0.0
 10
85.91255443591687
 20
8.703471584076967
 30
0.0
  0
SPLINE
  5
B7
330
1F
100
AcDbEntity
  8
0
  6
Continuous
 62
     1
370
    15
100
AcDbSpline
210
0.0
220
0.0
230
1.0
 70
     8
 71
     3
 72
    16
 73
    12
 74
     0
 42
0.000000001
 43
0.00000001
 40
0.0
 40
0.0
 40
0.0
 40
0.0
 40
0.0999759355613926
 40
0.2038526279565437
 40
0.307729166816145
 40
0.4231275686968795
 40
0.5385211118684934
 40
0.653906790061998
 40
0.7692816068836595
 40
0.8846425795566444
 40
1.0
 40
1.0
 40
1.0
 40
1.0
 10
40.72617701236155
 20
-9.565401086773575
 30
0.0
 10
39.76892089986227
 20
-9.539855990577879
 30
0.0
 10
37.81705945375839
 20
-9.487769106252628
 30
0.0
 10
34.87055892362579
 20
-9.022091101399559
 30
0.0
 10
31.77654358420749
 20
-8.254692710455968
 30
0.0
 10
28.57162968140776
 20
-7.148276103950155
 30
0.0
 10
25.25671407599574
 20
-5.720135726943743
 30
0.0
 10
21.9420212040106
 20
-4.062879874449759
 30
0.0
 10
18.62770938516094
 20
-2.245500929600138
 30
0.0
 10
15.31376868167105
 20
-0.3349149989924887
 30
0.0
 10
13.10457822270677
 20
0.9348879987510305
 30
0.0
 10
12.00000000000007
 20
1.569779722433714
 30
0.0
  0
SPLINE
  5
B8
330
1F
100
AcDbEntity
  8
외형선
  6
Continuous
370
    15
100
AcDbSpline
210
0.0
220
0.0
230
1.0
 70
    24
 71
     3
 72
    23
 73
    19
 74
     0
 42
0.000000001
 43
0.00000001
 40
0.0
 40
0.0
 40
0.0
 40
0.0
 40
0.0167987649586712
 40
0.0850838226072383
 40
0.1533688802558054
 40
0.2216539379043728
 40
0.2899389955529402
 40
0.358224053201508
 40
0.4265091108500756
 40
0.4947941684986428
 40
0.5630792261472098
 40
0.6313642837957778
 40
0.6996493414443458
 40
0.7679343990929135
 40
0.8362194567414815
 40
0.9045045143900485
 40
0.9727895720386157
 40
1.0
 40
1.0
 40
1.0
 40
1.0
 10
12.00000000000001
 20
1.443566517077463
 30
0.0
 10
12.00000000000001
 20
1.438211489816154
 30
0.0
 10
12.0
 20
1.411088889394096
 30
0.0
 10
12.00000000000001
 20
1.200650200444794
 30
0.0
 10
12.00000000000001
 20
0.8878921489027329
 30
0.0
 10
12.00000000000003
 20
0.4674311082866647
 30
0.0
 10
12.00000000000003
 20
-0.0236676396614604
 30
0.0
 10
12.00000000000003
 20
-0.5801607318260359
 30
0.0
 10
12.00000000000003
 20
-1.182427213704812
 30
0.0
 10
12.00000000000001
 20
-1.815374944735203
 30
0.0
 10
12.00000000000006
 20
-2.46006163921821
 30
0.0
 10
12.0
 20
-3.098327168366886
 30
0.0
 10
12.00000000000003
 20
-3.712704227085034
 30
0.0
 10
12.00000000000004
 20
-4.284289999149697
 30
0.0
 10
12.00000000000003
 20
-4.79928921733168
 30
0.0
 10
12.00000000000004
 20
-5.238998638613424
 30
0.0
 10
12.00000000000011
 20
-5.527120002675282
 30
0.0
 10
12.00000000000004
 20
-5.658396468680539
 30
0.0
 10
12.00000000000003
 20
-5.695802308322543
 30
0.0
  0
LINE
  5
B9
330
1F
100
AcDbEntity
  8
0
  6
Continuous
 62
     1
370
    15
100
AcDbLine
 10
94.55
 20
9.409473411088069
 30
0.0
 11
94.55
 21
9.478981613724253
 31
0.0
  0
LINE
  5
BA
330
1F
100
AcDbEntity
  8
외형선
  6
Continuous
370
    15
100
AcDbLine
 10
12.00000000000001
 20
1.569779722433587
 30
0.0
 11
12.00000000000003
 21
5.501259070815825
 31
0.0
  0
LINE
  5
BB
330
1F
100
AcDbEntity
  8
0
  6
Continuous
 62
     1
370
    15
100
AcDbLine
 10
94.55
 20
-8.370806663916921
 30
0.0
 11
94.55
 21
-5.519395405658062
 31
0.0
  0
LINE
  5
BC
330
1F
100
AcDbEntity
  8
0
  6
Continuous
 62
     1
370
    15
100
AcDbLine
 10
94.55
 20
1.783498339834675
 30
0.0
 11
94.55
 21
5.676451043086496
 31
0.0
  0
LINE
  5
BD
330
1F
100
AcDbEntity
  8
외형선
  6
Continuous
370
    15
100
AcDbLine
 10
11.99999999999999
 20
-8.474228829497441
 30
0.0
 11
12.00000000000001
 21
-5.695802308322538
 31
0.0
  0
LINE
  5
BE
330
1F
100
AcDbEntity
  8
외형선
  6
Continuous
370
    15
100
AcDbLine
 10
11.00008070105598
 20
-9.57101838627575
 30
0.0
 11
11.00008070105598
 21
-8.189992071526836
 31
0.0
  0
SPLINE
  5
BF
330
1F
100
AcDbEntity
  8
외형선
  6
Continuous
370
    15
100
AcDbSpline
210
0.0
220
0.0
230
1.0
 70
     8
 71
     3
 72
     8
 73
     4
 74
     0
 42
0.000000001
 43
0.00000001
 40
0.0
 40
0.0
 40
0.0
 40
0.0
 40
1.0
 40
1.0
 40
1.0
 40
1.0
 10
12.00000000000004
 20
-9.085054336284934
 30
0.0
 10
11.66757283701763
 20
-9.145675199666465
 30
0.0
 10
11.33396128192617
 20
-9.200839854433168
 30
0.0
 10
11.00008070105596
 20
-9.250372263726097
 30
0.0
  0
SPLINE
  5
C0
330
1F
100
AcDbEntity
  8
외형선
  6
Continuous
370
    15
100
AcDbSpline
210
0.0
220
0.0
230
1.0
 70
     8
 71
     3
 72
     8
 73
     4
 74
     0
 42
0.000000001
 43
0.00000001
 40
0.0
 40
0.0
 40
0.0
 40
0.0
 40
1.0
 40
1.0
 40
1.0
 40
1.0
 10
12.00000000000001
 20
9.380810207086267
 30
0.0
 10
11.66757283701762
 20
9.408339934577405
 30
0.0
 10
11.33396128192617
 20
9.430137014425934
 30
0.0
 10
11.00008070105598
 20
9.446116274327636
 30
0.0
  0
LINE
  5
C1
330
1F
100
AcDbEntity
  8
외형선
  6
Continuous
370
    15
100
AcDbLine
 10
11.00008070105598
 20
5.960016520583935
 30
0.0
 11
11.00008070105598
 21
9.446118085281363
 31
0.0
  0
SPLINE
  5
C2
330
1F
100
AcDbEntity
  8
외형선
  6
Continuous
370
    15
100
AcDbSpline
210
0.0
220
0.0
230
1.0
 70
     8
 71
     3
 72
     8
 73
     4
 74
     0
 42
0.000000001
 43
0.00000001
 40
0.0
 40
0.0
 40
0.0
 40
0.0
 40
1.0
 40
1.0
 40
1.0
 40
1.0
 10
12.00000000000004
 20
5.501259070815817
 30
0.0
 10
11.66757283701763
 20
5.657534438384668
 30
0.0
 10
11.33396128192617
 20
5.810602625127282
 30
0.0
 10
11.00008070105596
 20
5.960027266906865
 30
0.0
  0
SPLINE
  5
C3
330
1F
100
AcDbEntity
  8
외형선
  6
Continuous
370
    15
100
AcDbSpline
210
0.0
220
0.0
230
1.0
 70
     8
 71
     3
 72
     8
 73
     4
 74
     0
 42
0.000000001
 43
0.00000001
 40
0.0
 40
0.0
 40
0.0
 40
0.0
 40
1.0
 40
1.0
 40
1.0
 40
1.0
 10
12.00000000000001
 20
1.569779722433754
 30
0.0
 10
11.66757283701762
 20
1.759235707036686
 30
0.0
 10
11.33396128192617
 20
1.947928325862064
 30
0.0
 10
11.00008070105598
 20
2.13533358512682
 30
0.0
  0
LINE
  5
C4
330
1F
100
AcDbEntity
  8
외형선
  6
Continuous
370
    15
100
AcDbLine
 10
11.00008070105598
 20
-5.221001423664981
 30
0.0
 11
11.00008070105598
 21
2.135354824335069
 31
0.0
  0
SPLINE
  5
C5
330
1F
100
AcDbEntity
  8
외형선
  6
Continuous
370
    15
100
AcDbSpline
210
0.0
220
0.0
230
1.0
 70
     8
 71
     3
 72
     8
 73
     4
 74
     0
 42
0.000000001
 43
0.00000001
 40
0.0
 40
0.0
 40
0.0
 40
0.0
 40
1.0
 40
1.0
 40
1.0
 40
1.0
 10
12.00000000000004
 20
-5.695802308322543
 30
0.0
 10
11.66757283701763
 20
-5.541030069370442
 30
0.0
 10
11.33396128192617
 20
-5.382618827014761
 30
0.0
 10
11.00008070105596
 20
-5.22098979963925
 30
0.0
  0
SPLINE
  5
C6
330
1F
100
AcDbEntity
  8
외형선
  6
Continuous
370
    15
100
AcDbSpline
210
0.0
220
0.0
230
1.0
 70
     8
 71
     3
 72
     8
 73
     4
 74
     0
 42
0.000000001
 43
0.00000001
 40
0.0
 40
0.0
 40
0.0
 40
0.0
 40
1.0
 40
1.0
 40
1.0
 40
1.0
 10
12.00000000000001
 20
-8.474228829497443
 30
0.0
 10
11.66757283701762
 20
-8.38466831913189
 30
0.0
 10
11.33396128192617
 20
-8.289846947120106
 30
0.0
 10
11.00008070105598
 20
-8.190003387125701
 30
0.0
  0
LINE
  5
C7
330
1F
100
AcDbEntity
  8
외형선
  6
Continuous
370
    15
100
AcDbLine
 10
-55.94499999999999
 20
-0.0460183862757512
 30
0.0
 11
-55.94499999999999
 21
9.478981613724248
 31
0.0
  0
LINE
  5
C8
330
1F
100
AcDbEntity
  8
외형선
  6
Continuous
370
    15
100
AcDbLine
 10
-55.94499999999999
 20
-9.57101838627575
 30
0.0
 11
-55.94499999999999
 21
-0.0460183862757512
 31
0.0
  0
LINE
  5
C9
330
1F
100
AcDbEntity
  8
외형선
  6
Continuous
370
    15
100
AcDbLine
 10
-57.84999999999999
 20
-0.0460183862757512
 30
0.0
 11
-57.84999999999999
 21
7.573981613724255
 31
0.0
  0
LINE
  5
CA
330
1F
100
AcDbEntity
  8
외형선
  6
Continuous
370
    15
100
AcDbLine
 10
-57.84999999999999
 20
-7.666018386275758
 30
0.0
 11
-57.84999999999999
 21
-0.0460183862757512
 31
0.0
  0
SPLINE
  5
CB
330
1F
100
AcDbEntity
  8
외형선
  6
Continuous
370
    15
100
AcDbSpline
210
0.0
220
0.0
230
1.0
 70
    24
 71
     3
 72
    23
 73
    19
 74
     0
 42
0.000000001
 43
0.00000001
 40
0.0
 40
0.0
 40
0.0
 40
0.0
 40
0.0675501382591475
 40
0.129823534371547
 40
0.1920969304839465
 40
0.2543703265963462
 40
0.3166437227087459
 40
0.3789171188211455
 40
0.4411905149335452
 40
0.5034639110459451
 40
0.5657373071583451
 40
0.6280107032707446
 40
0.6902840993831442
 40
0.7525574954955334
 40
0.8148308916079228
 40
0.8771042877203336
 40
0.9393776838327443
 40
1.0
 40
1.0
 40
1.0
 40
1.0
 10
12.00000000000003
 20
-5.695802308322538
 30
0.0
 10
12.00000000000004
 20
-5.587081338858076
 30
0.0
 10
12.00000000000004
 20
-5.378132240011989
 30
0.0
 10
12.00000000000003
 20
-4.943831469561218
 30
0.0
 10
12.00000000000004
 20
-4.453244469123811
 30
0.0
 10
12.00000000000004
 20
-3.89661423752797
 30
0.0
 10
12.00000000000006
 20
-3.29438456586354
 30
0.0
 10
12.00000000000001
 20
-2.661426733407031
 30
0.0
 10
11.99999999999997
 20
-2.016743634414132
 30
0.0
 10
12.0
 20
-1.378473824731135
 30
0.0
 10
12.0
 20
-0.7641102926601548
 30
0.0
 10
12.00000000000003
 20
-0.1924746945411611
 30
0.0
 10
12.0
 20
0.3223387460706247
 30
0.0
 10
12.00000000000001
 20
0.7627414515786696
 30
0.0
 10
11.99999999999999
 20
1.120533601860068
 30
0.0
 10
12.00000000000001
 20
1.37792200892223
 30
0.0
 10
12.00000000000004
 20
1.544813665943123
 30
0.0
 10
12.00000000000001
 20
1.556470344299585
 30
0.0
 10
12.00000000000001
 20
1.562220380876755
 30
0.0
  0
SPLINE
  5
CC
330
1F
100
AcDbEntity
  8
외형선
  6
Continuous
370
    15
100
AcDbSpline
210
0.0
220
0.0
230
1.0
 70
    24
 71
     3
 72
    14
 73
    10
 74
     0
 42
0.000000001
 43
0.00000001
 40
0.0
 40
0.0
 40
0.0
 40
0.0
 40
0.0182121218891883
 40
0.1778164933687885
 40
0.3374208648483625
 40
0.4970252363279366
 40
0.6566296078075657
 40
0.8162339792871949
 40
1.0
 40
1.0
 40
1.0
 40
1.0
 10
12.00000000000001
 20
5.607076092142052
 30
0.0
 10
12.0
 20
5.624370140072966
 30
0.0
 10
11.99999999999999
 20
5.793222895283911
 30
0.0
 10
12.00000000000001
 20
6.181280783432832
 30
0.0
 10
12.0
 20
6.759431005987752
 30
0.0
 10
11.99999999999995
 20
7.382277506818508
 30
0.0
 10
12.00000000000003
 20
8.022990003084846
 30
0.0
 10
12.00000000000004
 20
8.701360226999327
 30
0.0
 10
12.00000000000003
 20
9.143945865983712
 30
0.0
 10
12.00000000000003
 20
9.380810207086292
 30
0.0
  0
SPLINE
  5
CD
330
1F
100
AcDbEntity
  8
외형선
  6
Continuous
370
    15
100
AcDbSpline
210
0.0
220
0.0
230
1.0
 70
    24
 71
     3
 72
     9
 73
     5
 74
     0
 42
0.000000001
 43
0.00000001
 40
0.0
 40
0.0
 40
0.0
 40
0.0
 40
0.6735811191422625
 40
1.0
 40
1.0
 40
1.0
 40
1.0
 10
12.00000000000003
 20
-9.085054336284937
 30
0.0
 10
12.00000000000001
 20
-8.970198092351714
 30
0.0
 10
11.99999999999999
 20
-8.799682261861275
 30
0.0
 10
11.99999999999999
 20
-8.634096251131735
 30
0.0
 10
12.00000000000001
 20
-8.580045850823701
 30
0.0
  0
LINE
  5
CE
330
1F
100
AcDbEntity
  8
중심선
 62
     1
100
AcDbLine
 10
-60.85
 20
-0.0000000000000056
 30
0.0
 11
97.55
 21
0.0000000000000095
 31
0.0
  0
LINE
  5
CF
330
1F
100
AcDbEntity
  8
참조1
100
AcDbLine
 10
54.45000000000001
 20
0.0010749287238892
 30
0.0
 11
54.45000000000002
 21
-39.99892507127611
 31
0.0
  0
LINE
  5
D0
330
1F
100
AcDbEntity
  8
참조1
100
AcDbLine
 10
54.45000000000002
 20
-39.99892507127611
 30
0.0
 11
-17.85885681430866
 21
-39.9989250712761
 31
0.0
  0
CIRCLE
  5
D1
330
1F
100
AcDbEntity
  8
해칭선
100
AcDbCircle
 10
0.0
 20
0.0
 30
0.0
 40
3.000000000000004
  0
INSERT
  5
D2
330
1F
100
AcDbEntity
  8
0
  6
Continuous
 62
     7
100
AcDbBlockReference
 66
     1
  2
블럭10
 10
4.409727067874805
 20
-52.04717430164393
 30
0.0
  0
ATTRIB
  5
D3
330
D2
100
AcDbEntity
  8
FORMAT
 62
     2
100
AcDbText
 10
-4.771568220866477
 20
-49.97180738881175
 30
0.0
 40
4.233333333333333
  1
E5068048 [ 5 FLUTE ]
 41
0.75
  7
SLDTEXTSTYLE0
 11
-4.771568220866477
 21
-52.08847405547841
 31
0.0
100
AcDbAttribute
  2
AUTOATTR0
 70
     0
 74
     1
  0
SEQEND
  5
D4
330
D2
100
AcDbEntity
  8
0
  6
Continuous
 62
     7
  0
HATCH
  5
D5
330
1F
100
AcDbEntity
  8
중심선
100
AcDbHatch
 10
0.0
 20
0.0
 30
0.0
210
0.0
220
0.0
230
1.0
  2
SOLID
 70
     1
 71
     0
 91
        1
 92
        0
 93
        4
 72
     1
 10
10.12463637225565
 20
-35.8
 11
6.678361128418366
 21
-35.8
 72
     1
 10
6.678361128418366
 20
-35.8
 11
4.550131269214397
 21
-38.3363255805726
 72
     1
 10
4.550131269214397
 20
-38.33632558057261
 11
7.99643959816472
 21
-38.33628615127012
 72
     1
 10
7.99643959816472
 20
-38.33628615127012
 11
10.12463637225565
 21
-35.8
 97
        0
 75
     0
 76
     1
 98
        1
 10
-36.10000000000001
 20
-0.0010749287238987
  0
HATCH
  5
D6
330
1F
100
AcDbEntity
  8
중심선
100
AcDbHatch
 10
0.0
 20
0.0
 30
0.0
210
0.0
220
0.0
230
1.0
  2
SOLID
 70
     1
 71
     0
 91
        1
 92
        0
 93
        4
 72
     1
 10
15.1374003632916
 20
-35.79999999999998
 11
11.69112511945437
 21
-35.79999999999998
 72
     1
 10
11.69112511945437
 20
-35.79999999999998
 11
7.159987111096903
 21
-41.20000000000002
 72
     1
 10
7.159987111096903
 20
-41.20000000000002
 11
10.60626235493418
 21
-41.20000000000002
 72
     1
 10
10.60626235493418
 20
-41.20000000000002
 11
15.1374003632916
 21
-35.79999999999998
 97
        0
 75
     0
 76
     1
 98
        1
 10
-36.10000000000001
 20
-0.0010749287238987
  0
HATCH
  5
D7
330
1F
100
AcDbEntity
  8
중심선
100
AcDbHatch
 10
0.0
 20
0.0
 30
0.0
210
0.0
220
0.0
230
1.0
  2
SOLID
 70
     1
 71
     0
 91
        1
 92
        0
 93
        4
 72
     1
 10
20.15016435432755
 20
-35.8
 11
16.70388911049044
 21
-35.79999999999998
 72
     1
 10
16.70388911049044
 20
-35.79999999999998
 11
9.655452208601105
 21
-44.20000000000002
 72
     1
 10
9.655452208601105
 20
-44.20000000000002
 11
13.10172745243838
 21
-44.20000000000002
 72
     1
 10
13.10172745243838
 20
-44.20000000000002
 11
20.15016435432755
 21
-35.8
 97
        0
 75
     0
 76
     1
 98
        1
 10
-36.10000000000001
 20
-0.0010749287238987
  0
HATCH
  5
D8
330
1F
100
AcDbEntity
  8
중심선
100
AcDbHatch
 10
0.0
 20
0.0
 30
0.0
210
0.0
220
0.0
230
1.0
  2
SOLID
 70
     1
 71
     0
 91
        1
 92
        0
 93
        6
 72
     3
 10
24.9500547853397
 20
-40.00000000005127
 11
3.96005478506229
 21
1.540882976769353E-10
 40
0.3939339440162621
 50
17.0953918060846
 51
320.0019657685068
 73
     0
 72
     1
 10
26.63305444104026
 20
-38.58789400463827
 11
28.93835631474124
 21
-36.65356729459038
 72
     3
 10
24.95005478528685
 20
-40.00000000000016
 11
6.600054785286822
 21
-1.278976924368180E-13
 40
0.6363583540795986
 50
39.99873849337471
 51
368.4976242363725
 73
     1
 72
     1
 10
31.37538727718743
 20
-39.03999999993003
 11
23.63012209212274
 21
-39.03999999993003
 72
     1
 10
23.63012209212274
 20
-39.03999999993003
 11
23.63009704767683
 21
-40.95999999992992
 72
     1
 10
23.63009704767683
 20
-40.95999999992992
 11
28.07147681714885
 21
-40.95999999992989
 97
        0
 75
     0
 76
     1
 98
        1
 10
-36.10000000000001
 20
-0.0010749287238987
  0
DIMENSION
  5
D9
330
1F
100
AcDbEntity
  8
치수문자_일반주서
100
AcDbDimension
  2
_D
 10
111.9628043702958
 20
-9.57101838627569
 30
0.0
 11
111.9628043702956
 21
29.34697341108813
 31
0.0
 70
   160
  1
%%c<>
 71
     2
 42
19.04299179736382
 52
-270.0
  3
SLDDIMSTYLE2
100
AcDbAlignedDimension
 13
94.55
 23
9.471973411088069
 33
0.0
 14
94.55000000000003
 24
-9.57101838627575
 34
0.0
 50
90.0000000000002
100
AcDbRotatedDimension
1001
ACAD
1000
DSTYLE
1002
{
1070
   171
1070
     6
1070
   273
1070
     5
1070
    41
1040
4.0
1070
   140
1040
4.0
1002
}
  0
DIMENSION
  5
EE
330
1F
100
AcDbEntity
  8
치수문자_일반주서
100
AcDbDimension
  2
_D_1
 10
12.0
 20
35.80389757218053
 30
0.0
 11
53.27499999999999
 21
35.80389757218053
 31
0.0
 70
   160
  1
<>
 71
     2
 42
82.55
  3
SLDDIMSTYLE2
100
AcDbAlignedDimension
 13
94.55
 23
9.478981613724253
 33
0.0
 14
12.0
 24
9.380810207087093
 34
0.0
 50
0.0000000000000049
100
AcDbRotatedDimension
1001
ACAD
1000
DSTYLE
1002
{
1070
   171
1070
     6
1070
   273
1070
     5
1070
    41
1040
4.0
1070
   140
1040
4.0
1002
}
  0
DIMENSION
  5
103
330
1F
100
AcDbEntity
  8
치수문자_일반주서
100
AcDbDimension
  2
_D_2
 10
-57.85000000000001
 20
53.01923810201994
 30
0.0
 11
18.35000000000001
 21
53.01923810201994
 31
0.0
 70
   160
  1
<>
 71
     2
 42
152.4
  3
SLDDIMSTYLE2
100
AcDbAlignedDimension
 13
94.55
 23
9.478981613724253
 33
0.0
 14
-57.84999999999999
 24
7.573981613724255
 34
0.0
 50
0.0000000000000053
100
AcDbRotatedDimension
1001
ACAD
1000
DSTYLE
1002
{
1070
   171
1070
     6
1070
   273
1070
     5
1070
    41
1040
4.0
1070
   140
1040
4.0
1002
}
  0
DIMENSION
  5
117
330
1F
100
AcDbEntity
  8
치수문자_일반주서
100
AcDbDimension
  2
_D_3
 10
-76.07829015970503
 20
-9.571018386275835
 30
0.0
 11
-76.07829015970518
 21
29.35398161372418
 31
0.0
 70
   160
  1
%%c<>
 71
     2
 42
19.05000000000001
 52
-270.0
  3
SLDDIMSTYLE2
100
AcDbAlignedDimension
 13
-55.94500000000001
 23
9.478981613724255
 33
0.0
 14
-55.94500000000001
 24
-9.571018386275757
 34
0.0
 50
90.0000000000002
100
AcDbRotatedDimension
1001
ACAD
1000
DSTYLE
1002
{
1070
   171
1070
     6
1070
   273
1070
     5
1070
    41
1040
4.0
1070
   140
1040
4.0
1002
}
  0
LINE
  5
12B
330
1F
100
AcDbEntity
  8
참조1
100
AcDbLine
 10
80.1134838153456
 20
7.441074928723896
 30
0.0
 11
80.1134838153456
 21
-7.438925071276109
 31
0.0
  0
LINE
  5
12C
330
1F
100
AcDbEntity
  8
참조1
100
AcDbLine
 10
92.8134838153456
 20
5.441074928723896
 30
0.0
 11
80.1134838153456
 21
5.441074928723896
 31
0.0
  0
SOLID
  5
12D
330
1F
100
AcDbEntity
  8
참조1
100
AcDbTrace
 10
80.1134838153456
 20
5.441074928723896
 30
0.0
 11
86.4634838153456
 21
4.425074928723896
 31
0.0
 12
86.4634838153456
 22
6.457074928723896
 32
0.0
 13
86.4634838153456
 23
6.457074928723896
 33
0.0
  0
LINE
  5
12E
330
1F
100
AcDbEntity
  8
참조1
100
AcDbLine
 10
92.8134838153456
 20
-5.438925071276109
 30
0.0
 11
80.1134838153456
 21
-5.438925071276109
 31
0.0
  0
SOLID
  5
12F
330
1F
100
AcDbEntity
  8
참조1
100
AcDbTrace
 10
80.1134838153456
 20
-5.438925071276109
 30
0.0
 11
86.4634838153456
 21
-6.454925071276109
 31
0.0
 12
86.4634838153456
 22
-4.422925071276109
 32
0.0
 13
86.4634838153456
 23
-4.422925071276109
 33
0.0
  0
MTEXT
  5
130
330
1F
100
AcDbEntity
  8
참조1
100
AcDbMText
 10
89.4978339479716
 20
11.01136670591222
 30
0.0
 40
3.5
 41
0.0
 71
     1
 72
     1
  1
A
  7
SLDTEXTSTYLE0
 73
     1
 44
1.0
  0
MTEXT
  5
131
330
1F
100
AcDbEntity
  8
참조1
100
AcDbMText
 10
89.4978339479716
 20
0.1313667059122201
 30
0.0
 40
3.5
 41
0.0
 71
     1
 72
     1
  1
A
  7
SLDTEXTSTYLE0
 73
     1
 44
1.0
  0
INSERT
  5
138
330
1F
100
AcDbEntity
  8
해칭선
100
AcDbBlockReference
  2
SW_DOWELSYMBOL_0
 10
0.0
 20
0.0
 30
0.0
  0
ENDSEC
  0
SECTION
  2
OBJECTS
  0
DICTIONARY
  5
C
330
0
100
AcDbDictionary
281
     1
  3
ACAD_GROUP
350
D
  3
ACAD_IMAGE_VARS
350
15C
  3
ACAD_LAYOUT
350
1A
  3
ACAD_MLINESTYLE
350
17
  3
ACAD_PLOTSETTINGS
350
19
  3
ACAD_PLOTSTYLENAME
350
E
  3
ACAD_SCALELIST
350
47
  3
APPDATA
350
15A
  3
DWGPROPS
350
2D0
  0
DICTIONARY
  5
216
330
2
100
AcDbDictionary
280
     1
281
     1
  3
ACAD_LAYERSTATES
360
217
  0
DICTIONARY
  5
D
102
{ACAD_REACTORS
330
C
102
}
330
C
100
AcDbDictionary
281
     1
  0
RASTERVARIABLES
  5
15C
102
{ACAD_REACTORS
330
C
102
}
330
C
100
AcDbRasterVariables
 90
        0
 70
     1
 71
     1
 72
     1
  0
DICTIONARY
  5
1A
102
{ACAD_REACTORS
330
C
102
}
330
C
100
AcDbDictionary
281
     1
  3
Layout1
350
1E
  3
Layout2
350
26
  3
Model
350
22
  0
DICTIONARY
  5
17
102
{ACAD_REACTORS
330
C
102
}
330
C
100
AcDbDictionary
281
     1
  3
Standard
350
18
  0
DICTIONARY
  5
19
102
{ACAD_REACTORS
330
C
102
}
330
C
100
AcDbDictionary
281
     1
  0
ACDBDICTIONARYWDFLT
  5
E
102
{ACAD_REACTORS
330
C
102
}
330
C
100
AcDbDictionary
281
     1
  3
Normal
350
F
100
AcDbDictionaryWithDefault
340
F
  0
DICTIONARY
  5
47
102
{ACAD_REACTORS
330
C
102
}
330
C
100
AcDbDictionary
281
     1
  3
A0
350
48
  3
A1
350
49
  3
A2
350
4A
  3
A3
350
4B
  3
A4
350
4C
  3
A5
350
4D
  3
A6
350
4E
  3
A7
350
4F
  3
A8
350
50
  3
A9
350
51
  3
B0
350
52
  3
B1
350
53
  3
B2
350
54
  3
B3
350
55
  3
B4
350
56
  3
B5
350
57
  3
B6
350
58
  3
B7
350
59
  3
B8
350
5A
  3
B9
350
5B
  3
C0
350
5C
  3
C1
350
5D
  3
C2
350
5E
  3
C3
350
5F
  3
C4
350
60
  3
C5
350
61
  3
C6
350
62
  3
C7
350
63
  3
C8
350
64
  3
C9
350
65
  3
D0
350
66
  3
D1
350
67
  3
D2
350
68
  0
DICTIONARY
  5
15A
102
{ACAD_REACTORS
330
C
102
}
330
C
100
AcDbDictionary
281
     1
  0
XRECORD
  5
2D0
102
{ACAD_REACTORS
330
C
102
}
330
C
100
AcDbXrecord
280
     1
  1
DWGPROPS COOKIE
  2

  3

  4

  6

  7

  8
12014074
  9

300
=
301
=
302
=
303
=
304
=
305
=
306
=
307
=
308
=
309
=
 40
0.0
 41
2458316.073988195
 42
2458323.376005683
  1

 90
        0
  0
DICTIONARY
  5
217
102
{ACAD_REACTORS
330
216
102
}
330
216
100
AcDbDictionary
281
     1
  0
LAYOUT
  5
1E
102
{ACAD_REACTORS
330
1A
102
}
330
1A
100
AcDbPlotSettings
  1

  2
none_device
  4

  6

 40
0.0
 41
0.0
 42
0.0
 43
0.0
 44
0.0
 45
0.0
 46
0.0
 47
0.0
 48
0.0
 49
0.0
140
0.0
141
0.0
142
1.0
143
1.0
 70
   688
 72
     1
 73
     0
 74
     5
  7

 75
    16
147
1.0
148
0.0
149
0.0
100
AcDbLayout
  1
Layout1
 70
     1
 71
     1
 10
0.0
 20
0.0
 11
420.0
 21
297.0
 12
0.0
 22
0.0
 32
0.0
 14
1.000000000000000E+20
 24
1.000000000000000E+20
 34
1.000000000000000E+20
 15
-1.000000000000000E+20
 25
-1.000000000000000E+20
 35
-1.000000000000000E+20
146
0.0
 13
0.0
 23
0.0
 33
0.0
 16
1.0
 26
0.0
 36
0.0
 17
0.0
 27
1.0
 37
0.0
 76
     0
330
1B
  0
LAYOUT
  5
26
102
{ACAD_REACTORS
330
1A
102
}
330
1A
100
AcDbPlotSettings
  1

  2
none_device
  4

  6

 40
0.0
 41
0.0
 42
0.0
 43
0.0
 44
0.0
 45
0.0
 46
0.0
 47
0.0
 48
0.0
 49
0.0
140
0.0
141
0.0
142
1.0
143
1.0
 70
   688
 72
     1
 73
     0
 74
     5
  7

 75
    16
147
1.0
148
0.0
149
0.0
100
AcDbLayout
  1
Layout2
 70
     1
 71
     2
 10
0.0
 20
0.0
 11
0.0
 21
0.0
 12
0.0
 22
0.0
 32
0.0
 14
0.0
 24
0.0
 34
0.0
 15
0.0
 25
0.0
 35
0.0
146
0.0
 13
0.0
 23
0.0
 33
0.0
 16
1.0
 26
0.0
 36
0.0
 17
0.0
 27
1.0
 37
0.0
 76
     0
330
23
  0
LAYOUT
  5
22
102
{ACAD_REACTORS
330
1A
102
}
330
1A
100
AcDbPlotSettings
  1

  2
none_device
  4
ANSI_A_(11.00_x_8.50_Inches)
  6

 40
6.35
 41
19.05
 42
6.35000508
 43
19.05000254
 44
279.4
 45
215.9
 46
28.60439004768966
 47
82.97380210215707
 48
0.0
 49
0.0
140
0.0
141
0.0
142
0.0356246729535944
143
1.0
 70
  1696
 72
     0
 73
     0
 74
     0
  7

 75
     0
147
0.0235690232323232
148
0.0
149
0.0
100
AcDbLayout
  1
Model
 70
     1
 71
     0
 10
0.0
 20
0.0
 11
420.0
 21
297.0
 12
0.0
 22
0.0
 32
0.0
 14
1.000000000000000E+20
 24
1.000000000000000E+20
 34
1.000000000000000E+20
 15
-1.000000000000000E+20
 25
-1.000000000000000E+20
 35
-1.000000000000000E+20
146
0.0
 13
0.0
 23
0.0
 33
0.0
 16
1.0
 26
0.0
 36
0.0
 17
0.0
 27
1.0
 37
0.0
 76
     0
330
1F
331
29
  0
MLINESTYLE
  5
18
102
{ACAD_REACTORS
330
17
102
}
330
17
100
AcDbMlineStyle
  2
Standard
 70
     0
  3

 62
   256
 51
90.0
 52
90.0
 71
     2
 49
0.5
 62
   256
  6
BYLAYER
 49
-0.5
 62
   256
  6
BYLAYER
  0
ACDBPLACEHOLDER
  5
F
102
{ACAD_REACTORS
330
E
102
}
330
E
  0
SCALE
  5
48
102
{ACAD_REACTORS
330
47
102
}
330
47
100
AcDbScale
 70
     0
300
1:1
140
1.0
141
1.0
290
     1
  0
SCALE
  5
49
102
{ACAD_REACTORS
330
47
102
}
330
47
100
AcDbScale
 70
     0
300
1:2
140
1.0
141
2.0
290
     0
  0
SCALE
  5
4A
102
{ACAD_REACTORS
330
47
102
}
330
47
100
AcDbScale
 70
     0
300
1:4
140
1.0
141
4.0
290
     0
  0
SCALE
  5
4B
102
{ACAD_REACTORS
330
47
102
}
330
47
100
AcDbScale
 70
     0
300
1:5
140
1.0
141
5.0
290
     0
  0
SCALE
  5
4C
102
{ACAD_REACTORS
330
47
102
}
330
47
100
AcDbScale
 70
     0
300
1:8
140
1.0
141
8.0
290
     0
  0
SCALE
  5
4D
102
{ACAD_REACTORS
330
47
102
}
330
47
100
AcDbScale
 70
     0
300
1:10
140
1.0
141
10.0
290
     0
  0
SCALE
  5
4E
102
{ACAD_REACTORS
330
47
102
}
330
47
100
AcDbScale
 70
     0
300
1:16
140
1.0
141
16.0
290
     0
  0
SCALE
  5
4F
102
{ACAD_REACTORS
330
47
102
}
330
47
100
AcDbScale
 70
     0
300
1:20
140
1.0
141
20.0
290
     0
  0
SCALE
  5
50
102
{ACAD_REACTORS
330
47
102
}
330
47
100
AcDbScale
 70
     0
300
1:30
140
1.0
141
30.0
290
     0
  0
SCALE
  5
51
102
{ACAD_REACTORS
330
47
102
}
330
47
100
AcDbScale
 70
     0
300
1:40
140
1.0
141
40.0
290
     0
  0
SCALE
  5
52
102
{ACAD_REACTORS
330
47
102
}
330
47
100
AcDbScale
 70
     0
300
1:50
140
1.0
141
50.0
290
     0
  0
SCALE
  5
53
102
{ACAD_REACTORS
330
47
102
}
330
47
100
AcDbScale
 70
     0
300
1:100
140
1.0
141
100.0
290
     0
  0
SCALE
  5
54
102
{ACAD_REACTORS
330
47
102
}
330
47
100
AcDbScale
 70
     0
300
2:1
140
2.0
141
1.0
290
     0
  0
SCALE
  5
55
102
{ACAD_REACTORS
330
47
102
}
330
47
100
AcDbScale
 70
     0
300
4:1
140
4.0
141
1.0
290
     0
  0
SCALE
  5
56
102
{ACAD_REACTORS
330
47
102
}
330
47
100
AcDbScale
 70
     0
300
8:1
140
8.0
141
1.0
290
     0
  0
SCALE
  5
57
102
{ACAD_REACTORS
330
47
102
}
330
47
100
AcDbScale
 70
     0
300
10:1
140
10.0
141
1.0
290
     0
  0
SCALE
  5
58
102
{ACAD_REACTORS
330
47
102
}
330
47
100
AcDbScale
 70
     0
300
100:1
140
100.0
141
1.0
290
     0
  0
SCALE
  5
59
102
{ACAD_REACTORS
330
47
102
}
330
47
100
AcDbScale
 70
     0
300
1/128" = 1'-0"
140
0.0078125
141
12.0
290
     0
  0
SCALE
  5
5A
102
{ACAD_REACTORS
330
47
102
}
330
47
100
AcDbScale
 70
     0
300
1/64" = 1'-0"
140
0.015625
141
12.0
290
     0
  0
SCALE
  5
5B
102
{ACAD_REACTORS
330
47
102
}
330
47
100
AcDbScale
 70
     0
300
1/32" = 1'-0"
140
0.03125
141
12.0
290
     0
  0
SCALE
  5
5C
102
{ACAD_REACTORS
330
47
102
}
330
47
100
AcDbScale
 70
     0
300
1/16" = 1'-0"
140
0.0625
141
12.0
290
     0
  0
SCALE
  5
5D
102
{ACAD_REACTORS
330
47
102
}
330
47
100
AcDbScale
 70
     0
300
3/32" = 1'-0"
140
0.09375
141
12.0
290
     0
  0
SCALE
  5
5E
102
{ACAD_REACTORS
330
47
102
}
330
47
100
AcDbScale
 70
     0
300
1/8" = 1'-0"
140
0.125
141
12.0
290
     0
  0
SCALE
  5
5F
102
{ACAD_REACTORS
330
47
102
}
330
47
100
AcDbScale
 70
     0
300
3/16" = 1'-0"
140
0.1875
141
12.0
290
     0
  0
SCALE
  5
60
102
{ACAD_REACTORS
330
47
102
}
330
47
100
AcDbScale
 70
     0
300
1/4" = 1'-0"
140
0.25
141
12.0
290
     0
  0
SCALE
  5
61
102
{ACAD_REACTORS
330
47
102
}
330
47
100
AcDbScale
 70
     0
300
3/8" = 1'-0"
140
0.375
141
12.0
290
     0
  0
SCALE
  5
62
102
{ACAD_REACTORS
330
47
102
}
330
47
100
AcDbScale
 70
     0
300
1/2" = 1'-0"
140
0.5
141
12.0
290
     0
  0
SCALE
  5
63
102
{ACAD_REACTORS
330
47
102
}
330
47
100
AcDbScale
 70
     0
300
3/4" = 1'-0"
140
0.75
141
12.0
290
     0
  0
SCALE
  5
64
102
{ACAD_REACTORS
330
47
102
}
330
47
100
AcDbScale
 70
     0
300
1" = 1'-0"
140
1.0
141
12.0
290
     0
  0
SCALE
  5
65
102
{ACAD_REACTORS
330
47
102
}
330
47
100
AcDbScale
 70
     0
300
1-1/2" = 1'-0"
140
1.5
141
12.0
290
     0
  0
SCALE
  5
66
102
{ACAD_REACTORS
330
47
102
}
330
47
100
AcDbScale
 70
     0
300
3" = 1'-0"
140
3.0
141
12.0
290
     0
  0
SCALE
  5
67
102
{ACAD_REACTORS
330
47
102
}
330
47
100
AcDbScale
 70
     0
300
6" = 1'-0"
140
6.0
141
12.0
290
     0
  0
SCALE
  5
68
102
{ACAD_REACTORS
330
47
102
}
330
47
100
AcDbScale
 70
     0
300
1'-0" = 1'-0"
140
12.0
141
12.0
290
     0
  0
ENDSEC
  0
EOF
