  0
SECTION
  2
HEADER
  9
$ACADVER
  1
AC1015
  9
$ACADMAINTVER
 70
     6
  9
$DWGCODEPAGE
  3
ANSI_949
  9
$INSBASE
 10
0.0
 20
0.0
 30
0.0
  9
$EXTMIN
 10
1.000000000000000E+20
 20
1.000000000000000E+20
 30
1.000000000000000E+20
  9
$EXTMAX
 10
-1.000000000000000E+20
 20
-1.000000000000000E+20
 30
-1.000000000000000E+20
  9
$LIMMIN
 10
0.0
 20
0.0
  9
$LIMMAX
 10
420.0
 20
297.0
  9
$ORTHOMODE
 70
     1
  9
$REGENMODE
 70
     1
  9
$FILLMODE
 70
     1
  9
$QTEXTMODE
 70
     0
  9
$MIRRTEXT
 70
     1
  9
$LTSCALE
 40
1.0
  9
$ATTMODE
 70
     1
  9
$TEXTSIZE
 40
3.5
  9
$TRACEWID
 40
1.0
  9
$TEXTSTYLE
  7
Standard
  9
$CLAYER
  8
0
  9
$CELTYPE
  6
ByLayer
  9
$CECOLOR
 62
   256
  9
$CELTSCALE
 40
1.0
  9
$DISPSILH
 70
     0
  9
$DIMSCALE
 40
1.0
  9
$DIMASZ
 40
3.302
  9
$DIMEXO
 40
1.0
  9
$DIMDLI
 40
3.75
  9
$DIMRND
 40
0.0
  9
$DIMDLE
 40
0.0
  9
$DIMEXE
 40
1.0
  9
$DIMTP
 40
0.0
  9
$DIMTM
 40
0.0
  9
$DIMTXT
 40
3.5
  9
$DIMCEN
 40
2.5
  9
$DIMTSZ
 40
0.0
  9
$DIMTOL
 70
     0
  9
$DIMLIM
 70
     0
  9
$DIMTIH
 70
     1
  9
$DIMTOH
 70
     1
  9
$DIMSE1
 70
     0
  9
$DIMSE2
 70
     0
  9
$DIMTAD
 70
     1
  9
$DIMZIN
 70
     0
  9
$DIMBLK
  1

  9
$DIMASO
 70
     1
  9
$DIMSHO
 70
     1
  9
$DIMPOST
  1

  9
$DIMAPOST
  1

  9
$DIMALT
 70
     0
  9
$DIMALTD
 70
     3
  9
$DIMALTF
 40
0.0393700787401575
  9
$DIMLFAC
 40
1.0
  9
$DIMTOFL
 70
     1
  9
$DIMTVP
 40
0.0
  9
$DIMTIX
 70
     0
  9
$DIMSOXD
 70
     0
  9
$DIMSAH
 70
     0
  9
$DIMBLK1
  1

  9
$DIMBLK2
  1

  9
$DIMSTYLE
  2
ISO-25
  9
$DIMCLRD
 70
     0
  9
$DIMCLRE
 70
     0
  9
$DIMCLRT
 70
     0
  9
$DIMTFAC
 40
1.0
  9
$DIMGAP
 40
1.524
  9
$DIMJUST
 70
     0
  9
$DIMSD1
 70
     0
  9
$DIMSD2
 70
     0
  9
$DIMTOLJ
 70
     0
  9
$DIMTZIN
 70
     0
  9
$DIMALTZ
 70
     0
  9
$DIMALTTZ
 70
     0
  9
$DIMUPT
 70
     0
  9
$DIMDEC
 70
     2
  9
$DIMTDEC
 70
     2
  9
$DIMALTU
 70
     2
  9
$DIMALTTD
 70
     3
  9
$DIMTXSTY
  7
Standard
  9
$DIMAUNIT
 70
     0
  9
$DIMADEC
 70
     2
  9
$DIMALTRND
 40
0.0
  9
$DIMAZIN
 70
     0
  9
$DIMDSEP
 70
    44
  9
$DIMATFIT
 70
     3
  9
$DIMFRAC
 70
     0
  9
$DIMLDRBLK
  1

  9
$DIMLUNIT
 70
     2
  9
$DIMLWD
 70
    -2
  9
$DIMLWE
 70
    -2
  9
$DIMTMOVE
 70
     0
  9
$LUNITS
 70
     2
  9
$LUPREC
 70
     2
  9
$SKETCHINC
 40
1.0
  9
$FILLETRAD
 40
10.0
  9
$AUNITS
 70
     0
  9
$AUPREC
 70
     2
  9
$MENU
  1
.
  9
$ELEVATION
 40
0.0
  9
$PELEVATION
 40
0.0
  9
$THICKNESS
 40
0.0
  9
$LIMCHECK
 70
     0
  9
$CHAMFERA
 40
0.0
  9
$CHAMFERB
 40
0.0
  9
$CHAMFERC
 40
0.0
  9
$CHAMFERD
 40
0.0
  9
$SKPOLY
 70
     0
  9
$TDCREATE
 40
2458316.719608808
  9
$TDUCREATE
 40
2458316.344608808
  9
$TDUPDATE
 40
2458323.45645118
  9
$TDUUPDATE
 40
2458323.08145118
  9
$TDINDWG
 40
0.0013294444
  9
$TDUSRTIMER
 40
2458323.081359028
  9
$USRTIMER
 70
     1
  9
$ANGBASE
 50
0.0
  9
$ANGDIR
 70
     0
  9
$PDMODE
 70
     0
  9
$PDSIZE
 40
-1.0
  9
$PLINEWID
 40
0.0
  9
$SPLFRAME
 70
     0
  9
$SPLINETYPE
 70
     6
  9
$SPLINESEGS
 70
     8
  9
$HANDSEED
  5
3F3
  9
$SURFTAB1
 70
     6
  9
$SURFTAB2
 70
     6
  9
$SURFTYPE
 70
     6
  9
$SURFU
 70
     6
  9
$SURFV
 70
     6
  9
$UCSBASE
  2

  9
$UCSNAME
  2

  9
$UCSORG
 10
0.0
 20
0.0
 30
0.0
  9
$UCSXDIR
 10
1.0
 20
0.0
 30
0.0
  9
$UCSYDIR
 10
0.0
 20
1.0
 30
0.0
  9
$UCSORTHOREF
  2

  9
$UCSORTHOVIEW
 70
     0
  9
$UCSORGTOP
 10
0.0
 20
0.0
 30
0.0
  9
$UCSORGBOTTOM
 10
0.0
 20
0.0
 30
0.0
  9
$UCSORGLEFT
 10
0.0
 20
0.0
 30
0.0
  9
$UCSORGRIGHT
 10
0.0
 20
0.0
 30
0.0
  9
$UCSORGFRONT
 10
0.0
 20
0.0
 30
0.0
  9
$UCSORGBACK
 10
0.0
 20
0.0
 30
0.0
  9
$PUCSBASE
  2

  9
$PUCSNAME
  2

  9
$PUCSORG
 10
0.0
 20
0.0
 30
0.0
  9
$PUCSXDIR
 10
1.0
 20
0.0
 30
0.0
  9
$PUCSYDIR
 10
0.0
 20
1.0
 30
0.0
  9
$PUCSORTHOREF
  2

  9
$PUCSORTHOVIEW
 70
     0
  9
$PUCSORGTOP
 10
0.0
 20
0.0
 30
0.0
  9
$PUCSORGBOTTOM
 10
0.0
 20
0.0
 30
0.0
  9
$PUCSORGLEFT
 10
0.0
 20
0.0
 30
0.0
  9
$PUCSORGRIGHT
 10
0.0
 20
0.0
 30
0.0
  9
$PUCSORGFRONT
 10
0.0
 20
0.0
 30
0.0
  9
$PUCSORGBACK
 10
0.0
 20
0.0
 30
0.0
  9
$USERI1
 70
     0
  9
$USERI2
 70
     0
  9
$USERI3
 70
     0
  9
$USERI4
 70
     0
  9
$USERI5
 70
     0
  9
$USERR1
 40
0.0
  9
$USERR2
 40
0.0
  9
$USERR3
 40
0.0
  9
$USERR4
 40
0.0
  9
$USERR5
 40
0.0
  9
$WORLDVIEW
 70
     1
  9
$SHADEDGE
 70
     3
  9
$SHADEDIF
 70
    70
  9
$TILEMODE
 70
     1
  9
$MAXACTVP
 70
    64
  9
$PINSBASE
 10
0.0
 20
0.0
 30
0.0
  9
$PLIMCHECK
 70
     0
  9
$PEXTMIN
 10
1.000000000000000E+20
 20
1.000000000000000E+20
 30
1.000000000000000E+20
  9
$PEXTMAX
 10
-1.000000000000000E+20
 20
-1.000000000000000E+20
 30
-1.000000000000000E+20
  9
$PLIMMIN
 10
0.0
 20
0.0
  9
$PLIMMAX
 10
0.0
 20
0.0
  9
$UNITMODE
 70
     0
  9
$VISRETAIN
 70
     1
  9
$PLINEGEN
 70
     0
  9
$PSLTSCALE
 70
     1
  9
$TREEDEPTH
 70
  3020
  9
$CMLSTYLE
  2
Standard
  9
$CMLJUST
 70
     0
  9
$CMLSCALE
 40
20.0
  9
$PROXYGRAPHICS
 70
     1
  9
$MEASUREMENT
 70
     1
  9
$CELWEIGHT
370
    -1
  9
$ENDCAPS
280
     0
  9
$JOINSTYLE
280
     0
  9
$LWDISPLAY
290
     1
  9
$INSUNITS
 70
     4
  9
$HYPERLINKBASE
  1

  9
$STYLESHEET
  1

  9
$XEDIT
290
     1
  9
$CEPSNTYPE
380
     0
  9
$PSTYLEMODE
290
     1
  9
$FINGERPRINTGUID
  2
{40335EE3-DAB2-4F07-B5B9-50808EA0C191}
  9
$VERSIONGUID
  2
{FAEB1C32-E019-11D5-929B-00C0DF256EC4}
  9
$EXTNAMES
290
     1
  9
$PSVPSCALE
 40
0.0
  9
$OLESTARTUP
290
     0
  0
ENDSEC
  0
SECTION
  2
CLASSES
  0
CLASS
  1
ACDBDICTIONARYWDFLT
  2
AcDbDictionaryWithDefault
  3
ObjectDBX Classes
 90
        0
280
     0
281
     0
  0
CLASS
  1
VISUALSTYLE
  2
AcDbVisualStyle
  3
ObjectDBX Classes
 90
     4095
280
     0
281
     0
  0
CLASS
  1
MATERIAL
  2
AcDbMaterial
  3
ObjectDBX Classes
 90
     1153
280
     0
281
     0
  0
CLASS
  1
SCALE
  2
AcDbScale
  3
ObjectDBX Classes
 90
     1153
280
     0
281
     0
  0
CLASS
  1
SUN
  2
AcDbSun
  3
SCENEOE
 90
     1153
280
     0
281
     0
  0
CLASS
  1
ACDBPLACEHOLDER
  2
AcDbPlaceHolder
  3
ObjectDBX Classes
 90
        0
280
     0
281
     0
  0
CLASS
  1
LAYOUT
  2
AcDbLayout
  3
ObjectDBX Classes
 90
        0
280
     0
281
     0
  0
CLASS
  1
TABLESTYLE
  2
AcDbTableStyle
  3
ObjectDBX Classes
 90
     4095
280
     0
281
     0
  0
CLASS
  1
MLEADERSTYLE
  2
AcDbMLeaderStyle
  3
ACDB_MLEADERSTYLE_CLASS
 90
     4095
280
     0
281
     0
  0
CLASS
  1
RASTERVARIABLES
  2
AcDbRasterVariables
  3
ISM
 90
        0
280
     0
281
     0
  0
ENDSEC
  0
SECTION
  2
TABLES
  0
TABLE
  2
VPORT
  5
8
330
0
100
AcDbSymbolTable
 70
     1
  0
VPORT
  5
29
330
8
100
AcDbSymbolTableRecord
100
AcDbViewportTableRecord
  2
*Active
 70
     0
 10
0.0
 20
0.0
 11
1.0
 21
1.0
 12
68.61233089760591
 22
-1.70057130851302
 13
0.0
 23
0.0
 14
10.0
 24
10.0
 15
10.0
 25
10.0
 16
0.0
 26
0.0
 36
1.0
 17
0.0
 27
0.0
 37
0.0
 40
236.0654219288062
 41
1.970186335403727
 42
50.0
 43
0.0
 44
0.0
 50
0.0
 51
0.0
 71
    16
 72
  2000
 73
     1
 74
     3
 75
     0
 76
     0
 77
     0
 78
     0
281
     0
 65
     1
110
0.0
120
0.0
130
0.0
111
1.0
121
0.0
131
0.0
112
0.0
122
1.0
132
0.0
 79
     0
146
0.0
  0
ENDTAB
  0
TABLE
  2
LTYPE
  5
5
330
0
100
AcDbSymbolTable
 70
     6
  0
LTYPE
  5
14
330
5
100
AcDbSymbolTableRecord
100
AcDbLinetypeTableRecord
  2
ByBlock
 70
     0
  3

 72
    65
 73
     0
 40
0.0
  0
LTYPE
  5
15
330
5
100
AcDbSymbolTableRecord
100
AcDbLinetypeTableRecord
  2
ByLayer
 70
     0
  3

 72
    65
 73
     0
 40
0.0
  0
LTYPE
  5
16
330
5
100
AcDbSymbolTableRecord
100
AcDbLinetypeTableRecord
  2
Continuous
 70
     0
  3
Solid line
 72
    65
 73
     0
 40
0.0
  0
LTYPE
  5
6A
330
5
100
AcDbSymbolTableRecord
100
AcDbLinetypeTableRecord
  2
HIDDEN
 70
     0
  3
Hidden __ __ __ __ __ __ __ __ __ __ __ __ __ __
 72
    65
 73
     2
 40
1.905
 49
1.27
 74
     0
 49
-0.635
 74
     0
  0
LTYPE
  5
6B
330
5
100
AcDbSymbolTableRecord
100
AcDbLinetypeTableRecord
  2
PHANTOM
 70
     0
  3
Phantom ______  __  __  ______  __  __  ______
 72
    65
 73
     6
 40
12.7
 49
6.35
 74
     0
 49
-1.27
 74
     0
 49
1.27
 74
     0
 49
-1.27
 74
     0
 49
1.27
 74
     0
 49
-1.27
 74
     0
  0
LTYPE
  5
6C
330
5
100
AcDbSymbolTableRecord
100
AcDbLinetypeTableRecord
  2
CENTER
 70
     0
  3
Center ____ _ ____ _ ____ _ ____ _ ____ _ ____
 72
    65
 73
     4
 40
10.16
 49
6.35
 74
     0
 49
-1.27
 74
     0
 49
1.27
 74
     0
 49
-1.27
 74
     0
  0
LTYPE
  5
6D
330
5
100
AcDbSymbolTableRecord
100
AcDbLinetypeTableRecord
  2
CENTERX2
 70
     0
  3
Center (2x) ________  __  ________  __  _____
 72
    65
 73
     4
 40
20.32
 49
12.7
 74
     0
 49
-2.54
 74
     0
 49
2.54
 74
     0
 49
-2.54
 74
     0
  0
LTYPE
  5
6E
330
5
100
AcDbSymbolTableRecord
100
AcDbLinetypeTableRecord
  2
DOT2
 70
     0
  3
Dot (.5x) ........................................
 72
    65
 73
     2
 40
0.635
 49
0.0
 74
     0
 49
-0.635
 74
     0
  0
ENDTAB
  0
TABLE
  2
LAYER
  5
2
102
{ACAD_XDICTIONARY
360
1FF
102
}
330
0
100
AcDbSymbolTable
 70
    18
  0
LAYER
  5
10
330
2
100
AcDbSymbolTableRecord
100
AcDbLayerTableRecord
  2
0
 70
     0
 62
     7
  6
Continuous
370
    -3
390
F
  0
LAYER
  5
6F
330
2
100
AcDbSymbolTableRecord
100
AcDbLayerTableRecord
  2
FORMAT
 70
     0
 62
     2
  6
Continuous
370
    -3
390
F
  0
LAYER
  5
70
330
2
100
AcDbSymbolTableRecord
100
AcDbLayerTableRecord
  2
외형선
 70
     0
 62
     4
  6
Continuous
370
    30
390
F
  0
LAYER
  5
71
330
2
100
AcDbSymbolTableRecord
100
AcDbLayerTableRecord
  2
숨은선
 70
     0
 62
     2
  6
HIDDEN
370
    15
390
F
  0
LAYER
  5
72
330
2
100
AcDbSymbolTableRecord
100
AcDbLayerTableRecord
  2
중심선
 70
     0
 62
     1
  6
CENTERX2
370
    -3
390
F
  0
LAYER
  5
73
330
2
100
AcDbSymbolTableRecord
100
AcDbLayerTableRecord
  2
파단선
 70
     0
 62
     4
  6
Continuous
370
    -3
390
F
  0
LAYER
  5
74
330
2
100
AcDbSymbolTableRecord
100
AcDbLayerTableRecord
  2
해칭선
 70
     0
 62
   100
  6
Continuous
370
    -3
390
F
  0
LAYER
  5
75
330
2
100
AcDbSymbolTableRecord
100
AcDbLayerTableRecord
  2
가는실선
 70
     0
 62
     4
  6
Continuous
370
    -3
390
F
  0
LAYER
  5
76
330
2
100
AcDbSymbolTableRecord
100
AcDbLayerTableRecord
  2
치수_보조선
 70
     0
 62
     4
  6
Continuous
370
    -3
390
F
  0
LAYER
  5
77
330
2
100
AcDbSymbolTableRecord
100
AcDbLayerTableRecord
  2
치수문자_일반주서
 70
     0
 62
     7
  6
Continuous
370
    15
390
F
  0
LAYER
  5
78
330
2
100
AcDbSymbolTableRecord
100
AcDbLayerTableRecord
  2
개별주서
 70
     0
 62
   100
  6
Continuous
370
    30
390
F
  0
LAYER
  5
79
330
2
100
AcDbSymbolTableRecord
100
AcDbLayerTableRecord
  2
중간선
 70
     0
 62
     2
  6
Continuous
370
    15
390
F
  0
LAYER
  5
7A
330
2
100
AcDbSymbolTableRecord
100
AcDbLayerTableRecord
  2
윤곽선
 70
     0
 62
     3
  6
Continuous
370
    40
390
F
  0
LAYER
  5
7B
330
2
100
AcDbSymbolTableRecord
100
AcDbLayerTableRecord
  2
중심마크
 70
     0
 62
   100
  6
Continuous
370
    30
390
F
  0
LAYER
  5
7C
330
2
100
AcDbSymbolTableRecord
100
AcDbLayerTableRecord
  2
가상선
 70
     0
 62
     4
  6
PHANTOM
370
    -3
390
F
  0
LAYER
  5
7D
330
2
100
AcDbSymbolTableRecord
100
AcDbLayerTableRecord
  2
특수지정선
 70
     0
 62
     5
  6
CENTERX2
370
    60
390
F
  0
LAYER
  5
7E
330
2
100
AcDbSymbolTableRecord
100
AcDbLayerTableRecord
  2
참조1
 70
     0
 62
    -4
  6
Continuous
370
    -3
390
F
  0
LAYER
  5
147
330
2
100
AcDbSymbolTableRecord
100
AcDbLayerTableRecord
  2
Defpoints
 70
     0
 62
     7
  6
Continuous
290
     0
370
    -3
390
F
  0
ENDTAB
  0
TABLE
  2
STYLE
  5
3
330
0
100
AcDbSymbolTable
 70
     2
  0
STYLE
  5
11
330
3
100
AcDbSymbolTableRecord
100
AcDbTextStyleTableRecord
  2
Standard
 70
     0
 40
0.0
 41
1.0
 50
0.0
 71
     0
 42
3.5
  3
txt
  4

  0
STYLE
  5
94
330
3
100
AcDbSymbolTableRecord
100
AcDbTextStyleTableRecord
  2
SLDTEXTSTYLE0
 70
     0
 40
0.0
 41
0.75
 50
0.0
 71
     0
 42
3.5
  3
TXT
  4

  0
ENDTAB
  0
TABLE
  2
VIEW
  5
6
330
0
100
AcDbSymbolTable
 70
     0
  0
ENDTAB
  0
TABLE
  2
UCS
  5
7
330
0
100
AcDbSymbolTable
 70
     0
  0
ENDTAB
  0
TABLE
  2
APPID
  5
9
330
0
100
AcDbSymbolTable
 70
     3
  0
APPID
  5
12
330
9
100
AcDbSymbolTableRecord
100
AcDbRegAppTableRecord
  2
ACAD
 70
     0
  0
APPID
  5
153
330
9
100
AcDbSymbolTableRecord
100
AcDbRegAppTableRecord
  2
PE_URL
 70
     0
  0
APPID
  5
154
330
9
100
AcDbSymbolTableRecord
100
AcDbRegAppTableRecord
  2
ACAD_DSTYLE_DIMRADIAL_EXTENSION
 70
     0
  0
ENDTAB
  0
TABLE
  2
DIMSTYLE
  5
A
330
0
100
AcDbSymbolTable
 70
     4
100
AcDbDimStyleTable
  0
DIMSTYLE
105
27
330
A
100
AcDbSymbolTableRecord
100
AcDbDimStyleTableRecord
  2
ISO-25
 70
     0
 41
2.5
 42
0.625
 43
3.75
 44
1.25
 73
     0
 74
     0
 77
     1
 78
     8
140
2.5
141
2.5
143
0.03937007874016
147
0.625
171
     3
172
     1
178
     0
271
     2
272
     2
274
     3
278
    44
283
     0
284
     8
340
11
  0
DIMSTYLE
105
C5
102
{ACAD_REACTORS
330
1B3
330
1C0
330
3BB
330
3BC
330
3BD
330
3BE
102
}
330
A
100
AcDbSymbolTableRecord
100
AcDbDimStyleTableRecord
  2
SLDDIMSTYLE0
 70
     0
 41
3.302
 44
0.0
 45
0.000000001
 73
     0
 74
     0
 77
     1
 78
     4
 79
     1
140
3.5
143
0.0393700787401575
147
0.875
148
0.000000001
170
     1
173
     1
178
     0
271
     2
272
     2
276
     2
284
    12
340
94
  0
DIMSTYLE
105
EC
102
{ACAD_REACTORS
330
1F6
102
}
330
A
100
AcDbSymbolTableRecord
100
AcDbDimStyleTableRecord
  2
SLDDIMSTYLE1
 70
     0
 41
3.302
 44
0.0
 45
0.000000001
 73
     0
 74
     0
 77
     1
 78
    12
 79
     3
140
3.5
143
0.0393700787401575
147
0.875
148
0.000000001
170
     1
172
     1
173
     1
178
     0
271
     2
272
     2
276
     2
284
    12
289
     0
340
94
  0
DIMSTYLE
105
101
102
{ACAD_REACTORS
330
1CD
330
1DC
330
31E
330
32B
330
338
330
348
102
}
330
A
100
AcDbSymbolTableRecord
100
AcDbDimStyleTableRecord
  2
SLDDIMSTYLE2
 70
     0
 41
3.302
 44
0.0
 45
0.000000001
 73
     0
 74
     0
 77
     1
 78
    12
 79
     3
140
3.5
143
0.0393700787401575
147
0.875
148
0.000000001
170
     1
173
     1
178
     0
271
     2
272
     2
276
     2
284
    12
340
94
  0
ENDTAB
  0
TABLE
  2
BLOCK_RECORD
  5
1
330
0
100
AcDbSymbolTable
 70
    27
  0
BLOCK_RECORD
  5
1F
330
1
100
AcDbSymbolTableRecord
100
AcDbBlockTableRecord
  2
*Model_Space
340
22
  0
BLOCK_RECORD
  5
1B
330
1
100
AcDbSymbolTableRecord
100
AcDbBlockTableRecord
  2
*Paper_Space
340
1E
  0
BLOCK_RECORD
  5
23
330
1
100
AcDbSymbolTableRecord
100
AcDbBlockTableRecord
  2
*Paper_Space0
340
26
  0
BLOCK_RECORD
  5
7F
330
1
100
AcDbSymbolTableRecord
100
AcDbBlockTableRecord
  2
블럭10
340
0
102
{BLKREFS
331
0
331
301
331
3B4
102
}
  0
BLOCK_RECORD
  5
C6
330
1
100
AcDbSymbolTableRecord
100
AcDbBlockTableRecord
  2
_D
340
0
  0
BLOCK_RECORD
  5
D9
330
1
100
AcDbSymbolTableRecord
100
AcDbBlockTableRecord
  2
_D_1
340
0
  0
BLOCK_RECORD
  5
ED
330
1
100
AcDbSymbolTableRecord
100
AcDbBlockTableRecord
  2
_D_2
340
0
  0
BLOCK_RECORD
  5
102
330
1
100
AcDbSymbolTableRecord
100
AcDbBlockTableRecord
  2
_D_3
340
0
  0
BLOCK_RECORD
  5
11B
330
1
100
AcDbSymbolTableRecord
100
AcDbBlockTableRecord
  2
SW_DOWELSYMBOL_0
340
0
102
{BLKREFS
331
0
331
1EB
331
0
331
358
331
3BF
102
}
  0
BLOCK_RECORD
  5
1DD
330
1
100
AcDbSymbolTableRecord
100
AcDbBlockTableRecord
  2
_D_4
340
0
  0
BLOCK_RECORD
  5
1F7
330
1
100
AcDbSymbolTableRecord
100
AcDbBlockTableRecord
  2
*D9
340
0
  0
BLOCK_RECORD
  5
203
330
1
100
AcDbSymbolTableRecord
100
AcDbBlockTableRecord
  2
*D10
340
0
  0
BLOCK_RECORD
  5
20F
330
1
100
AcDbSymbolTableRecord
100
AcDbBlockTableRecord
  2
*D11
340
0
  0
BLOCK_RECORD
  5
21B
330
1
100
AcDbSymbolTableRecord
100
AcDbBlockTableRecord
  2
*D12
340
0
  0
BLOCK_RECORD
  5
275
330
1
100
AcDbSymbolTableRecord
100
AcDbBlockTableRecord
  2
*D13
340
0
  0
BLOCK_RECORD
  5
281
330
1
100
AcDbSymbolTableRecord
100
AcDbBlockTableRecord
  2
*D14
340
0
  0
BLOCK_RECORD
  5
28D
330
1
100
AcDbSymbolTableRecord
100
AcDbBlockTableRecord
  2
*D15
340
0
  0
BLOCK_RECORD
  5
29B
330
1
100
AcDbSymbolTableRecord
100
AcDbBlockTableRecord
  2
*D16
340
0
  0
BLOCK_RECORD
  5
2A9
330
1
100
AcDbSymbolTableRecord
100
AcDbBlockTableRecord
  2
*D17
340
0
  0
BLOCK_RECORD
  5
361
330
1
100
AcDbSymbolTableRecord
100
AcDbBlockTableRecord
  2
*D19
340
0
  0
BLOCK_RECORD
  5
36D
330
1
100
AcDbSymbolTableRecord
100
AcDbBlockTableRecord
  2
*D20
340
0
  0
BLOCK_RECORD
  5
379
330
1
100
AcDbSymbolTableRecord
100
AcDbBlockTableRecord
  2
*D21
340
0
  0
BLOCK_RECORD
  5
386
330
1
100
AcDbSymbolTableRecord
100
AcDbBlockTableRecord
  2
*D22
340
0
  0
BLOCK_RECORD
  5
3C0
330
1
100
AcDbSymbolTableRecord
100
AcDbBlockTableRecord
  2
*D23
340
0
  0
BLOCK_RECORD
  5
3CC
330
1
100
AcDbSymbolTableRecord
100
AcDbBlockTableRecord
  2
*D24
340
0
  0
BLOCK_RECORD
  5
3D8
330
1
100
AcDbSymbolTableRecord
100
AcDbBlockTableRecord
  2
*D25
340
0
  0
BLOCK_RECORD
  5
3E5
330
1
100
AcDbSymbolTableRecord
100
AcDbBlockTableRecord
  2
*D26
340
0
  0
ENDTAB
  0
ENDSEC
  0
SECTION
  2
BLOCKS
  0
BLOCK
  5
20
330
1F
100
AcDbEntity
  8
0
100
AcDbBlockBegin
  2
*Model_Space
 70
     0
 10
0.0
 20
0.0
 30
0.0
  3
*Model_Space
  1
*Model_Space
  0
ENDBLK
  5
21
330
1F
100
AcDbEntity
  8
0
100
AcDbBlockEnd
  0
BLOCK
  5
1C
330
1B
100
AcDbEntity
 67
     1
  8
0
100
AcDbBlockBegin
  2
*Paper_Space
 70
     0
 10
0.0
 20
0.0
 30
0.0
  3
*Paper_Space
  1
*Paper_Space
  0
ENDBLK
  5
1D
330
1B
100
AcDbEntity
 67
     1
  8
0
100
AcDbBlockEnd
  0
BLOCK
  5
24
330
23
100
AcDbEntity
  8
0
100
AcDbBlockBegin
  2
*Paper_Space0
 70
     0
 10
0.0
 20
0.0
 30
0.0
  3
*Paper_Space0
  1
*Paper_Space0
  0
ENDBLK
  5
25
330
23
100
AcDbEntity
  8
0
100
AcDbBlockEnd
  0
BLOCK
  5
80
330
7F
100
AcDbEntity
  8
0
100
AcDbBlockBegin
  2
블럭10
 70
     2
 10
0.0
 20
0.0
 30
0.0
  3
블럭10
  1
블럭10
  0
ELLIPSE
  5
82
330
7F
100
AcDbEntity
  8
중심선
100
AcDbEllipse
 10
20.54032771741204
 20
12.0471743016438
 30
0.0
 11
6.600054785286829
 21
-1.261213355974178E-13
 31
0.0
210
0.0
220
0.0
230
1.0
 40
0.636358354079598
 41
0.9219305317359503
 42
6.513795318482858
  0
ELLIPSE
  5
83
330
7F
100
AcDbEntity
  8
중심선
100
AcDbEllipse
 10
20.54032771746488
 20
12.04717430159265
 30
0.0
 11
3.960054785062283
 21
1.540847449632565E-10
 31
0.0
210
0.0
220
0.0
230
1.0
 40
0.3939339440162632
 41
1.131841032648279
 42
5.62031148352944
  0
LINE
  5
84
330
7F
100
AcDbEntity
  8
중심선
100
AcDbLine
 10
2.268634060543552
 20
16.24717430164393
 30
0.0
 11
5.714909304380834
 21
16.24717430164393
 31
0.0
  0
LINE
  5
85
330
7F
100
AcDbEntity
  8
중심선
100
AcDbLine
 10
5.245725140726316
 20
7.84717430164391
 30
0.0
 11
8.692000384563599
 21
7.84717430164391
 31
0.0
  0
LINE
  5
86
330
7F
100
AcDbEntity
  8
중심선
100
AcDbLine
 10
15.74043728645272
 20
16.24717430164393
 30
0.0
 11
8.692000384563599
 21
7.84717430164391
 31
0.0
  0
LINE
  5
87
330
7F
100
AcDbEntity
  8
중심선
100
AcDbLine
 10
0.1404042013395286
 20
13.71084872107135
 30
0.0
 11
3.58671253028996
 21
13.71088815037384
 31
0.0
  0
LINE
  5
88
330
7F
100
AcDbEntity
  8
중심선
100
AcDbLine
 10
2.750260043222114
 20
10.84717430164391
 30
0.0
 11
6.196535287059397
 21
10.84717430164391
 31
0.0
  0
LINE
  5
89
330
7F
100
AcDbEntity
  8
중심선
100
AcDbLine
 10
12.29416204261559
 20
16.24717430164393
 30
0.0
 11
5.245725140726316
 21
7.84717430164391
 31
0.0
  0
LINE
  5
8A
330
7F
100
AcDbEntity
  8
중심선
100
AcDbLine
 10
10.72767329541681
 20
16.24717430164393
 30
0.0
 11
6.196535287059397
 21
10.84717430164391
 31
0.0
  0
LINE
  5
8B
330
7F
100
AcDbEntity
  8
중심선
100
AcDbLine
 10
7.28139805157953
 20
16.24717430164393
 30
0.0
 11
2.750260043222114
 21
10.84717430164391
 31
0.0
  0
LINE
  5
8C
330
7F
100
AcDbEntity
  8
중심선
100
AcDbLine
 10
5.714909304380834
 20
16.24717430164393
 30
0.0
 11
3.58671253028996
 21
13.71088815037384
 31
0.0
  0
LINE
  5
8D
330
7F
100
AcDbEntity
  8
중심선
100
AcDbLine
 10
2.268634060543552
 20
16.24717430164393
 30
0.0
 11
0.1404042013395286
 21
13.71084872107135
 31
0.0
  0
LINE
  5
8E
330
7F
100
AcDbEntity
  8
중심선
100
AcDbLine
 10
7.28139805157953
 20
16.24717430164393
 30
0.0
 11
10.72767329541681
 21
16.24717430164393
 31
0.0
  0
LINE
  5
8F
330
7F
100
AcDbEntity
  8
중심선
100
AcDbLine
 10
12.29416204261559
 20
16.24717430164393
 30
0.0
 11
15.74043728645272
 21
16.24717430164393
 31
0.0
  0
LINE
  5
90
330
7F
100
AcDbEntity
  8
중심선
100
AcDbLine
 10
19.22036997980202
 20
11.08717430171403
 30
0.0
 11
23.66174974927406
 21
11.08717430171406
 31
0.0
  0
LINE
  5
91
330
7F
100
AcDbEntity
  8
중심선
100
AcDbLine
 10
19.22039502424796
 20
13.00717430171391
 30
0.0
 11
19.22036997980202
 21
11.08717430171403
 31
0.0
  0
LINE
  5
92
330
7F
100
AcDbEntity
  8
중심선
100
AcDbLine
 10
19.22039502424796
 20
13.00717430171391
 30
0.0
 11
26.96566020931264
 21
13.00717430171391
 31
0.0
  0
LINE
  5
93
330
7F
100
AcDbEntity
  8
중심선
100
AcDbLine
 10
22.22332737316547
 20
13.45928029700563
 30
0.0
 11
24.52862924686651
 21
15.39360700705356
 31
0.0
  0
ATTDEF
  5
95
330
7F
100
AcDbEntity
  8
FORMAT
 62
     2
100
AcDbText
 10
4.408487351596664
 20
2.075366912832191
 30
0.0
 40
4.233333333333333
  1
E5062048
 41
0.75
  7
SLDTEXTSTYLE0
 11
4.408487351596664
 21
-0.0412997538344756
 31
0.0
100
AcDbAttributeDefinition
  3

  2
AUTOATTR0
 70
     0
 74
     1
  0
ENDBLK
  5
81
330
7F
100
AcDbEntity
  8
0
100
AcDbBlockEnd
  0
BLOCK
  5
C7
330
C6
100
AcDbEntity
  8
0
100
AcDbBlockBegin
  2
_D
 70
     0
 10
0.0
 20
0.0
 30
0.0
  3
_D
  1
_D
  0
LINE
  5
C9
330
C6
100
AcDbEntity
  8
치수문자_일반주서
 62
     0
370
    -2
100
AcDbLine
 10
88.19999999999995
 20
9.587500000000169
 30
0.0
 11
88.19999999999995
 21
25.39757928101827
 31
0.0
  0
LINE
  5
CA
330
C6
100
AcDbEntity
  8
치수문자_일반주서
 62
     0
370
    -2
100
AcDbLine
 10
12.00000000000001
 20
9.552472684307286
 30
0.0
 11
12.00000000000001
 21
25.39757928101827
 31
0.0
  0
LINE
  5
CB
330
C6
100
AcDbEntity
  8
치수문자_일반주서
 62
     0
370
    -2
100
AcDbLine
 10
84.89799999999994
 20
25.39757928101827
 30
0.0
 11
15.30200000000001
 21
25.39757928101827
 31
0.0
  0
SOLID
  5
CC
330
C6
100
AcDbEntity
  8
치수문자_일반주서
 62
     0
100
AcDbTrace
 10
84.89799999999994
 20
24.84724594768494
 30
0.0
 11
84.89799999999994
 21
25.94791261435161
 31
0.0
 12
88.19999999999995
 22
25.39757928101827
 32
0.0
 13
88.19999999999995
 23
25.39757928101827
 33
0.0
  0
SOLID
  5
CD
330
C6
100
AcDbEntity
  8
치수문자_일반주서
 62
     0
100
AcDbTrace
 10
15.30200000000001
 20
25.94791261435161
 30
0.0
 11
15.30200000000001
 21
24.84724594768494
 31
0.0
 12
12.00000000000001
 22
25.39757928101827
 32
0.0
 13
12.00000000000001
 23
25.39757928101827
 33
0.0
  0
MTEXT
  5
CE
330
C6
100
AcDbEntity
  8
치수문자_일반주서
 62
     0
100
AcDbMText
 10
50.10290543076057
 20
29.77257928101827
 30
0.0
 40
3.5
 41
0.0
 71
     2
 72
     1
  1
\A1;76.20 [3]
  7
SLDTEXTSTYLE0
 73
     1
 44
1.0
  0
POINT
  5
CF
330
C6
100
AcDbEntity
  8
Defpoints
 62
     0
100
AcDbPoint
 10
88.19999999999995
 20
9.525000000000169
 30
0.0
  0
POINT
  5
D0
330
C6
100
AcDbEntity
  8
Defpoints
 62
     0
100
AcDbPoint
 10
12.00000000000001
 20
9.489972684307286
 30
0.0
  0
POINT
  5
D1
330
C6
100
AcDbEntity
  8
Defpoints
 62
     0
100
AcDbPoint
 10
12.00000000000001
 20
25.39757928101827
 30
0.0
  0
ENDBLK
  5
C8
330
C6
100
AcDbEntity
  8
0
100
AcDbBlockEnd
  0
BLOCK
  5
DA
330
D9
100
AcDbEntity
  8
0
100
AcDbBlockBegin
  2
_D_1
 70
     0
 10
0.0
 20
0.0
 30
0.0
  3
_D_1
  1
_D_1
  0
LINE
  5
DC
330
D9
100
AcDbEntity
  8
치수문자_일반주서
 62
     0
370
    -2
100
AcDbLine
 10
88.19999999999995
 20
9.587500000000169
 30
0.0
 11
88.19999999999993
 21
38.31232028264023
 31
0.0
  0
LINE
  5
DD
330
D9
100
AcDbEntity
  8
치수문자_일반주서
 62
     0
370
    -2
100
AcDbLine
 10
-64.2
 20
7.682500000000012
 30
0.0
 11
-64.20000000000002
 21
38.31232028264023
 31
0.0
  0
LINE
  5
DE
330
D9
100
AcDbEntity
  8
치수문자_일반주서
 62
     0
370
    -2
100
AcDbLine
 10
84.89799999999994
 20
38.31232028264023
 30
0.0
 11
-60.89800000000002
 21
38.31232028264023
 31
0.0
  0
SOLID
  5
DF
330
D9
100
AcDbEntity
  8
치수문자_일반주서
 62
     0
100
AcDbTrace
 10
84.89799999999994
 20
37.76198694930689
 30
0.0
 11
84.89799999999994
 21
38.86265361597356
 31
0.0
 12
88.19999999999993
 22
38.31232028264023
 32
0.0
 13
88.19999999999993
 23
38.31232028264023
 33
0.0
  0
SOLID
  5
E0
330
D9
100
AcDbEntity
  8
치수문자_일반주서
 62
     0
100
AcDbTrace
 10
-60.89800000000002
 20
38.86265361597356
 30
0.0
 11
-60.89800000000002
 21
37.76198694930689
 31
0.0
 12
-64.20000000000002
 22
38.31232028264023
 32
0.0
 13
-64.20000000000002
 23
38.31232028264023
 33
0.0
  0
MTEXT
  5
E1
330
D9
100
AcDbEntity
  8
치수문자_일반주서
 62
     0
100
AcDbMText
 10
11.28951170438223
 20
42.68732028264023
 30
0.0
 40
3.5
 41
0.0
 71
     2
 72
     1
  1
\A1;152.40 [6]
  7
SLDTEXTSTYLE0
 73
     1
 44
1.0
  0
POINT
  5
E2
330
D9
100
AcDbEntity
  8
Defpoints
 62
     0
100
AcDbPoint
 10
88.19999999999995
 20
9.525000000000169
 30
0.0
  0
POINT
  5
E3
330
D9
100
AcDbEntity
  8
Defpoints
 62
     0
100
AcDbPoint
 10
-64.2
 20
7.620000000000012
 30
0.0
  0
POINT
  5
E4
330
D9
100
AcDbEntity
  8
Defpoints
 62
     0
100
AcDbPoint
 10
-64.2
 20
38.31232028264023
 30
0.0
  0
ENDBLK
  5
DB
330
D9
100
AcDbEntity
  8
0
100
AcDbBlockEnd
  0
BLOCK
  5
EE
330
ED
100
AcDbEntity
  8
0
100
AcDbBlockBegin
  2
_D_2
 70
     0
 10
0.0
 20
0.0
 30
0.0
  3
_D_2
  1
_D_2
  0
LINE
  5
F0
330
ED
100
AcDbEntity
  8
치수문자_일반주서
 62
     0
370
    -2
100
AcDbLine
 10
-62.35750000000001
 20
9.525000000000002
 30
0.0
 11
-74.92039556408956
 21
9.524999999999956
 31
0.0
  0
LINE
  5
F1
330
ED
100
AcDbEntity
  8
치수문자_일반주서
 62
     0
370
    -2
100
AcDbLine
 10
-62.35750000000001
 20
-9.52500000000001
 30
0.0
 11
-74.92039556408949
 21
-9.525000000000052
 31
0.0
  0
LINE
  5
F2
330
ED
100
AcDbEntity
  8
치수문자_일반주서
 62
     0
370
    -2
100
AcDbLine
 10
-74.92039556408956
 20
9.524999999999956
 30
0.0
 11
-74.92039556408969
 21
40.60824999999996
 31
0.0
  0
LINE
  5
F3
330
ED
100
AcDbEntity
  8
치수문자_일반주서
 62
     0
370
    -2
100
AcDbLine
 10
-74.92039556408955
 20
6.222999999999956
 30
0.0
 11
-74.9203955640895
 21
-6.223000000000052
 31
0.0
  0
SOLID
  5
F4
330
ED
100
AcDbEntity
  8
치수문자_일반주서
 62
     0
100
AcDbTrace
 10
-74.37006223075622
 20
6.222999999999958
 30
0.0
 11
-75.47072889742287
 21
6.222999999999955
 31
0.0
 12
-74.92039556408956
 22
9.524999999999956
 32
0.0
 13
-74.92039556408956
 23
9.524999999999956
 33
0.0
  0
SOLID
  5
F5
330
ED
100
AcDbEntity
  8
치수문자_일반주서
 62
     0
100
AcDbTrace
 10
-75.47072889742283
 20
-6.223000000000054
 30
0.0
 11
-74.37006223075618
 21
-6.22300000000005
 31
0.0
 12
-74.92039556408949
 22
-9.525000000000052
 32
0.0
 13
-74.92039556408949
 23
-9.525000000000052
 33
0.0
  0
MTEXT
  5
F6
330
ED
100
AcDbEntity
  8
치수문자_일반주서
 62
     0
100
AcDbMText
 10
-79.29539556408963
 20
26.82699999999994
 30
0.0
 40
3.5
 41
0.0
 71
     2
 72
     1
  1
\A1;%%c19.05 [3/4]
  7
SLDTEXTSTYLE0
 11
-3.729883127349604E-15
 21
1.0
 31
0.0
 73
     1
 44
1.0
  0
POINT
  5
F7
330
ED
100
AcDbEntity
  8
Defpoints
 62
     0
100
AcDbPoint
 10
-62.29500000000001
 20
9.525000000000002
 30
0.0
  0
POINT
  5
F8
330
ED
100
AcDbEntity
  8
Defpoints
 62
     0
100
AcDbPoint
 10
-62.29500000000001
 20
-9.52500000000001
 30
0.0
  0
POINT
  5
2B2
330
ED
100
AcDbEntity
  8
Defpoints
 62
     0
100
AcDbPoint
 10
-74.92039556408952
 20
-9.525000000000057
 30
0.0
  0
ENDBLK
  5
EF
330
ED
100
AcDbEntity
  8
0
100
AcDbBlockEnd
  0
BLOCK
  5
103
330
102
100
AcDbEntity
  8
0
100
AcDbBlockBegin
  2
_D_3
 70
     0
 10
0.0
 20
0.0
 30
0.0
  3
_D_3
  1
_D_3
  0
LINE
  5
105
330
102
100
AcDbEntity
  8
치수문자_일반주서
 62
     0
370
    -2
100
AcDbLine
 10
88.26249999999995
 20
-9.524999999999828
 30
0.0
 11
113.1098203893663
 21
-9.52499999999974
 31
0.0
  0
LINE
  5
106
330
102
100
AcDbEntity
  8
치수문자_일반주서
 62
     0
370
    -2
100
AcDbLine
 10
88.26249999999995
 20
9.525000000000169
 30
0.0
 11
113.1098203893662
 21
9.525000000000261
 31
0.0
  0
LINE
  5
107
330
102
100
AcDbEntity
  8
치수문자_일반주서
 62
     0
370
    -2
100
AcDbLine
 10
113.1098203893662
 20
9.525000000000261
 30
0.0
 11
113.1098203893661
 21
40.60825000000025
 31
0.0
  0
LINE
  5
108
330
102
100
AcDbEntity
  8
치수문자_일반주서
 62
     0
370
    -2
100
AcDbLine
 10
113.1098203893663
 20
-6.22299999999974
 30
0.0
 11
113.1098203893662
 21
6.223000000000262
 31
0.0
  0
SOLID
  5
109
330
102
100
AcDbEntity
  8
치수문자_일반주서
 62
     0
100
AcDbTrace
 10
112.5594870560329
 20
-6.222999999999741
 30
0.0
 11
113.6601537226996
 21
-6.222999999999738
 31
0.0
 12
113.1098203893663
 22
-9.52499999999974
 32
0.0
 13
113.1098203893663
 23
-9.52499999999974
 33
0.0
  0
SOLID
  5
10A
330
102
100
AcDbEntity
  8
치수문자_일반주서
 62
     0
100
AcDbTrace
 10
113.6601537226995
 20
6.223000000000264
 30
0.0
 11
112.5594870560329
 21
6.22300000000026
 31
0.0
 12
113.1098203893662
 22
9.525000000000261
 32
0.0
 13
113.1098203893662
 23
9.525000000000261
 33
0.0
  0
MTEXT
  5
10B
330
102
100
AcDbEntity
  8
치수문자_일반주서
 62
     0
100
AcDbMText
 10
108.7348203893661
 20
26.82700000000024
 30
0.0
 40
3.5
 41
0.0
 71
     2
 72
     1
  1
\A1;%%c19.05 [3/4]
  7
SLDTEXTSTYLE0
 11
-3.729883127349608E-15
 21
1.0
 31
0.0
 73
     1
 44
1.0
  0
POINT
  5
10C
330
102
100
AcDbEntity
  8
Defpoints
 62
     0
100
AcDbPoint
 10
88.19999999999995
 20
-9.524999999999828
 30
0.0
  0
POINT
  5
10D
330
102
100
AcDbEntity
  8
Defpoints
 62
     0
100
AcDbPoint
 10
88.19999999999995
 20
9.525000000000169
 30
0.0
  0
POINT
  5
10E
330
102
100
AcDbEntity
  8
Defpoints
 62
     0
100
AcDbPoint
 10
113.1098203893662
 20
9.525000000000261
 30
0.0
  0
ENDBLK
  5
104
330
102
100
AcDbEntity
  8
0
100
AcDbBlockEnd
  0
BLOCK
  5
11C
330
11B
100
AcDbEntity
  8
0
100
AcDbBlockBegin
  2
SW_DOWELSYMBOL_0
 70
     0
 10
0.0
 20
0.0
 30
0.0
  3
SW_DOWELSYMBOL_0
  1
SW_DOWELSYMBOL_0
  0
CIRCLE
  5
11E
330
11B
100
AcDbEntity
  8
해칭선
 62
     0
100
AcDbCircle
 10
0.0
 20
0.0
 30
0.0
 40
3.000000000000001
  0
HATCH
  5
11F
330
11B
100
AcDbEntity
  8
0
  6
Continuous
 62
     0
370
     0
100
AcDbHatch
 10
0.0
 20
0.0
 30
0.0
210
0.0
220
0.0
230
1.0
  2
SOLID
 70
     1
 71
     0
 91
        1
 92
        0
 93
        3
 72
     2
 10
0.0
 20
0.0
 40
3.000000000000001
 50
0.0
 51
90.0
 73
     1
 72
     1
 10
0.0
 20
3.000000000000001
 11
0.0
 21
0.0
 72
     1
 10
0.0
 20
0.0
 11
3.000000000000003
 21
0.0
 97
        0
 75
     0
 76
     1
 98
        1
 10
0.0
 20
0.0
  0
HATCH
  5
120
330
11B
100
AcDbEntity
  8
0
  6
Continuous
 62
     0
370
     0
100
AcDbHatch
 10
0.0
 20
0.0
 30
0.0
210
0.0
220
0.0
230
1.0
  2
SOLID
 70
     1
 71
     0
 91
        1
 92
        0
 93
        3
 72
     2
 10
0.0
 20
0.0
 40
3.000000000000001
 50
180.0
 51
270.0000000000008
 73
     1
 72
     1
 10
0.0
 20
-3.000000000000001
 11
0.0
 21
0.0
 72
     1
 10
0.0
 20
0.0
 11
-3.000000000000003
 21
0.0
 97
        0
 75
     0
 76
     1
 98
        1
 10
0.0
 20
0.0
  0
ENDBLK
  5
11D
330
11B
100
AcDbEntity
  8
0
100
AcDbBlockEnd
  0
BLOCK
  5
1DE
330
1DD
100
AcDbEntity
  8
0
100
AcDbBlockBegin
  2
_D_4
 70
     0
 10
0.0
 20
0.0
 30
0.0
  3
_D_4
  1
_D_4
  0
LINE
  5
1DF
330
1DD
100
AcDbEntity
  8
치수문자_일반주서
 62
     0
370
    -2
100
AcDbLine
 10
102.4375000000001
 20
36.22143424691529
 30
0.0
 11
117.3750000000001
 21
36.22143424691535
 31
0.0
  0
LINE
  5
1E0
330
1DD
100
AcDbEntity
  8
치수문자_일반주서
 62
     0
370
    -2
100
AcDbLine
 10
102.4375000000001
 20
22.22143424691529
 30
0.0
 11
117.3750000000001
 21
22.22143424691535
 31
0.0
  0
LINE
  5
1E1
330
1DD
100
AcDbEntity
  8
치수문자_일반주서
 62
     0
370
    -2
100
AcDbLine
 10
117.3750000000001
 20
36.22143424691535
 30
0.0
 11
117.3750000000001
 21
22.22143424691535
 31
0.0
  0
LINE
  5
1E2
330
1DD
100
AcDbEntity
  8
치수문자_일반주서
 62
     0
370
    -2
100
AcDbLine
 10
117.3750000000001
 20
39.52343424691535
 30
0.0
 11
117.375
 21
42.82543424691535
 31
0.0
  0
LINE
  5
1E3
330
1DD
100
AcDbEntity
  8
치수문자_일반주서
 62
     0
370
    -2
100
AcDbLine
 10
117.3750000000001
 20
18.91943424691535
 30
0.0
 11
117.3750000000001
 21
15.61743424691535
 31
0.0
  0
SOLID
  5
1E4
330
1DD
100
AcDbEntity
  8
치수문자_일반주서
 62
     0
100
AcDbTrace
 10
116.8246666666667
 20
39.52343424691535
 30
0.0
 11
117.9253333333334
 21
39.52343424691535
 31
0.0
 12
117.3750000000001
 22
36.22143424691535
 32
0.0
 13
117.3750000000001
 23
36.22143424691535
 33
0.0
  0
SOLID
  5
1E5
330
1DD
100
AcDbEntity
  8
치수문자_일반주서
 62
     0
100
AcDbTrace
 10
117.9253333333335
 20
18.91943424691535
 30
0.0
 11
116.8246666666668
 21
18.91943424691535
 31
0.0
 12
117.3750000000001
 22
22.22143424691535
 32
0.0
 13
117.3750000000001
 23
22.22143424691535
 33
0.0
  0
MTEXT
  5
1E6
330
1DD
100
AcDbEntity
  8
치수문자_일반주서
 62
     0
100
AcDbMText
 10
113.0000000000001
 20
29.28713862862833
 30
0.0
 40
3.5
 41
0.0
 71
     2
 72
     1
  1
\A1;%%c14 [0.55]
  7
SLDTEXTSTYLE0
 11
-3.045183153257572E-15
 21
1.0
 31
0.0
 73
     1
 44
1.0
  0
POINT
  5
1E7
330
1DD
100
AcDbEntity
  8
Defpoints
 62
     0
100
AcDbPoint
 10
102.3750000000001
 20
36.22143424691529
 30
0.0
  0
POINT
  5
1E8
330
1DD
100
AcDbEntity
  8
Defpoints
 62
     0
100
AcDbPoint
 10
102.3750000000001
 20
22.22143424691529
 30
0.0
  0
POINT
  5
1E9
330
1DD
100
AcDbEntity
  8
Defpoints
 62
     0
100
AcDbPoint
 10
117.3750000000001
 20
22.22143424691535
 30
0.0
  0
ENDBLK
  5
1EA
330
1DD
100
AcDbEntity
  8
0
100
AcDbBlockEnd
  0
BLOCK
  5
1F8
330
1F7
100
AcDbEntity
  8
0
100
AcDbBlockBegin
  2
*D9
 70
     1
 10
0.0
 20
0.0
 30
0.0
  3
*D9
  1
*D8
  0
LINE
  5
1F9
330
1F7
100
AcDbEntity
  8
치수문자_일반주서
 62
     0
370
    -2
100
AcDbLine
 10
103.8657751816695
 20
19.48229575403651
 30
0.0
 11
119.6194267469468
 21
-6.150060756304035
 31
0.0
  0
MTEXT
  5
1FA
330
1F7
100
AcDbEntity
  8
치수문자_일반주서
 62
     0
100
AcDbMText
 10
115.6706384014277
 20
5.288158154535728
 30
0.0
 40
3.5
 41
0.0
 71
     5
 72
     1
  1
\A1;R.5 [R0.02]
  7
SLDTEXTSTYLE0
 11
0.5236126201129557
 21
-0.8519564684057781
 31
0.0
 73
     1
 44
1.0
  0
LINE
  5
1FB
330
1F7
100
AcDbEntity
  8
치수문자_일반주서
 62
     0
370
    -2
100
AcDbLine
 10
101.875
 20
22.72143424691529
 30
0.0
 11
102.1368063100565
 21
22.29545601271239
 31
0.0
  0
SOLID
  5
1FC
330
1F7
100
AcDbEntity
  8
치수문자_일반주서
 62
     0
100
AcDbTrace
 10
104.3346352247821
 20
19.77045723263868
 30
0.0
 11
103.3969151385569
 21
19.19413427543435
 31
0.0
 12
102.1368063100565
 22
22.29545601271239
 32
0.0
 13
102.1368063100565
 23
22.29545601271239
 33
0.0
  0
POINT
  5
1FD
330
1F7
100
AcDbEntity
  8
Defpoints
 62
     0
100
AcDbPoint
 10
102.1368063100565
 20
22.29545601271239
 30
0.0
  0
POINT
  5
229
330
1F7
100
AcDbEntity
  8
Defpoints
 62
     0
100
AcDbPoint
 10
101.875
 20
22.72143424691529
 30
0.0
  0
ENDBLK
  5
1FE
330
1F7
100
AcDbEntity
  8
0
100
AcDbBlockEnd
  0
BLOCK
  5
204
330
203
100
AcDbEntity
  8
0
100
AcDbBlockBegin
  2
*D10
 70
     1
 10
0.0
 20
0.0
 30
0.0
  3
*D10
  1
*D10
  0
LINE
  5
206
330
203
100
AcDbEntity
  8
치수문자_일반주서
 62
     0
370
    -2
100
AcDbLine
 10
19.37500000000004
 20
35.78393424691529
 30
0.0
 11
19.37500000000004
 21
70.88391841499404
 31
0.0
  0
LINE
  5
207
330
203
100
AcDbEntity
  8
치수문자_일반주서
 62
     0
370
    -2
100
AcDbLine
 10
102.3750000000001
 20
36.34643424691529
 30
0.0
 11
102.3750000000001
 21
70.88391841499404
 31
0.0
  0
LINE
  5
208
330
203
100
AcDbEntity
  8
치수문자_일반주서
 62
     0
370
    -2
100
AcDbLine
 10
22.67700000000004
 20
70.88391841499404
 30
0.0
 11
99.07300000000006
 21
70.88391841499404
 31
0.0
  0
SOLID
  5
209
330
203
100
AcDbEntity
  8
치수문자_일반주서
 62
     0
100
AcDbTrace
 10
22.67700000000004
 20
71.43425174832737
 30
0.0
 11
22.67700000000004
 21
70.33358508166071
 31
0.0
 12
19.37500000000004
 22
70.88391841499404
 32
0.0
 13
19.37500000000004
 23
70.88391841499404
 33
0.0
  0
SOLID
  5
20A
330
203
100
AcDbEntity
  8
치수문자_일반주서
 62
     0
100
AcDbTrace
 10
99.07300000000006
 20
70.33358508166071
 30
0.0
 11
99.07300000000006
 21
71.43425174832737
 31
0.0
 12
102.3750000000001
 22
70.88391841499404
 32
0.0
 13
102.3750000000001
 23
70.88391841499404
 33
0.0
  0
MTEXT
  5
20B
330
203
100
AcDbEntity
  8
치수문자_일반주서
 62
     0
100
AcDbMText
 10
60.87500000000005
 20
75.25891841499404
 30
0.0
 40
3.5
 41
0.0
 71
     2
 72
     1
  1
\A1;83.00 [3.27]
  7
SLDTEXTSTYLE0
 73
     1
 44
1.0
  0
POINT
  5
20C
330
203
100
AcDbEntity
  8
Defpoints
 62
     0
100
AcDbPoint
 10
19.37500000000004
 20
35.72143424691529
 30
0.0
  0
POINT
  5
20D
330
203
100
AcDbEntity
  8
Defpoints
 62
     0
100
AcDbPoint
 10
102.3750000000001
 20
36.28393424691529
 30
0.0
  0
POINT
  5
20E
330
203
100
AcDbEntity
  8
Defpoints
 62
     0
100
AcDbPoint
 10
102.3750000000001
 20
70.88391841499404
 30
0.0
  0
ENDBLK
  5
205
330
203
100
AcDbEntity
  8
0
100
AcDbBlockEnd
  0
BLOCK
  5
210
330
20F
100
AcDbEntity
  8
0
100
AcDbBlockBegin
  2
*D11
 70
     1
 10
0.0
 20
0.0
 30
0.0
  3
*D11
  1
*D11
  0
LINE
  5
212
330
20F
100
AcDbEntity
  8
치수문자_일반주서
 62
     0
370
    -2
100
AcDbLine
 10
76.37504186422882
 20
28.62038676313042
 30
0.0
 11
76.37504186422882
 21
61.90091383617725
 31
0.0
  0
LINE
  5
213
330
20F
100
AcDbEntity
  8
치수문자_일반주서
 62
     0
370
    -2
100
AcDbLine
 10
102.3750000000001
 20
36.28393424691529
 30
0.0
 11
102.3750000000001
 21
61.90091383617725
 31
0.0
  0
LINE
  5
214
330
20F
100
AcDbEntity
  8
치수문자_일반주서
 62
     0
370
    -2
100
AcDbLine
 10
79.67704186422881
 20
61.90091383617725
 30
0.0
 11
99.07300000000006
 21
61.90091383617725
 31
0.0
  0
SOLID
  5
215
330
20F
100
AcDbEntity
  8
치수문자_일반주서
 62
     0
100
AcDbTrace
 10
79.67704186422881
 20
62.45124716951059
 30
0.0
 11
79.67704186422881
 21
61.35058050284392
 31
0.0
 12
76.37504186422882
 22
61.90091383617725
 32
0.0
 13
76.37504186422882
 23
61.90091383617725
 33
0.0
  0
SOLID
  5
216
330
20F
100
AcDbEntity
  8
치수문자_일반주서
 62
     0
100
AcDbTrace
 10
99.07300000000006
 20
61.35058050284392
 30
0.0
 11
99.07300000000006
 21
62.45124716951059
 31
0.0
 12
102.3750000000001
 22
61.90091383617725
 32
0.0
 13
102.3750000000001
 23
61.90091383617725
 33
0.0
  0
MTEXT
  5
217
330
20F
100
AcDbEntity
  8
치수문자_일반주서
 62
     0
100
AcDbMText
 10
89.42159572693208
 20
66.27591383617725
 30
0.0
 40
3.5
 41
0.0
 71
     2
 72
     1
  1
\A1;26.00 [1.02]
  7
SLDTEXTSTYLE0
 73
     1
 44
1.0
  0
POINT
  5
218
330
20F
100
AcDbEntity
  8
Defpoints
 62
     0
100
AcDbPoint
 10
76.37504186422882
 20
28.55788676313042
 30
0.0
  0
POINT
  5
219
330
20F
100
AcDbEntity
  8
Defpoints
 62
     0
100
AcDbPoint
 10
102.3750000000001
 20
36.22143424691529
 30
0.0
  0
POINT
  5
21A
330
20F
100
AcDbEntity
  8
Defpoints
 62
     0
100
AcDbPoint
 10
102.3750000000001
 20
61.90091383617725
 30
0.0
  0
ENDBLK
  5
211
330
20F
100
AcDbEntity
  8
0
100
AcDbBlockEnd
  0
BLOCK
  5
21C
330
21B
100
AcDbEntity
  8
0
100
AcDbBlockBegin
  2
*D12
 70
     1
 10
0.0
 20
0.0
 30
0.0
  3
*D12
  1
*D12
  0
LINE
  5
21E
330
21B
100
AcDbEntity
  8
치수문자_일반주서
 62
     0
370
    -2
100
AcDbLine
 10
19.81250000000005
 20
36.22143424691529
 30
0.0
 11
4.374999999999983
 21
36.22143424691524
 31
0.0
  0
LINE
  5
21F
330
21B
100
AcDbEntity
  8
치수문자_일반주서
 62
     0
370
    -2
100
AcDbLine
 10
19.81250000000005
 20
22.22143424691529
 30
0.0
 11
4.375000000000032
 21
22.22143424691524
 31
0.0
  0
LINE
  5
220
330
21B
100
AcDbEntity
  8
치수문자_일반주서
 62
     0
370
    -2
100
AcDbLine
 10
4.374999999999983
 20
36.22143424691524
 30
0.0
 11
4.375000000000032
 21
22.22143424691524
 31
0.0
  0
LINE
  5
221
330
21B
100
AcDbEntity
  8
치수문자_일반주서
 62
     0
370
    -2
100
AcDbLine
 10
4.374999999999972
 20
39.52343424691524
 30
0.0
 11
4.37499999999996
 21
42.82543424691524
 31
0.0
  0
LINE
  5
222
330
21B
100
AcDbEntity
  8
치수문자_일반주서
 62
     0
370
    -2
100
AcDbLine
 10
4.375000000000044
 20
18.91943424691524
 30
0.0
 11
4.375000000000055
 21
15.61743424691524
 31
0.0
  0
SOLID
  5
223
330
21B
100
AcDbEntity
  8
치수문자_일반주서
 62
     0
100
AcDbTrace
 10
3.824666666666638
 20
39.52343424691524
 30
0.0
 11
4.925333333333305
 21
39.52343424691524
 31
0.0
 12
4.374999999999983
 22
36.22143424691524
 32
0.0
 13
4.374999999999983
 23
36.22143424691524
 33
0.0
  0
SOLID
  5
224
330
21B
100
AcDbEntity
  8
치수문자_일반주서
 62
     0
100
AcDbTrace
 10
4.925333333333377
 20
18.91943424691524
 30
0.0
 11
3.82466666666671
 21
18.91943424691523
 31
0.0
 12
4.375000000000032
 22
22.22143424691524
 32
0.0
 13
4.375000000000032
 23
22.22143424691524
 33
0.0
  0
MTEXT
  5
225
330
21B
100
AcDbEntity
  8
치수문자_일반주서
 62
     0
100
AcDbMText
 10
0.0000000000000071
 20
29.22143424691528
 30
0.0
 40
3.5
 41
0.0
 71
     2
 72
     1
  1
\A1;%%c14 [0.55]
  7
SLDTEXTSTYLE0
 11
-3.489272363107635E-15
 21
1.0
 31
0.0
 73
     1
 44
1.0
  0
POINT
  5
226
330
21B
100
AcDbEntity
  8
Defpoints
 62
     0
100
AcDbPoint
 10
19.87500000000005
 20
36.22143424691529
 30
0.0
  0
POINT
  5
227
330
21B
100
AcDbEntity
  8
Defpoints
 62
     0
100
AcDbPoint
 10
19.87500000000005
 20
22.22143424691529
 30
0.0
  0
POINT
  5
228
330
21B
100
AcDbEntity
  8
Defpoints
 62
     0
100
AcDbPoint
 10
4.375000000000043
 20
22.22143424691524
 30
0.0
  0
ENDBLK
  5
21D
330
21B
100
AcDbEntity
  8
0
100
AcDbBlockEnd
  0
BLOCK
  5
276
330
275
100
AcDbEntity
  8
0
100
AcDbBlockBegin
  2
*D13
 70
     1
 10
0.0
 20
0.0
 30
0.0
  3
*D13
  1
*D13
  0
LINE
  5
278
330
275
100
AcDbEntity
  8
치수문자_일반주서
 62
     0
370
    -2
100
AcDbLine
 10
-13.18725065607215
 20
110.4624817439641
 30
0.0
 11
-13.18725065607215
 21
145.5624659120429
 31
0.0
  0
LINE
  5
279
330
275
100
AcDbEntity
  8
치수문자_일반주서
 62
     0
370
    -2
100
AcDbLine
 10
69.81274934392786
 20
111.0249817439641
 30
0.0
 11
69.81274934392786
 21
145.5624659120429
 31
0.0
  0
LINE
  5
27A
330
275
100
AcDbEntity
  8
치수문자_일반주서
 62
     0
370
    -2
100
AcDbLine
 10
-9.885250656072152
 20
145.5624659120429
 30
0.0
 11
66.51074934392787
 21
145.5624659120429
 31
0.0
  0
SOLID
  5
27B
330
275
100
AcDbEntity
  8
치수문자_일반주서
 62
     0
100
AcDbTrace
 10
-9.885250656072152
 20
146.1127992453762
 30
0.0
 11
-9.885250656072152
 21
145.0121325787096
 31
0.0
 12
-13.18725065607215
 22
145.5624659120429
 32
0.0
 13
-13.18725065607215
 23
145.5624659120429
 33
0.0
  0
SOLID
  5
27C
330
275
100
AcDbEntity
  8
치수문자_일반주서
 62
     0
100
AcDbTrace
 10
66.51074934392787
 20
145.0121325787096
 30
0.0
 11
66.51074934392787
 21
146.1127992453762
 31
0.0
 12
69.81274934392786
 22
145.5624659120429
 32
0.0
 13
69.81274934392786
 23
145.5624659120429
 33
0.0
  0
MTEXT
  5
27D
330
275
100
AcDbEntity
  8
치수문자_일반주서
 62
     0
100
AcDbMText
 10
28.31274934392786
 20
149.9374659120429
 30
0.0
 40
3.5
 41
0.0
 71
     2
 72
     1
  1
\A1;83.00 [3.27]
  7
SLDTEXTSTYLE0
 73
     1
 44
1.0
  0
POINT
  5
27E
330
275
100
AcDbEntity
  8
Defpoints
 62
     0
100
AcDbPoint
 10
-13.18725065607215
 20
110.3999817439641
 30
0.0
  0
POINT
  5
27F
330
275
100
AcDbEntity
  8
Defpoints
 62
     0
100
AcDbPoint
 10
69.81274934392786
 20
110.9624817439641
 30
0.0
  0
POINT
  5
280
330
275
100
AcDbEntity
  8
Defpoints
 62
     0
100
AcDbPoint
 10
69.81274934392786
 20
145.5624659120429
 30
0.0
  0
ENDBLK
  5
277
330
275
100
AcDbEntity
  8
0
100
AcDbBlockEnd
  0
BLOCK
  5
282
330
281
100
AcDbEntity
  8
0
100
AcDbBlockBegin
  2
*D14
 70
     1
 10
0.0
 20
0.0
 30
0.0
  3
*D14
  1
*D14
  0
LINE
  5
284
330
281
100
AcDbEntity
  8
치수문자_일반주서
 62
     0
370
    -2
100
AcDbLine
 10
43.81279120815663
 20
103.2989342601793
 30
0.0
 11
43.81279120815663
 21
136.5794613332261
 31
0.0
  0
LINE
  5
285
330
281
100
AcDbEntity
  8
치수문자_일반주서
 62
     0
370
    -2
100
AcDbLine
 10
69.81274934392786
 20
110.9624817439641
 30
0.0
 11
69.81274934392786
 21
136.5794613332261
 31
0.0
  0
LINE
  5
286
330
281
100
AcDbEntity
  8
치수문자_일반주서
 62
     0
370
    -2
100
AcDbLine
 10
47.11479120815662
 20
136.5794613332261
 30
0.0
 11
66.51074934392787
 21
136.5794613332261
 31
0.0
  0
SOLID
  5
287
330
281
100
AcDbEntity
  8
치수문자_일반주서
 62
     0
100
AcDbTrace
 10
47.11479120815662
 20
137.1297946665594
 30
0.0
 11
47.11479120815662
 21
136.0291279998928
 31
0.0
 12
43.81279120815663
 22
136.5794613332261
 32
0.0
 13
43.81279120815663
 23
136.5794613332261
 33
0.0
  0
SOLID
  5
288
330
281
100
AcDbEntity
  8
치수문자_일반주서
 62
     0
100
AcDbTrace
 10
66.51074934392787
 20
136.0291279998928
 30
0.0
 11
66.51074934392787
 21
137.1297946665594
 31
0.0
 12
69.81274934392786
 22
136.5794613332261
 32
0.0
 13
69.81274934392786
 23
136.5794613332261
 33
0.0
  0
MTEXT
  5
289
330
281
100
AcDbEntity
  8
치수문자_일반주서
 62
     0
100
AcDbMText
 10
56.85934507085989
 20
140.9544613332261
 30
0.0
 40
3.5
 41
0.0
 71
     2
 72
     1
  1
\A1;26.00 [1.02]
  7
SLDTEXTSTYLE0
 73
     1
 44
1.0
  0
POINT
  5
28A
330
281
100
AcDbEntity
  8
Defpoints
 62
     0
100
AcDbPoint
 10
43.81279120815663
 20
103.2364342601793
 30
0.0
  0
POINT
  5
28B
330
281
100
AcDbEntity
  8
Defpoints
 62
     0
100
AcDbPoint
 10
69.81274934392786
 20
110.8999817439641
 30
0.0
  0
POINT
  5
28C
330
281
100
AcDbEntity
  8
Defpoints
 62
     0
100
AcDbPoint
 10
69.81274934392786
 20
136.5794613332261
 30
0.0
  0
ENDBLK
  5
283
330
281
100
AcDbEntity
  8
0
100
AcDbBlockEnd
  0
BLOCK
  5
28E
330
28D
100
AcDbEntity
  8
0
100
AcDbBlockBegin
  2
*D15
 70
     1
 10
0.0
 20
0.0
 30
0.0
  3
*D15
  1
*D15
  0
LINE
  5
290
330
28D
100
AcDbEntity
  8
치수문자_일반주서
 62
     0
370
    -2
100
AcDbLine
 10
-12.74975065607214
 20
110.8999817439641
 30
0.0
 11
-28.18725065607221
 21
110.8999817439641
 31
0.0
  0
LINE
  5
291
330
28D
100
AcDbEntity
  8
치수문자_일반주서
 62
     0
370
    -2
100
AcDbLine
 10
-12.74975065607214
 20
96.89998174396413
 30
0.0
 11
-28.18725065607216
 21
96.89998174396408
 31
0.0
  0
LINE
  5
292
330
28D
100
AcDbEntity
  8
치수문자_일반주서
 62
     0
370
    -2
100
AcDbLine
 10
-28.18725065607221
 20
110.8999817439641
 30
0.0
 11
-28.18725065607216
 21
96.89998174396408
 31
0.0
  0
LINE
  5
293
330
28D
100
AcDbEntity
  8
치수문자_일반주서
 62
     0
370
    -2
100
AcDbLine
 10
-28.18725065607222
 20
114.2019817439641
 30
0.0
 11
-28.18725065607223
 21
117.5039817439641
 31
0.0
  0
LINE
  5
294
330
28D
100
AcDbEntity
  8
치수문자_일반주서
 62
     0
370
    -2
100
AcDbLine
 10
-28.18725065607215
 20
93.59798174396408
 30
0.0
 11
-28.18725065607214
 21
90.29598174396409
 31
0.0
  0
SOLID
  5
295
330
28D
100
AcDbEntity
  8
치수문자_일반주서
 62
     0
100
AcDbTrace
 10
-28.73758398940556
 20
114.2019817439641
 30
0.0
 11
-27.63691732273889
 21
114.2019817439641
 31
0.0
 12
-28.18725065607221
 22
110.8999817439641
 32
0.0
 13
-28.18725065607221
 23
110.8999817439641
 33
0.0
  0
SOLID
  5
296
330
28D
100
AcDbEntity
  8
치수문자_일반주서
 62
     0
100
AcDbTrace
 10
-27.63691732273882
 20
93.59798174396408
 30
0.0
 11
-28.73758398940549
 21
93.59798174396408
 31
0.0
 12
-28.18725065607216
 22
96.89998174396408
 32
0.0
 13
-28.18725065607216
 23
96.89998174396408
 33
0.0
  0
MTEXT
  5
297
330
28D
100
AcDbEntity
  8
치수문자_일반주서
 62
     0
100
AcDbMText
 10
-32.56225065607219
 20
103.8999817439641
 30
0.0
 40
3.5
 41
0.0
 71
     2
 72
     1
  1
\A1;%%c14 [0.55]
  7
SLDTEXTSTYLE0
 11
-3.552713678800501E-15
 21
1.0
 31
0.0
 73
     1
 44
1.0
  0
POINT
  5
298
330
28D
100
AcDbEntity
  8
Defpoints
 62
     0
100
AcDbPoint
 10
-12.68725065607214
 20
110.8999817439641
 30
0.0
  0
POINT
  5
299
330
28D
100
AcDbEntity
  8
Defpoints
 62
     0
100
AcDbPoint
 10
-12.68725065607214
 20
96.89998174396413
 30
0.0
  0
POINT
  5
29A
330
28D
100
AcDbEntity
  8
Defpoints
 62
     0
100
AcDbPoint
 10
-28.18725065607216
 20
96.89998174396408
 30
0.0
  0
ENDBLK
  5
28F
330
28D
100
AcDbEntity
  8
0
100
AcDbBlockEnd
  0
BLOCK
  5
29C
330
29B
100
AcDbEntity
  8
0
100
AcDbBlockBegin
  2
*D16
 70
     1
 10
0.0
 20
0.0
 30
0.0
  3
*D16
  1
*D16
  0
LINE
  5
29E
330
29B
100
AcDbEntity
  8
치수문자_일반주서
 62
     0
370
    -2
100
AcDbLine
 10
69.87524934392788
 20
110.8999817439641
 30
0.0
 11
84.81274934392788
 21
110.8999817439642
 31
0.0
  0
LINE
  5
29F
330
29B
100
AcDbEntity
  8
치수문자_일반주서
 62
     0
370
    -2
100
AcDbLine
 10
69.87524934392786
 20
96.89998174396413
 30
0.0
 11
84.81274934392792
 21
96.89998174396419
 31
0.0
  0
LINE
  5
2A0
330
29B
100
AcDbEntity
  8
치수문자_일반주서
 62
     0
370
    -2
100
AcDbLine
 10
84.81274934392788
 20
110.8999817439642
 30
0.0
 11
84.81274934392792
 21
96.89998174396419
 31
0.0
  0
LINE
  5
2A1
330
29B
100
AcDbEntity
  8
치수문자_일반주서
 62
     0
370
    -2
100
AcDbLine
 10
84.81274934392786
 20
114.2019817439642
 30
0.0
 11
84.81274934392785
 21
117.5039817439642
 31
0.0
  0
LINE
  5
2A2
330
29B
100
AcDbEntity
  8
치수문자_일반주서
 62
     0
370
    -2
100
AcDbLine
 10
84.81274934392793
 20
93.5979817439642
 30
0.0
 11
84.81274934392795
 21
90.2959817439642
 31
0.0
  0
SOLID
  5
2A3
330
29B
100
AcDbEntity
  8
치수문자_일반주서
 62
     0
100
AcDbTrace
 10
84.26241601059454
 20
114.2019817439642
 30
0.0
 11
85.36308267726119
 21
114.2019817439642
 31
0.0
 12
84.81274934392788
 22
110.8999817439642
 32
0.0
 13
84.81274934392788
 23
110.8999817439642
 33
0.0
  0
SOLID
  5
2A4
330
29B
100
AcDbEntity
  8
치수문자_일반주서
 62
     0
100
AcDbTrace
 10
85.36308267726126
 20
93.5979817439642
 30
0.0
 11
84.2624160105946
 21
93.5979817439642
 31
0.0
 12
84.81274934392792
 22
96.89998174396419
 32
0.0
 13
84.81274934392792
 23
96.89998174396419
 33
0.0
  0
MTEXT
  5
2A5
330
29B
100
AcDbEntity
  8
치수문자_일반주서
 62
     0
100
AcDbMText
 10
80.43774934392789
 20
103.9656861256772
 30
0.0
 40
3.5
 41
0.0
 71
     2
 72
     1
  1
\A1;%%c14 [0.55]
  7
SLDTEXTSTYLE0
 11
-3.045183153257572E-15
 21
1.0
 31
0.0
 73
     1
 44
1.0
  0
POINT
  5
2A6
330
29B
100
AcDbEntity
  8
Defpoints
 62
     0
100
AcDbPoint
 10
69.81274934392788
 20
110.8999817439641
 30
0.0
  0
POINT
  5
2A7
330
29B
100
AcDbEntity
  8
Defpoints
 62
     0
100
AcDbPoint
 10
69.81274934392786
 20
96.89998174396413
 30
0.0
  0
POINT
  5
2A8
330
29B
100
AcDbEntity
  8
Defpoints
 62
     0
100
AcDbPoint
 10
84.81274934392792
 20
96.89998174396419
 30
0.0
  0
ENDBLK
  5
29D
330
29B
100
AcDbEntity
  8
0
100
AcDbBlockEnd
  0
BLOCK
  5
2AA
330
2A9
100
AcDbEntity
  8
0
100
AcDbBlockBegin
  2
*D17
 70
     1
 10
0.0
 20
0.0
 30
0.0
  3
*D17
  1
*D17
  0
LINE
  5
2AC
330
2A9
100
AcDbEntity
  8
치수문자_일반주서
 62
     0
370
    -2
100
AcDbLine
 10
71.30352452559731
 20
94.16084325108535
 30
0.0
 11
87.0571760908746
 21
68.5284867407448
 31
0.0
  0
MTEXT
  5
2AD
330
2A9
100
AcDbEntity
  8
치수문자_일반주서
 62
     0
100
AcDbMText
 10
83.10838774535549
 20
79.96670565158456
 30
0.0
 40
3.5
 41
0.0
 71
     5
 72
     1
  1
\A1;R.5 [R0.02]
  7
SLDTEXTSTYLE0
 11
0.5236126201129557
 21
-0.8519564684057781
 31
0.0
 73
     1
 44
1.0
  0
LINE
  5
2AE
330
2A9
100
AcDbEntity
  8
치수문자_일반주서
 62
     0
370
    -2
100
AcDbLine
 10
69.31274934392785
 20
97.39998174396413
 30
0.0
 11
69.57455565398433
 21
96.97400350976123
 31
0.0
  0
SOLID
  5
2AF
330
2A9
100
AcDbEntity
  8
치수문자_일반주서
 62
     0
100
AcDbTrace
 10
71.77238456870995
 20
94.44900472968752
 30
0.0
 11
70.83466448248467
 21
93.87268177248319
 31
0.0
 12
69.57455565398433
 22
96.97400350976123
 32
0.0
 13
69.57455565398433
 23
96.97400350976123
 33
0.0
  0
POINT
  5
2B0
330
2A9
100
AcDbEntity
  8
Defpoints
 62
     0
100
AcDbPoint
 10
69.57455565398433
 20
96.97400350976123
 30
0.0
  0
POINT
  5
2B1
330
2A9
100
AcDbEntity
  8
Defpoints
 62
     0
100
AcDbPoint
 10
69.31274934392785
 20
97.39998174396413
 30
0.0
  0
ENDBLK
  5
2AB
330
2A9
100
AcDbEntity
  8
0
100
AcDbBlockEnd
  0
BLOCK
  5
362
330
361
100
AcDbEntity
  8
0
100
AcDbBlockBegin
  2
*D19
 70
     1
 10
0.0
 20
0.0
 30
0.0
  3
*D19
  1
*D19
  0
LINE
  5
364
330
361
100
AcDbEntity
  8
치수문자_일반주서
 62
     0
370
    -2
100
AcDbLine
 10
170.9743658530533
 20
62.7343073888119
 30
0.0
 11
170.9743658530533
 21
84.49441157606654
 31
0.0
  0
LINE
  5
365
330
361
100
AcDbEntity
  8
치수문자_일반주서
 62
     0
370
    -2
100
AcDbLine
 10
94.77436585305337
 20
62.68760430122146
 30
0.0
 11
94.77436585305337
 21
84.49441157606654
 31
0.0
  0
LINE
  5
366
330
361
100
AcDbEntity
  8
치수문자_일반주서
 62
     0
370
    -2
100
AcDbLine
 10
166.9743658530533
 20
84.49441157606654
 30
0.0
 11
98.77436585305337
 21
84.49441157606654
 31
0.0
  0
SOLID
  5
367
330
361
100
AcDbEntity
  8
치수문자_일반주서
 62
     0
100
AcDbTrace
 10
166.9743658530533
 20
83.82774490939987
 30
0.0
 11
166.9743658530533
 21
85.16107824273321
 31
0.0
 12
170.9743658530533
 22
84.49441157606654
 32
0.0
 13
170.9743658530533
 23
84.49441157606654
 33
0.0
  0
SOLID
  5
368
330
361
100
AcDbEntity
  8
치수문자_일반주서
 62
     0
100
AcDbTrace
 10
98.77436585305337
 20
85.16107824273321
 30
0.0
 11
98.77436585305337
 21
83.82774490939987
 31
0.0
 12
94.77436585305337
 22
84.49441157606654
 32
0.0
 13
94.77436585305337
 23
84.49441157606654
 33
0.0
  0
MTEXT
  5
369
330
361
100
AcDbEntity
  8
치수문자_일반주서
 62
     0
100
AcDbMText
 10
131.2803472533191
 20
89.36941157606654
 30
0.0
 40
4.0
 41
0.0
 71
     2
 72
     1
  1
\A1;76.2 [3.00]
  7
SLDTEXTSTYLE0
 73
     1
 44
1.0
  0
POINT
  5
36A
330
361
100
AcDbEntity
  8
Defpoints
 62
     0
100
AcDbPoint
 10
170.9743658530533
 20
62.6718073888119
 30
0.0
  0
POINT
  5
36B
330
361
100
AcDbEntity
  8
Defpoints
 62
     0
100
AcDbPoint
 10
94.77436585305337
 20
62.62510430122146
 30
0.0
  0
POINT
  5
36C
330
361
100
AcDbEntity
  8
Defpoints
 62
     0
100
AcDbPoint
 10
94.77436585305337
 20
84.49441157606654
 30
0.0
  0
ENDBLK
  5
363
330
361
100
AcDbEntity
  8
0
100
AcDbBlockEnd
  0
BLOCK
  5
36E
330
36D
100
AcDbEntity
  8
0
100
AcDbBlockBegin
  2
*D20
 70
     1
 10
0.0
 20
0.0
 30
0.0
  3
*D20
  1
*D20
  0
LINE
  5
370
330
36D
100
AcDbEntity
  8
치수문자_일반주서
 62
     0
370
    -2
100
AcDbLine
 10
170.9743658530533
 20
62.7343073888119
 30
0.0
 11
170.9743658530533
 21
101.7389641730368
 31
0.0
  0
LINE
  5
371
330
36D
100
AcDbEntity
  8
치수문자_일반주서
 62
     0
370
    -2
100
AcDbLine
 10
18.57436585305335
 20
60.19430738881175
 30
0.0
 11
18.57436585305335
 21
101.7389641730368
 31
0.0
  0
LINE
  5
372
330
36D
100
AcDbEntity
  8
치수문자_일반주서
 62
     0
370
    -2
100
AcDbLine
 10
166.9743658530533
 20
101.7389641730368
 30
0.0
 11
22.57436585305335
 21
101.7389641730368
 31
0.0
  0
SOLID
  5
373
330
36D
100
AcDbEntity
  8
치수문자_일반주서
 62
     0
100
AcDbTrace
 10
166.9743658530533
 20
101.0722975063701
 30
0.0
 11
166.9743658530533
 21
102.4056308397035
 31
0.0
 12
170.9743658530533
 22
101.7389641730368
 32
0.0
 13
170.9743658530533
 23
101.7389641730368
 33
0.0
  0
SOLID
  5
374
330
36D
100
AcDbEntity
  8
치수문자_일반주서
 62
     0
100
AcDbTrace
 10
22.57436585305335
 20
102.4056308397035
 30
0.0
 11
22.57436585305335
 21
101.0722975063701
 31
0.0
 12
18.57436585305335
 22
101.7389641730368
 32
0.0
 13
18.57436585305335
 23
101.7389641730368
 33
0.0
  0
MTEXT
  5
375
330
36D
100
AcDbEntity
  8
치수문자_일반주서
 62
     0
100
AcDbMText
 10
92.96868623727283
 20
106.6139641730368
 30
0.0
 40
4.0
 41
0.0
 71
     2
 72
     1
  1
\A1;152.4 [6.00]
  7
SLDTEXTSTYLE0
 73
     1
 44
1.0
  0
POINT
  5
376
330
36D
100
AcDbEntity
  8
Defpoints
 62
     0
100
AcDbPoint
 10
170.9743658530533
 20
62.6718073888119
 30
0.0
  0
POINT
  5
377
330
36D
100
AcDbEntity
  8
Defpoints
 62
     0
100
AcDbPoint
 10
18.57436585305335
 20
60.13180738881175
 30
0.0
  0
POINT
  5
378
330
36D
100
AcDbEntity
  8
Defpoints
 62
     0
100
AcDbPoint
 10
18.57436585305335
 20
101.7389641730368
 30
0.0
  0
ENDBLK
  5
36F
330
36D
100
AcDbEntity
  8
0
100
AcDbBlockEnd
  0
BLOCK
  5
37A
330
379
100
AcDbEntity
  8
0
100
AcDbBlockBegin
  2
*D21
 70
     1
 10
0.0
 20
0.0
 30
0.0
  3
*D21
  1
*D21
  0
LINE
  5
37C
330
379
100
AcDbEntity
  8
치수문자_일반주서
 62
     0
370
    -2
100
AcDbLine
 10
21.05186585305337
 20
62.67180738881174
 30
0.0
 11
4.875000000000092
 21
62.67180738881167
 31
0.0
  0
LINE
  5
37D
330
379
100
AcDbEntity
  8
치수문자_일반주서
 62
     0
370
    -2
100
AcDbLine
 10
21.05186585305337
 20
37.27180738881176
 30
0.0
 11
4.875000000000181
 21
37.27180738881169
 31
0.0
  0
LINE
  5
37E
330
379
100
AcDbEntity
  8
치수문자_일반주서
 62
     0
370
    -2
100
AcDbLine
 10
4.875000000000092
 20
62.67180738881167
 30
0.0
 11
4.874999999999971
 21
97.43205738881167
 31
0.0
  0
LINE
  5
37F
330
379
100
AcDbEntity
  8
치수문자_일반주서
 62
     0
370
    -2
100
AcDbLine
 10
4.875000000000107
 20
58.67180738881167
 30
0.0
 11
4.875000000000167
 21
41.27180738881169
 31
0.0
  0
SOLID
  5
380
330
379
100
AcDbEntity
  8
치수문자_일반주서
 62
     0
100
AcDbTrace
 10
5.541666666666774
 20
58.67180738881167
 30
0.0
 11
4.20833333333344
 21
58.67180738881167
 31
0.0
 12
4.875000000000092
 22
62.67180738881167
 32
0.0
 13
4.875000000000092
 23
62.67180738881167
 33
0.0
  0
SOLID
  5
381
330
379
100
AcDbEntity
  8
치수문자_일반주서
 62
     0
100
AcDbTrace
 10
4.2083333333335
 20
41.27180738881169
 30
0.0
 11
5.541666666666834
 21
41.27180738881169
 31
0.0
 12
4.875000000000181
 22
37.27180738881169
 32
0.0
 13
4.875000000000181
 23
37.27180738881169
 33
0.0
  0
MTEXT
  5
382
330
379
100
AcDbEntity
  8
치수문자_일반주서
 62
     0
100
AcDbMText
 10
0.0000000000000213
 20
83.05705738881166
 30
0.0
 40
4.0
 41
0.0
 71
     2
 72
     1
  1
\A1;%%c25.4 [1.00]
  7
SLDTEXTSTYLE0
 11
-3.496765431890260E-15
 21
1.0
 31
0.0
 73
     1
 44
1.0
  0
POINT
  5
383
330
379
100
AcDbEntity
  8
Defpoints
 62
     0
100
AcDbPoint
 10
21.11436585305337
 20
62.67180738881174
 30
0.0
  0
POINT
  5
384
330
379
100
AcDbEntity
  8
Defpoints
 62
     0
100
AcDbPoint
 10
21.11436585305337
 20
37.27180738881176
 30
0.0
  0
POINT
  5
385
330
379
100
AcDbEntity
  8
Defpoints
 62
     0
100
AcDbPoint
 10
4.875000000000178
 20
37.27180738881169
 30
0.0
  0
ENDBLK
  5
37B
330
379
100
AcDbEntity
  8
0
100
AcDbBlockEnd
  0
BLOCK
  5
387
330
386
100
AcDbEntity
  8
0
100
AcDbBlockBegin
  2
*D22
 70
     1
 10
0.0
 20
0.0
 30
0.0
  3
*D22
  1
*D22
  0
LINE
  5
389
330
386
100
AcDbEntity
  8
치수문자_일반주서
 62
     0
370
    -2
100
AcDbLine
 10
171.0368658530533
 20
37.27180738881187
 30
0.0
 11
188.9009022333175
 21
37.27180738881194
 31
0.0
  0
LINE
  5
38A
330
386
100
AcDbEntity
  8
치수문자_일반주서
 62
     0
370
    -2
100
AcDbLine
 10
171.0368658530533
 20
62.6718073888119
 30
0.0
 11
188.9009022333174
 21
62.67180738881196
 31
0.0
  0
LINE
  5
38B
330
386
100
AcDbEntity
  8
치수문자_일반주서
 62
     0
370
    -2
100
AcDbLine
 10
188.9009022333174
 20
62.67180738881196
 30
0.0
 11
188.9009022333173
 21
95.42180738881197
 31
0.0
  0
LINE
  5
38C
330
386
100
AcDbEntity
  8
치수문자_일반주서
 62
     0
370
    -2
100
AcDbLine
 10
188.9009022333175
 20
41.27180738881194
 30
0.0
 11
188.9009022333174
 21
58.67180738881196
 31
0.0
  0
SOLID
  5
38D
330
386
100
AcDbEntity
  8
치수문자_일반주서
 62
     0
100
AcDbTrace
 10
188.2342355666509
 20
41.27180738881194
 30
0.0
 11
189.5675688999842
 21
41.27180738881194
 31
0.0
 12
188.9009022333175
 22
37.27180738881194
 32
0.0
 13
188.9009022333175
 23
37.27180738881194
 33
0.0
  0
SOLID
  5
38E
330
386
100
AcDbEntity
  8
치수문자_일반주서
 62
     0
100
AcDbTrace
 10
189.5675688999841
 20
58.67180738881196
 30
0.0
 11
188.2342355666508
 21
58.67180738881196
 31
0.0
 12
188.9009022333174
 22
62.67180738881196
 32
0.0
 13
188.9009022333174
 23
62.67180738881196
 33
0.0
  0
MTEXT
  5
38F
330
386
100
AcDbEntity
  8
치수문자_일반주서
 62
     0
100
AcDbMText
 10
184.0259022333174
 20
81.04680738881196
 30
0.0
 40
4.0
 41
0.0
 71
     2
 72
     1
  1
\A1;%%c25.4 [1.00]
  7
SLDTEXTSTYLE0
 11
-3.356894814614643E-15
 21
1.0
 31
0.0
 73
     1
 44
1.0
  0
POINT
  5
390
330
386
100
AcDbEntity
  8
Defpoints
 62
     0
100
AcDbPoint
 10
170.9743658530533
 20
37.27180738881187
 30
0.0
  0
POINT
  5
391
330
386
100
AcDbEntity
  8
Defpoints
 62
     0
100
AcDbPoint
 10
170.9743658530533
 20
62.6718073888119
 30
0.0
  0
POINT
  5
392
330
386
100
AcDbEntity
  8
Defpoints
 62
     0
100
AcDbPoint
 10
188.9009022333174
 20
62.67180738881196
 30
0.0
  0
ENDBLK
  5
388
330
386
100
AcDbEntity
  8
0
100
AcDbBlockEnd
  0
BLOCK
  5
3C1
330
3C0
100
AcDbEntity
  8
0
100
AcDbBlockBegin
  2
*D23
 70
     1
 10
0.0
 20
0.0
 30
0.0
  3
*D23
  1
*D23
  0
LINE
  5
3C3
330
3C0
100
AcDbEntity
  8
치수문자_일반주서
 62
     0
370
    -2
100
AcDbLine
 10
88.19999999999996
 20
12.76250000000016
 30
0.0
 11
88.19999999999996
 21
34.52260418725479
 31
0.0
  0
LINE
  5
3C4
330
3C0
100
AcDbEntity
  8
치수문자_일반주서
 62
     0
370
    -2
100
AcDbLine
 10
12.00000000000001
 20
12.7157969124097
 30
0.0
 11
12.00000000000001
 21
34.52260418725479
 31
0.0
  0
LINE
  5
3C5
330
3C0
100
AcDbEntity
  8
치수문자_일반주서
 62
     0
370
    -2
100
AcDbLine
 10
84.89799999999997
 20
34.52260418725479
 30
0.0
 11
15.30200000000001
 21
34.52260418725479
 31
0.0
  0
SOLID
  5
3C6
330
3C0
100
AcDbEntity
  8
치수문자_일반주서
 62
     0
100
AcDbTrace
 10
84.89799999999997
 20
33.97227085392145
 30
0.0
 11
84.89799999999997
 21
35.07293752058812
 31
0.0
 12
88.19999999999996
 22
34.52260418725479
 32
0.0
 13
88.19999999999996
 23
34.52260418725479
 33
0.0
  0
SOLID
  5
3C7
330
3C0
100
AcDbEntity
  8
치수문자_일반주서
 62
     0
100
AcDbTrace
 10
15.30200000000001
 20
35.07293752058812
 30
0.0
 11
15.30200000000001
 21
33.97227085392145
 31
0.0
 12
12.00000000000001
 22
34.52260418725479
 32
0.0
 13
12.00000000000001
 23
34.52260418725479
 33
0.0
  0
MTEXT
  5
3C8
330
3C0
100
AcDbEntity
  8
치수문자_일반주서
 62
     0
100
AcDbMText
 10
48.50598140026571
 20
38.89760418725479
 30
0.0
 40
3.5
 41
0.0
 71
     2
 72
     1
  1
\A1;76.20 [3]
  7
SLDTEXTSTYLE0
 73
     1
 44
1.0
  0
POINT
  5
3C9
330
3C0
100
AcDbEntity
  8
Defpoints
 62
     0
100
AcDbPoint
 10
88.19999999999996
 20
12.70000000000016
 30
0.0
  0
POINT
  5
3CA
330
3C0
100
AcDbEntity
  8
Defpoints
 62
     0
100
AcDbPoint
 10
12.00000000000001
 20
12.6532969124097
 30
0.0
  0
POINT
  5
3CB
330
3C0
100
AcDbEntity
  8
Defpoints
 62
     0
100
AcDbPoint
 10
12.00000000000001
 20
34.52260418725479
 30
0.0
  0
ENDBLK
  5
3C2
330
3C0
100
AcDbEntity
  8
0
100
AcDbBlockEnd
  0
BLOCK
  5
3CD
330
3CC
100
AcDbEntity
  8
0
100
AcDbBlockBegin
  2
*D24
 70
     1
 10
0.0
 20
0.0
 30
0.0
  3
*D24
  1
*D24
  0
LINE
  5
3CF
330
3CC
100
AcDbEntity
  8
치수문자_일반주서
 62
     0
370
    -2
100
AcDbLine
 10
88.19999999999996
 20
12.76250000000016
 30
0.0
 11
88.19999999999997
 21
51.76715678422505
 31
0.0
  0
LINE
  5
3D0
330
3CC
100
AcDbEntity
  8
치수문자_일반주서
 62
     0
370
    -2
100
AcDbLine
 10
-64.2
 20
10.2225
 30
0.0
 11
-64.19999999999999
 21
51.76715678422505
 31
0.0
  0
LINE
  5
3D1
330
3CC
100
AcDbEntity
  8
치수문자_일반주서
 62
     0
370
    -2
100
AcDbLine
 10
84.89799999999997
 20
51.76715678422505
 30
0.0
 11
-60.89799999999999
 21
51.76715678422505
 31
0.0
  0
SOLID
  5
3D2
330
3CC
100
AcDbEntity
  8
치수문자_일반주서
 62
     0
100
AcDbTrace
 10
84.89799999999997
 20
51.21682345089172
 30
0.0
 11
84.89799999999997
 21
52.31749011755839
 31
0.0
 12
88.19999999999997
 22
51.76715678422505
 32
0.0
 13
88.19999999999997
 23
51.76715678422505
 33
0.0
  0
SOLID
  5
3D3
330
3CC
100
AcDbEntity
  8
치수문자_일반주서
 62
     0
100
AcDbTrace
 10
-60.89799999999999
 20
52.31749011755839
 30
0.0
 11
-60.89799999999999
 21
51.21682345089172
 31
0.0
 12
-64.19999999999999
 22
51.76715678422505
 32
0.0
 13
-64.19999999999999
 23
51.76715678422505
 33
0.0
  0
MTEXT
  5
3D4
330
3CC
100
AcDbEntity
  8
치수문자_일반주서
 62
     0
100
AcDbMText
 10
10.19432038421948
 20
56.14215678422505
 30
0.0
 40
3.5
 41
0.0
 71
     2
 72
     1
  1
\A1;152.40 [6]
  7
SLDTEXTSTYLE0
 73
     1
 44
1.0
  0
POINT
  5
3D5
330
3CC
100
AcDbEntity
  8
Defpoints
 62
     0
100
AcDbPoint
 10
88.19999999999996
 20
12.70000000000016
 30
0.0
  0
POINT
  5
3D6
330
3CC
100
AcDbEntity
  8
Defpoints
 62
     0
100
AcDbPoint
 10
-64.2
 20
10.16
 30
0.0
  0
POINT
  5
3D7
330
3CC
100
AcDbEntity
  8
Defpoints
 62
     0
100
AcDbPoint
 10
-64.2
 20
51.76715678422505
 30
0.0
  0
ENDBLK
  5
3CE
330
3CC
100
AcDbEntity
  8
0
100
AcDbBlockEnd
  0
BLOCK
  5
3D9
330
3D8
100
AcDbEntity
  8
0
100
AcDbBlockBegin
  2
*D25
 70
     1
 10
0.0
 20
0.0
 30
0.0
  3
*D25
  1
*D25
  0
LINE
  5
3DB
330
3D8
100
AcDbEntity
  8
치수문자_일반주서
 62
     0
370
    -2
100
AcDbLine
 10
-61.72249999999998
 20
12.69999999999999
 30
0.0
 11
-77.89936585305325
 21
12.69999999999993
 31
0.0
  0
LINE
  5
3DC
330
3D8
100
AcDbEntity
  8
치수문자_일반주서
 62
     0
370
    -2
100
AcDbLine
 10
-61.72249999999998
 20
-12.69999999999999
 30
0.0
 11
-77.89936585305317
 21
-12.70000000000005
 31
0.0
  0
LINE
  5
3DD
330
3D8
100
AcDbEntity
  8
치수문자_일반주서
 62
     0
370
    -2
100
AcDbLine
 10
-77.89936585305325
 20
12.69999999999993
 30
0.0
 11
-77.89936585305337
 21
44.24149999999992
 31
0.0
  0
LINE
  5
3DE
330
3D8
100
AcDbEntity
  8
치수문자_일반주서
 62
     0
370
    -2
100
AcDbLine
 10
-77.89936585305324
 20
9.397999999999929
 30
0.0
 11
-77.89936585305318
 21
-9.398000000000053
 31
0.0
  0
SOLID
  5
3DF
330
3D8
100
AcDbEntity
  8
치수문자_일반주서
 62
     0
100
AcDbTrace
 10
-77.34903251971991
 20
9.39799999999993
 30
0.0
 11
-78.44969918638657
 21
9.397999999999927
 31
0.0
 12
-77.89936585305325
 22
12.69999999999993
 32
0.0
 13
-77.89936585305325
 23
12.69999999999993
 33
0.0
  0
SOLID
  5
3E0
330
3D8
100
AcDbEntity
  8
치수문자_일반주서
 62
     0
100
AcDbTrace
 10
-78.44969918638651
 20
-9.398000000000055
 30
0.0
 11
-77.34903251971986
 21
-9.398000000000051
 31
0.0
 12
-77.89936585305317
 22
-12.70000000000005
 32
0.0
 13
-77.89936585305317
 23
-12.70000000000005
 33
0.0
  0
MTEXT
  5
3E1
330
3D8
100
AcDbEntity
  8
치수문자_일반주서
 62
     0
100
AcDbMText
 10
-82.27436585305333
 20
33.0852499999999
 30
0.0
 40
3.5
 41
0.0
 71
     2
 72
     1
  1
\A1;%%c25.40 [1]
  7
SLDTEXTSTYLE0
 11
-3.356894814614650E-15
 21
1.0
 31
0.0
 73
     1
 44
1.0
  0
POINT
  5
3E2
330
3D8
100
AcDbEntity
  8
Defpoints
 62
     0
100
AcDbPoint
 10
-61.65999999999998
 20
12.69999999999999
 30
0.0
  0
POINT
  5
3E3
330
3D8
100
AcDbEntity
  8
Defpoints
 62
     0
100
AcDbPoint
 10
-61.65999999999998
 20
-12.69999999999999
 30
0.0
  0
POINT
  5
3E4
330
3D8
100
AcDbEntity
  8
Defpoints
 62
     0
100
AcDbPoint
 10
-77.89936585305318
 20
-12.70000000000005
 30
0.0
  0
ENDBLK
  5
3DA
330
3D8
100
AcDbEntity
  8
0
100
AcDbBlockEnd
  0
BLOCK
  5
3E6
330
3E5
100
AcDbEntity
  8
0
100
AcDbBlockBegin
  2
*D26
 70
     1
 10
0.0
 20
0.0
 30
0.0
  3
*D26
  1
*D26
  0
LINE
  5
3E8
330
3E5
100
AcDbEntity
  8
치수문자_일반주서
 62
     0
370
    -2
100
AcDbLine
 10
88.26249999999996
 20
-12.69999999999987
 30
0.0
 11
106.1265363802642
 21
-12.69999999999981
 31
0.0
  0
LINE
  5
3E9
330
3E5
100
AcDbEntity
  8
치수문자_일반주서
 62
     0
370
    -2
100
AcDbLine
 10
88.26249999999996
 20
12.70000000000016
 30
0.0
 11
106.1265363802641
 21
12.70000000000023
 31
0.0
  0
LINE
  5
3EA
330
3E5
100
AcDbEntity
  8
치수문자_일반주서
 62
     0
370
    -2
100
AcDbLine
 10
106.1265363802641
 20
12.70000000000023
 30
0.0
 11
106.126536380264
 21
42.23125000000022
 31
0.0
  0
LINE
  5
3EB
330
3E5
100
AcDbEntity
  8
치수문자_일반주서
 62
     0
370
    -2
100
AcDbLine
 10
106.1265363802641
 20
-9.397999999999811
 30
0.0
 11
106.1265363802641
 21
9.398000000000227
 31
0.0
  0
SOLID
  5
3EC
330
3E5
100
AcDbEntity
  8
치수문자_일반주서
 62
     0
100
AcDbTrace
 10
105.5762030469308
 20
-9.397999999999813
 30
0.0
 11
106.6768697135975
 21
-9.39799999999981
 31
0.0
 12
106.1265363802642
 22
-12.69999999999981
 32
0.0
 13
106.1265363802642
 23
-12.69999999999981
 33
0.0
  0
SOLID
  5
3ED
330
3E5
100
AcDbEntity
  8
치수문자_일반주서
 62
     0
100
AcDbTrace
 10
106.6768697135974
 20
9.398000000000229
 30
0.0
 11
105.5762030469308
 21
9.398000000000225
 31
0.0
 12
106.1265363802641
 22
12.70000000000023
 32
0.0
 13
106.1265363802641
 23
12.70000000000023
 33
0.0
  0
MTEXT
  5
3EE
330
3E5
100
AcDbEntity
  8
치수문자_일반주서
 62
     0
100
AcDbMText
 10
101.751536380264
 20
31.0750000000002
 30
0.0
 40
3.5
 41
0.0
 71
     2
 72
     1
  1
\A1;%%c25.40 [1]
  7
SLDTEXTSTYLE0
 11
-3.356894814614642E-15
 21
1.0
 31
0.0
 73
     1
 44
1.0
  0
POINT
  5
3EF
330
3E5
100
AcDbEntity
  8
Defpoints
 62
     0
100
AcDbPoint
 10
88.19999999999996
 20
-12.69999999999987
 30
0.0
  0
POINT
  5
3F0
330
3E5
100
AcDbEntity
  8
Defpoints
 62
     0
100
AcDbPoint
 10
88.19999999999996
 20
12.70000000000016
 30
0.0
  0
POINT
  5
3F1
330
3E5
100
AcDbEntity
  8
Defpoints
 62
     0
100
AcDbPoint
 10
106.1265363802641
 20
12.70000000000023
 30
0.0
  0
ENDBLK
  5
3E7
330
3E5
100
AcDbEntity
  8
0
100
AcDbBlockEnd
  0
ENDSEC
  0
SECTION
  2
ENTITIES
  0
LINE
  5
B9
330
1F
100
AcDbEntity
  8
참조1
100
AcDbLine
 10
123.825
 20
0.0
 30
0.0
 11
123.825
 21
1.241814676156848
 31
0.0
  0
LINE
  5
BA
330
1F
100
AcDbEntity
  8
참조1
100
AcDbLine
 10
47.62499999999999
 20
-0.0000000000000039
 30
0.0
 11
47.62499999999999
 21
-40.00000000000001
 31
0.0
  0
LINE
  5
BB
330
1F
100
AcDbEntity
  8
참조1
100
AcDbLine
 10
47.62499999999999
 20
-40.00000000000001
 30
0.0
 11
-15.15885681430868
 21
-40.0
 31
0.0
  0
LINE
  5
114
330
1F
100
AcDbEntity
  8
참조1
100
AcDbLine
 10
82.81348381534559
 20
7.440000000000002
 30
0.0
 11
82.81348381534559
 21
-7.440000000000002
 31
0.0
  0
LINE
  5
115
330
1F
100
AcDbEntity
  8
참조1
100
AcDbLine
 10
95.5134838153456
 20
5.440000000000002
 30
0.0
 11
82.81348381534559
 21
5.440000000000002
 31
0.0
  0
SOLID
  5
116
330
1F
100
AcDbEntity
  8
참조1
100
AcDbTrace
 10
82.81348381534559
 20
5.440000000000002
 30
0.0
 11
89.16348381534559
 21
4.424000000000002
 31
0.0
 12
89.16348381534559
 22
6.456000000000002
 32
0.0
 13
89.16348381534559
 23
6.456000000000002
 33
0.0
  0
LINE
  5
117
330
1F
100
AcDbEntity
  8
참조1
100
AcDbLine
 10
95.5134838153456
 20
-5.440000000000002
 30
0.0
 11
82.81348381534559
 21
-5.440000000000002
 31
0.0
  0
SOLID
  5
118
330
1F
100
AcDbEntity
  8
참조1
100
AcDbTrace
 10
82.81348381534559
 20
-5.440000000000002
 30
0.0
 11
89.16348381534559
 21
-6.456000000000002
 31
0.0
 12
89.16348381534559
 22
-4.424000000000002
 32
0.0
 13
89.16348381534559
 23
-4.424000000000002
 33
0.0
  0
MTEXT
  5
119
330
1F
100
AcDbEntity
  8
참조1
100
AcDbMText
 10
92.19783394797159
 20
11.01029177718833
 30
0.0
 40
3.5
 41
0.0
 71
     1
 72
     1
  1
A
  7
SLDTEXTSTYLE0
 73
     1
 44
1.0
  0
MTEXT
  5
11A
330
1F
100
AcDbEntity
  8
참조1
100
AcDbMText
 10
92.19783394797159
 20
0.1302917771883261
 30
0.0
 40
3.5
 41
0.0
 71
     1
 72
     1
  1
A
  7
SLDTEXTSTYLE0
 73
     1
 44
1.0
  0
LINE
  5
394
330
1F
100
AcDbEntity
  8
0
  6
Continuous
 62
     1
370
    15
100
AcDbLine
 10
48.44002905696803
 20
-12.70000000000002
 30
0.0
 11
56.18251567576422
 21
-12.70000000000002
 31
0.0
  0
LINE
  5
395
330
1F
100
AcDbEntity
  8
0
  6
Continuous
 62
     1
370
    15
100
AcDbLine
 10
21.63189616640585
 20
12.69999999999999
 30
0.0
 11
13.88663476071127
 21
12.69999999999999
 31
0.0
  0
ARC
  5
396
330
1F
100
AcDbEntity
  8
0
  6
Continuous
 62
     1
370
    15
100
AcDbCircle
 10
75.49999999999997
 20
0.0
 30
0.0
 40
12.70000000000002
100
AcDbArc
 50
310.2639128374834
 51
0.0
  0
ARC
  5
397
330
1F
100
AcDbEntity
  8
0
  6
Continuous
 62
     1
370
    15
100
AcDbCircle
 10
75.49999999999997
 20
0.0
 30
0.0
 40
12.70000000000003
100
AcDbArc
 50
0.0
 51
49.74449560531696
  0
LINE
  5
398
330
1F
100
AcDbEntity
  8
0
  6
Continuous
 62
     1
370
    15
100
AcDbLine
 10
56.18251567576428
 20
12.69999999999999
 30
0.0
 11
48.44002905696786
 21
12.69999999999999
 31
0.0
  0
LINE
  5
399
330
1F
100
AcDbEntity
  8
0
  6
Continuous
 62
     1
370
    15
100
AcDbLine
 10
13.88663476071125
 20
-12.70000000000002
 30
0.0
 11
21.63189616640602
 21
-12.70000000000002
 31
0.0
  0
LINE
  5
39A
330
1F
100
AcDbEntity
  8
외형선
  6
Continuous
370
    15
100
AcDbLine
 10
-61.66
 20
-12.69999999999999
 30
0.0
 11
12.0
 21
-12.69999999999999
 31
0.0
  0
LINE
  5
39B
330
1F
100
AcDbEntity
  8
외형선
  6
Continuous
370
    15
100
AcDbLine
 10
12.0
 20
12.69999999999999
 30
0.0
 11
-61.66
 21
12.69999999999999
 31
0.0
  0
LINE
  5
39C
330
1F
100
AcDbEntity
  8
외형선
  6
Continuous
370
    15
100
AcDbLine
 10
-61.66
 20
12.69999999999999
 30
0.0
 11
-64.2
 21
10.16
 31
0.0
  0
LINE
  5
39D
330
1F
100
AcDbEntity
  8
외형선
  6
Continuous
370
    15
100
AcDbLine
 10
-64.2
 20
-10.16000000000003
 30
0.0
 11
-61.66
 21
-12.69999999999999
 31
0.0
  0
SPLINE
  5
39E
330
1F
100
AcDbEntity
  8
0
  6
Continuous
 62
     1
370
    15
100
AcDbSpline
210
0.0
220
0.0
230
1.0
 70
     8
 71
     3
 72
    17
 73
    13
 74
     0
 42
0.000000001
 43
0.00000001
 40
0.0
 40
0.0
 40
0.0
 40
0.0
 40
0.1092756463962855
 40
0.2185637540766802
 40
0.3278614136780073
 40
0.437165704444019
 40
0.5464736976990209
 40
0.6538293917523642
 40
0.7611841011876254
 40
0.8685363568058007
 40
0.9758846912551594
 40
0.9999999999999999
 40
0.9999999999999999
 40
0.9999999999999999
 40
0.9999999999999999
 10
12.00000000000001
 20
1.088153135548112
 30
0.0
 10
13.32728340509247
 20
0.321100247109996
 30
0.0
 10
15.98200157247501
 20
-1.21309300089348
 30
0.0
 10
19.96439067161123
 20
-3.484151539994798
 30
0.0
 10
23.94719158414608
 20
-5.638887502098186
 30
0.0
 10
27.93027577857868
 20
-7.609848445255182
 30
0.0
 10
31.88982978586009
 20
-9.322166129574669
 30
0.0
 10
35.82558862172168
 20
-10.7233941975737
 30
0.0
 10
39.73762884308759
 20
-11.78578121112304
 30
0.0
 10
43.64949972412536
 20
-12.44716625917189
 30
0.0
 10
46.55042648063508
 20
-12.72751480194498
 30
0.0
 10
48.14713372012855
 20
-12.67881908908305
 30
0.0
 10
48.44002905696803
 20
-12.66988648899925
 30
0.0
  0
SPLINE
  5
39F
330
1F
100
AcDbEntity
  8
0
  6
Continuous
 62
     1
370
    15
100
AcDbSpline
210
0.0
220
0.0
230
1.0
 70
     8
 71
     3
 72
    14
 73
    10
 74
     0
 42
0.000000001
 43
0.00000001
 40
0.0
 40
0.0
 40
0.0
 40
0.0
 40
0.0899226157300183
 40
0.2415946222550043
 40
0.393269201641339
 40
0.5449466919702954
 40
0.6966274307224185
 40
0.8483117547083588
 40
1.0
 40
1.0
 40
1.0
 40
1.0
 10
35.02687812835481
 20
-10.38512665268871
 30
0.0
 10
34.33667417755038
 20
-10.61664640283539
 30
0.0
 10
32.48230682602492
 20
-11.23866930694209
 30
0.0
 10
29.46374521568545
 20
-11.94627106981761
 30
0.0
 10
25.9711700188105
 20
-12.50777883486614
 30
0.0
 10
22.47851407892617
 20
-12.74441934712382
 30
0.0
 10
18.98576813075374
 20
-12.65802673396945
 30
0.0
 10
15.49292451134684
 20
-12.27313045892598
 30
0.0
 10
13.16431820341184
 20
-11.75914779120421
 30
0.0
 10
12.0
 20
-11.50215313554799
 30
0.0
  0
SPLINE
  5
3A0
330
1F
100
AcDbEntity
  8
0
  6
Continuous
 62
     1
370
    15
100
AcDbSpline
210
0.0
220
0.0
230
1.0
 70
     8
 71
     3
 72
    19
 73
    15
 74
     0
 42
0.000000001
 43
0.00000001
 40
0.0
 40
0.0
 40
0.0
 40
0.0
 40
0.0197334535306704
 40
0.1163847663204098
 40
0.2130338699416472
 40
0.3096794433394242
 40
0.3959721977354647
 40
0.4822637985126329
 40
0.5685544387272532
 40
0.6548443116342648
 40
0.7411336106473146
 40
0.8274225292987831
 40
0.9137112611997646
 40
1.0
 40
1.0
 40
1.0
 40
1.0
 10
35.0268781283547
 20
10.38512665268871
 30
0.0
 10
35.29312100150379
 20
10.48121329710722
 30
0.0
 10
36.86337906747147
 20
11.04791702384114
 30
0.0
 10
39.73762437650397
 20
11.76349725976911
 30
0.0
 10
43.64951209419542
 20
12.47014998299184
 30
0.0
 10
47.42174192457747
 20
12.74538212510137
 30
0.0
 10
51.05376758998804
 20
12.66386667205359
 30
0.0
 10
54.54620023157895
 20
12.26526204788854
 30
0.0
 10
58.03855708727232
 20
11.55860853734117
 30
0.0
 10
61.53088448888914
 20
10.56093718941133
 30
0.0
 10
65.02318191943829
 20
9.29819369674965
 30
0.0
 10
68.515461469332
 20
7.799498958833766
 30
0.0
 10
72.00773168369037
 20
6.112277494290367
 30
0.0
 10
74.33591053020504
 20
4.865899186661125
 30
0.0
 10
75.49999999999997
 20
4.242710007932828
 30
0.0
  0
SPLINE
  5
3A1
330
1F
100
AcDbEntity
  8
0
  6
Continuous
 62
     1
370
    15
100
AcDbSpline
210
0.0
220
0.0
230
1.0
 70
     8
 71
     3
 72
    66
 73
    62
 74
     0
 42
0.000000001
 43
0.00000001
 40
0.0
 40
0.0
 40
0.0
 40
0.0
 40
0.062499999999999
 40
0.062499999999999
 40
0.0937499999999985
 40
0.0937499999999985
 40
0.124999999999998
 40
0.124999999999998
 40
0.1874999999999969
 40
0.1874999999999969
 40
0.2187499999999964
 40
0.2187499999999964
 40
0.2499999999999959
 40
0.2499999999999959
 40
0.3124999999999932
 40
0.3124999999999932
 40
0.3749999999999905
 40
0.3749999999999905
 40
0.4062499999999891
 40
0.4062499999999891
 40
0.4374999999999878
 40
0.4374999999999878
 40
0.4687499999999865
 40
0.4687499999999865
 40
0.484374999999986
 40
0.484374999999986
 40
0.4999999999999854
 40
0.4999999999999854
 40
0.5312499999999843
 40
0.5312499999999843
 40
0.5468749999999838
 40
0.5468749999999838
 40
0.5624999999999832
 40
0.5624999999999832
 40
0.5781249999999827
 40
0.5781249999999827
 40
0.593749999999982
 40
0.593749999999982
 40
0.6093749999999815
 40
0.6093749999999815
 40
0.6249999999999809
 40
0.6249999999999809
 40
0.6562499999999811
 40
0.6562499999999811
 40
0.671874999999982
 40
0.671874999999982
 40
0.6874999999999829
 40
0.6874999999999829
 40
0.7187499999999846
 40
0.7187499999999846
 40
0.7499999999999863
 40
0.7499999999999863
 40
0.781249999999988
 40
0.781249999999988
 40
0.8124999999999897
 40
0.8124999999999897
 40
0.8749999999999931
 40
0.8749999999999931
 40
0.9374999999999966
 40
0.9374999999999966
 40
1.0
 40
1.0
 40
1.0
 40
1.0
 10
75.49999999999997
 20
4.242710007932828
 30
0.0
 10
76.14519883770012
 20
3.891997287634325
 30
0.0
 10
76.7875529423118
 20
3.536160093694434
 30
0.0
 10
77.75338362166903
 20
3.006793414315325
 30
0.0
 10
78.07590113557652
 20
2.831420425428007
 30
0.0
 10
78.72284984567014
 20
2.484249520691804
 30
0.0
 10
79.04906656978778
 20
2.311484700902071
 30
0.0
 10
80.01568656197307
 20
1.807326264519816
 30
0.0
 10
80.64296069742053
 20
1.490631016272346
 30
0.0
 10
81.55755018524616
 20
1.040387019905751
 30
0.0
 10
81.858077938979
 20
0.8946832187026814
 30
0.0
 10
82.44935431686386
 20
0.6099351877515176
 30
0.0
 10
82.74016946233317
 20
0.4708584555147581
 30
0.0
 10
83.57889241374968
 20
0.0670296897501714
 30
0.0
 10
84.09957265156137
 20
-0.1868552837927666
 30
0.0
 10
85.05360967685462
 20
-0.7013487005660863
 30
0.0
 10
85.48868792657046
 20
-0.9628543963726202
 30
0.0
 10
86.03998514354245
 20
-1.38676877052481
 30
0.0
 10
86.20779132342224
 20
-1.533948708910827
 30
0.0
 10
86.5083638285515
 20
-1.8490378637768
 30
0.0
 10
86.64166698059472
 20
-2.017692321396595
 30
0.0
 10
86.86564800046014
 20
-2.384161657116977
 30
0.0
 10
86.95527436163093
 20
-2.579872424663478
 30
0.0
 10
87.0527841185596
 20
-2.900405607077118
 30
0.0
 10
87.07910770850785
 20
-3.011766273940339
 30
0.0
 10
87.11836810512804
 20
-3.245338342002981
 30
0.0
 10
87.13123162100325
 20
-3.367817439414637
 30
0.0
 10
87.14760461166375
 20
-3.746329904352564
 30
0.0
 10
87.12969521592379
 20
-4.015552007407592
 30
0.0
 10
87.05435756143407
 20
-4.452303419175422
 30
0.0
 10
87.02099442584208
 20
-4.603183815444339
 30
0.0
 10
86.93949070423892
 20
-4.907512078302233
 30
0.0
 10
86.89119031043023
 20
-5.062053038173588
 30
0.0
 10
86.7794088778318
 20
-5.376121579477626
 30
0.0
 10
86.71593124783746
 20
-5.53564805665124
 30
0.0
 10
86.57310322367812
 20
-5.85996248512717
 30
0.0
 10
86.49409734446502
 20
-6.023698549584452
 30
0.0
 10
86.32536728409772
 20
-6.34581056213915
 30
0.0
 10
86.23511275375708
 20
-6.505420070903057
 30
0.0
 10
86.04303057768996
 20
-6.821688416359478
 30
0.0
 10
85.9405386582279
 20
-6.979276553381339
 30
0.0
 10
85.620457641445
 20
-7.439988973174565
 30
0.0
 10
85.39215232218166
 20
-7.729302737215846
 30
0.0
 10
85.02785864674698
 20
-8.138549916749781
 30
0.0
 10
84.90285123180556
 20
-8.270586995950964
 30
0.0
 10
84.65065572928981
 20
-8.521340730691065
 30
0.0
 10
84.52280523632771
 20
-8.640830186482077
 30
0.0
 10
84.13373484521853
 20
-8.982875542148435
 30
0.0
 10
83.86703055328152
 20
-9.189091071096414
 30
0.0
 10
83.31687872994186
 20
-9.560868330182558
 30
0.0
 10
83.03924617829702
 20
-9.722435708476212
 30
0.0
 10
82.47867755559847
 20
-10.00200485069448
 30
0.0
 10
82.19531809244793
 20
-10.12023282612452
 30
0.0
 10
81.61988077918912
 20
-10.31712080015808
 30
0.0
 10
81.32615964120012
 20
-10.39595353866696
 30
0.0
 10
80.44455227955851
 20
-10.57292576089583
 30
0.0
 10
79.85363871276931
 20
-10.61464565389005
 30
0.0
 10
78.64608684732357
 20
-10.57137777795663
 30
0.0
 10
78.02488083383847
 20
-10.48437384217257
 30
0.0
 10
76.77625108754367
 20
-10.2033193649097
 30
0.0
 10
76.14513992394646
 20
-10.01098711430754
 30
0.0
 10
75.49999999999997
 20
-9.773401132652936
 30
0.0
  0
SPLINE
  5
3A2
330
1F
100
AcDbEntity
  8
0
  6
Continuous
 62
     1
370
    15
100
AcDbSpline
210
0.0
220
0.0
230
1.0
 70
     8
 71
     3
 72
    22
 73
    18
 74
     0
 42
0.000000001
 43
0.00000001
 40
0.0
 40
0.0
 40
0.0
 40
0.0
 40
0.0739406444838982
 40
0.1478784449903507
 40
0.221811421178759
 40
0.2957375984690249
 40
0.3696553148738697
 40
0.4422583077260853
 40
0.5148666606183158
 40
0.587479388203656
 40
0.6600955018498371
 40
0.7249310023714683
 40
0.7897673130487832
 40
0.8546045788303738
 40
0.9194429444674939
 40
0.984282554484277
 40
1.0
 40
1.0
 40
1.0
 40
1.0
 10
75.49999999999997
 20
-9.773401132652964
 30
0.0
 10
74.17224288197727
 20
-9.253014198249787
 30
0.0
 10
71.51677971542583
 20
-8.212260345075094
 30
0.0
 10
67.53372974735439
 20
-6.29702760809991
 30
0.0
 10
63.55099285740951
 20
-4.198913448498416
 30
0.0
 10
59.56868250726427
 20
-1.957491214952825
 30
0.0
 10
55.6103754229712
 20
0.332717746531273
 30
0.0
 10
51.67572251287845
 20
2.598380017943413
 30
0.0
 10
47.76441692697423
 20
4.768403481090701
 30
0.0
 10
43.85287741042291
 20
6.788167292151002
 30
0.0
 10
40.08071207987554
 20
8.529192232159005
 30
0.0
 10
36.44871418380994
 20
9.968117396261789
 30
0.0
 10
32.95624405548517
 20
11.09911772166652
 30
0.0
 10
29.46374723811678
 20
11.95786201956125
 30
0.0
 10
25.97116874500638
 20
12.48986635824821
 30
0.0
 10
23.36054656183903
 20
12.72502774011457
 30
0.0
 10
21.91410971319269
 20
12.67951081768751
 30
0.0
 10
21.63189616640585
 20
12.67063003445182
 30
0.0
  0
SPLINE
  5
3A3
330
1F
100
AcDbEntity
  8
0
  6
Continuous
 62
     1
370
    15
100
AcDbSpline
210
0.0
220
0.0
230
1.0
 70
     8
 71
     3
 72
    68
 73
    64
 74
     0
 42
0.000000001
 43
0.00000001
 40
0.0
 40
0.0
 40
0.0
 40
0.0
 40
0.0312499999999997
 40
0.0312499999999997
 40
0.0624999999999994
 40
0.0624999999999994
 40
0.0937499999999991
 40
0.0937499999999991
 40
0.1249999999999988
 40
0.1249999999999988
 40
0.1562499999999986
 40
0.1562499999999986
 40
0.1874999999999983
 40
0.1874999999999983
 40
0.2187499999999979
 40
0.2187499999999979
 40
0.2499999999999977
 40
0.2499999999999977
 40
0.2812499999999974
 40
0.2812499999999974
 40
0.3124999999999971
 40
0.3124999999999971
 40
0.3749999999999969
 40
0.3749999999999969
 40
0.4062499999999971
 40
0.4062499999999971
 40
0.4374999999999972
 40
0.4374999999999972
 40
0.4687499999999974
 40
0.4687499999999974
 40
0.4999999999999976
 40
0.4999999999999976
 40
0.5312499999999977
 40
0.5312499999999977
 40
0.5624999999999979
 40
0.5624999999999979
 40
0.593749999999998
 40
0.593749999999998
 40
0.6249999999999981
 40
0.6249999999999981
 40
0.6562499999999983
 40
0.6562499999999983
 40
0.6874999999999984
 40
0.6874999999999984
 40
0.7187499999999987
 40
0.7187499999999987
 40
0.7499999999999988
 40
0.7499999999999988
 40
0.7812499999999989
 40
0.7812499999999989
 40
0.8124999999999991
 40
0.8124999999999991
 40
0.8437499999999992
 40
0.8437499999999992
 40
0.8749999999999993
 40
0.8749999999999993
 40
0.9062499999999996
 40
0.9062499999999996
 40
0.9374999999999997
 40
0.9374999999999997
 40
0.9687499999999999
 40
0.9687499999999999
 40
1.0
 40
1.0
 40
1.0
 40
1.0
 10
12.00000000000001
 20
12.6532969124097
 30
0.0
 10
12.65920175965435
 20
12.68598090192648
 30
0.0
 10
13.32209997709475
 20
12.70156780687313
 30
0.0
 10
14.6472285000505
 20
12.69818306202546
 30
0.0
 10
15.30760025887265
 20
12.67924873122962
 30
0.0
 10
16.62824725466845
 20
12.60712554947293
 30
0.0
 10
17.29159786554013
 20
12.5538451336304
 30
0.0
 10
18.61627420492053
 20
12.4133922348073
 30
0.0
 10
19.27513221512604
 20
12.32636356278778
 30
0.0
 10
20.59757559056214
 20
12.11895374619036
 30
0.0
 10
21.26115161166982
 20
11.99851811090991
 30
0.0
 10
22.58492409810302
 20
11.72562066395051
 30
0.0
 10
23.24328278641832
 20
11.57334551424611
 30
0.0
 10
24.56707340820824
 20
11.23729663641166
 30
0.0
 10
25.23064759861012
 20
11.05362286732884
 30
0.0
 10
26.55306558990395
 20
10.65724683964856
 30
0.0
 10
27.21193994956397
 20
10.44459031773044
 30
0.0
 10
28.53662715491411
 20
9.99077739761043
 30
0.0
 10
29.19997227576191
 20
9.749858285455389
 30
0.0
 10
30.52058666742981
 20
9.24301263573031
 30
0.0
 10
31.18099110661362
 20
8.976711591863193
 30
0.0
 10
33.16868926739072
 20
8.14146464768271
 30
0.0
 10
34.48776080127318
 20
7.538211969152599
 30
0.0
 10
36.4754480333241
 20
6.575632778974978
 30
0.0
 10
37.13578737462277
 20
6.245769263170985
 30
0.0
 10
38.45646685850724
 20
5.570036217834001
 30
0.0
 10
39.11982290049161
 20
5.223635693322706
 30
0.0
 10
40.44448825667627
 20
4.517943715435536
 30
0.0
 10
41.10333018071101
 20
4.159114411961923
 30
0.0
 10
42.42579882372161
 20
3.430300311784407
 30
0.0
 10
43.08937661655709
 20
3.060307559474097
 30
0.0
 10
44.41313085067419
 20
2.313652161474806
 30
0.0
 10
45.0714898024203
 20
1.937345808924363
 30
0.0
 10
46.39529844260224
 20
1.179158118811898
 30
0.0
 10
47.05887074332068
 20
0.7976283643947113
 30
0.0
 10
48.38126323391185
 20
0.0343505341672028
 30
0.0
 10
49.0401542063054
 20
-0.3474091043160854
 30
0.0
 10
50.364852160396
 20
-1.110280762561729
 30
0.0
 10
51.02819173231043
 20
-1.490913681403555
 30
0.0
 10
52.34877340382101
 20
-2.245946558052765
 30
0.0
 10
53.00921078619493
 20
-2.6209603153915
 30
0.0
 10
54.33434636024808
 20
-3.363660144099214
 30
0.0
 10
54.99714741555184
 20
-3.730980725977901
 30
0.0
 10
56.31563016307527
 20
-4.453226151646788
 30
0.0
 10
56.97854649031328
 20
-4.809469772613483
 30
0.0
 10
58.30366749273367
 20
-5.507797804975297
 30
0.0
 10
58.96397467935654
 20
-5.849560817873623
 30
0.0
 10
60.28468653528105
 20
-6.516349737856132
 30
0.0
 10
60.94804794946532
 20
-6.841855168201903
 30
0.0
 10
62.27270220523141
 20
-7.473067644382184
 30
0.0
 10
62.93152830638397
 20
-7.778413597430728
 30
0.0
 10
64.2540221003938
 20
-8.367956907552895
 30
0.0
 10
64.91760160597855
 20
-8.652104343114758
 30
0.0
 10
66.2413374708255
 20
-9.195665524672876
 30
0.0
 10
66.89969694943312
 20
-9.454877752835358
 30
0.0
 10
68.2235234910369
 20
-9.947899897776722
 30
0.0
 10
68.88709384309507
 20
-10.18142459091194
 30
0.0
 10
70.20946071643098
 20
-10.61968473222464
 30
0.0
 10
70.86836856483211
 20
-10.82447862489386
 30
0.0
 10
72.19307715043078
 20
-11.20485762096681
 30
0.0
 10
72.856411114504
 20
-11.38015654182777
 30
0.0
 10
74.17695994983706
 20
-11.69893325415754
 30
0.0
 10
74.83743053821993
 20
-11.8427041199825
 30
0.0
 10
75.49999999999991
 20
-11.97035554144435
 30
0.0
  0
SPLINE
  5
3A4
330
1F
100
AcDbEntity
  8
0
  6
Continuous
 62
     1
370
    15
100
AcDbSpline
210
0.0
220
0.0
230
1.0
 70
     8
 71
     3
 72
    12
 73
     8
 74
     0
 42
0.000000001
 43
0.00000001
 40
0.0
 40
0.0
 40
0.0
 40
0.0
 40
0.2059073907255554
 40
0.4178481174086885
 40
0.6214039069269641
 40
0.8311913368005323
 40
1.0
 40
1.0
 40
1.0
 40
1.0
 10
75.49999999999997
 20
-11.97035554144435
 30
0.0
 10
76.08526216806698
 20
-12.0514653298745
 30
0.0
 10
77.27293539463548
 20
-12.21606152178165
 30
0.0
 10
79.05991536452922
 20
-12.02777219807689
 30
0.0
 10
80.81837376491748
 20
-11.50298740056789
 30
0.0
 10
82.39282599855804
 20
-10.72371625946204
 30
0.0
 10
83.29386648895468
 20
-9.999297833963738
 30
0.0
 10
83.69562298738506
 20
-9.676293692497751
 30
0.0
  0
SPLINE
  5
3A5
330
1F
100
AcDbEntity
  8
0
  6
Continuous
 62
     1
370
    15
100
AcDbSpline
210
0.0
220
0.0
230
1.0
 70
     8
 71
     3
 72
    23
 73
    19
 74
     0
 42
0.000000001
 43
0.00000001
 40
0.0
 40
0.0
 40
0.0
 40
0.0
 40
0.0352955306178078
 40
0.104479029768467
 40
0.1736561667842829
 40
0.2428253864445492
 40
0.3107643407959377
 40
0.3787083108567287
 40
0.4466563745790039
 40
0.5146076068405345
 40
0.5752780549480206
 40
0.6359492611665412
 40
0.6966213611331461
 40
0.7572944903002244
 40
0.8179687839076352
 40
0.8786443769549334
 40
0.9393214041737018
 40
1.0
 40
1.0
 40
1.0
 40
1.0
 10
69.56557904032039
 20
-10.37854102214533
 30
0.0
 10
68.88826881079291
 20
-10.60993404187536
 30
0.0
 10
66.88334879982736
 20
-11.2948853026561
 30
0.0
 10
63.55099423368742
 20
-12.04887770184058
 30
0.0
 10
59.56868213832624
 20
-12.62154384530368
 30
0.0
 10
55.61037551989099
 20
-12.76322483571016
 30
0.0
 10
51.67572248701785
 20
-12.50010097426446
 30
0.0
 10
47.7644169342266
 20
-11.84313775334019
 30
0.0
 10
43.85287740727637
 20
-10.81298656832087
 30
0.0
 10
40.08071208490624
 20
-9.490670335070519
 30
0.0
 10
36.44871416859155
 20
-7.955731936168888
 30
0.0
 10
32.9562441121079
 20
-6.279721153248374
 30
0.0
 10
29.46374702683968
 20
-4.445678784555639
 30
0.0
 10
25.97116953351163
 20
-2.499976564215331
 30
0.0
 10
22.47851420892098
 20
-0.4906708364140968
 30
0.0
 10
18.98576809608724
 20
1.528389603171547
 30
0.0
 10
15.49292452001383
 20
3.518746410385802
 30
0.0
 10
13.16431820630085
 20
4.762430243371682
 30
0.0
 10
12.0
 20
5.384280197612554
 30
0.0
  0
LINE
  5
3A6
330
1F
100
AcDbEntity
  8
외형선
  6
Continuous
370
    15
100
AcDbLine
 10
12.0
 20
1.088153135548112
 30
0.0
 11
12.0
 21
5.384280197612554
 31
0.0
  0
SPLINE
  5
3A7
330
1F
100
AcDbEntity
  8
0
  6
Continuous
 62
     1
370
    15
100
AcDbSpline
210
0.0
220
0.0
230
1.0
 70
     8
 71
     3
 72
    66
 73
    62
 74
     0
 42
0.000000001
 43
0.00000001
 40
0.0
 40
0.0
 40
0.0
 40
0.0
 40
0.0624999999999991
 40
0.0624999999999991
 40
0.0937499999999986
 40
0.0937499999999986
 40
0.1249999999999982
 40
0.1249999999999982
 40
0.1874999999999993
 40
0.1874999999999993
 40
0.2187499999999999
 40
0.2187499999999999
 40
0.2500000000000006
 40
0.2500000000000006
 40
0.3124999999999999
 40
0.3124999999999999
 40
0.3749999999999992
 40
0.3749999999999992
 40
0.4062499999999988
 40
0.4062499999999988
 40
0.4374999999999985
 40
0.4374999999999985
 40
0.4687499999999982
 40
0.4687499999999982
 40
0.4843749999999982
 40
0.4843749999999982
 40
0.4999999999999982
 40
0.4999999999999982
 40
0.5312499999999983
 40
0.5312499999999983
 40
0.5468749999999983
 40
0.5468749999999983
 40
0.5624999999999983
 40
0.5624999999999983
 40
0.5781249999999983
 40
0.5781249999999983
 40
0.5937499999999983
 40
0.5937499999999983
 40
0.6093749999999984
 40
0.6093749999999984
 40
0.6249999999999986
 40
0.6249999999999986
 40
0.6562499999999973
 40
0.6562499999999973
 40
0.6718749999999974
 40
0.6718749999999974
 40
0.6874999999999976
 40
0.6874999999999976
 40
0.7187499999999979
 40
0.7187499999999979
 40
0.7499999999999981
 40
0.7499999999999981
 40
0.7812499999999984
 40
0.7812499999999984
 40
0.8124999999999987
 40
0.8124999999999987
 40
0.8749999999999991
 40
0.8749999999999991
 40
0.9374999999999996
 40
0.9374999999999996
 40
1.0
 40
1.0
 40
1.0
 40
1.0
 10
75.49999999999997
 20
11.97035554144432
 30
0.0
 10
76.14519883770006
 20
12.09466031778686
 30
0.0
 10
76.78755294231175
 20
12.15183171940384
 30
0.0
 10
77.75338362166912
 20
12.13697921017723
 30
0.0
 10
78.07590113557652
 20
12.115036790624
 30
0.0
 10
78.72284984567014
 20
12.03611515046174
 30
0.0
 10
79.04906656978781
 20
11.97868012786239
 30
0.0
 10
80.01568656197307
 20
11.75510940941564
 30
0.0
 10
80.64296069742059
 20
11.53941573895565
 30
0.0
 10
81.55755018524616
 20
11.11974441665012
 30
0.0
 10
81.85807793897894
 20
10.96365664273654
 30
0.0
 10
82.4493543168638
 20
10.61893750641789
 30
0.0
 10
82.74016946233323
 20
10.43000299740899
 30
0.0
 10
83.57889241374963
 20
9.826693269117754
 30
0.0
 10
84.09957265156135
 20
9.37267663878768
 30
0.0
 10
85.05360967685462
 20
8.370859227365173
 30
0.0
 10
85.48868792657049
 20
7.818784981875069
 30
0.0
 10
86.03998514354245
 20
6.957850168691323
 30
0.0
 10
86.20779132342227
 20
6.664572109204158
 30
0.0
 10
86.50836382855144
 20
6.068220485683383
 30
0.0
 10
86.64166698059472
 20
5.763779837319845
 30
0.0
 10
86.86564800046008
 20
5.15429938456839
 30
0.0
 10
86.95527436163093
 20
4.852633045720324
 30
0.0
 10
87.05278411855957
 20
4.409660009619898
 30
0.0
 10
87.07910770850779
 20
4.263599057069484
 30
0.0
 10
87.11836810512798
 20
3.975682325486247
 30
0.0
 10
87.13123162100325
 20
3.833642382388945
 30
0.0
 10
87.14760461166375
 20
3.424404770016054
 30
0.0
 10
87.12969521592382
 20
3.170970173871126
 30
0.0
 10
87.05435756143405
 20
2.828196554678357
 30
0.0
 10
87.02099442584202
 20
2.720607840302904
 30
0.0
 10
86.93949070423886
 20
2.525608530378292
 30
0.0
 10
86.89119031043029
 20
2.437295291391649
 30
0.0
 10
86.7794088778318
 20
2.279530240318593
 30
0.0
 10
86.71593124783746
 20
2.210074221904193
 30
0.0
 10
86.57310322367817
 20
2.090972477178582
 30
0.0
 10
86.49409734446502
 20
2.041901632262295
 30
0.0
 10
86.32536728409772
 20
1.96636578120777
 30
0.0
 10
86.23511275375708
 20
1.939425232596705
 30
0.0
 10
86.04303057769002
 20
1.906195099044169
 30
0.0
 10
85.94053865822795
 20
1.899956049614616
 30
0.0
 10
85.62045764144491
 20
1.911237269086485
 30
0.0
 10
85.39215232218166
 20
1.95775651216195
 30
0.0
 10
85.02785864674706
 20
2.075769036430188
 30
0.0
 10
84.90285123180558
 20
2.123274237413
 30
0.0
 10
84.65065572928987
 20
2.230866627076267
 30
0.0
 10
84.52280523632771
 20
2.291111587378765
 30
0.0
 10
84.1337348452185
 20
2.488610338584095
 30
0.0
 10
83.86703055328158
 20
2.642556771848717
 30
0.0
 10
83.31687872994195
 20
2.985951268723085
 30
0.0
 10
83.03924617829708
 20
3.171762407823024
 30
0.0
 10
82.47867755559844
 20
3.561463793971598
 30
0.0
 10
82.1953180924479
 20
3.765693831442121
 30
0.0
 10
81.61988077918909
 20
4.186994684692934
 30
0.0
 10
81.32615964120023
 20
4.405391944816671
 30
0.0
 10
80.44455227955856
 20
5.060089023982584
 30
0.0
 10
79.85363871276925
 20
5.496149965545499
 30
0.0
 10
78.64608684732357
 20
6.338820573857419
 30
0.0
 10
78.0248808338385
 20
6.748327813191338
 30
0.0
 10
76.77625108754373
 20
7.490026933263408
 30
0.0
 10
76.14513992394652
 20
7.823590147988767
 30
0.0
 10
75.49999999999997
 20
8.109909389152136
 30
0.0
  0
LINE
  5
3A8
330
1F
100
AcDbEntity
  8
0
  6
Continuous
 62
     1
370
    15
100
AcDbLine
 10
12.00000000000001
 20
-12.65329691240973
 30
0.0
 11
13.88663476071125
 21
-12.64814476863839
 31
0.0
  0
SPLINE
  5
3A9
330
1F
100
AcDbEntity
  8
0
  6
Continuous
 62
     1
370
    15
100
AcDbSpline
210
0.0
220
0.0
230
1.0
 70
     8
 71
     3
 72
     9
 73
     5
 74
     0
 42
0.000000001
 43
0.00000001
 40
0.0
 40
0.0
 40
0.0
 40
0.0
 40
0.4115233277038514
 40
1.0
 40
1.0
 40
1.0
 40
1.0
 10
69.56557904032039
 20
10.3785410221453
 30
0.0
 10
70.37962991708736
 20
10.64881868840081
 30
0.0
 10
72.35777021185274
 20
11.305592309871
 30
0.0
 10
74.33591055407456
 20
11.7240833353718
 30
0.0
 10
75.49999999999997
 20
11.97035554144435
 30
0.0
  0
SPLINE
  5
3AA
330
1F
100
AcDbEntity
  8
0
  6
Continuous
 62
     1
370
    15
100
AcDbSpline
210
0.0
220
0.0
230
1.0
 70
     8
 71
     3
 72
    12
 73
     8
 74
     0
 42
0.000000001
 43
0.00000001
 40
0.0
 40
0.0
 40
0.0
 40
0.0
 40
0.2061949223426352
 40
0.4123819138143335
 40
0.6185554519290632
 40
0.8247100302648475
 40
1.0
 40
1.0
 40
1.0
 40
1.0
 10
75.49999999999997
 20
8.109909389152136
 30
0.0
 10
74.17224289006029
 20
8.673969403043372
 30
0.0
 10
71.51677973967446
 20
9.802067735397372
 30
0.0
 10
67.5337296503667
 20
11.10549433804911
 30
0.0
 10
63.55099322107333
 20
12.05366379506057
 30
0.0
 10
59.76726912874045
 20
12.61515521233986
 30
0.0
 10
57.31118886591671
 20
12.65517336388959
 30
0.0
 10
56.18251567576428
 20
12.67356340409196
 30
0.0
  0
LINE
  5
3AB
330
1F
100
AcDbEntity
  8
외형선
  6
Continuous
370
    15
100
AcDbLine
 10
12.0
 20
-12.65329691240973
 30
0.0
 11
12.0
 21
-11.50215313554799
 31
0.0
  0
LINE
  5
3AC
330
1F
100
AcDbEntity
  8
외형선
  6
Continuous
370
    15
100
AcDbLine
 10
-61.66
 20
0.0
 30
0.0
 11
-61.66
 21
12.69999999999999
 31
0.0
  0
LINE
  5
3AD
330
1F
100
AcDbEntity
  8
외형선
  6
Continuous
370
    15
100
AcDbLine
 10
-61.66
 20
-12.69999999999999
 30
0.0
 11
-61.66
 21
0.0
 31
0.0
  0
LINE
  5
3AE
330
1F
100
AcDbEntity
  8
외형선
  6
Continuous
370
    15
100
AcDbLine
 10
12.0
 20
0.0
 30
0.0
 11
12.0
 21
12.69999999999999
 31
0.0
  0
LINE
  5
3AF
330
1F
100
AcDbEntity
  8
외형선
  6
Continuous
370
    15
100
AcDbLine
 10
12.0
 20
-12.69999999999999
 30
0.0
 11
12.0
 21
0.0
 31
0.0
  0
LINE
  5
3B0
330
1F
100
AcDbEntity
  8
외형선
  6
Continuous
370
    15
100
AcDbLine
 10
-64.2
 20
0.0
 30
0.0
 11
-64.2
 21
10.16
 31
0.0
  0
LINE
  5
3B1
330
1F
100
AcDbEntity
  8
외형선
  6
Continuous
370
    15
100
AcDbLine
 10
-64.2
 20
-10.16000000000003
 30
0.0
 11
-64.2
 21
0.0
 31
0.0
  0
LINE
  5
3B2
330
1F
100
AcDbEntity
  8
중심선
 62
     1
100
AcDbLine
 10
-67.2
 20
0.0
 30
0.0
 11
91.19999999999996
 21
0.0
 31
0.0
  0
CIRCLE
  5
3B3
330
1F
100
AcDbEntity
  8
해칭선
100
AcDbCircle
 10
0.0
 20
0.0
 30
0.0
 40
2.999999999999997
  0
INSERT
  5
3B4
330
1F
100
AcDbEntity
  8
0
  6
Continuous
 62
     7
100
AcDbBlockReference
 66
     1
  2
블럭10
 10
-1.940272932125239
 20
-52.04717430164393
 30
0.0
  0
ATTRIB
  5
3B5
330
3B4
100
AcDbEntity
  8
FORMAT
 62
     2
100
AcDbText
 10
-11.12156822086652
 20
-49.97180738881175
 30
0.0
 40
4.233333333333333
  1
E5062064 [ 4 FLUTE ]
 41
0.75
  7
SLDTEXTSTYLE0
 11
-11.12156822086652
 21
-52.08847405547841
 31
0.0
100
AcDbAttribute
  2
AUTOATTR0
 70
     0
 74
     1
  0
SEQEND
  5
3B6
330
3B4
100
AcDbEntity
  8
0
  6
Continuous
 62
     7
  0
HATCH
  5
3B7
330
1F
100
AcDbEntity
  8
중심선
100
AcDbHatch
 10
0.0
 20
0.0
 30
0.0
210
0.0
220
0.0
230
1.0
  2
SOLID
 70
     1
 71
     0
 91
        1
 92
        0
 93
        4
 72
     1
 10
3.774636372255614
 20
-35.80000000000001
 11
0.3283611284183365
 21
-35.80000000000001
 72
     1
 10
0.3283611284183365
 20
-35.80000000000001
 11
-1.79986873078569
 21
-38.33632558057261
 72
     1
 10
-1.79986873078569
 20
-38.33632558057261
 11
1.646439598164761
 21
-38.33628615127012
 72
     1
 10
1.646439598164761
 20
-38.33628615127012
 11
3.7746363722556
 21
-35.80000000000001
 97
        0
 75
     0
 76
     1
 98
        1
 10
-35.62500000000001
 20
0.0
  0
HATCH
  5
3B8
330
1F
100
AcDbEntity
  8
중심선
100
AcDbHatch
 10
0.0
 20
0.0
 30
0.0
210
0.0
220
0.0
230
1.0
  2
SOLID
 70
     1
 71
     0
 91
        1
 92
        0
 93
        4
 72
     1
 10
8.787400363291567
 20
-35.80000000000001
 11
5.34112511945429
 21
-35.79999999999998
 72
     1
 10
5.34112511945429
 20
-35.79999999999998
 11
0.8099871110969019
 21
-41.20000000000003
 72
     1
 10
0.8099871110968877
 20
-41.20000000000002
 11
4.256262354934165
 21
-41.20000000000002
 72
     1
 10
4.256262354934179
 20
-41.20000000000002
 11
8.787400363291567
 21
-35.8
 97
        0
 75
     0
 76
     1
 98
        1
 10
-35.62500000000001
 20
0.0
  0
HATCH
  5
3B9
330
1F
100
AcDbEntity
  8
중심선
100
AcDbHatch
 10
0.0
 20
0.0
 30
0.0
210
0.0
220
0.0
230
1.0
  2
SOLID
 70
     1
 71
     0
 91
        1
 92
        0
 93
        4
 72
     1
 10
13.80016435432758
 20
-35.79999999999998
 11
10.35388911049029
 21
-35.80000000000001
 72
     1
 10
10.35388911049029
 20
-35.80000000000001
 11
3.305452208601082
 21
-44.20000000000003
 72
     1
 10
3.305452208601096
 20
-44.20000000000002
 11
6.751727452438359
 21
-44.20000000000002
 72
     1
 10
6.751727452438359
 20
-44.20000000000002
 11
13.80016435432759
 21
-35.79999999999997
 97
        0
 75
     0
 76
     1
 98
        1
 10
-35.62500000000001
 20
0.0
  0
HATCH
  5
3BA
330
1F
100
AcDbEntity
  8
중심선
100
AcDbHatch
 10
0.0
 20
0.0
 30
0.0
210
0.0
220
0.0
230
1.0
  2
SOLID
 70
     1
 71
     0
 91
        1
 92
        0
 93
        6
 72
     3
 10
18.60005478533967
 20
-40.00000000005127
 11
3.960054785062283
 21
1.540740868222201E-10
 40
0.3939339440162628
 50
17.09539180608447
 51
320.0019657685078
 73
     0
 72
     1
 10
20.28305444104029
 20
-38.58789400463829
 11
22.58835631474128
 21
-36.6535672945904
 72
     3
 10
18.60005478528682
 20
-40.00000000000016
 11
6.600054785286829
 21
-1.278976924368180E-13
 40
0.636358354079598
 50
39.99873849337424
 51
368.4976242363727
 73
     1
 72
     1
 10
25.02538727718741
 20
-39.03999999993002
 11
17.28012209212272
 21
-39.03999999992999
 72
     1
 10
17.28012209212271
 20
-39.03999999992999
 11
17.2800970476768
 21
-40.95999999992991
 72
     1
 10
17.2800970476768
 20
-40.95999999992992
 11
21.72147681714881
 21
-40.95999999992989
 97
        0
 75
     0
 76
     1
 98
        1
 10
-35.62500000000001
 20
0.0
  0
DIMENSION
  5
3BB
330
1F
100
AcDbEntity
  8
치수문자_일반주서
100
AcDbDimension
  2
*D23
 10
12.00000000000001
 20
34.52260418725479
 30
0.0
 11
48.50598140026571
 21
34.52260418725479
 31
0.0
 70
   160
  1
<>
 71
     2
 42
76.19999999999995
  3
SLDDIMSTYLE0
100
AcDbAlignedDimension
 13
88.19999999999996
 23
12.70000000000016
 33
0.0
 14
12.00000000000001
 24
12.6532969124097
 34
0.0
 50
0.0000000000025645
100
AcDbRotatedDimension
1001
ACAD
1000
DSTYLE
1002
{
1070
   171
1070
     6
1070
   273
1070
     5
1002
}
  0
DIMENSION
  5
3BC
330
1F
100
AcDbEntity
  8
치수문자_일반주서
100
AcDbDimension
  2
*D24
 10
-64.19999999999999
 20
51.76715678422505
 30
0.0
 11
10.19432038421948
 21
51.76715678422505
 31
0.0
 70
   160
  1
<>
 71
     2
 42
152.4000000000001
  3
SLDDIMSTYLE0
100
AcDbAlignedDimension
 13
88.19999999999996
 23
12.70000000000016
 33
0.0
 14
-64.2
 24
10.16
 34
0.0
 50
0.0000000000025645
100
AcDbRotatedDimension
1001
ACAD
1000
DSTYLE
1002
{
1070
   171
1070
     6
1070
   273
1070
     5
1002
}
  0
DIMENSION
  5
3BD
330
1F
100
AcDbEntity
  8
치수문자_일반주서
100
AcDbDimension
  2
*D25
 10
-77.89936585305317
 20
-12.70000000000005
 30
0.0
 11
-77.89936585305333
 21
33.08524999999992
 31
0.0
 70
   160
  1
%%c<>
 71
     2
 42
25.39999999999998
 52
-270.0
  3
SLDDIMSTYLE0
100
AcDbAlignedDimension
 13
-61.65999999999998
 23
12.69999999999999
 33
0.0
 14
-61.65999999999998
 24
-12.69999999999999
 34
0.0
 50
90.0000000000002
100
AcDbRotatedDimension
1001
ACAD
1000
DSTYLE
1002
{
1070
   171
1070
     6
1070
   273
1070
     5
1002
}
  0
DIMENSION
  5
3BE
330
1F
100
AcDbEntity
  8
치수문자_일반주서
100
AcDbDimension
  2
*D26
 10
106.1265363802641
 20
12.70000000000023
 30
0.0
 11
106.126536380264
 21
31.07500000000022
 31
0.0
 70
   160
  1
%%c<>
 71
     2
 42
25.40000000000003
 52
-270.0
  3
SLDDIMSTYLE0
100
AcDbAlignedDimension
 13
88.19999999999996
 23
-12.69999999999987
 33
0.0
 14
88.19999999999996
 24
12.70000000000016
 34
0.0
 50
90.0000000000002
100
AcDbRotatedDimension
1001
ACAD
1000
DSTYLE
1002
{
1070
   171
1070
     6
1070
   273
1070
     5
1002
}
  0
INSERT
  5
3BF
330
1F
100
AcDbEntity
  8
해칭선
100
AcDbBlockReference
  2
SW_DOWELSYMBOL_0
 10
0.0
 20
0.0
 30
0.0
  0
ENDSEC
  0
SECTION
  2
OBJECTS
  0
DICTIONARY
  5
C
330
0
100
AcDbDictionary
281
     1
  3
ACAD_GROUP
350
D
  3
ACAD_IMAGE_VARS
350
145
  3
ACAD_LAYOUT
350
1A
  3
ACAD_MLINESTYLE
350
17
  3
ACAD_PLOTSETTINGS
350
19
  3
ACAD_PLOTSTYLENAME
350
E
  3
ACAD_SCALELIST
350
47
  3
APPDATA
350
143
  3
DWGPROPS
350
3F2
  0
DICTIONARY
  5
1FF
330
2
100
AcDbDictionary
280
     1
281
     1
  3
ACAD_LAYERSTATES
360
200
  0
DICTIONARY
  5
D
102
{ACAD_REACTORS
330
C
102
}
330
C
100
AcDbDictionary
281
     1
  0
RASTERVARIABLES
  5
145
102
{ACAD_REACTORS
330
C
102
}
330
C
100
AcDbRasterVariables
 90
        0
 70
     1
 71
     1
 72
     1
  0
DICTIONARY
  5
1A
102
{ACAD_REACTORS
330
C
102
}
330
C
100
AcDbDictionary
281
     1
  3
Layout1
350
1E
  3
Layout2
350
26
  3
Model
350
22
  0
DICTIONARY
  5
17
102
{ACAD_REACTORS
330
C
102
}
330
C
100
AcDbDictionary
281
     1
  3
Standard
350
18
  0
DICTIONARY
  5
19
102
{ACAD_REACTORS
330
C
102
}
330
C
100
AcDbDictionary
281
     1
  0
ACDBDICTIONARYWDFLT
  5
E
102
{ACAD_REACTORS
330
C
102
}
330
C
100
AcDbDictionary
281
     1
  3
Normal
350
F
100
AcDbDictionaryWithDefault
340
F
  0
DICTIONARY
  5
47
102
{ACAD_REACTORS
330
C
102
}
330
C
100
AcDbDictionary
281
     1
  3
A0
350
48
  3
A1
350
49
  3
A2
350
4A
  3
A3
350
4B
  3
A4
350
4C
  3
A5
350
4D
  3
A6
350
4E
  3
A7
350
4F
  3
A8
350
50
  3
A9
350
51
  3
B0
350
52
  3
B1
350
53
  3
B2
350
54
  3
B3
350
55
  3
B4
350
56
  3
B5
350
57
  3
B6
350
58
  3
B7
350
59
  3
B8
350
5A
  3
B9
350
5B
  3
C0
350
5C
  3
C1
350
5D
  3
C2
350
5E
  3
C3
350
5F
  3
C4
350
60
  3
C5
350
61
  3
C6
350
62
  3
C7
350
63
  3
C8
350
64
  3
C9
350
65
  3
D0
350
66
  3
D1
350
67
  3
D2
350
68
  0
DICTIONARY
  5
143
102
{ACAD_REACTORS
330
C
102
}
330
C
100
AcDbDictionary
281
     1
  0
XRECORD
  5
3F2
102
{ACAD_REACTORS
330
C
102
}
330
C
100
AcDbXrecord
280
     1
  1
DWGPROPS COOKIE
  2

  3

  4

  6

  7

  8
12014074
  9

300
=
301
=
302
=
303
=
304
=
305
=
306
=
307
=
308
=
309
=
 40
0.0
 41
2458316.344608808
 42
2458323.08145118
  1

 90
        0
  0
DICTIONARY
  5
200
102
{ACAD_REACTORS
330
1FF
102
}
330
1FF
100
AcDbDictionary
281
     1
  0
LAYOUT
  5
1E
102
{ACAD_REACTORS
330
1A
102
}
330
1A
100
AcDbPlotSettings
  1

  2
none_device
  4

  6

 40
0.0
 41
0.0
 42
0.0
 43
0.0
 44
0.0
 45
0.0
 46
0.0
 47
0.0
 48
0.0
 49
0.0
140
0.0
141
0.0
142
1.0
143
1.0
 70
   688
 72
     1
 73
     0
 74
     5
  7

 75
    16
147
1.0
148
0.0
149
0.0
100
AcDbLayout
  1
Layout1
 70
     1
 71
     1
 10
0.0
 20
0.0
 11
420.0
 21
297.0
 12
0.0
 22
0.0
 32
0.0
 14
1.000000000000000E+20
 24
1.000000000000000E+20
 34
1.000000000000000E+20
 15
-1.000000000000000E+20
 25
-1.000000000000000E+20
 35
-1.000000000000000E+20
146
0.0
 13
0.0
 23
0.0
 33
0.0
 16
1.0
 26
0.0
 36
0.0
 17
0.0
 27
1.0
 37
0.0
 76
     0
330
1B
  0
LAYOUT
  5
26
102
{ACAD_REACTORS
330
1A
102
}
330
1A
100
AcDbPlotSettings
  1

  2
none_device
  4

  6

 40
0.0
 41
0.0
 42
0.0
 43
0.0
 44
0.0
 45
0.0
 46
0.0
 47
0.0
 48
0.0
 49
0.0
140
0.0
141
0.0
142
1.0
143
1.0
 70
   688
 72
     1
 73
     0
 74
     5
  7

 75
    16
147
1.0
148
0.0
149
0.0
100
AcDbLayout
  1
Layout2
 70
     1
 71
     2
 10
0.0
 20
0.0
 11
0.0
 21
0.0
 12
0.0
 22
0.0
 32
0.0
 14
0.0
 24
0.0
 34
0.0
 15
0.0
 25
0.0
 35
0.0
146
0.0
 13
0.0
 23
0.0
 33
0.0
 16
1.0
 26
0.0
 36
0.0
 17
0.0
 27
1.0
 37
0.0
 76
     0
330
23
  0
LAYOUT
  5
22
102
{ACAD_REACTORS
330
1A
102
}
330
1A
100
AcDbPlotSettings
  1

  2
none_device
  4
ANSI_A_(11.00_x_8.50_Inches)
  6

 40
6.35
 41
19.05
 42
6.35000508
 43
19.05000254
 44
279.4
 45
215.9
 46
68.3325719694674
 47
119.1760572147995
 48
0.0
 49
0.0
140
0.0
141
0.0
142
0.0631164294188417
143
1.0
 70
  1696
 72
     0
 73
     0
 74
     0
  7

 75
     0
147
0.0235690232323232
148
0.0
149
0.0
100
AcDbLayout
  1
Model
 70
     1
 71
     0
 10
0.0
 20
0.0
 11
420.0
 21
297.0
 12
0.0
 22
0.0
 32
0.0
 14
1.000000000000000E+20
 24
1.000000000000000E+20
 34
1.000000000000000E+20
 15
-1.000000000000000E+20
 25
-1.000000000000000E+20
 35
-1.000000000000000E+20
146
0.0
 13
0.0
 23
0.0
 33
0.0
 16
1.0
 26
0.0
 36
0.0
 17
0.0
 27
1.0
 37
0.0
 76
     0
330
1F
331
29
  0
MLINESTYLE
  5
18
102
{ACAD_REACTORS
330
17
102
}
330
17
100
AcDbMlineStyle
  2
Standard
 70
     0
  3

 62
   256
 51
90.0
 52
90.0
 71
     2
 49
0.5
 62
   256
  6
BYLAYER
 49
-0.5
 62
   256
  6
BYLAYER
  0
ACDBPLACEHOLDER
  5
F
102
{ACAD_REACTORS
330
E
102
}
330
E
  0
SCALE
  5
48
102
{ACAD_REACTORS
330
47
102
}
330
47
100
AcDbScale
 70
     0
300
1:1
140
1.0
141
1.0
290
     1
  0
SCALE
  5
49
102
{ACAD_REACTORS
330
47
102
}
330
47
100
AcDbScale
 70
     0
300
1:2
140
1.0
141
2.0
290
     0
  0
SCALE
  5
4A
102
{ACAD_REACTORS
330
47
102
}
330
47
100
AcDbScale
 70
     0
300
1:4
140
1.0
141
4.0
290
     0
  0
SCALE
  5
4B
102
{ACAD_REACTORS
330
47
102
}
330
47
100
AcDbScale
 70
     0
300
1:5
140
1.0
141
5.0
290
     0
  0
SCALE
  5
4C
102
{ACAD_REACTORS
330
47
102
}
330
47
100
AcDbScale
 70
     0
300
1:8
140
1.0
141
8.0
290
     0
  0
SCALE
  5
4D
102
{ACAD_REACTORS
330
47
102
}
330
47
100
AcDbScale
 70
     0
300
1:10
140
1.0
141
10.0
290
     0
  0
SCALE
  5
4E
102
{ACAD_REACTORS
330
47
102
}
330
47
100
AcDbScale
 70
     0
300
1:16
140
1.0
141
16.0
290
     0
  0
SCALE
  5
4F
102
{ACAD_REACTORS
330
47
102
}
330
47
100
AcDbScale
 70
     0
300
1:20
140
1.0
141
20.0
290
     0
  0
SCALE
  5
50
102
{ACAD_REACTORS
330
47
102
}
330
47
100
AcDbScale
 70
     0
300
1:30
140
1.0
141
30.0
290
     0
  0
SCALE
  5
51
102
{ACAD_REACTORS
330
47
102
}
330
47
100
AcDbScale
 70
     0
300
1:40
140
1.0
141
40.0
290
     0
  0
SCALE
  5
52
102
{ACAD_REACTORS
330
47
102
}
330
47
100
AcDbScale
 70
     0
300
1:50
140
1.0
141
50.0
290
     0
  0
SCALE
  5
53
102
{ACAD_REACTORS
330
47
102
}
330
47
100
AcDbScale
 70
     0
300
1:100
140
1.0
141
100.0
290
     0
  0
SCALE
  5
54
102
{ACAD_REACTORS
330
47
102
}
330
47
100
AcDbScale
 70
     0
300
2:1
140
2.0
141
1.0
290
     0
  0
SCALE
  5
55
102
{ACAD_REACTORS
330
47
102
}
330
47
100
AcDbScale
 70
     0
300
4:1
140
4.0
141
1.0
290
     0
  0
SCALE
  5
56
102
{ACAD_REACTORS
330
47
102
}
330
47
100
AcDbScale
 70
     0
300
8:1
140
8.0
141
1.0
290
     0
  0
SCALE
  5
57
102
{ACAD_REACTORS
330
47
102
}
330
47
100
AcDbScale
 70
     0
300
10:1
140
10.0
141
1.0
290
     0
  0
SCALE
  5
58
102
{ACAD_REACTORS
330
47
102
}
330
47
100
AcDbScale
 70
     0
300
100:1
140
100.0
141
1.0
290
     0
  0
SCALE
  5
59
102
{ACAD_REACTORS
330
47
102
}
330
47
100
AcDbScale
 70
     0
300
1/128" = 1'-0"
140
0.0078125
141
12.0
290
     0
  0
SCALE
  5
5A
102
{ACAD_REACTORS
330
47
102
}
330
47
100
AcDbScale
 70
     0
300
1/64" = 1'-0"
140
0.015625
141
12.0
290
     0
  0
SCALE
  5
5B
102
{ACAD_REACTORS
330
47
102
}
330
47
100
AcDbScale
 70
     0
300
1/32" = 1'-0"
140
0.03125
141
12.0
290
     0
  0
SCALE
  5
5C
102
{ACAD_REACTORS
330
47
102
}
330
47
100
AcDbScale
 70
     0
300
1/16" = 1'-0"
140
0.0625
141
12.0
290
     0
  0
SCALE
  5
5D
102
{ACAD_REACTORS
330
47
102
}
330
47
100
AcDbScale
 70
     0
300
3/32" = 1'-0"
140
0.09375
141
12.0
290
     0
  0
SCALE
  5
5E
102
{ACAD_REACTORS
330
47
102
}
330
47
100
AcDbScale
 70
     0
300
1/8" = 1'-0"
140
0.125
141
12.0
290
     0
  0
SCALE
  5
5F
102
{ACAD_REACTORS
330
47
102
}
330
47
100
AcDbScale
 70
     0
300
3/16" = 1'-0"
140
0.1875
141
12.0
290
     0
  0
SCALE
  5
60
102
{ACAD_REACTORS
330
47
102
}
330
47
100
AcDbScale
 70
     0
300
1/4" = 1'-0"
140
0.25
141
12.0
290
     0
  0
SCALE
  5
61
102
{ACAD_REACTORS
330
47
102
}
330
47
100
AcDbScale
 70
     0
300
3/8" = 1'-0"
140
0.375
141
12.0
290
     0
  0
SCALE
  5
62
102
{ACAD_REACTORS
330
47
102
}
330
47
100
AcDbScale
 70
     0
300
1/2" = 1'-0"
140
0.5
141
12.0
290
     0
  0
SCALE
  5
63
102
{ACAD_REACTORS
330
47
102
}
330
47
100
AcDbScale
 70
     0
300
3/4" = 1'-0"
140
0.75
141
12.0
290
     0
  0
SCALE
  5
64
102
{ACAD_REACTORS
330
47
102
}
330
47
100
AcDbScale
 70
     0
300
1" = 1'-0"
140
1.0
141
12.0
290
     0
  0
SCALE
  5
65
102
{ACAD_REACTORS
330
47
102
}
330
47
100
AcDbScale
 70
     0
300
1-1/2" = 1'-0"
140
1.5
141
12.0
290
     0
  0
SCALE
  5
66
102
{ACAD_REACTORS
330
47
102
}
330
47
100
AcDbScale
 70
     0
300
3" = 1'-0"
140
3.0
141
12.0
290
     0
  0
SCALE
  5
67
102
{ACAD_REACTORS
330
47
102
}
330
47
100
AcDbScale
 70
     0
300
6" = 1'-0"
140
6.0
141
12.0
290
     0
  0
SCALE
  5
68
102
{ACAD_REACTORS
330
47
102
}
330
47
100
AcDbScale
 70
     0
300
1'-0" = 1'-0"
140
12.0
141
12.0
290
     0
  0
ENDSEC
  0
EOF
