  0
SECTION
  2
HEADER
  9
$ACADVER
  1
AC1015
  9
$ACADMAINTVER
 70
     6
  9
$DWGCODEPAGE
  3
ANSI_949
  9
$INSBASE
 10
0.0
 20
0.0
 30
0.0
  9
$EXTMIN
 10
1.000000000000000E+20
 20
1.000000000000000E+20
 30
1.000000000000000E+20
  9
$EXTMAX
 10
-1.000000000000000E+20
 20
-1.000000000000000E+20
 30
-1.000000000000000E+20
  9
$LIMMIN
 10
0.0
 20
0.0
  9
$LIMMAX
 10
420.0
 20
297.0
  9
$ORTHOMODE
 70
     0
  9
$REGENMODE
 70
     1
  9
$FILLMODE
 70
     1
  9
$QTEXTMODE
 70
     0
  9
$MIRRTEXT
 70
     1
  9
$LTSCALE
 40
1.0
  9
$ATTMODE
 70
     1
  9
$TEXTSIZE
 40
3.5
  9
$TRACEWID
 40
1.0
  9
$TEXTSTYLE
  7
Standard
  9
$CLAYER
  8
0
  9
$CELTYPE
  6
ByLayer
  9
$CECOLOR
 62
   256
  9
$CELTSCALE
 40
1.0
  9
$DISPSILH
 70
     0
  9
$DIMSCALE
 40
1.0
  9
$DIMASZ
 40
3.302
  9
$DIMEXO
 40
1.0
  9
$DIMDLI
 40
3.75
  9
$DIMRND
 40
0.0
  9
$DIMDLE
 40
0.0
  9
$DIMEXE
 40
1.0
  9
$DIMTP
 40
0.0
  9
$DIMTM
 40
0.0
  9
$DIMTXT
 40
3.5
  9
$DIMCEN
 40
2.5
  9
$DIMTSZ
 40
0.0
  9
$DIMTOL
 70
     0
  9
$DIMLIM
 70
     0
  9
$DIMTIH
 70
     1
  9
$DIMTOH
 70
     1
  9
$DIMSE1
 70
     0
  9
$DIMSE2
 70
     0
  9
$DIMTAD
 70
     1
  9
$DIMZIN
 70
     0
  9
$DIMBLK
  1

  9
$DIMASO
 70
     1
  9
$DIMSHO
 70
     1
  9
$DIMPOST
  1

  9
$DIMAPOST
  1

  9
$DIMALT
 70
     0
  9
$DIMALTD
 70
     3
  9
$DIMALTF
 40
0.0393700787401575
  9
$DIMLFAC
 40
1.0
  9
$DIMTOFL
 70
     1
  9
$DIMTVP
 40
0.0
  9
$DIMTIX
 70
     0
  9
$DIMSOXD
 70
     0
  9
$DIMSAH
 70
     0
  9
$DIMBLK1
  1

  9
$DIMBLK2
  1

  9
$DIMSTYLE
  2
ISO-25
  9
$DIMCLRD
 70
     0
  9
$DIMCLRE
 70
     0
  9
$DIMCLRT
 70
     0
  9
$DIMTFAC
 40
1.0
  9
$DIMGAP
 40
1.524
  9
$DIMJUST
 70
     0
  9
$DIMSD1
 70
     0
  9
$DIMSD2
 70
     0
  9
$DIMTOLJ
 70
     0
  9
$DIMTZIN
 70
     0
  9
$DIMALTZ
 70
     0
  9
$DIMALTTZ
 70
     0
  9
$DIMUPT
 70
     0
  9
$DIMDEC
 70
     2
  9
$DIMTDEC
 70
     2
  9
$DIMALTU
 70
     2
  9
$DIMALTTD
 70
     3
  9
$DIMTXSTY
  7
Standard
  9
$DIMAUNIT
 70
     0
  9
$DIMADEC
 70
     2
  9
$DIMALTRND
 40
0.0
  9
$DIMAZIN
 70
     0
  9
$DIMDSEP
 70
    44
  9
$DIMATFIT
 70
     3
  9
$DIMFRAC
 70
     0
  9
$DIMLDRBLK
  1

  9
$DIMLUNIT
 70
     2
  9
$DIMLWD
 70
    -2
  9
$DIMLWE
 70
    -2
  9
$DIMTMOVE
 70
     0
  9
$LUNITS
 70
     2
  9
$LUPREC
 70
     2
  9
$SKETCHINC
 40
1.0
  9
$FILLETRAD
 40
10.0
  9
$AUNITS
 70
     0
  9
$AUPREC
 70
     2
  9
$MENU
  1
.
  9
$ELEVATION
 40
0.0
  9
$PELEVATION
 40
0.0
  9
$THICKNESS
 40
0.0
  9
$LIMCHECK
 70
     0
  9
$CHAMFERA
 40
0.0
  9
$CHAMFERB
 40
0.0
  9
$CHAMFERC
 40
0.0
  9
$CHAMFERD
 40
0.0
  9
$SKPOLY
 70
     0
  9
$TDCREATE
 40
2458316.719396655
  9
$TDUCREATE
 40
2458316.344396655
  9
$TDUPDATE
 40
2458323.453615625
  9
$TDUUPDATE
 40
2458323.078615625
  9
$TDINDWG
 40
0.0017865972
  9
$TDUSRTIMER
 40
2458323.076829202
  9
$USRTIMER
 70
     1
  9
$ANGBASE
 50
0.0
  9
$ANGDIR
 70
     0
  9
$PDMODE
 70
     0
  9
$PDSIZE
 40
-1.0
  9
$PLINEWID
 40
0.0
  9
$SPLFRAME
 70
     0
  9
$SPLINETYPE
 70
     6
  9
$SPLINESEGS
 70
     8
  9
$HANDSEED
  5
2BA
  9
$SURFTAB1
 70
     6
  9
$SURFTAB2
 70
     6
  9
$SURFTYPE
 70
     6
  9
$SURFU
 70
     6
  9
$SURFV
 70
     6
  9
$UCSBASE
  2

  9
$UCSNAME
  2

  9
$UCSORG
 10
0.0
 20
0.0
 30
0.0
  9
$UCSXDIR
 10
1.0
 20
0.0
 30
0.0
  9
$UCSYDIR
 10
0.0
 20
1.0
 30
0.0
  9
$UCSORTHOREF
  2

  9
$UCSORTHOVIEW
 70
     0
  9
$UCSORGTOP
 10
0.0
 20
0.0
 30
0.0
  9
$UCSORGBOTTOM
 10
0.0
 20
0.0
 30
0.0
  9
$UCSORGLEFT
 10
0.0
 20
0.0
 30
0.0
  9
$UCSORGRIGHT
 10
0.0
 20
0.0
 30
0.0
  9
$UCSORGFRONT
 10
0.0
 20
0.0
 30
0.0
  9
$UCSORGBACK
 10
0.0
 20
0.0
 30
0.0
  9
$PUCSBASE
  2

  9
$PUCSNAME
  2

  9
$PUCSORG
 10
0.0
 20
0.0
 30
0.0
  9
$PUCSXDIR
 10
1.0
 20
0.0
 30
0.0
  9
$PUCSYDIR
 10
0.0
 20
1.0
 30
0.0
  9
$PUCSORTHOREF
  2

  9
$PUCSORTHOVIEW
 70
     0
  9
$PUCSORGTOP
 10
0.0
 20
0.0
 30
0.0
  9
$PUCSORGBOTTOM
 10
0.0
 20
0.0
 30
0.0
  9
$PUCSORGLEFT
 10
0.0
 20
0.0
 30
0.0
  9
$PUCSORGRIGHT
 10
0.0
 20
0.0
 30
0.0
  9
$PUCSORGFRONT
 10
0.0
 20
0.0
 30
0.0
  9
$PUCSORGBACK
 10
0.0
 20
0.0
 30
0.0
  9
$USERI1
 70
     0
  9
$USERI2
 70
     0
  9
$USERI3
 70
     0
  9
$USERI4
 70
     0
  9
$USERI5
 70
     0
  9
$USERR1
 40
0.0
  9
$USERR2
 40
0.0
  9
$USERR3
 40
0.0
  9
$USERR4
 40
0.0
  9
$USERR5
 40
0.0
  9
$WORLDVIEW
 70
     1
  9
$SHADEDGE
 70
     3
  9
$SHADEDIF
 70
    70
  9
$TILEMODE
 70
     1
  9
$MAXACTVP
 70
    64
  9
$PINSBASE
 10
0.0
 20
0.0
 30
0.0
  9
$PLIMCHECK
 70
     0
  9
$PEXTMIN
 10
1.000000000000000E+20
 20
1.000000000000000E+20
 30
1.000000000000000E+20
  9
$PEXTMAX
 10
-1.000000000000000E+20
 20
-1.000000000000000E+20
 30
-1.000000000000000E+20
  9
$PLIMMIN
 10
0.0
 20
0.0
  9
$PLIMMAX
 10
0.0
 20
0.0
  9
$UNITMODE
 70
     0
  9
$VISRETAIN
 70
     1
  9
$PLINEGEN
 70
     0
  9
$PSLTSCALE
 70
     1
  9
$TREEDEPTH
 70
  3020
  9
$CMLSTYLE
  2
Standard
  9
$CMLJUST
 70
     0
  9
$CMLSCALE
 40
20.0
  9
$PROXYGRAPHICS
 70
     1
  9
$MEASUREMENT
 70
     1
  9
$CELWEIGHT
370
    -1
  9
$ENDCAPS
280
     0
  9
$JOINSTYLE
280
     0
  9
$LWDISPLAY
290
     1
  9
$INSUNITS
 70
     4
  9
$HYPERLINKBASE
  1

  9
$STYLESHEET
  1

  9
$XEDIT
290
     1
  9
$CEPSNTYPE
380
     0
  9
$PSTYLEMODE
290
     1
  9
$FINGERPRINTGUID
  2
{6D9BD619-A2DA-4603-9872-94EDD154CF3E}
  9
$VERSIONGUID
  2
{FAEB1C32-E019-11D5-929B-00C0DF256EC4}
  9
$EXTNAMES
290
     1
  9
$PSVPSCALE
 40
0.0
  9
$OLESTARTUP
290
     0
  0
ENDSEC
  0
SECTION
  2
CLASSES
  0
CLASS
  1
ACDBDICTIONARYWDFLT
  2
AcDbDictionaryWithDefault
  3
ObjectDBX Classes
 90
        0
280
     0
281
     0
  0
CLASS
  1
VISUALSTYLE
  2
AcDbVisualStyle
  3
ObjectDBX Classes
 90
     4095
280
     0
281
     0
  0
CLASS
  1
MATERIAL
  2
AcDbMaterial
  3
ObjectDBX Classes
 90
     1153
280
     0
281
     0
  0
CLASS
  1
SCALE
  2
AcDbScale
  3
ObjectDBX Classes
 90
     1153
280
     0
281
     0
  0
CLASS
  1
SUN
  2
AcDbSun
  3
SCENEOE
 90
     1153
280
     0
281
     0
  0
CLASS
  1
ACDBPLACEHOLDER
  2
AcDbPlaceHolder
  3
ObjectDBX Classes
 90
        0
280
     0
281
     0
  0
CLASS
  1
LAYOUT
  2
AcDbLayout
  3
ObjectDBX Classes
 90
        0
280
     0
281
     0
  0
CLASS
  1
TABLESTYLE
  2
AcDbTableStyle
  3
ObjectDBX Classes
 90
     4095
280
     0
281
     0
  0
CLASS
  1
MLEADERSTYLE
  2
AcDbMLeaderStyle
  3
ACDB_MLEADERSTYLE_CLASS
 90
     4095
280
     0
281
     0
  0
CLASS
  1
RASTERVARIABLES
  2
AcDbRasterVariables
  3
ISM
 90
        0
280
     0
281
     0
  0
ENDSEC
  0
SECTION
  2
TABLES
  0
TABLE
  2
VPORT
  5
8
330
0
100
AcDbSymbolTable
 70
     1
  0
VPORT
  5
29
330
8
100
AcDbSymbolTableRecord
100
AcDbViewportTableRecord
  2
*Active
 70
     0
 10
0.0
 20
0.0
 11
1.0
 21
1.0
 12
18.13801857351498
 22
-0.6869563333676538
 13
0.0
 23
0.0
 14
10.0
 24
10.0
 15
10.0
 25
10.0
 16
0.0
 26
0.0
 36
1.0
 17
0.0
 27
0.0
 37
0.0
 40
136.2837221138131
 41
1.970186335403727
 42
50.0
 43
0.0
 44
0.0
 50
0.0
 51
0.0
 71
    16
 72
  2000
 73
     1
 74
     3
 75
     0
 76
     0
 77
     0
 78
     0
281
     0
 65
     1
110
0.0
120
0.0
130
0.0
111
1.0
121
0.0
131
0.0
112
0.0
122
1.0
132
0.0
 79
     0
146
0.0
  0
ENDTAB
  0
TABLE
  2
LTYPE
  5
5
330
0
100
AcDbSymbolTable
 70
     6
  0
LTYPE
  5
14
330
5
100
AcDbSymbolTableRecord
100
AcDbLinetypeTableRecord
  2
ByBlock
 70
     0
  3

 72
    65
 73
     0
 40
0.0
  0
LTYPE
  5
15
330
5
100
AcDbSymbolTableRecord
100
AcDbLinetypeTableRecord
  2
ByLayer
 70
     0
  3

 72
    65
 73
     0
 40
0.0
  0
LTYPE
  5
16
330
5
100
AcDbSymbolTableRecord
100
AcDbLinetypeTableRecord
  2
Continuous
 70
     0
  3
Solid line
 72
    65
 73
     0
 40
0.0
  0
LTYPE
  5
6A
330
5
100
AcDbSymbolTableRecord
100
AcDbLinetypeTableRecord
  2
HIDDEN
 70
     0
  3
Hidden __ __ __ __ __ __ __ __ __ __ __ __ __ __
 72
    65
 73
     2
 40
1.905
 49
1.27
 74
     0
 49
-0.635
 74
     0
  0
LTYPE
  5
6B
330
5
100
AcDbSymbolTableRecord
100
AcDbLinetypeTableRecord
  2
PHANTOM
 70
     0
  3
Phantom ______  __  __  ______  __  __  ______
 72
    65
 73
     6
 40
12.7
 49
6.35
 74
     0
 49
-1.27
 74
     0
 49
1.27
 74
     0
 49
-1.27
 74
     0
 49
1.27
 74
     0
 49
-1.27
 74
     0
  0
LTYPE
  5
6C
330
5
100
AcDbSymbolTableRecord
100
AcDbLinetypeTableRecord
  2
CENTER
 70
     0
  3
Center ____ _ ____ _ ____ _ ____ _ ____ _ ____
 72
    65
 73
     4
 40
10.16
 49
6.35
 74
     0
 49
-1.27
 74
     0
 49
1.27
 74
     0
 49
-1.27
 74
     0
  0
LTYPE
  5
6D
330
5
100
AcDbSymbolTableRecord
100
AcDbLinetypeTableRecord
  2
CENTERX2
 70
     0
  3
Center (2x) ________  __  ________  __  _____
 72
    65
 73
     4
 40
20.32
 49
12.7
 74
     0
 49
-2.54
 74
     0
 49
2.54
 74
     0
 49
-2.54
 74
     0
  0
LTYPE
  5
6E
330
5
100
AcDbSymbolTableRecord
100
AcDbLinetypeTableRecord
  2
DOT2
 70
     0
  3
Dot (.5x) ........................................
 72
    65
 73
     2
 40
0.635
 49
0.0
 74
     0
 49
-0.635
 74
     0
  0
ENDTAB
  0
TABLE
  2
LAYER
  5
2
102
{ACAD_XDICTIONARY
360
203
102
}
330
0
100
AcDbSymbolTable
 70
    18
  0
LAYER
  5
10
330
2
100
AcDbSymbolTableRecord
100
AcDbLayerTableRecord
  2
0
 70
     0
 62
     7
  6
Continuous
370
    -3
390
F
  0
LAYER
  5
6F
330
2
100
AcDbSymbolTableRecord
100
AcDbLayerTableRecord
  2
FORMAT
 70
     0
 62
     2
  6
Continuous
370
    -3
390
F
  0
LAYER
  5
70
330
2
100
AcDbSymbolTableRecord
100
AcDbLayerTableRecord
  2
외형선
 70
     0
 62
     4
  6
Continuous
370
    30
390
F
  0
LAYER
  5
71
330
2
100
AcDbSymbolTableRecord
100
AcDbLayerTableRecord
  2
숨은선
 70
     0
 62
     2
  6
HIDDEN
370
    15
390
F
  0
LAYER
  5
72
330
2
100
AcDbSymbolTableRecord
100
AcDbLayerTableRecord
  2
중심선
 70
     0
 62
     1
  6
CENTERX2
370
    -3
390
F
  0
LAYER
  5
73
330
2
100
AcDbSymbolTableRecord
100
AcDbLayerTableRecord
  2
파단선
 70
     0
 62
     4
  6
Continuous
370
    -3
390
F
  0
LAYER
  5
74
330
2
100
AcDbSymbolTableRecord
100
AcDbLayerTableRecord
  2
해칭선
 70
     0
 62
   100
  6
Continuous
370
    -3
390
F
  0
LAYER
  5
75
330
2
100
AcDbSymbolTableRecord
100
AcDbLayerTableRecord
  2
가는실선
 70
     0
 62
     4
  6
Continuous
370
    -3
390
F
  0
LAYER
  5
76
330
2
100
AcDbSymbolTableRecord
100
AcDbLayerTableRecord
  2
치수_보조선
 70
     0
 62
     4
  6
Continuous
370
    -3
390
F
  0
LAYER
  5
77
330
2
100
AcDbSymbolTableRecord
100
AcDbLayerTableRecord
  2
치수문자_일반주서
 70
     0
 62
     7
  6
Continuous
370
    15
390
F
  0
LAYER
  5
78
330
2
100
AcDbSymbolTableRecord
100
AcDbLayerTableRecord
  2
개별주서
 70
     0
 62
   100
  6
Continuous
370
    30
390
F
  0
LAYER
  5
79
330
2
100
AcDbSymbolTableRecord
100
AcDbLayerTableRecord
  2
중간선
 70
     0
 62
     2
  6
Continuous
370
    15
390
F
  0
LAYER
  5
7A
330
2
100
AcDbSymbolTableRecord
100
AcDbLayerTableRecord
  2
윤곽선
 70
     0
 62
     3
  6
Continuous
370
    40
390
F
  0
LAYER
  5
7B
330
2
100
AcDbSymbolTableRecord
100
AcDbLayerTableRecord
  2
중심마크
 70
     0
 62
   100
  6
Continuous
370
    30
390
F
  0
LAYER
  5
7C
330
2
100
AcDbSymbolTableRecord
100
AcDbLayerTableRecord
  2
가상선
 70
     0
 62
     4
  6
PHANTOM
370
    -3
390
F
  0
LAYER
  5
7D
330
2
100
AcDbSymbolTableRecord
100
AcDbLayerTableRecord
  2
특수지정선
 70
     0
 62
     5
  6
CENTERX2
370
    60
390
F
  0
LAYER
  5
7E
330
2
100
AcDbSymbolTableRecord
100
AcDbLayerTableRecord
  2
참조1
 70
     0
 62
    -4
  6
Continuous
370
    -3
390
F
  0
LAYER
  5
14B
330
2
100
AcDbSymbolTableRecord
100
AcDbLayerTableRecord
  2
Defpoints
 70
     0
 62
     7
  6
Continuous
290
     0
370
    -3
390
F
  0
ENDTAB
  0
TABLE
  2
STYLE
  5
3
330
0
100
AcDbSymbolTable
 70
     2
  0
STYLE
  5
11
330
3
100
AcDbSymbolTableRecord
100
AcDbTextStyleTableRecord
  2
Standard
 70
     0
 40
0.0
 41
1.0
 50
0.0
 71
     0
 42
3.5
  3
txt
  4

  0
STYLE
  5
94
330
3
100
AcDbSymbolTableRecord
100
AcDbTextStyleTableRecord
  2
SLDTEXTSTYLE0
 70
     0
 40
0.0
 41
0.75
 50
0.0
 71
     0
 42
3.5
  3
TXT
  4

  0
ENDTAB
  0
TABLE
  2
VIEW
  5
6
330
0
100
AcDbSymbolTable
 70
     0
  0
ENDTAB
  0
TABLE
  2
UCS
  5
7
330
0
100
AcDbSymbolTable
 70
     0
  0
ENDTAB
  0
TABLE
  2
APPID
  5
9
330
0
100
AcDbSymbolTable
 70
     3
  0
APPID
  5
12
330
9
100
AcDbSymbolTableRecord
100
AcDbRegAppTableRecord
  2
ACAD
 70
     0
  0
APPID
  5
157
330
9
100
AcDbSymbolTableRecord
100
AcDbRegAppTableRecord
  2
PE_URL
 70
     0
  0
APPID
  5
158
330
9
100
AcDbSymbolTableRecord
100
AcDbRegAppTableRecord
  2
ACAD_DSTYLE_DIMRADIAL_EXTENSION
 70
     0
  0
ENDTAB
  0
TABLE
  2
DIMSTYLE
  5
A
330
0
100
AcDbSymbolTable
 70
     4
100
AcDbDimStyleTable
  0
DIMSTYLE
105
27
330
A
100
AcDbSymbolTableRecord
100
AcDbDimStyleTableRecord
  2
ISO-25
 70
     0
 41
2.5
 42
0.625
 43
3.75
 44
1.25
 73
     0
 74
     0
 77
     1
 78
     8
140
2.5
141
2.5
143
0.03937007874016
147
0.625
171
     3
172
     1
178
     0
271
     2
272
     2
274
     3
278
    44
283
     0
284
     8
340
11
  0
DIMSTYLE
105
C9
102
{ACAD_REACTORS
330
C8
330
DC
330
1B7
330
1C4
330
EF
330
104
102
}
330
A
100
AcDbSymbolTableRecord
100
AcDbDimStyleTableRecord
  2
SLDDIMSTYLE0
 70
     0
 41
3.302
 44
0.0
 45
0.000000001
 73
     0
 74
     0
 77
     1
 78
     4
 79
     1
140
3.5
143
0.0393700787401575
147
0.875
148
0.000000001
170
     1
173
     1
178
     0
271
     2
272
     2
276
     2
284
    12
340
94
  0
DIMSTYLE
105
F0
102
{ACAD_REACTORS
330
1FA
102
}
330
A
100
AcDbSymbolTableRecord
100
AcDbDimStyleTableRecord
  2
SLDDIMSTYLE1
 70
     0
 41
3.302
 44
0.0
 45
0.000000001
 73
     0
 74
     0
 77
     1
 78
    12
 79
     3
140
3.5
143
0.0393700787401575
147
0.875
148
0.000000001
170
     1
172
     1
173
     1
178
     0
271
     2
272
     2
276
     2
284
    12
289
     0
340
94
  0
DIMSTYLE
105
105
102
{ACAD_REACTORS
330
1D1
330
1E0
102
}
330
A
100
AcDbSymbolTableRecord
100
AcDbDimStyleTableRecord
  2
SLDDIMSTYLE2
 70
     0
 41
3.302
 44
0.0
 45
0.000000001
 73
     0
 74
     0
 77
     1
 78
    12
 79
     3
140
3.5
143
0.0393700787401575
147
0.875
148
0.000000001
170
     1
173
     1
178
     0
271
     2
272
     2
276
     2
284
    12
340
94
  0
ENDTAB
  0
TABLE
  2
BLOCK_RECORD
  5
1
330
0
100
AcDbSymbolTable
 70
    18
  0
BLOCK_RECORD
  5
1F
330
1
100
AcDbSymbolTableRecord
100
AcDbBlockTableRecord
  2
*Model_Space
340
22
  0
BLOCK_RECORD
  5
1B
330
1
100
AcDbSymbolTableRecord
100
AcDbBlockTableRecord
  2
*Paper_Space
340
1E
  0
BLOCK_RECORD
  5
23
330
1
100
AcDbSymbolTableRecord
100
AcDbBlockTableRecord
  2
*Paper_Space0
340
26
  0
BLOCK_RECORD
  5
7F
330
1
100
AcDbSymbolTableRecord
100
AcDbBlockTableRecord
  2
블럭10
340
0
102
{BLKREFS
331
C1
102
}
  0
BLOCK_RECORD
  5
CA
330
1
100
AcDbSymbolTableRecord
100
AcDbBlockTableRecord
  2
_D
340
0
  0
BLOCK_RECORD
  5
DD
330
1
100
AcDbSymbolTableRecord
100
AcDbBlockTableRecord
  2
_D_1
340
0
  0
BLOCK_RECORD
  5
F1
330
1
100
AcDbSymbolTableRecord
100
AcDbBlockTableRecord
  2
_D_2
340
0
  0
BLOCK_RECORD
  5
106
330
1
100
AcDbSymbolTableRecord
100
AcDbBlockTableRecord
  2
_D_3
340
0
  0
BLOCK_RECORD
  5
11F
330
1
100
AcDbSymbolTableRecord
100
AcDbBlockTableRecord
  2
SW_DOWELSYMBOL_0
340
0
102
{BLKREFS
331
125
331
1EF
331
0
102
}
  0
BLOCK_RECORD
  5
1E1
330
1
100
AcDbSymbolTableRecord
100
AcDbBlockTableRecord
  2
_D_4
340
0
  0
BLOCK_RECORD
  5
1FB
330
1
100
AcDbSymbolTableRecord
100
AcDbBlockTableRecord
  2
*D9
340
0
  0
BLOCK_RECORD
  5
207
330
1
100
AcDbSymbolTableRecord
100
AcDbBlockTableRecord
  2
*D10
340
0
  0
BLOCK_RECORD
  5
213
330
1
100
AcDbSymbolTableRecord
100
AcDbBlockTableRecord
  2
*D11
340
0
  0
BLOCK_RECORD
  5
21F
330
1
100
AcDbSymbolTableRecord
100
AcDbBlockTableRecord
  2
*D12
340
0
  0
BLOCK_RECORD
  5
279
330
1
100
AcDbSymbolTableRecord
100
AcDbBlockTableRecord
  2
*D13
340
0
  0
BLOCK_RECORD
  5
285
330
1
100
AcDbSymbolTableRecord
100
AcDbBlockTableRecord
  2
*D14
340
0
  0
BLOCK_RECORD
  5
291
330
1
100
AcDbSymbolTableRecord
100
AcDbBlockTableRecord
  2
*D15
340
0
  0
BLOCK_RECORD
  5
29F
330
1
100
AcDbSymbolTableRecord
100
AcDbBlockTableRecord
  2
*D16
340
0
  0
BLOCK_RECORD
  5
2AD
330
1
100
AcDbSymbolTableRecord
100
AcDbBlockTableRecord
  2
*D17
340
0
  0
ENDTAB
  0
ENDSEC
  0
SECTION
  2
BLOCKS
  0
BLOCK
  5
20
330
1F
100
AcDbEntity
  8
0
100
AcDbBlockBegin
  2
*Model_Space
 70
     0
 10
0.0
 20
0.0
 30
0.0
  3
*Model_Space
  1
*Model_Space
  0
ENDBLK
  5
21
330
1F
100
AcDbEntity
  8
0
100
AcDbBlockEnd
  0
BLOCK
  5
1C
330
1B
100
AcDbEntity
 67
     1
  8
0
100
AcDbBlockBegin
  2
*Paper_Space
 70
     0
 10
0.0
 20
0.0
 30
0.0
  3
*Paper_Space
  1
*Paper_Space
  0
ENDBLK
  5
1D
330
1B
100
AcDbEntity
 67
     1
  8
0
100
AcDbBlockEnd
  0
BLOCK
  5
24
330
23
100
AcDbEntity
  8
0
100
AcDbBlockBegin
  2
*Paper_Space0
 70
     0
 10
0.0
 20
0.0
 30
0.0
  3
*Paper_Space0
  1
*Paper_Space0
  0
ENDBLK
  5
25
330
23
100
AcDbEntity
  8
0
100
AcDbBlockEnd
  0
BLOCK
  5
80
330
7F
100
AcDbEntity
  8
0
100
AcDbBlockBegin
  2
블럭10
 70
     2
 10
0.0
 20
0.0
 30
0.0
  3
블럭10
  1
블럭10
  0
ELLIPSE
  5
82
330
7F
100
AcDbEntity
  8
중심선
100
AcDbEllipse
 10
20.54032771741204
 20
12.0471743016438
 30
0.0
 11
6.600054785286829
 21
-1.261213355974178E-13
 31
0.0
210
0.0
220
0.0
230
1.0
 40
0.636358354079598
 41
0.9219305317359503
 42
6.513795318482858
  0
ELLIPSE
  5
83
330
7F
100
AcDbEntity
  8
중심선
100
AcDbEllipse
 10
20.54032771746488
 20
12.04717430159265
 30
0.0
 11
3.960054785062283
 21
1.540847449632565E-10
 31
0.0
210
0.0
220
0.0
230
1.0
 40
0.3939339440162632
 41
1.131841032648279
 42
5.62031148352944
  0
LINE
  5
84
330
7F
100
AcDbEntity
  8
중심선
100
AcDbLine
 10
2.268634060543552
 20
16.24717430164393
 30
0.0
 11
5.714909304380834
 21
16.24717430164393
 31
0.0
  0
LINE
  5
85
330
7F
100
AcDbEntity
  8
중심선
100
AcDbLine
 10
5.245725140726316
 20
7.84717430164391
 30
0.0
 11
8.692000384563599
 21
7.84717430164391
 31
0.0
  0
LINE
  5
86
330
7F
100
AcDbEntity
  8
중심선
100
AcDbLine
 10
15.74043728645272
 20
16.24717430164393
 30
0.0
 11
8.692000384563599
 21
7.84717430164391
 31
0.0
  0
LINE
  5
87
330
7F
100
AcDbEntity
  8
중심선
100
AcDbLine
 10
0.1404042013395286
 20
13.71084872107135
 30
0.0
 11
3.58671253028996
 21
13.71088815037384
 31
0.0
  0
LINE
  5
88
330
7F
100
AcDbEntity
  8
중심선
100
AcDbLine
 10
2.750260043222114
 20
10.84717430164391
 30
0.0
 11
6.196535287059397
 21
10.84717430164391
 31
0.0
  0
LINE
  5
89
330
7F
100
AcDbEntity
  8
중심선
100
AcDbLine
 10
12.29416204261559
 20
16.24717430164393
 30
0.0
 11
5.245725140726316
 21
7.84717430164391
 31
0.0
  0
LINE
  5
8A
330
7F
100
AcDbEntity
  8
중심선
100
AcDbLine
 10
10.72767329541681
 20
16.24717430164393
 30
0.0
 11
6.196535287059397
 21
10.84717430164391
 31
0.0
  0
LINE
  5
8B
330
7F
100
AcDbEntity
  8
중심선
100
AcDbLine
 10
7.28139805157953
 20
16.24717430164393
 30
0.0
 11
2.750260043222114
 21
10.84717430164391
 31
0.0
  0
LINE
  5
8C
330
7F
100
AcDbEntity
  8
중심선
100
AcDbLine
 10
5.714909304380834
 20
16.24717430164393
 30
0.0
 11
3.58671253028996
 21
13.71088815037384
 31
0.0
  0
LINE
  5
8D
330
7F
100
AcDbEntity
  8
중심선
100
AcDbLine
 10
2.268634060543552
 20
16.24717430164393
 30
0.0
 11
0.1404042013395286
 21
13.71084872107135
 31
0.0
  0
LINE
  5
8E
330
7F
100
AcDbEntity
  8
중심선
100
AcDbLine
 10
7.28139805157953
 20
16.24717430164393
 30
0.0
 11
10.72767329541681
 21
16.24717430164393
 31
0.0
  0
LINE
  5
8F
330
7F
100
AcDbEntity
  8
중심선
100
AcDbLine
 10
12.29416204261559
 20
16.24717430164393
 30
0.0
 11
15.74043728645272
 21
16.24717430164393
 31
0.0
  0
LINE
  5
90
330
7F
100
AcDbEntity
  8
중심선
100
AcDbLine
 10
19.22036997980202
 20
11.08717430171403
 30
0.0
 11
23.66174974927406
 21
11.08717430171406
 31
0.0
  0
LINE
  5
91
330
7F
100
AcDbEntity
  8
중심선
100
AcDbLine
 10
19.22039502424796
 20
13.00717430171391
 30
0.0
 11
19.22036997980202
 21
11.08717430171403
 31
0.0
  0
LINE
  5
92
330
7F
100
AcDbEntity
  8
중심선
100
AcDbLine
 10
19.22039502424796
 20
13.00717430171391
 30
0.0
 11
26.96566020931264
 21
13.00717430171391
 31
0.0
  0
LINE
  5
93
330
7F
100
AcDbEntity
  8
중심선
100
AcDbLine
 10
22.22332737316547
 20
13.45928029700563
 30
0.0
 11
24.52862924686651
 21
15.39360700705356
 31
0.0
  0
ATTDEF
  5
95
330
7F
100
AcDbEntity
  8
FORMAT
 62
     2
100
AcDbText
 10
4.408487351596664
 20
2.075366912832191
 30
0.0
 40
4.233333333333333
  1
E5062040
 41
0.75
  7
SLDTEXTSTYLE0
 11
4.408487351596664
 21
-0.0412997538344756
 31
0.0
100
AcDbAttributeDefinition
  3

  2
AUTOATTR0
 70
     0
 74
     1
  0
ENDBLK
  5
81
330
7F
100
AcDbEntity
  8
0
100
AcDbBlockEnd
  0
BLOCK
  5
CB
330
CA
100
AcDbEntity
  8
0
100
AcDbBlockBegin
  2
_D
 70
     0
 10
0.0
 20
0.0
 30
0.0
  3
_D
  1
_D
  0
LINE
  5
CD
330
CA
100
AcDbEntity
  8
치수문자_일반주서
 62
     0
370
    -2
100
AcDbLine
 10
88.19999999999995
 20
8.000000000000203
 30
0.0
 11
88.19999999999995
 21
23.55500211863653
 31
0.0
  0
LINE
  5
CE
330
CA
100
AcDbEntity
  8
치수문자_일반주서
 62
     0
370
    -2
100
AcDbLine
 10
12.00000000000001
 20
7.97081057025609
 30
0.0
 11
12.00000000000001
 21
23.55500211863653
 31
0.0
  0
LINE
  5
CF
330
CA
100
AcDbEntity
  8
치수문자_일반주서
 62
     0
370
    -2
100
AcDbLine
 10
84.89799999999994
 20
23.55500211863653
 30
0.0
 11
15.30200000000001
 21
23.55500211863653
 31
0.0
  0
SOLID
  5
D0
330
CA
100
AcDbEntity
  8
치수문자_일반주서
 62
     0
100
AcDbTrace
 10
84.89799999999994
 20
23.0046687853032
 30
0.0
 11
84.89799999999994
 21
24.10533545196987
 31
0.0
 12
88.19999999999995
 22
23.55500211863653
 32
0.0
 13
88.19999999999995
 23
23.55500211863653
 33
0.0
  0
SOLID
  5
D1
330
CA
100
AcDbEntity
  8
치수문자_일반주서
 62
     0
100
AcDbTrace
 10
15.30200000000001
 20
24.10533545196987
 30
0.0
 11
15.30200000000001
 21
23.0046687853032
 31
0.0
 12
12.00000000000001
 22
23.55500211863653
 32
0.0
 13
12.00000000000001
 23
23.55500211863653
 33
0.0
  0
MTEXT
  5
D2
330
CA
100
AcDbEntity
  8
치수문자_일반주서
 62
     0
100
AcDbMText
 10
49.68225345153861
 20
27.93000211863653
 30
0.0
 40
3.5
 41
0.0
 71
     2
 72
     1
  1
\A1;76.20 [3]
  7
SLDTEXTSTYLE0
 73
     1
 44
1.0
  0
POINT
  5
D3
330
CA
100
AcDbEntity
  8
Defpoints
 62
     0
100
AcDbPoint
 10
88.19999999999995
 20
7.937500000000203
 30
0.0
  0
POINT
  5
D4
330
CA
100
AcDbEntity
  8
Defpoints
 62
     0
100
AcDbPoint
 10
12.00000000000001
 20
7.90831057025609
 30
0.0
  0
POINT
  5
D5
330
CA
100
AcDbEntity
  8
Defpoints
 62
     0
100
AcDbPoint
 10
12.00000000000001
 20
23.55500211863653
 30
0.0
  0
ENDBLK
  5
CC
330
CA
100
AcDbEntity
  8
0
100
AcDbBlockEnd
  0
BLOCK
  5
DE
330
DD
100
AcDbEntity
  8
0
100
AcDbBlockBegin
  2
_D_1
 70
     0
 10
0.0
 20
0.0
 30
0.0
  3
_D_1
  1
_D_1
  0
LINE
  5
E0
330
DD
100
AcDbEntity
  8
치수문자_일반주서
 62
     0
370
    -2
100
AcDbLine
 10
88.19999999999995
 20
8.000000000000203
 30
0.0
 11
88.19999999999995
 21
37.77591225225182
 31
0.0
  0
LINE
  5
E1
330
DD
100
AcDbEntity
  8
치수문자_일반주서
 62
     0
370
    -2
100
AcDbLine
 10
-64.2
 20
6.41249999999999
 30
0.0
 11
-64.2
 21
37.77591225225182
 31
0.0
  0
LINE
  5
E2
330
DD
100
AcDbEntity
  8
치수문자_일반주서
 62
     0
370
    -2
100
AcDbLine
 10
84.89799999999994
 20
37.77591225225182
 30
0.0
 11
-60.898
 21
37.77591225225182
 31
0.0
  0
SOLID
  5
E3
330
DD
100
AcDbEntity
  8
치수문자_일반주서
 62
     0
100
AcDbTrace
 10
84.89799999999994
 20
37.22557891891849
 30
0.0
 11
84.89799999999994
 21
38.32624558558516
 31
0.0
 12
88.19999999999995
 22
37.77591225225182
 32
0.0
 13
88.19999999999995
 23
37.77591225225182
 33
0.0
  0
SOLID
  5
E4
330
DD
100
AcDbEntity
  8
치수문자_일반주서
 62
     0
100
AcDbTrace
 10
-60.898
 20
38.32624558558516
 30
0.0
 11
-60.898
 21
37.22557891891849
 31
0.0
 12
-64.2
 22
37.77591225225182
 32
0.0
 13
-64.2
 23
37.77591225225182
 33
0.0
  0
MTEXT
  5
E5
330
DD
100
AcDbEntity
  8
치수문자_일반주서
 62
     0
100
AcDbMText
 10
12.89449010755817
 20
42.15091225225182
 30
0.0
 40
3.5
 41
0.0
 71
     2
 72
     1
  1
\A1;152.40 [6]
  7
SLDTEXTSTYLE0
 73
     1
 44
1.0
  0
POINT
  5
E6
330
DD
100
AcDbEntity
  8
Defpoints
 62
     0
100
AcDbPoint
 10
88.19999999999995
 20
7.937500000000203
 30
0.0
  0
POINT
  5
E7
330
DD
100
AcDbEntity
  8
Defpoints
 62
     0
100
AcDbPoint
 10
-64.2
 20
6.34999999999999
 30
0.0
  0
POINT
  5
E8
330
DD
100
AcDbEntity
  8
Defpoints
 62
     0
100
AcDbPoint
 10
-64.2
 20
37.77591225225182
 30
0.0
  0
ENDBLK
  5
DF
330
DD
100
AcDbEntity
  8
0
100
AcDbBlockEnd
  0
BLOCK
  5
F2
330
F1
100
AcDbEntity
  8
0
100
AcDbBlockBegin
  2
_D_2
 70
     0
 10
0.0
 20
0.0
 30
0.0
  3
_D_2
  1
_D_2
  0
LINE
  5
F4
330
F1
100
AcDbEntity
  8
치수문자_일반주서
 62
     0
370
    -2
100
AcDbLine
 10
-62.67500000000001
 20
7.937499999999981
 30
0.0
 11
-73.91904091960244
 21
7.93749999999994
 31
0.0
  0
LINE
  5
F5
330
F1
100
AcDbEntity
  8
치수문자_일반주서
 62
     0
370
    -2
100
AcDbLine
 10
-62.67500000000001
 20
-7.93749999999999
 30
0.0
 11
-73.91904091960238
 21
-7.937500000000036
 31
0.0
  0
LINE
  5
F6
330
F1
100
AcDbEntity
  8
치수문자_일반주서
 62
     0
370
    -2
100
AcDbLine
 10
-73.91904091960244
 20
7.93749999999994
 30
0.0
 11
-73.91904091960257
 21
42.76024999999994
 31
0.0
  0
LINE
  5
F7
330
F1
100
AcDbEntity
  8
치수문자_일반주서
 62
     0
370
    -2
100
AcDbLine
 10
-73.91904091960242
 20
4.63549999999994
 30
0.0
 11
-73.9190409196024
 21
-4.635500000000036
 31
0.0
  0
SOLID
  5
F8
330
F1
100
AcDbEntity
  8
치수문자_일반주서
 62
     0
100
AcDbTrace
 10
-73.3687075862691
 20
4.635499999999942
 30
0.0
 11
-74.46937425293575
 21
4.635499999999938
 31
0.0
 12
-73.91904091960244
 22
7.93749999999994
 32
0.0
 13
-73.91904091960244
 23
7.93749999999994
 33
0.0
  0
SOLID
  5
F9
330
F1
100
AcDbEntity
  8
치수문자_일반주서
 62
     0
100
AcDbTrace
 10
-74.46937425293572
 20
-4.635500000000038
 30
0.0
 11
-73.36870758626907
 21
-4.635500000000034
 31
0.0
 12
-73.91904091960238
 22
-7.937500000000036
 32
0.0
 13
-73.91904091960238
 23
-7.937500000000036
 33
0.0
  0
MTEXT
  5
FA
330
F1
100
AcDbEntity
  8
치수문자_일반주서
 62
     0
100
AcDbMText
 10
-78.29404091960251
 20
28.76024999999992
 30
0.0
 40
3.5
 41
0.0
 71
     2
 72
     1
  1
\A1;%%c15.88 [5/8]
  7
SLDTEXTSTYLE0
 11
-3.580687802255629E-15
 21
1.0
 31
0.0
 73
     1
 44
1.0
  0
POINT
  5
FB
330
F1
100
AcDbEntity
  8
Defpoints
 62
     0
100
AcDbPoint
 10
-62.61250000000001
 20
7.937499999999981
 30
0.0
  0
POINT
  5
FC
330
F1
100
AcDbEntity
  8
Defpoints
 62
     0
100
AcDbPoint
 10
-62.61250000000001
 20
-7.93749999999999
 30
0.0
  0
POINT
  5
FD
330
F1
100
AcDbEntity
  8
Defpoints
 62
     0
100
AcDbPoint
 10
-73.91904091960238
 20
-7.937500000000033
 30
0.0
  0
ENDBLK
  5
F3
330
F1
100
AcDbEntity
  8
0
100
AcDbBlockEnd
  0
BLOCK
  5
107
330
106
100
AcDbEntity
  8
0
100
AcDbBlockBegin
  2
_D_3
 70
     0
 10
0.0
 20
0.0
 30
0.0
  3
_D_3
  1
_D_3
  0
LINE
  5
109
330
106
100
AcDbEntity
  8
치수문자_일반주서
 62
     0
370
    -2
100
AcDbLine
 10
88.26249999999995
 20
-7.937499999999841
 30
0.0
 11
103.8370452334259
 21
-7.937499999999783
 31
0.0
  0
LINE
  5
10A
330
106
100
AcDbEntity
  8
치수문자_일반주서
 62
     0
370
    -2
100
AcDbLine
 10
88.26249999999995
 20
7.937500000000203
 30
0.0
 11
103.8370452334259
 21
7.937500000000259
 31
0.0
  0
LINE
  5
10B
330
106
100
AcDbEntity
  8
치수문자_일반주서
 62
     0
370
    -2
100
AcDbLine
 10
103.8370452334259
 20
7.937500000000259
 30
0.0
 11
103.8370452334257
 21
39.45825000000026
 31
0.0
  0
LINE
  5
10C
330
106
100
AcDbEntity
  8
치수문자_일반주서
 62
     0
370
    -2
100
AcDbLine
 10
103.8370452334259
 20
-4.635499999999784
 30
0.0
 11
103.8370452334259
 21
4.63550000000026
 31
0.0
  0
SOLID
  5
10D
330
106
100
AcDbEntity
  8
치수문자_일반주서
 62
     0
100
AcDbTrace
 10
103.2867119000926
 20
-4.635499999999785
 30
0.0
 11
104.3873785667592
 21
-4.635499999999782
 31
0.0
 12
103.8370452334259
 22
-7.937499999999783
 32
0.0
 13
103.8370452334259
 23
-7.937499999999783
 33
0.0
  0
SOLID
  5
10E
330
106
100
AcDbEntity
  8
치수문자_일반주서
 62
     0
100
AcDbTrace
 10
104.3873785667592
 20
4.635500000000262
 30
0.0
 11
103.2867119000925
 21
4.635500000000258
 31
0.0
 12
103.8370452334259
 22
7.937500000000259
 32
0.0
 13
103.8370452334259
 23
7.937500000000259
 33
0.0
  0
MTEXT
  5
10F
330
106
100
AcDbEntity
  8
치수문자_일반주서
 62
     0
100
AcDbMText
 10
99.4620452334258
 20
25.45825000000024
 30
0.0
 40
3.5
 41
0.0
 71
     2
 72
     1
  1
\A1;%%c15.88 [5/8]
  7
SLDTEXTSTYLE0
 11
-3.580687802255613E-15
 21
1.0
 31
0.0
 73
     1
 44
1.0
  0
POINT
  5
110
330
106
100
AcDbEntity
  8
Defpoints
 62
     0
100
AcDbPoint
 10
88.19999999999995
 20
-7.937499999999841
 30
0.0
  0
POINT
  5
111
330
106
100
AcDbEntity
  8
Defpoints
 62
     0
100
AcDbPoint
 10
88.19999999999995
 20
7.937500000000203
 30
0.0
  0
POINT
  5
112
330
106
100
AcDbEntity
  8
Defpoints
 62
     0
100
AcDbPoint
 10
103.8370452334259
 20
7.937500000000262
 30
0.0
  0
ENDBLK
  5
108
330
106
100
AcDbEntity
  8
0
100
AcDbBlockEnd
  0
BLOCK
  5
120
330
11F
100
AcDbEntity
  8
0
100
AcDbBlockBegin
  2
SW_DOWELSYMBOL_0
 70
     0
 10
0.0
 20
0.0
 30
0.0
  3
SW_DOWELSYMBOL_0
  1
SW_DOWELSYMBOL_0
  0
CIRCLE
  5
122
330
11F
100
AcDbEntity
  8
해칭선
 62
     0
100
AcDbCircle
 10
0.0
 20
0.0
 30
0.0
 40
3.000000000000001
  0
HATCH
  5
123
330
11F
100
AcDbEntity
  8
0
  6
Continuous
 62
     0
370
     0
100
AcDbHatch
 10
0.0
 20
0.0
 30
0.0
210
0.0
220
0.0
230
1.0
  2
SOLID
 70
     1
 71
     0
 91
        1
 92
        0
 93
        3
 72
     2
 10
0.0
 20
0.0
 40
3.000000000000001
 50
0.0
 51
90.0
 73
     1
 72
     1
 10
0.0
 20
3.000000000000001
 11
0.0
 21
0.0
 72
     1
 10
0.0
 20
0.0
 11
3.000000000000003
 21
0.0
 97
        0
 75
     0
 76
     1
 98
        1
 10
0.0
 20
0.0
  0
HATCH
  5
124
330
11F
100
AcDbEntity
  8
0
  6
Continuous
 62
     0
370
     0
100
AcDbHatch
 10
0.0
 20
0.0
 30
0.0
210
0.0
220
0.0
230
1.0
  2
SOLID
 70
     1
 71
     0
 91
        1
 92
        0
 93
        3
 72
     2
 10
0.0
 20
0.0
 40
3.000000000000001
 50
180.0
 51
270.0000000000008
 73
     1
 72
     1
 10
0.0
 20
-3.000000000000001
 11
0.0
 21
0.0
 72
     1
 10
0.0
 20
0.0
 11
-3.000000000000003
 21
0.0
 97
        0
 75
     0
 76
     1
 98
        1
 10
0.0
 20
0.0
  0
ENDBLK
  5
121
330
11F
100
AcDbEntity
  8
0
100
AcDbBlockEnd
  0
BLOCK
  5
1E2
330
1E1
100
AcDbEntity
  8
0
100
AcDbBlockBegin
  2
_D_4
 70
     0
 10
0.0
 20
0.0
 30
0.0
  3
_D_4
  1
_D_4
  0
LINE
  5
1E3
330
1E1
100
AcDbEntity
  8
치수문자_일반주서
 62
     0
370
    -2
100
AcDbLine
 10
102.4375000000001
 20
36.22143424691529
 30
0.0
 11
117.3750000000001
 21
36.22143424691535
 31
0.0
  0
LINE
  5
1E4
330
1E1
100
AcDbEntity
  8
치수문자_일반주서
 62
     0
370
    -2
100
AcDbLine
 10
102.4375000000001
 20
22.22143424691529
 30
0.0
 11
117.3750000000001
 21
22.22143424691535
 31
0.0
  0
LINE
  5
1E5
330
1E1
100
AcDbEntity
  8
치수문자_일반주서
 62
     0
370
    -2
100
AcDbLine
 10
117.3750000000001
 20
36.22143424691535
 30
0.0
 11
117.3750000000001
 21
22.22143424691535
 31
0.0
  0
LINE
  5
1E6
330
1E1
100
AcDbEntity
  8
치수문자_일반주서
 62
     0
370
    -2
100
AcDbLine
 10
117.3750000000001
 20
39.52343424691535
 30
0.0
 11
117.375
 21
42.82543424691535
 31
0.0
  0
LINE
  5
1E7
330
1E1
100
AcDbEntity
  8
치수문자_일반주서
 62
     0
370
    -2
100
AcDbLine
 10
117.3750000000001
 20
18.91943424691535
 30
0.0
 11
117.3750000000001
 21
15.61743424691535
 31
0.0
  0
SOLID
  5
1E8
330
1E1
100
AcDbEntity
  8
치수문자_일반주서
 62
     0
100
AcDbTrace
 10
116.8246666666667
 20
39.52343424691535
 30
0.0
 11
117.9253333333334
 21
39.52343424691535
 31
0.0
 12
117.3750000000001
 22
36.22143424691535
 32
0.0
 13
117.3750000000001
 23
36.22143424691535
 33
0.0
  0
SOLID
  5
1E9
330
1E1
100
AcDbEntity
  8
치수문자_일반주서
 62
     0
100
AcDbTrace
 10
117.9253333333335
 20
18.91943424691535
 30
0.0
 11
116.8246666666668
 21
18.91943424691535
 31
0.0
 12
117.3750000000001
 22
22.22143424691535
 32
0.0
 13
117.3750000000001
 23
22.22143424691535
 33
0.0
  0
MTEXT
  5
1EA
330
1E1
100
AcDbEntity
  8
치수문자_일반주서
 62
     0
100
AcDbMText
 10
113.0000000000001
 20
29.28713862862833
 30
0.0
 40
3.5
 41
0.0
 71
     2
 72
     1
  1
\A1;%%c14 [0.55]
  7
SLDTEXTSTYLE0
 11
-3.045183153257572E-15
 21
1.0
 31
0.0
 73
     1
 44
1.0
  0
POINT
  5
1EB
330
1E1
100
AcDbEntity
  8
Defpoints
 62
     0
100
AcDbPoint
 10
102.3750000000001
 20
36.22143424691529
 30
0.0
  0
POINT
  5
1EC
330
1E1
100
AcDbEntity
  8
Defpoints
 62
     0
100
AcDbPoint
 10
102.3750000000001
 20
22.22143424691529
 30
0.0
  0
POINT
  5
1ED
330
1E1
100
AcDbEntity
  8
Defpoints
 62
     0
100
AcDbPoint
 10
117.3750000000001
 20
22.22143424691535
 30
0.0
  0
ENDBLK
  5
1EE
330
1E1
100
AcDbEntity
  8
0
100
AcDbBlockEnd
  0
BLOCK
  5
1FC
330
1FB
100
AcDbEntity
  8
0
100
AcDbBlockBegin
  2
*D9
 70
     1
 10
0.0
 20
0.0
 30
0.0
  3
*D9
  1
*D8
  0
LINE
  5
1FD
330
1FB
100
AcDbEntity
  8
치수문자_일반주서
 62
     0
370
    -2
100
AcDbLine
 10
103.8657751816695
 20
19.48229575403651
 30
0.0
 11
119.6194267469468
 21
-6.150060756304035
 31
0.0
  0
MTEXT
  5
1FE
330
1FB
100
AcDbEntity
  8
치수문자_일반주서
 62
     0
100
AcDbMText
 10
115.6706384014277
 20
5.288158154535728
 30
0.0
 40
3.5
 41
0.0
 71
     5
 72
     1
  1
\A1;R.5 [R0.02]
  7
SLDTEXTSTYLE0
 11
0.5236126201129557
 21
-0.8519564684057781
 31
0.0
 73
     1
 44
1.0
  0
LINE
  5
1FF
330
1FB
100
AcDbEntity
  8
치수문자_일반주서
 62
     0
370
    -2
100
AcDbLine
 10
101.875
 20
22.72143424691529
 30
0.0
 11
102.1368063100565
 21
22.29545601271239
 31
0.0
  0
SOLID
  5
200
330
1FB
100
AcDbEntity
  8
치수문자_일반주서
 62
     0
100
AcDbTrace
 10
104.3346352247821
 20
19.77045723263868
 30
0.0
 11
103.3969151385569
 21
19.19413427543435
 31
0.0
 12
102.1368063100565
 22
22.29545601271239
 32
0.0
 13
102.1368063100565
 23
22.29545601271239
 33
0.0
  0
POINT
  5
201
330
1FB
100
AcDbEntity
  8
Defpoints
 62
     0
100
AcDbPoint
 10
102.1368063100565
 20
22.29545601271239
 30
0.0
  0
POINT
  5
22D
330
1FB
100
AcDbEntity
  8
Defpoints
 62
     0
100
AcDbPoint
 10
101.875
 20
22.72143424691529
 30
0.0
  0
ENDBLK
  5
202
330
1FB
100
AcDbEntity
  8
0
100
AcDbBlockEnd
  0
BLOCK
  5
208
330
207
100
AcDbEntity
  8
0
100
AcDbBlockBegin
  2
*D10
 70
     1
 10
0.0
 20
0.0
 30
0.0
  3
*D10
  1
*D10
  0
LINE
  5
20A
330
207
100
AcDbEntity
  8
치수문자_일반주서
 62
     0
370
    -2
100
AcDbLine
 10
19.37500000000004
 20
35.78393424691529
 30
0.0
 11
19.37500000000004
 21
70.88391841499404
 31
0.0
  0
LINE
  5
20B
330
207
100
AcDbEntity
  8
치수문자_일반주서
 62
     0
370
    -2
100
AcDbLine
 10
102.3750000000001
 20
36.34643424691529
 30
0.0
 11
102.3750000000001
 21
70.88391841499404
 31
0.0
  0
LINE
  5
20C
330
207
100
AcDbEntity
  8
치수문자_일반주서
 62
     0
370
    -2
100
AcDbLine
 10
22.67700000000004
 20
70.88391841499404
 30
0.0
 11
99.07300000000006
 21
70.88391841499404
 31
0.0
  0
SOLID
  5
20D
330
207
100
AcDbEntity
  8
치수문자_일반주서
 62
     0
100
AcDbTrace
 10
22.67700000000004
 20
71.43425174832737
 30
0.0
 11
22.67700000000004
 21
70.33358508166071
 31
0.0
 12
19.37500000000004
 22
70.88391841499404
 32
0.0
 13
19.37500000000004
 23
70.88391841499404
 33
0.0
  0
SOLID
  5
20E
330
207
100
AcDbEntity
  8
치수문자_일반주서
 62
     0
100
AcDbTrace
 10
99.07300000000006
 20
70.33358508166071
 30
0.0
 11
99.07300000000006
 21
71.43425174832737
 31
0.0
 12
102.3750000000001
 22
70.88391841499404
 32
0.0
 13
102.3750000000001
 23
70.88391841499404
 33
0.0
  0
MTEXT
  5
20F
330
207
100
AcDbEntity
  8
치수문자_일반주서
 62
     0
100
AcDbMText
 10
60.87500000000005
 20
75.25891841499404
 30
0.0
 40
3.5
 41
0.0
 71
     2
 72
     1
  1
\A1;83.00 [3.27]
  7
SLDTEXTSTYLE0
 73
     1
 44
1.0
  0
POINT
  5
210
330
207
100
AcDbEntity
  8
Defpoints
 62
     0
100
AcDbPoint
 10
19.37500000000004
 20
35.72143424691529
 30
0.0
  0
POINT
  5
211
330
207
100
AcDbEntity
  8
Defpoints
 62
     0
100
AcDbPoint
 10
102.3750000000001
 20
36.28393424691529
 30
0.0
  0
POINT
  5
212
330
207
100
AcDbEntity
  8
Defpoints
 62
     0
100
AcDbPoint
 10
102.3750000000001
 20
70.88391841499404
 30
0.0
  0
ENDBLK
  5
209
330
207
100
AcDbEntity
  8
0
100
AcDbBlockEnd
  0
BLOCK
  5
214
330
213
100
AcDbEntity
  8
0
100
AcDbBlockBegin
  2
*D11
 70
     1
 10
0.0
 20
0.0
 30
0.0
  3
*D11
  1
*D11
  0
LINE
  5
216
330
213
100
AcDbEntity
  8
치수문자_일반주서
 62
     0
370
    -2
100
AcDbLine
 10
76.37504186422882
 20
28.62038676313042
 30
0.0
 11
76.37504186422882
 21
61.90091383617725
 31
0.0
  0
LINE
  5
217
330
213
100
AcDbEntity
  8
치수문자_일반주서
 62
     0
370
    -2
100
AcDbLine
 10
102.3750000000001
 20
36.28393424691529
 30
0.0
 11
102.3750000000001
 21
61.90091383617725
 31
0.0
  0
LINE
  5
218
330
213
100
AcDbEntity
  8
치수문자_일반주서
 62
     0
370
    -2
100
AcDbLine
 10
79.67704186422881
 20
61.90091383617725
 30
0.0
 11
99.07300000000006
 21
61.90091383617725
 31
0.0
  0
SOLID
  5
219
330
213
100
AcDbEntity
  8
치수문자_일반주서
 62
     0
100
AcDbTrace
 10
79.67704186422881
 20
62.45124716951059
 30
0.0
 11
79.67704186422881
 21
61.35058050284392
 31
0.0
 12
76.37504186422882
 22
61.90091383617725
 32
0.0
 13
76.37504186422882
 23
61.90091383617725
 33
0.0
  0
SOLID
  5
21A
330
213
100
AcDbEntity
  8
치수문자_일반주서
 62
     0
100
AcDbTrace
 10
99.07300000000006
 20
61.35058050284392
 30
0.0
 11
99.07300000000006
 21
62.45124716951059
 31
0.0
 12
102.3750000000001
 22
61.90091383617725
 32
0.0
 13
102.3750000000001
 23
61.90091383617725
 33
0.0
  0
MTEXT
  5
21B
330
213
100
AcDbEntity
  8
치수문자_일반주서
 62
     0
100
AcDbMText
 10
89.42159572693208
 20
66.27591383617725
 30
0.0
 40
3.5
 41
0.0
 71
     2
 72
     1
  1
\A1;26.00 [1.02]
  7
SLDTEXTSTYLE0
 73
     1
 44
1.0
  0
POINT
  5
21C
330
213
100
AcDbEntity
  8
Defpoints
 62
     0
100
AcDbPoint
 10
76.37504186422882
 20
28.55788676313042
 30
0.0
  0
POINT
  5
21D
330
213
100
AcDbEntity
  8
Defpoints
 62
     0
100
AcDbPoint
 10
102.3750000000001
 20
36.22143424691529
 30
0.0
  0
POINT
  5
21E
330
213
100
AcDbEntity
  8
Defpoints
 62
     0
100
AcDbPoint
 10
102.3750000000001
 20
61.90091383617725
 30
0.0
  0
ENDBLK
  5
215
330
213
100
AcDbEntity
  8
0
100
AcDbBlockEnd
  0
BLOCK
  5
220
330
21F
100
AcDbEntity
  8
0
100
AcDbBlockBegin
  2
*D12
 70
     1
 10
0.0
 20
0.0
 30
0.0
  3
*D12
  1
*D12
  0
LINE
  5
222
330
21F
100
AcDbEntity
  8
치수문자_일반주서
 62
     0
370
    -2
100
AcDbLine
 10
19.81250000000005
 20
36.22143424691529
 30
0.0
 11
4.374999999999983
 21
36.22143424691524
 31
0.0
  0
LINE
  5
223
330
21F
100
AcDbEntity
  8
치수문자_일반주서
 62
     0
370
    -2
100
AcDbLine
 10
19.81250000000005
 20
22.22143424691529
 30
0.0
 11
4.375000000000032
 21
22.22143424691524
 31
0.0
  0
LINE
  5
224
330
21F
100
AcDbEntity
  8
치수문자_일반주서
 62
     0
370
    -2
100
AcDbLine
 10
4.374999999999983
 20
36.22143424691524
 30
0.0
 11
4.375000000000032
 21
22.22143424691524
 31
0.0
  0
LINE
  5
225
330
21F
100
AcDbEntity
  8
치수문자_일반주서
 62
     0
370
    -2
100
AcDbLine
 10
4.374999999999972
 20
39.52343424691524
 30
0.0
 11
4.37499999999996
 21
42.82543424691524
 31
0.0
  0
LINE
  5
226
330
21F
100
AcDbEntity
  8
치수문자_일반주서
 62
     0
370
    -2
100
AcDbLine
 10
4.375000000000044
 20
18.91943424691524
 30
0.0
 11
4.375000000000055
 21
15.61743424691524
 31
0.0
  0
SOLID
  5
227
330
21F
100
AcDbEntity
  8
치수문자_일반주서
 62
     0
100
AcDbTrace
 10
3.824666666666638
 20
39.52343424691524
 30
0.0
 11
4.925333333333305
 21
39.52343424691524
 31
0.0
 12
4.374999999999983
 22
36.22143424691524
 32
0.0
 13
4.374999999999983
 23
36.22143424691524
 33
0.0
  0
SOLID
  5
228
330
21F
100
AcDbEntity
  8
치수문자_일반주서
 62
     0
100
AcDbTrace
 10
4.925333333333377
 20
18.91943424691524
 30
0.0
 11
3.82466666666671
 21
18.91943424691523
 31
0.0
 12
4.375000000000032
 22
22.22143424691524
 32
0.0
 13
4.375000000000032
 23
22.22143424691524
 33
0.0
  0
MTEXT
  5
229
330
21F
100
AcDbEntity
  8
치수문자_일반주서
 62
     0
100
AcDbMText
 10
0.0000000000000071
 20
29.22143424691528
 30
0.0
 40
3.5
 41
0.0
 71
     2
 72
     1
  1
\A1;%%c14 [0.55]
  7
SLDTEXTSTYLE0
 11
-3.489272363107635E-15
 21
1.0
 31
0.0
 73
     1
 44
1.0
  0
POINT
  5
22A
330
21F
100
AcDbEntity
  8
Defpoints
 62
     0
100
AcDbPoint
 10
19.87500000000005
 20
36.22143424691529
 30
0.0
  0
POINT
  5
22B
330
21F
100
AcDbEntity
  8
Defpoints
 62
     0
100
AcDbPoint
 10
19.87500000000005
 20
22.22143424691529
 30
0.0
  0
POINT
  5
22C
330
21F
100
AcDbEntity
  8
Defpoints
 62
     0
100
AcDbPoint
 10
4.375000000000043
 20
22.22143424691524
 30
0.0
  0
ENDBLK
  5
221
330
21F
100
AcDbEntity
  8
0
100
AcDbBlockEnd
  0
BLOCK
  5
27A
330
279
100
AcDbEntity
  8
0
100
AcDbBlockBegin
  2
*D13
 70
     1
 10
0.0
 20
0.0
 30
0.0
  3
*D13
  1
*D13
  0
LINE
  5
27C
330
279
100
AcDbEntity
  8
치수문자_일반주서
 62
     0
370
    -2
100
AcDbLine
 10
-12.65083618511304
 20
96.81431468826906
 30
0.0
 11
-12.65083618511304
 21
131.9142988563478
 31
0.0
  0
LINE
  5
27D
330
279
100
AcDbEntity
  8
치수문자_일반주서
 62
     0
370
    -2
100
AcDbLine
 10
70.34916381488698
 20
97.37681468826906
 30
0.0
 11
70.34916381488698
 21
131.9142988563478
 31
0.0
  0
LINE
  5
27E
330
279
100
AcDbEntity
  8
치수문자_일반주서
 62
     0
370
    -2
100
AcDbLine
 10
-9.348836185113036
 20
131.9142988563478
 30
0.0
 11
67.04716381488697
 21
131.9142988563478
 31
0.0
  0
SOLID
  5
27F
330
279
100
AcDbEntity
  8
치수문자_일반주서
 62
     0
100
AcDbTrace
 10
-9.348836185113036
 20
132.4646321896811
 30
0.0
 11
-9.348836185113036
 21
131.3639655230145
 31
0.0
 12
-12.65083618511304
 22
131.9142988563478
 32
0.0
 13
-12.65083618511304
 23
131.9142988563478
 33
0.0
  0
SOLID
  5
280
330
279
100
AcDbEntity
  8
치수문자_일반주서
 62
     0
100
AcDbTrace
 10
67.04716381488697
 20
131.3639655230145
 30
0.0
 11
67.04716381488697
 21
132.4646321896811
 31
0.0
 12
70.34916381488698
 22
131.9142988563478
 32
0.0
 13
70.34916381488698
 23
131.9142988563478
 33
0.0
  0
MTEXT
  5
281
330
279
100
AcDbEntity
  8
치수문자_일반주서
 62
     0
100
AcDbMText
 10
28.84916381488697
 20
136.2892988563478
 30
0.0
 40
3.5
 41
0.0
 71
     2
 72
     1
  1
\A1;83.00 [3.27]
  7
SLDTEXTSTYLE0
 73
     1
 44
1.0
  0
POINT
  5
282
330
279
100
AcDbEntity
  8
Defpoints
 62
     0
100
AcDbPoint
 10
-12.65083618511304
 20
96.75181468826906
 30
0.0
  0
POINT
  5
283
330
279
100
AcDbEntity
  8
Defpoints
 62
     0
100
AcDbPoint
 10
70.34916381488698
 20
97.31431468826906
 30
0.0
  0
POINT
  5
284
330
279
100
AcDbEntity
  8
Defpoints
 62
     0
100
AcDbPoint
 10
70.34916381488698
 20
131.9142988563478
 30
0.0
  0
ENDBLK
  5
27B
330
279
100
AcDbEntity
  8
0
100
AcDbBlockEnd
  0
BLOCK
  5
286
330
285
100
AcDbEntity
  8
0
100
AcDbBlockBegin
  2
*D14
 70
     1
 10
0.0
 20
0.0
 30
0.0
  3
*D14
  1
*D14
  0
LINE
  5
288
330
285
100
AcDbEntity
  8
치수문자_일반주서
 62
     0
370
    -2
100
AcDbLine
 10
44.34920567911574
 20
89.6507672044842
 30
0.0
 11
44.34920567911574
 21
122.931294277531
 31
0.0
  0
LINE
  5
289
330
285
100
AcDbEntity
  8
치수문자_일반주서
 62
     0
370
    -2
100
AcDbLine
 10
70.34916381488698
 20
97.31431468826906
 30
0.0
 11
70.34916381488698
 21
122.931294277531
 31
0.0
  0
LINE
  5
28A
330
285
100
AcDbEntity
  8
치수문자_일반주서
 62
     0
370
    -2
100
AcDbLine
 10
47.65120567911574
 20
122.931294277531
 30
0.0
 11
67.04716381488697
 21
122.931294277531
 31
0.0
  0
SOLID
  5
28B
330
285
100
AcDbEntity
  8
치수문자_일반주서
 62
     0
100
AcDbTrace
 10
47.65120567911574
 20
123.4816276108644
 30
0.0
 11
47.65120567911574
 21
122.3809609441977
 31
0.0
 12
44.34920567911574
 22
122.931294277531
 32
0.0
 13
44.34920567911574
 23
122.931294277531
 33
0.0
  0
SOLID
  5
28C
330
285
100
AcDbEntity
  8
치수문자_일반주서
 62
     0
100
AcDbTrace
 10
67.04716381488697
 20
122.3809609441977
 30
0.0
 11
67.04716381488697
 21
123.4816276108644
 31
0.0
 12
70.34916381488698
 22
122.931294277531
 32
0.0
 13
70.34916381488698
 23
122.931294277531
 33
0.0
  0
MTEXT
  5
28D
330
285
100
AcDbEntity
  8
치수문자_일반주서
 62
     0
100
AcDbMText
 10
57.395759541819
 20
127.306294277531
 30
0.0
 40
3.5
 41
0.0
 71
     2
 72
     1
  1
\A1;26.00 [1.02]
  7
SLDTEXTSTYLE0
 73
     1
 44
1.0
  0
POINT
  5
28E
330
285
100
AcDbEntity
  8
Defpoints
 62
     0
100
AcDbPoint
 10
44.34920567911574
 20
89.5882672044842
 30
0.0
  0
POINT
  5
28F
330
285
100
AcDbEntity
  8
Defpoints
 62
     0
100
AcDbPoint
 10
70.34916381488698
 20
97.25181468826906
 30
0.0
  0
POINT
  5
290
330
285
100
AcDbEntity
  8
Defpoints
 62
     0
100
AcDbPoint
 10
70.34916381488698
 20
122.931294277531
 30
0.0
  0
ENDBLK
  5
287
330
285
100
AcDbEntity
  8
0
100
AcDbBlockEnd
  0
BLOCK
  5
292
330
291
100
AcDbEntity
  8
0
100
AcDbBlockBegin
  2
*D15
 70
     1
 10
0.0
 20
0.0
 30
0.0
  3
*D15
  1
*D15
  0
LINE
  5
294
330
291
100
AcDbEntity
  8
치수문자_일반주서
 62
     0
370
    -2
100
AcDbLine
 10
-12.21333618511303
 20
97.25181468826906
 30
0.0
 11
-27.6508361851131
 21
97.25181468826901
 31
0.0
  0
LINE
  5
295
330
291
100
AcDbEntity
  8
치수문자_일반주서
 62
     0
370
    -2
100
AcDbLine
 10
-12.21333618511303
 20
83.25181468826906
 30
0.0
 11
-27.65083618511305
 21
83.25181468826901
 31
0.0
  0
LINE
  5
296
330
291
100
AcDbEntity
  8
치수문자_일반주서
 62
     0
370
    -2
100
AcDbLine
 10
-27.6508361851131
 20
97.25181468826901
 30
0.0
 11
-27.65083618511305
 21
83.25181468826901
 31
0.0
  0
LINE
  5
297
330
291
100
AcDbEntity
  8
치수문자_일반주서
 62
     0
370
    -2
100
AcDbLine
 10
-27.65083618511311
 20
100.553814688269
 30
0.0
 11
-27.65083618511312
 21
103.855814688269
 31
0.0
  0
LINE
  5
298
330
291
100
AcDbEntity
  8
치수문자_일반주서
 62
     0
370
    -2
100
AcDbLine
 10
-27.65083618511304
 20
79.94981468826902
 30
0.0
 11
-27.65083618511303
 21
76.64781468826902
 31
0.0
  0
SOLID
  5
299
330
291
100
AcDbEntity
  8
치수문자_일반주서
 62
     0
100
AcDbTrace
 10
-28.20116951844644
 20
100.553814688269
 30
0.0
 11
-27.10050285177977
 21
100.553814688269
 31
0.0
 12
-27.6508361851131
 22
97.25181468826901
 32
0.0
 13
-27.6508361851131
 23
97.25181468826901
 33
0.0
  0
SOLID
  5
29A
330
291
100
AcDbEntity
  8
치수문자_일반주서
 62
     0
100
AcDbTrace
 10
-27.1005028517797
 20
79.94981468826902
 30
0.0
 11
-28.20116951844637
 21
79.94981468826902
 31
0.0
 12
-27.65083618511305
 22
83.25181468826901
 32
0.0
 13
-27.65083618511305
 23
83.25181468826901
 33
0.0
  0
MTEXT
  5
29B
330
291
100
AcDbEntity
  8
치수문자_일반주서
 62
     0
100
AcDbMText
 10
-32.02583618511307
 20
90.25181468826905
 30
0.0
 40
3.5
 41
0.0
 71
     2
 72
     1
  1
\A1;%%c14 [0.55]
  7
SLDTEXTSTYLE0
 11
-3.552713678800501E-15
 21
1.0
 31
0.0
 73
     1
 44
1.0
  0
POINT
  5
29C
330
291
100
AcDbEntity
  8
Defpoints
 62
     0
100
AcDbPoint
 10
-12.15083618511303
 20
97.25181468826906
 30
0.0
  0
POINT
  5
29D
330
291
100
AcDbEntity
  8
Defpoints
 62
     0
100
AcDbPoint
 10
-12.15083618511303
 20
83.25181468826906
 30
0.0
  0
POINT
  5
29E
330
291
100
AcDbEntity
  8
Defpoints
 62
     0
100
AcDbPoint
 10
-27.65083618511305
 20
83.25181468826901
 30
0.0
  0
ENDBLK
  5
293
330
291
100
AcDbEntity
  8
0
100
AcDbBlockEnd
  0
BLOCK
  5
2A0
330
29F
100
AcDbEntity
  8
0
100
AcDbBlockBegin
  2
*D16
 70
     1
 10
0.0
 20
0.0
 30
0.0
  3
*D16
  1
*D16
  0
LINE
  5
2A2
330
29F
100
AcDbEntity
  8
치수문자_일반주서
 62
     0
370
    -2
100
AcDbLine
 10
70.41166381488699
 20
97.25181468826906
 30
0.0
 11
85.34916381488699
 21
97.25181468826912
 31
0.0
  0
LINE
  5
2A3
330
29F
100
AcDbEntity
  8
치수문자_일반주서
 62
     0
370
    -2
100
AcDbLine
 10
70.41166381488698
 20
83.25181468826906
 30
0.0
 11
85.34916381488704
 21
83.25181468826912
 31
0.0
  0
LINE
  5
2A4
330
29F
100
AcDbEntity
  8
치수문자_일반주서
 62
     0
370
    -2
100
AcDbLine
 10
85.34916381488699
 20
97.25181468826912
 30
0.0
 11
85.34916381488704
 21
83.25181468826912
 31
0.0
  0
LINE
  5
2A5
330
29F
100
AcDbEntity
  8
치수문자_일반주서
 62
     0
370
    -2
100
AcDbLine
 10
85.34916381488698
 20
100.5538146882691
 30
0.0
 11
85.34916381488696
 21
103.8558146882691
 31
0.0
  0
LINE
  5
2A6
330
29F
100
AcDbEntity
  8
치수문자_일반주서
 62
     0
370
    -2
100
AcDbLine
 10
85.34916381488705
 20
79.94981468826913
 30
0.0
 11
85.34916381488706
 21
76.64781468826914
 31
0.0
  0
SOLID
  5
2A7
330
29F
100
AcDbEntity
  8
치수문자_일반주서
 62
     0
100
AcDbTrace
 10
84.79883048155365
 20
100.5538146882691
 30
0.0
 11
85.8994971482203
 21
100.5538146882691
 31
0.0
 12
85.34916381488699
 22
97.25181468826912
 32
0.0
 13
85.34916381488699
 23
97.25181468826912
 33
0.0
  0
SOLID
  5
2A8
330
29F
100
AcDbEntity
  8
치수문자_일반주서
 62
     0
100
AcDbTrace
 10
85.89949714822038
 20
79.94981468826913
 30
0.0
 11
84.79883048155372
 21
79.94981468826913
 31
0.0
 12
85.34916381488704
 22
83.25181468826912
 32
0.0
 13
85.34916381488704
 23
83.25181468826912
 33
0.0
  0
MTEXT
  5
2A9
330
29F
100
AcDbEntity
  8
치수문자_일반주서
 62
     0
100
AcDbMText
 10
80.974163814887
 20
90.31751906998211
 30
0.0
 40
3.5
 41
0.0
 71
     2
 72
     1
  1
\A1;%%c14 [0.55]
  7
SLDTEXTSTYLE0
 11
-3.045183153257572E-15
 21
1.0
 31
0.0
 73
     1
 44
1.0
  0
POINT
  5
2AA
330
29F
100
AcDbEntity
  8
Defpoints
 62
     0
100
AcDbPoint
 10
70.34916381488699
 20
97.25181468826906
 30
0.0
  0
POINT
  5
2AB
330
29F
100
AcDbEntity
  8
Defpoints
 62
     0
100
AcDbPoint
 10
70.34916381488698
 20
83.25181468826906
 30
0.0
  0
POINT
  5
2AC
330
29F
100
AcDbEntity
  8
Defpoints
 62
     0
100
AcDbPoint
 10
85.34916381488704
 20
83.25181468826912
 30
0.0
  0
ENDBLK
  5
2A1
330
29F
100
AcDbEntity
  8
0
100
AcDbBlockEnd
  0
BLOCK
  5
2AE
330
2AD
100
AcDbEntity
  8
0
100
AcDbBlockBegin
  2
*D17
 70
     1
 10
0.0
 20
0.0
 30
0.0
  3
*D17
  1
*D17
  0
LINE
  5
2B0
330
2AD
100
AcDbEntity
  8
치수문자_일반주서
 62
     0
370
    -2
100
AcDbLine
 10
71.83993899655647
 20
80.51267619539033
 30
0.0
 11
87.59359056183413
 21
54.88031968505
 31
0.0
  0
MTEXT
  5
2B1
330
2AD
100
AcDbEntity
  8
치수문자_일반주서
 62
     0
100
AcDbMText
 10
83.64480221631484
 20
66.3185385958897
 30
0.0
 40
3.5
 41
0.0
 71
     5
 72
     1
  1
\A1;R.5 [R0.02]
  7
SLDTEXTSTYLE0
 11
0.5236126201129684
 21
-0.8519564684057703
 31
0.0
 73
     1
 44
1.0
  0
LINE
  5
2B2
330
2AD
100
AcDbEntity
  8
치수문자_일반주서
 62
     0
370
    -2
100
AcDbLine
 10
69.84916381488696
 20
83.75181468826906
 30
0.0
 11
70.11097012494345
 21
83.32583645406618
 31
0.0
  0
SOLID
  5
2B3
330
2AD
100
AcDbEntity
  8
치수문자_일반주서
 62
     0
100
AcDbTrace
 10
72.30879903966911
 20
80.8008376739925
 30
0.0
 11
71.37107895344383
 21
80.22451471678815
 31
0.0
 12
70.11097012494345
 22
83.32583645406618
 32
0.0
 13
70.11097012494345
 23
83.32583645406618
 33
0.0
  0
POINT
  5
2B4
330
2AD
100
AcDbEntity
  8
Defpoints
 62
     0
100
AcDbPoint
 10
70.11097012494345
 20
83.32583645406618
 30
0.0
  0
POINT
  5
2B5
330
2AD
100
AcDbEntity
  8
Defpoints
 62
     0
100
AcDbPoint
 10
69.84916381488696
 20
83.75181468826906
 30
0.0
  0
ENDBLK
  5
2AF
330
2AD
100
AcDbEntity
  8
0
100
AcDbBlockEnd
  0
ENDSEC
  0
SECTION
  2
ENTITIES
  0
ARC
  5
96
330
1F
100
AcDbEntity
  8
0
  6
Continuous
 62
     1
370
    15
100
AcDbCircle
 10
80.26249999999993
 20
0.000000000000008
 30
0.0
 40
7.937500000000043
100
AcDbArc
 50
334.6354719270866
 51
0.0
  0
ARC
  5
97
330
1F
100
AcDbEntity
  8
0
  6
Continuous
 62
     1
370
    15
100
AcDbCircle
 10
80.26249999999993
 20
0.000000000000008
 30
0.0
 40
7.937500000000044
100
AcDbArc
 50
270.0000000000008
 51
287.4251262186973
  0
ARC
  5
98
330
1F
100
AcDbEntity
  8
0
  6
Continuous
 62
     1
370
    15
100
AcDbCircle
 10
80.26249999999993
 20
0.000000000000008
 30
0.0
 40
7.937500000000031
100
AcDbArc
 50
72.59827694012742
 51
90.0
  0
ARC
  5
99
330
1F
100
AcDbEntity
  8
0
  6
Continuous
 62
     1
370
    15
100
AcDbCircle
 10
80.26249999999993
 20
0.000000000000008
 30
0.0
 40
7.937500000000043
100
AcDbArc
 50
0.0
 51
25.36135429457399
  0
LINE
  5
9A
330
1F
100
AcDbEntity
  8
0
  6
Continuous
 62
     1
370
    15
100
AcDbLine
 10
56.36903189072169
 20
-7.937500000000026
 30
0.0
 11
61.20887650695381
 21
-7.937500000000026
 31
0.0
  0
LINE
  5
9B
330
1F
100
AcDbEntity
  8
0
  6
Continuous
 62
     1
370
    15
100
AcDbLine
 10
18.01810618526781
 20
7.937500000000017
 30
0.0
 11
13.1790854218694
 21
7.937500000000017
 31
0.0
  0
LINE
  5
9C
330
1F
100
AcDbEntity
  8
0
  6
Continuous
 62
     1
370
    15
100
AcDbLine
 10
77.96437166833945
 20
-7.937500000000026
 30
0.0
 11
80.26249999999993
 21
-7.937500000000026
 31
0.0
  0
LINE
  5
9D
330
1F
100
AcDbEntity
  8
0
  6
Continuous
 62
     1
370
    15
100
AcDbLine
 10
39.61332168852844
 20
7.937500000000017
 30
0.0
 11
34.77393546746721
 21
7.937500000000017
 31
0.0
  0
LINE
  5
9E
330
1F
100
AcDbEntity
  8
0
  6
Continuous
 62
     1
370
    15
100
AcDbLine
 10
34.77393546746733
 20
-7.937500000000026
 30
0.0
 11
39.61332168852847
 21
-7.937500000000026
 31
0.0
  0
LINE
  5
9F
330
1F
100
AcDbEntity
  8
0
  6
Continuous
 62
     1
370
    15
100
AcDbLine
 10
80.26249999999993
 20
7.937500000000017
 30
0.0
 11
77.96437166833961
 21
7.937500000000017
 31
0.0
  0
LINE
  5
A0
330
1F
100
AcDbEntity
  8
0
  6
Continuous
 62
     1
370
    15
100
AcDbLine
 10
13.17908542186938
 20
-7.937500000000026
 30
0.0
 11
18.01810618526799
 21
-7.937500000000026
 31
0.0
  0
LINE
  5
A1
330
1F
100
AcDbEntity
  8
0
  6
Continuous
 62
     1
370
    15
100
AcDbLine
 10
61.20887650695387
 20
7.937500000000017
 30
0.0
 11
56.36903189072166
 21
7.937500000000017
 31
0.0
  0
LINE
  5
A2
330
1F
100
AcDbEntity
  8
외형선
  6
Continuous
370
    15
100
AcDbLine
 10
-62.6125
 20
-7.937500000000001
 30
0.0
 11
12.0
 21
-7.937500000000001
 31
0.0
  0
LINE
  5
A3
330
1F
100
AcDbEntity
  8
외형선
  6
Continuous
370
    15
100
AcDbLine
 10
12.0
 20
7.937499999999992
 30
0.0
 11
-62.6125
 21
7.937499999999992
 31
0.0
  0
LINE
  5
A4
330
1F
100
AcDbEntity
  8
외형선
  6
Continuous
370
    15
100
AcDbLine
 10
-62.6125
 20
7.937499999999996
 30
0.0
 11
-64.2
 21
6.35
 31
0.0
  0
LINE
  5
A5
330
1F
100
AcDbEntity
  8
외형선
  6
Continuous
370
    15
100
AcDbLine
 10
-64.2
 20
-6.350000000000009
 30
0.0
 11
-62.6125
 21
-7.937500000000004
 31
0.0
  0
SPLINE
  5
A6
330
1F
100
AcDbEntity
  8
0
  6
Continuous
 62
     1
370
    15
100
AcDbSpline
210
0.0
220
0.0
230
1.0
 70
     8
 71
     3
 72
    27
 73
    23
 74
     0
 42
0.000000001
 43
0.00000001
 40
0.0
 40
0.0
 40
0.0
 40
0.0
 40
0.0374281208941483
 40
0.0902032115432888
 40
0.1429783764114405
 40
0.1957536141475131
 40
0.2485289233995189
 40
0.3013043028145967
 40
0.3540797510390199
 40
0.4068552667182198
 40
0.4596308484967985
 40
0.5124064950185472
 40
0.5651822049264594
 40
0.617957976862753
 40
0.6707338094688812
 40
0.7235097013855513
 40
0.7762856512527417
 40
0.8290616577097196
 40
0.882936763854452
 40
0.9368125140026279
 40
0.9906888457135027
 40
1.0
 40
1.0
 40
1.0
 40
1.0
 10
26.39824370928542
 20
6.482483812191338
 30
0.0
 10
27.04158123435712
 20
6.69331762423002
 30
0.0
 10
28.59204942462229
 20
7.201435223870893
 30
0.0
 10
31.04965046124262
 20
7.692282203642848
 30
0.0
 10
33.77104792183943
 20
7.969781616804075
 30
0.0
 10
36.49244991870405
 20
7.926793494577446
 30
0.0
 10
39.21385633228527
 20
7.576682972475806
 30
0.0
 10
41.93526708851611
 20
6.929992187738773
 30
0.0
 10
44.6566821012761
 20
6.012817201035411
 30
0.0
 10
47.3781012868413
 20
4.860754513602118
 30
0.0
 10
50.0995245636293
 20
3.51885937919918
 30
0.0
 10
52.8209518387747
 20
2.039526220924925
 30
0.0
 10
55.54238306208921
 20
0.4805333696402982
 30
0.0
 10
58.26381802365168
 20
-1.097217917824984
 30
0.0
 10
60.98525710949546
 20
-2.632155666081712
 30
0.0
 10
63.70669848127037
 20
-4.064143184818587
 30
0.0
 10
66.42814860193108
 20
-5.337949422761468
 30
0.0
 10
69.16847397068169
 20
-6.408599293868357
 30
0.0
 10
71.92777760806393
 20
-7.238365980132154
 30
0.0
 10
74.7059835100514
 20
-7.749733185606837
 30
0.0
 10
76.71818750112631
 20
-7.971321012837706
 30
0.0
 10
77.8043215900914
 20
-7.921689768560309
 30
0.0
 10
77.96437166833945
 20
-7.914376229089586
 30
0.0
  0
SPLINE
  5
A7
330
1F
100
AcDbEntity
  8
0
  6
Continuous
 62
     1
370
    15
100
AcDbSpline
210
0.0
220
0.0
230
1.0
 70
     8
 71
     3
 72
    27
 73
    23
 74
     0
 42
0.000000001
 43
0.00000001
 40
0.0
 40
0.0
 40
0.0
 40
0.0
 40
0.0085210296082122
 40
0.0612919207833346
 40
0.1140627553741561
 40
0.1668335320200733
 40
0.2196042493611961
 40
0.2723749060383665
 40
0.3251455006931669
 40
0.3779160319679472
 40
0.4306864985058328
 40
0.4834568989507464
 40
0.5362272319474213
 40
0.5889974961414193
 40
0.6417676901791473
 40
0.6945378127078725
 40
0.7473078623757404
 40
0.8000778378317899
 40
0.8528477377259697
 40
0.905617560709157
 40
0.958387305433169
 40
0.9999999999999999
 40
0.9999999999999999
 40
0.9999999999999999
 40
0.9999999999999999
 10
69.5890395009457
 20
-6.491090372645451
 30
0.0
 10
69.44255751068621
 20
-6.544940564321871
 30
0.0
 10
68.38890989344085
 20
-6.932285971409476
 30
0.0
 10
66.42815106929562
 20
-7.406078414794444
 30
0.0
 10
63.70669782014313
 20
-7.862000492714989
 30
0.0
 10
60.98525728664367
 20
-7.987390296810749
 30
0.0
 10
58.263817976185
 20
-7.807106813369072
 30
0.0
 10
55.54238307480799
 20
-7.320218695376171
 30
0.0
 10
52.82095183536626
 20
-6.54787896267776
 30
0.0
 10
50.09952456454421
 20
-5.519680600648464
 30
0.0
 10
47.37810128658998
 20
-4.275935210075625
 30
0.0
 10
44.6566821013665
 20
-2.865178749214885
 30
0.0
 10
41.93526708840605
 20
-1.342520522952158
 30
0.0
 10
39.21385633263532
 20
0.2325681052846302
 30
0.0
 10
36.49244991741412
 20
1.798585601065631
 30
0.0
 10
33.77104792664908
 20
3.294306906024043
 30
0.0
 10
31.04965044329388
 20
4.661547116228683
 30
0.0
 10
28.32825755322805
 20
5.846039571773032
 30
0.0
 10
25.60686933123545
 20
6.804760406378207
 30
0.0
 10
22.88548589320512
 20
7.48818285648241
 30
0.0
 10
20.35589855413343
 20
7.88465049005702
 30
0.0
 10
18.73343942585338
 20
7.903363847822583
 30
0.0
 10
18.01810618526784
 20
7.911614463581926
 30
0.0
  0
LINE
  5
A8
330
1F
100
AcDbEntity
  8
0
  6
Continuous
 62
     1
370
    15
100
AcDbLine
 10
12.00000000000003
 20
-7.908310570256091
 30
0.0
 11
13.17908542186938
 21
-7.899347621432661
 31
0.0
  0
SPLINE
  5
A9
330
1F
100
AcDbEntity
  8
0
  6
Continuous
 62
     1
370
    15
100
AcDbSpline
210
0.0
220
0.0
230
1.0
 70
     8
 71
     3
 72
    19
 73
    15
 74
     0
 42
0.000000001
 43
0.00000001
 40
0.0
 40
0.0
 40
0.0
 40
0.0
 40
0.0652612396956702
 40
0.149597884325814
 40
0.2339346302484422
 40
0.3182714752937889
 40
0.4026084172908664
 40
0.4869454540674954
 40
0.5712825834503312
 40
0.6556198032648929
 40
0.7417134085695126
 40
0.8278080430058088
 40
0.9139036067920967
 40
1.0
 40
1.0
 40
1.0
 40
1.0
 10
47.99363380537899
 20
6.486465594940537
 30
0.0
 10
48.69559702526747
 20
6.712815262322517
 30
0.0
 10
50.30470241553516
 20
7.231675025270641
 30
0.0
 10
52.82095185213097
 20
7.719703849830361
 30
0.0
 10
55.54238305852752
 20
7.976408955448973
 30
0.0
 10
58.26381802454219
 20
7.913440280475835
 30
0.0
 10
60.98525710949504
 20
7.543578593972996
 30
0.0
 10
63.70669848038141
 20
6.87851086230164
 30
0.0
 10
66.42814860548732
 20
5.944923081227364
 30
0.0
 10
69.16847395722853
 20
4.771100201322102
 30
0.0
 10
71.92777765945549
 20
3.397628604122878
 30
0.0
 10
74.70598331837917
 20
1.877521659287812
 30
0.0
 10
77.48422950508727
 20
0.2771380924334349
 30
0.0
 10
79.33640686114657
 20
-0.7877039565992249
 30
0.0
 10
80.26249999999993
 20
-1.320127545704017
 30
0.0
  0
SPLINE
  5
AA
330
1F
100
AcDbEntity
  8
0
  6
Continuous
 62
     1
370
    15
100
AcDbSpline
210
0.0
220
0.0
230
1.0
 70
     8
 71
     3
 72
    52
 73
    48
 74
     0
 42
0.000000001
 43
0.00000001
 40
0.0
 40
0.0
 40
0.0
 40
0.0
 40
0.0624999999999945
 40
0.0624999999999945
 40
0.0937499999999934
 40
0.0937499999999934
 40
0.1249999999999923
 40
0.1249999999999923
 40
0.1874999999999933
 40
0.1874999999999933
 40
0.2187499999999922
 40
0.2187499999999922
 40
0.2499999999999912
 40
0.2499999999999912
 40
0.3124999999999892
 40
0.3124999999999892
 40
0.3749999999999872
 40
0.3749999999999872
 40
0.4374999999999852
 40
0.4374999999999852
 40
0.4687499999999843
 40
0.4687499999999843
 40
0.4999999999999832
 40
0.4999999999999832
 40
0.5312499999999822
 40
0.5312499999999822
 40
0.5624999999999812
 40
0.5624999999999812
 40
0.5937499999999802
 40
0.5937499999999802
 40
0.6249999999999791
 40
0.6249999999999791
 40
0.6562499999999781
 40
0.6562499999999781
 40
0.687499999999977
 40
0.687499999999977
 40
0.7499999999999775
 40
0.7499999999999775
 40
0.7812499999999791
 40
0.7812499999999791
 40
0.8124999999999808
 40
0.8124999999999808
 40
0.8749999999999871
 40
0.8749999999999871
 40
0.9374999999999936
 40
0.9374999999999936
 40
1.0
 40
1.0
 40
1.0
 40
1.0
 10
80.26249999999993
 20
-1.320127545704024
 30
0.0
 10
80.66580633583796
 20
-1.54956387295856
 30
0.0
 10
81.06747455551428
 20
-1.761121879829025
 30
0.0
 10
81.67163334535711
 20
-2.045056115849809
 30
0.0
 10
81.87327014343374
 20
-2.134151537389985
 30
0.0
 10
82.2774453948223
 20
-2.300304330790188
 30
0.0
 10
82.4811958275365
 20
-2.377584346652647
 30
0.0
 10
83.08521637034173
 20
-2.585378200284473
 30
0.0
 10
83.4774410551325
 20
-2.692325975969204
 30
0.0
 10
84.04933879336235
 20
-2.809914770569559
 30
0.0
 10
84.23718878053211
 20
-2.841985298231009
 30
0.0
 10
84.60665714645482
 20
-2.892909719834691
 30
0.0
 10
84.78831208028576
 20
-2.911754273869161
 30
0.0
 10
85.31223981699318
 20
-2.94976610335316
 30
0.0
 10
85.63765749087507
 20
-2.950366685951757
 30
0.0
 10
86.23403603716848
 20
-2.926291641248587
 30
0.0
 10
86.5059754107347
 20
-2.901162015500075
 30
0.0
 10
86.96527345574923
 20
-2.861136625256656
 30
0.0
 10
87.1563844180666
 20
-2.845603813849645
 30
0.0
 10
87.36622698527597
 20
-2.868228349405628
 30
0.0
 10
87.42220125427744
 20
-2.883509843932084
 30
0.0
 10
87.50338485002824
 20
-2.937547552830281
 30
0.0
 10
87.5286564252702
 20
-2.97688835063977
 30
0.0
 10
87.54223920766738
 20
-3.086788212397088
 30
0.0
 10
87.5310165692127
 20
-3.156847768354369
 30
0.0
 10
87.46816310179359
 20
-3.336111581438607
 30
0.0
 10
87.41677236114911
 20
-3.443812757815909
 30
0.0
 10
87.27695776467922
 20
-3.691127725941945
 30
0.0
 10
87.18624852647159
 20
-3.834395830270028
 30
0.0
 10
86.97526366909479
 20
-4.140448171110574
 30
0.0
 10
86.85411307843499
 20
-4.304800010353906
 30
0.0
 10
86.58736217531818
 20
-4.644863209851723
 30
0.0
 10
86.44465908929497
 20
-4.816998215822143
 30
0.0
 10
86.14104980751326
 20
-5.162761482494973
 30
0.0
 10
85.98232868509685
 20
-5.333712762650127
 30
0.0
 10
85.49593008659643
 20
-5.827253782106508
 30
0.0
 10
85.14919217887912
 20
-6.138659263298225
 30
0.0
 10
84.62393754446323
 20
-6.545213812452066
 30
0.0
 10
84.44688367981817
 20
-6.671817965172926
 30
0.0
 10
84.08721734069222
 20
-6.907336565313372
 30
0.0
 10
83.9035725447109
 20
-7.0167457142881
 30
0.0
 10
83.35228390376065
 20
-7.312336668091372
 30
0.0
 10
82.98293556972955
 20
-7.467597519246405
 30
0.0
 10
82.22856743253234
 20
-7.699854737475112
 30
0.0
 10
81.8407767043056
 20
-7.776595543446253
 30
0.0
 10
81.06008571400555
 20
-7.848570480382769
 30
0.0
 10
80.66560643916945
 20
-7.844916658249684
 30
0.0
 10
80.2624999999999
 20
-7.802152851175826
 30
0.0
  0
SPLINE
  5
AB
330
1F
100
AcDbEntity
  8
0
  6
Continuous
 62
     1
370
    15
100
AcDbSpline
210
0.0
220
0.0
230
1.0
 70
     8
 71
     3
 72
    22
 73
    18
 74
     0
 42
0.000000001
 43
0.00000001
 40
0.0
 40
0.0
 40
0.0
 40
0.0
 40
0.0683464800470283
 40
0.1366923016687059
 40
0.2050373855382173
 40
0.2733816524451942
 40
0.3403316360218421
 40
0.4072815478104655
 40
0.4742313860848787
 40
0.5411811491198005
 40
0.6081308351908787
 40
0.6750804425747003
 40
0.742029969548826
 40
0.808979414391801
 40
0.8759287753831807
 40
0.9428780508035502
 40
1.0
 40
1.0
 40
1.0
 40
1.0
 10
80.26249999999987
 20
-7.802152851175809
 30
0.0
 10
79.33640686114657
 20
-7.673075121128424
 30
0.0
 10
77.48422950508736
 20
-7.414920904521974
 30
0.0
 10
74.70598331837874
 20
-6.640838716840378
 30
0.0
 10
71.92777765945685
 20
-5.619301256717168
 30
0.0
 10
69.16847395722337
 20
-4.371486641926077
 30
0.0
 10
66.42814860550605
 20
-2.960543184918091
 30
0.0
 10
63.7066984803113
 20
-1.443262804876776
 30
0.0
 10
60.98525710975662
 20
0.1302667066287873
 30
0.0
 10
58.26381802356619
 20
1.698750393331786
 30
0.0
 10
55.54238306217009
 20
3.200834407769944
 30
0.0
 10
52.8209518385367
 20
4.578066552810459
 30
0.0
 10
50.09952456450026
 20
5.775894542457239
 30
0.0
 10
47.37810128359544
 20
6.750371076598017
 30
0.0
 10
44.6566821133885
 20
7.452857122850574
 30
0.0
 10
42.0684225613999
 20
7.873746445357473
 30
0.0
 10
40.38730309401367
 20
7.904092134456368
 30
0.0
 10
39.61332168852844
 20
7.918063181460956
 30
0.0
  0
SPLINE
  5
AC
330
1F
100
AcDbEntity
  8
0
  6
Continuous
 62
     1
370
    15
100
AcDbSpline
210
0.0
220
0.0
230
1.0
 70
     8
 71
     3
 72
    16
 73
    12
 74
     0
 42
0.000000001
 43
0.00000001
 40
0.0
 40
0.0
 40
0.0
 40
0.0
 40
0.1194947900142109
 40
0.2389897663892953
 40
0.3584849260789624
 40
0.4779802660346834
 40
0.5974757832057143
 40
0.716971474539143
 40
0.8364673369799253
 40
0.9559633674709116
 40
1.0
 40
1.0
 40
1.0
 40
1.0
 10
12.00000000000003
 20
0.6800957097175713
 30
0.0
 10
12.90712114430804
 20
0.1557149346418427
 30
0.0
 10
14.72136484764589
 20
-0.8930474333198243
 30
0.0
 10
17.44273357956419
 20
-2.438454692019522
 30
0.0
 10
20.16410725817465
 20
-3.886615351387895
 30
0.0
 10
22.88548587743321
 20
-5.183882032847666
 30
0.0
 10
25.60686933749162
 20
-6.277092567729095
 30
0.0
 10
28.3282575439751
 20
-7.130619905867031
 30
0.0
 10
31.04965047404943
 20
-7.685343540349368
 30
0.0
 10
33.19821021953591
 20
-7.946134812736561
 30
0.0
 10
34.4396392338824
 20
-7.910848092961341
 30
0.0
 10
34.77393546746733
 20
-7.90134596486533
 30
0.0
  0
SPLINE
  5
AD
330
1F
100
AcDbEntity
  8
0
  6
Continuous
 62
     1
370
    15
100
AcDbSpline
210
0.0
220
0.0
230
1.0
 70
     8
 71
     3
 72
    11
 73
     7
 74
     0
 42
0.000000001
 43
0.00000001
 40
0.0
 40
0.0
 40
0.0
 40
0.0
 40
0.2191166885395443
 40
0.479408416674746
 40
0.7397029545334219
 40
1.0
 40
1.0
 40
1.0
 40
1.0
 10
69.5890395009458
 20
6.49109037264544
 30
0.0
 10
70.3686141805966
 20
6.738088766042166
 30
0.0
 10
72.07425634478828
 20
7.278499948270128
 30
0.0
 10
74.70598425434444
 20
7.759743266035852
 30
0.0
 10
77.4842292710923
 20
8.002289669344677
 30
0.0
 10
79.33640678314799
 20
7.885397732621014
 30
0.0
 10
80.26249999999993
 20
7.826951482734128
 30
0.0
  0
SPLINE
  5
AE
330
1F
100
AcDbEntity
  8
0
  6
Continuous
 62
     1
370
    15
100
AcDbSpline
210
0.0
220
0.0
230
1.0
 70
     8
 71
     3
 72
    52
 73
    48
 74
     0
 42
0.000000001
 43
0.00000001
 40
0.0
 40
0.0
 40
0.0
 40
0.0
 40
0.0624999999999985
 40
0.0624999999999985
 40
0.0937499999999961
 40
0.0937499999999961
 40
0.1249999999999937
 40
0.1249999999999937
 40
0.1874999999999922
 40
0.1874999999999922
 40
0.218749999999993
 40
0.218749999999993
 40
0.2499999999999938
 40
0.2499999999999938
 40
0.3124999999999926
 40
0.3124999999999926
 40
0.3749999999999913
 40
0.3749999999999913
 40
0.43749999999999
 40
0.43749999999999
 40
0.4687499999999893
 40
0.4687499999999893
 40
0.4999999999999887
 40
0.4999999999999887
 40
0.531249999999988
 40
0.531249999999988
 40
0.5624999999999875
 40
0.5624999999999875
 40
0.5937499999999868
 40
0.5937499999999868
 40
0.6249999999999861
 40
0.6249999999999861
 40
0.6562499999999856
 40
0.6562499999999856
 40
0.6874999999999849
 40
0.6874999999999849
 40
0.7499999999999862
 40
0.7499999999999862
 40
0.7812499999999868
 40
0.7812499999999868
 40
0.8124999999999875
 40
0.8124999999999875
 40
0.8749999999999916
 40
0.8749999999999916
 40
0.9374999999999958
 40
0.9374999999999958
 40
1.0
 40
1.0
 40
1.0
 40
1.0
 10
80.26249999999993
 20
7.826951482734142
 30
0.0
 10
80.66580633583798
 20
7.78825375779462
 30
0.0
 10
81.06747455551434
 20
7.711362233296298
 30
0.0
 10
81.67163334535711
 20
7.542458408003661
 30
0.0
 10
81.87327014343377
 20
7.477164917119254
 30
0.0
 10
82.27744539482227
 20
7.328422304899819
 30
0.0
 10
82.48119582753641
 20
7.244456741456973
 30
0.0
 10
83.08521637034161
 20
6.969007176188293
 30
0.0
 10
83.47744105513233
 20
6.755031903992601
 30
0.0
 10
84.04933879336235
 20
6.38912285966739
 30
0.0
 10
84.23718878053208
 20
6.259595700546606
 30
0.0
 10
84.60665714645474
 20
5.984725700610029
 30
0.0
 10
84.78831208028568
 20
5.839180377440663
 30
0.0
 10
85.31223981699307
 20
5.386701276027497
 30
0.0
 10
85.63765749087504
 20
5.061586915005337
 30
0.0
 10
86.23403603716842
 20
4.358235688738541
 30
0.0
 10
86.50597541073476
 20
3.977286661862188
 30
0.0
 10
86.96527345574937
 20
3.178562670103394
 30
0.0
 10
87.15638441806648
 20
2.756435271145751
 30
0.0
 10
87.36622698527589
 20
2.090100105640189
 30
0.0
 10
87.42220125427744
 20
1.865879053387585
 30
0.0
 10
87.50338485002827
 20
1.413455579746905
 30
0.0
 10
87.5286564252702
 20
1.182795132236118
 30
0.0
 10
87.54223920766741
 20
0.7314597553302823
 30
0.0
 10
87.5310165692127
 20
0.5112565411831156
 30
0.0
 10
87.46816310179362
 20
0.0847524632523122
 30
0.0
 10
87.4167723611492
 20
-0.1165224544654049
 30
0.0
 10
87.27695776467931
 20
-0.4795781366018059
 30
0.0
 10
87.18624852647162
 20
-0.6456743134024904
 30
0.0
 10
86.97526366909476
 20
-0.9237278956632523
 30
0.0
 10
86.85411307843493
 20
-1.038213887754366
 30
0.0
 10
86.58736217531808
 20
-1.216518970941163
 30
0.0
 10
86.44465908929489
 20
-1.279014120997328
 30
0.0
 10
86.14104980751323
 20
-1.359038621139809
 30
0.0
 10
85.98232868509679
 20
-1.375620714515001
 30
0.0
 10
85.4959300865964
 20
-1.368086848010717
 30
0.0
 10
85.14919217887906
 20
-1.285921775881923
 30
0.0
 10
84.62393754446319
 20
-1.093202445320078
 30
0.0
 10
84.44688367981826
 20
-1.017419616252189
 30
0.0
 10
84.08721734069222
 20
-0.8471146635260944
 30
0.0
 10
83.90357254471093
 20
-0.7519665521504358
 30
0.0
 10
83.35228390376068
 20
-0.4489796120983973
 30
0.0
 10
82.98293556972955
 20
-0.2236706133433023
 30
0.0
 10
82.22856743253229
 20
0.2502535000676082
 30
0.0
 10
81.84077670430543
 20
0.5010800165416005
 30
0.0
 10
81.0600857140055
 20
0.9905933716504364
 30
0.0
 10
80.66560643916937
 20
1.230964566357771
 30
0.0
 10
80.2624999999999
 20
1.459560597196912
 30
0.0
  0
SPLINE
  5
AF
330
1F
100
AcDbEntity
  8
0
  6
Continuous
 62
     1
370
    15
100
AcDbSpline
210
0.0
220
0.0
230
1.0
 70
     8
 71
     3
 72
    14
 73
    10
 74
     0
 42
0.000000001
 43
0.00000001
 40
0.0
 40
0.0
 40
0.0
 40
0.0
 40
0.1458120058133418
 40
0.2916226069263831
 40
0.4374316341014097
 40
0.5832389183491361
 40
0.726071605383846
 40
0.8689041392642776
 40
1.0
 40
1.0
 40
1.0
 40
1.0
 10
80.26249999999996
 20
1.459560597196896
 30
0.0
 10
79.33640686115018
 20
1.979346423515205
 30
0.0
 10
77.4842295050981
 20
3.018913068722548
 30
0.0
 10
74.70598331833598
 20
4.439621634226508
 30
0.0
 10
71.92777765961765
 20
5.683374174484374
 30
0.0
 10
69.168473956628
 20
6.689801651146903
 30
0.0
 10
66.42814860767768
 20
7.416248569485013
 30
0.0
 10
63.78123878245724
 20
7.862426489615509
 30
0.0
 10
62.04148354758222
 20
7.905288340633762
 30
0.0
 10
61.20887650695387
 20
7.925801041625705
 30
0.0
  0
SPLINE
  5
B0
330
1F
100
AcDbEntity
  8
0
  6
Continuous
 62
     1
370
    15
100
AcDbSpline
210
0.0
220
0.0
230
1.0
 70
     8
 71
     3
 72
    13
 73
     9
 74
     0
 42
0.000000001
 43
0.00000001
 40
0.0
 40
0.0
 40
0.0
 40
0.0
 40
0.054963293559264
 40
0.2439712051031253
 40
0.4329788363427815
 40
0.621986182452825
 40
0.8109932386113518
 40
1.0
 40
1.0
 40
1.0
 40
1.0
 10
26.39824370928551
 20
-6.482483812191344
 30
0.0
 10
26.13445184706096
 20
-6.577095139050712
 30
0.0
 10
24.96353186836772
 20
-6.997056133662454
 30
0.0
 10
22.88548591474836
 20
-7.48221617058363
 30
0.0
 10
20.16410724817948
 20
-7.896481057038257
 30
0.0
 10
17.44273358222958
 20
-7.978272800766384
 30
0.0
 10
14.72136484697955
 20
-7.773600329362742
 30
0.0
 10
12.90712114408592
 20
-7.383763814936233
 30
0.0
 10
12.00000000000001
 20
-7.188845709717502
 30
0.0
  0
SPLINE
  5
B1
330
1F
100
AcDbEntity
  8
0
  6
Continuous
 62
     1
370
    15
100
AcDbSpline
210
0.0
220
0.0
230
1.0
 70
     8
 71
     3
 72
    24
 73
    20
 74
     0
 42
0.000000001
 43
0.00000001
 40
0.0
 40
0.0
 40
0.0
 40
0.0
 40
0.0613348878498944
 40
0.122669871356037
 40
0.1840049489548121
 40
0.2453401190814555
 40
0.306675380170066
 40
0.3680107306536296
 40
0.4293461689640376
 40
0.4906816935321011
 40
0.552017302787577
 40
0.6133529951591794
 40
0.6746887690746071
 40
0.7360246229605532
 40
0.7973605552427322
 40
0.8586965643458946
 40
0.9200326486938489
 40
0.9813688067094762
 40
0.9999999999999999
 40
0.9999999999999999
 40
0.9999999999999999
 40
0.9999999999999999
 10
12.00000000000003
 20
7.908310570256083
 30
0.0
 10
12.90712114430453
 20
7.923269432839295
 30
0.0
 10
14.72136484763539
 20
7.95318718133516
 30
0.0
 10
17.44273357960611
 20
7.604682908312713
 30
0.0
 10
20.16410725801767
 20
6.981344977240132
 30
0.0
 10
22.88548587801921
 20
6.079400278175993
 30
0.0
 10
25.60686933530456
 20
4.941609045059199
 30
0.0
 10
28.32825755213744
 20
3.610389731938962
 30
0.0
 10
31.04965044358701
 20
2.138276179322891
 30
0.0
 10
33.77104792656715
 20
0.5826157112997454
 30
0.0
 10
36.49244991744868
 20
-0.9957838899990779
 30
0.0
 10
39.21385633257891
 20
-2.53532609777192
 30
0.0
 10
41.93526708859703
 20
-3.975730973560945
 30
0.0
 10
44.65668210065886
 20
-5.261294358863654
 30
0.0
 10
47.37810128922943
 20
-6.33974448039715
 30
0.0
 10
50.0995245546941
 20
-7.176654798078643
 30
0.0
 10
52.82095187212758
 20
-7.71062250547535
 30
0.0
 10
54.91078803178546
 20
-7.954311896122412
 30
0.0
 10
56.09348194917138
 20
-7.914034093979156
 30
0.0
 10
56.36903189072169
 20
-7.904649970273775
 30
0.0
  0
SPLINE
  5
B2
330
1F
100
AcDbEntity
  8
0
  6
Continuous
 62
     1
370
    15
100
AcDbSpline
210
0.0
220
0.0
230
1.0
 70
     8
 71
     3
 72
    17
 73
    13
 74
     0
 42
0.000000001
 43
0.00000001
 40
0.0
 40
0.0
 40
0.0
 40
0.0
 40
0.0355368898452854
 40
0.1070854526016552
 40
0.227933339679367
 40
0.350660499416703
 40
0.4393257653783397
 40
0.5305305282204056
 40
0.6524479306947748
 40
0.7777810492894803
 40
0.9412654587736172
 40
1.0
 40
1.0
 40
1.0
 40
1.0
 10
87.43151231025013
 20
3.398052259937746
 30
0.0
 10
87.41405128095079
 20
3.436490925784746
 30
0.0
 10
87.361434908681
 20
3.552320474953239
 30
0.0
 10
87.16261573317333
 20
3.876697741948714
 30
0.0
 10
86.78884268391246
 20
4.403834429648712
 30
0.0
 10
86.28532339441406
 20
5.010421064339794
 30
0.0
 10
85.78250199659554
 20
5.545136418376639
 30
0.0
 10
85.25335727237466
 20
6.046896883531823
 30
0.0
 10
84.63555078840008
 20
6.552500861041417
 30
0.0
 10
83.86109188568916
 20
7.055839274032777
 30
0.0
 10
83.19101401325588
 20
7.407261568662707
 30
0.0
 10
82.74726443413478
 20
7.523195111634782
 30
0.0
 10
82.62997728168558
 20
7.553837428311384
 30
0.0
  0
SPLINE
  5
B3
330
1F
100
AcDbEntity
  8
0
  6
Continuous
 62
     1
370
    15
100
AcDbSpline
210
0.0
220
0.0
230
1.0
 70
     8
 71
     3
 72
    21
 73
    17
 74
     0
 42
0.000000001
 43
0.00000001
 40
0.0
 40
0.0
 40
0.0
 40
0.0
 40
0.0171011462228331
 40
0.0927093728138201
 40
0.1683175027665085
 40
0.2439255341402903
 40
0.3195334649957677
 40
0.3951412933947766
 40
0.4707490174004103
 40
0.5463566350770425
 40
0.6219641444903505
 40
0.6975715437073423
 40
0.773178830796372
 40
0.8487860038271684
 40
0.9243930608708619
 40
1.0
 40
1.0
 40
1.0
 40
1.0
 10
47.99363380537901
 20
-6.486465594940547
 30
0.0
 10
47.78845595423722
 20
-6.560897125909166
 30
0.0
 10
46.67613812204154
 20
-6.964408122409476
 30
0.0
 10
44.65668213639353
 20
-7.44512884941904
 30
0.0
 10
41.93526707902197
 20
-7.879374228626853
 30
0.0
 10
39.21385633514458
 20
-7.985191352959233
 30
0.0
 10
36.49244991676125
 20
-7.784678332083027
 30
0.0
 10
33.77104792675138
 20
-7.278639669438845
 30
0.0
 10
31.04965044353763
 20
-6.488718739528798
 30
0.0
 10
28.32825755215074
 20
-5.445279319086727
 30
0.0
 10
25.60686933530102
 20
-4.189148223976946
 30
0.0
 10
22.88548587802013
 20
-2.769579501217671
 30
0.0
 10
20.1641072580174
 20
-1.241167043779341
 30
0.0
 10
17.44273357960615
 20
0.3331917623844503
 30
0.0
 10
14.7213648476354
 20
1.903972487839432
 30
0.0
 10
12.90712114430453
 20
2.878107831490753
 30
0.0
 10
12.00000000000001
 20
3.365175123507867
 30
0.0
  0
LINE
  5
B4
330
1F
100
AcDbEntity
  8
외형선
  6
Continuous
370
    15
100
AcDbLine
 10
12.0
 20
0.6800957097175709
 30
0.0
 11
12.00000000000001
 21
3.365175123507867
 31
0.0
  0
LINE
  5
B5
330
1F
100
AcDbEntity
  8
외형선
  6
Continuous
370
    15
100
AcDbLine
 10
12.0
 20
-7.908310570256091
 30
0.0
 11
12.00000000000001
 21
-7.188845709717501
 31
0.0
  0
LINE
  5
B6
330
1F
100
AcDbEntity
  8
외형선
  6
Continuous
370
    15
100
AcDbLine
 10
12.0
 20
-0.0000000000000044
 30
0.0
 11
12.0
 21
7.937499999999992
 31
0.0
  0
LINE
  5
B7
330
1F
100
AcDbEntity
  8
외형선
  6
Continuous
370
    15
100
AcDbLine
 10
12.0
 20
-7.937500000000001
 30
0.0
 11
12.0
 21
-0.0000000000000044
 31
0.0
  0
LINE
  5
B8
330
1F
100
AcDbEntity
  8
외형선
  6
Continuous
370
    15
100
AcDbLine
 10
-62.6125
 20
-0.0000000000000044
 30
0.0
 11
-62.6125
 21
7.937499999999992
 31
0.0
  0
LINE
  5
B9
330
1F
100
AcDbEntity
  8
외형선
  6
Continuous
370
    15
100
AcDbLine
 10
-62.6125
 20
-7.937500000000001
 30
0.0
 11
-62.6125
 21
-0.0000000000000044
 31
0.0
  0
LINE
  5
BA
330
1F
100
AcDbEntity
  8
외형선
  6
Continuous
370
    15
100
AcDbLine
 10
-64.2
 20
-0.0000000000000044
 30
0.0
 11
-64.2
 21
6.35
 31
0.0
  0
LINE
  5
BB
330
1F
100
AcDbEntity
  8
외형선
  6
Continuous
370
    15
100
AcDbLine
 10
-64.2
 20
-6.350000000000013
 30
0.0
 11
-64.2
 21
-0.0000000000000044
 31
0.0
  0
LINE
  5
BC
330
1F
100
AcDbEntity
  8
중심선
 62
     1
100
AcDbLine
 10
-67.2
 20
-0.0000000000000083
 30
0.0
 11
91.19999999999995
 21
0.0000000000000106
 31
0.0
  0
LINE
  5
BD
330
1F
100
AcDbEntity
  8
참조1
100
AcDbLine
 10
123.825
 20
-0.0000000000000039
 30
0.0
 11
123.825
 21
1.241814676156848
 31
0.0
  0
LINE
  5
BE
330
1F
100
AcDbEntity
  8
참조1
100
AcDbLine
 10
47.62499999999999
 20
-0.0000000000000039
 30
0.0
 11
47.62499999999999
 21
-40.00000000000001
 31
0.0
  0
LINE
  5
BF
330
1F
100
AcDbEntity
  8
참조1
100
AcDbLine
 10
47.62499999999999
 20
-40.00000000000001
 30
0.0
 11
-15.15885681430868
 21
-40.0
 31
0.0
  0
CIRCLE
  5
C0
330
1F
100
AcDbEntity
  8
해칭선
100
AcDbCircle
 10
0.0
 20
0.0
 30
0.0
 40
2.999999999999997
  0
INSERT
  5
C1
330
1F
100
AcDbEntity
  8
0
  6
Continuous
 62
     7
100
AcDbBlockReference
 66
     1
  2
블럭10
 10
-1.940272932125239
 20
-52.04717430164394
 30
0.0
  0
ATTRIB
  5
C2
330
C1
100
AcDbEntity
  8
FORMAT
 62
     2
100
AcDbText
 10
-11.12156822086652
 20
-49.97180738881175
 30
0.0
 40
4.233333333333333
  1
E5062040 [ 4 FLUTE ]
 41
0.75
  7
SLDTEXTSTYLE0
 11
-11.12156822086652
 21
-52.08847405547841
 31
0.0
100
AcDbAttribute
  2
AUTOATTR0
 70
     0
 74
     1
  0
SEQEND
  5
C3
330
C1
100
AcDbEntity
  8
0
  6
Continuous
 62
     7
  0
HATCH
  5
C4
330
1F
100
AcDbEntity
  8
중심선
100
AcDbHatch
 10
0.0
 20
0.0
 30
0.0
210
0.0
220
0.0
230
1.0
  2
SOLID
 70
     1
 71
     0
 91
        1
 92
        0
 93
        4
 72
     1
 10
3.774636372255614
 20
-35.8
 11
0.3283611284183365
 21
-35.8
 72
     1
 10
0.3283611284183365
 20
-35.8
 11
-1.79986873078569
 21
-38.3363255805726
 72
     1
 10
-1.79986873078569
 20
-38.3363255805726
 11
1.646439598164768
 21
-38.33628615127011
 72
     1
 10
1.646439598164768
 20
-38.33628615127011
 11
3.774636372255614
 21
-35.8
 97
        0
 75
     0
 76
     1
 98
        1
 10
-35.62500000000001
 20
-0.0000000000000044
  0
HATCH
  5
C5
330
1F
100
AcDbEntity
  8
중심선
100
AcDbHatch
 10
0.0
 20
0.0
 30
0.0
210
0.0
220
0.0
230
1.0
  2
SOLID
 70
     1
 71
     0
 91
        1
 92
        0
 93
        4
 72
     1
 10
8.787400363291567
 20
-35.8
 11
5.341125119454283
 21
-35.79999999999998
 72
     1
 10
5.341125119454283
 20
-35.79999999999998
 11
0.8099871110968948
 21
-41.20000000000002
 72
     1
 10
0.8099871110968948
 20
-41.20000000000002
 11
4.256262354934179
 21
-41.20000000000002
 72
     1
 10
4.256262354934179
 20
-41.20000000000002
 11
8.787400363291567
 21
-35.8
 97
        0
 75
     0
 76
     1
 98
        1
 10
-35.62500000000001
 20
-0.0000000000000044
  0
HATCH
  5
C6
330
1F
100
AcDbEntity
  8
중심선
100
AcDbHatch
 10
0.0
 20
0.0
 30
0.0
210
0.0
220
0.0
230
1.0
  2
SOLID
 70
     1
 71
     0
 91
        1
 92
        0
 93
        4
 72
     1
 10
13.80016435432758
 20
-35.79999999999998
 11
10.35388911049029
 21
-35.8
 72
     1
 10
10.35388911049029
 20
-35.8
 11
3.305452208601096
 21
-44.20000000000002
 72
     1
 10
3.305452208601096
 20
-44.20000000000002
 11
6.751727452438352
 21
-44.20000000000002
 72
     1
 10
6.751727452438352
 20
-44.20000000000002
 11
13.80016435432758
 21
-35.79999999999998
 97
        0
 75
     0
 76
     1
 98
        1
 10
-35.62500000000001
 20
-0.0000000000000044
  0
HATCH
  5
C7
330
1F
100
AcDbEntity
  8
중심선
100
AcDbHatch
 10
0.0
 20
0.0
 30
0.0
210
0.0
220
0.0
230
1.0
  2
SOLID
 70
     1
 71
     0
 91
        1
 92
        0
 93
        6
 72
     3
 10
18.60005478533967
 20
-40.00000000005128
 11
3.960054785062283
 21
1.540882976769353E-10
 40
0.3939339440162628
 50
17.09539180608455
 51
320.0019657685078
 73
     0
 72
     1
 10
20.28305444104029
 20
-38.58789400463828
 11
22.58835631474127
 21
-36.65356729459039
 72
     3
 10
18.60005478528682
 20
-40.00000000000016
 11
6.600054785286829
 21
-1.278976924368180E-13
 40
0.636358354079598
 50
39.99873849337429
 51
368.4976242363726
 73
     1
 72
     1
 10
25.0253872771874
 20
-39.03999999993002
 11
17.28012209212271
 21
-39.03999999993
 72
     1
 10
17.28012209212271
 20
-39.03999999993
 11
17.2800970476768
 21
-40.95999999992992
 72
     1
 10
17.2800970476768
 20
-40.95999999992992
 11
21.72147681714881
 21
-40.95999999992989
 97
        0
 75
     0
 76
     1
 98
        1
 10
-35.62500000000001
 20
-0.0000000000000044
  0
DIMENSION
  5
C8
330
1F
100
AcDbEntity
  8
치수문자_일반주서
100
AcDbDimension
  2
_D
 10
12.00000000000001
 20
23.55500211863653
 30
0.0
 11
49.68225345153861
 21
23.55500211863653
 31
0.0
 70
   160
  1
<>
 71
     2
 42
76.19999999999993
  3
SLDDIMSTYLE0
100
AcDbAlignedDimension
 13
88.19999999999995
 23
7.937500000000203
 33
0.0
 14
12.00000000000001
 24
7.90831057025609
 34
0.0
 50
0.000000000000004
100
AcDbRotatedDimension
1001
ACAD
1000
DSTYLE
1002
{
1070
   171
1070
     6
1070
   273
1070
     5
1002
}
  0
DIMENSION
  5
DC
330
1F
100
AcDbEntity
  8
치수문자_일반주서
100
AcDbDimension
  2
_D_1
 10
-64.2
 20
37.77591225225182
 30
0.0
 11
12.89449010755817
 21
37.77591225225182
 31
0.0
 70
   160
  1
<>
 71
     2
 42
152.3999999999999
  3
SLDDIMSTYLE0
100
AcDbAlignedDimension
 13
88.19999999999995
 23
7.937500000000203
 33
0.0
 14
-64.2
 24
6.34999999999999
 34
0.0
 50
0.0000000000000027
100
AcDbRotatedDimension
1001
ACAD
1000
DSTYLE
1002
{
1070
   171
1070
     6
1070
   273
1070
     5
1002
}
  0
DIMENSION
  5
EF
330
1F
100
AcDbEntity
  8
치수문자_일반주서
100
AcDbDimension
  2
_D_2
 10
-73.91904091960238
 20
-7.937500000000036
 30
0.0
 11
-73.91904091960251
 21
28.76024999999994
 31
0.0
 70
   160
  1
%%c<>
 71
     2
 42
15.87499999999997
 52
-270.0
  3
SLDDIMSTYLE0
100
AcDbAlignedDimension
 13
-62.61250000000001
 23
7.937499999999981
 33
0.0
 14
-62.61250000000001
 24
-7.93749999999999
 34
0.0
 50
90.0000000000002
100
AcDbRotatedDimension
1001
ACAD
1000
DSTYLE
1002
{
1070
   171
1070
     6
1070
   273
1070
     5
1002
}
  0
DIMENSION
  5
104
330
1F
100
AcDbEntity
  8
치수문자_일반주서
100
AcDbDimension
  2
_D_3
 10
103.8370452334259
 20
7.937500000000259
 30
0.0
 11
103.8370452334258
 21
25.45825000000026
 31
0.0
 70
   160
  1
%%c<>
 71
     2
 42
15.87500000000004
 52
-270.0
  3
SLDDIMSTYLE0
100
AcDbAlignedDimension
 13
88.19999999999995
 23
-7.937499999999841
 33
0.0
 14
88.19999999999995
 24
7.937500000000203
 34
0.0
 50
90.0000000000002
100
AcDbRotatedDimension
1001
ACAD
1000
DSTYLE
1002
{
1070
   171
1070
     6
1070
   273
1070
     5
1002
}
  0
LINE
  5
118
330
1F
100
AcDbEntity
  8
참조1
100
AcDbLine
 10
82.81348381534559
 20
7.440000000000002
 30
0.0
 11
82.81348381534559
 21
-7.440000000000002
 31
0.0
  0
LINE
  5
119
330
1F
100
AcDbEntity
  8
참조1
100
AcDbLine
 10
95.5134838153456
 20
5.440000000000002
 30
0.0
 11
82.81348381534559
 21
5.440000000000002
 31
0.0
  0
SOLID
  5
11A
330
1F
100
AcDbEntity
  8
참조1
100
AcDbTrace
 10
82.81348381534559
 20
5.440000000000002
 30
0.0
 11
89.16348381534559
 21
4.424000000000002
 31
0.0
 12
89.16348381534559
 22
6.456000000000002
 32
0.0
 13
89.16348381534559
 23
6.456000000000002
 33
0.0
  0
LINE
  5
11B
330
1F
100
AcDbEntity
  8
참조1
100
AcDbLine
 10
95.5134838153456
 20
-5.440000000000002
 30
0.0
 11
82.81348381534559
 21
-5.440000000000002
 31
0.0
  0
SOLID
  5
11C
330
1F
100
AcDbEntity
  8
참조1
100
AcDbTrace
 10
82.81348381534559
 20
-5.440000000000002
 30
0.0
 11
89.16348381534559
 21
-6.456000000000002
 31
0.0
 12
89.16348381534559
 22
-4.424000000000002
 32
0.0
 13
89.16348381534559
 23
-4.424000000000002
 33
0.0
  0
MTEXT
  5
11D
330
1F
100
AcDbEntity
  8
참조1
100
AcDbMText
 10
92.19783394797159
 20
11.01029177718833
 30
0.0
 40
3.5
 41
0.0
 71
     1
 72
     1
  1
A
  7
SLDTEXTSTYLE0
 73
     1
 44
1.0
  0
MTEXT
  5
11E
330
1F
100
AcDbEntity
  8
참조1
100
AcDbMText
 10
92.19783394797159
 20
0.1302917771883261
 30
0.0
 40
3.5
 41
0.0
 71
     1
 72
     1
  1
A
  7
SLDTEXTSTYLE0
 73
     1
 44
1.0
  0
INSERT
  5
125
330
1F
100
AcDbEntity
  8
해칭선
100
AcDbBlockReference
  2
SW_DOWELSYMBOL_0
 10
0.0
 20
0.0
 30
0.0
  0
ENDSEC
  0
SECTION
  2
OBJECTS
  0
DICTIONARY
  5
C
330
0
100
AcDbDictionary
281
     1
  3
ACAD_GROUP
350
D
  3
ACAD_IMAGE_VARS
350
149
  3
ACAD_LAYOUT
350
1A
  3
ACAD_MLINESTYLE
350
17
  3
ACAD_PLOTSETTINGS
350
19
  3
ACAD_PLOTSTYLENAME
350
E
  3
ACAD_SCALELIST
350
47
  3
APPDATA
350
147
  3
DWGPROPS
350
2B9
  0
DICTIONARY
  5
203
330
2
100
AcDbDictionary
280
     1
281
     1
  3
ACAD_LAYERSTATES
360
204
  0
DICTIONARY
  5
D
102
{ACAD_REACTORS
330
C
102
}
330
C
100
AcDbDictionary
281
     1
  0
RASTERVARIABLES
  5
149
102
{ACAD_REACTORS
330
C
102
}
330
C
100
AcDbRasterVariables
 90
        0
 70
     1
 71
     1
 72
     1
  0
DICTIONARY
  5
1A
102
{ACAD_REACTORS
330
C
102
}
330
C
100
AcDbDictionary
281
     1
  3
Layout1
350
1E
  3
Layout2
350
26
  3
Model
350
22
  0
DICTIONARY
  5
17
102
{ACAD_REACTORS
330
C
102
}
330
C
100
AcDbDictionary
281
     1
  3
Standard
350
18
  0
DICTIONARY
  5
19
102
{ACAD_REACTORS
330
C
102
}
330
C
100
AcDbDictionary
281
     1
  0
ACDBDICTIONARYWDFLT
  5
E
102
{ACAD_REACTORS
330
C
102
}
330
C
100
AcDbDictionary
281
     1
  3
Normal
350
F
100
AcDbDictionaryWithDefault
340
F
  0
DICTIONARY
  5
47
102
{ACAD_REACTORS
330
C
102
}
330
C
100
AcDbDictionary
281
     1
  3
A0
350
48
  3
A1
350
49
  3
A2
350
4A
  3
A3
350
4B
  3
A4
350
4C
  3
A5
350
4D
  3
A6
350
4E
  3
A7
350
4F
  3
A8
350
50
  3
A9
350
51
  3
B0
350
52
  3
B1
350
53
  3
B2
350
54
  3
B3
350
55
  3
B4
350
56
  3
B5
350
57
  3
B6
350
58
  3
B7
350
59
  3
B8
350
5A
  3
B9
350
5B
  3
C0
350
5C
  3
C1
350
5D
  3
C2
350
5E
  3
C3
350
5F
  3
C4
350
60
  3
C5
350
61
  3
C6
350
62
  3
C7
350
63
  3
C8
350
64
  3
C9
350
65
  3
D0
350
66
  3
D1
350
67
  3
D2
350
68
  0
DICTIONARY
  5
147
102
{ACAD_REACTORS
330
C
102
}
330
C
100
AcDbDictionary
281
     1
  0
XRECORD
  5
2B9
102
{ACAD_REACTORS
330
C
102
}
330
C
100
AcDbXrecord
280
     1
  1
DWGPROPS COOKIE
  2

  3

  4

  6

  7

  8
12014074
  9

300
=
301
=
302
=
303
=
304
=
305
=
306
=
307
=
308
=
309
=
 40
0.0
 41
2458316.344396655
 42
2458323.078615625
  1

 90
        0
  0
DICTIONARY
  5
204
102
{ACAD_REACTORS
330
203
102
}
330
203
100
AcDbDictionary
281
     1
  0
LAYOUT
  5
1E
102
{ACAD_REACTORS
330
1A
102
}
330
1A
100
AcDbPlotSettings
  1

  2
none_device
  4

  6

 40
0.0
 41
0.0
 42
0.0
 43
0.0
 44
0.0
 45
0.0
 46
0.0
 47
0.0
 48
0.0
 49
0.0
140
0.0
141
0.0
142
1.0
143
1.0
 70
   688
 72
     1
 73
     0
 74
     5
  7

 75
    16
147
1.0
148
0.0
149
0.0
100
AcDbLayout
  1
Layout1
 70
     1
 71
     1
 10
0.0
 20
0.0
 11
420.0
 21
297.0
 12
0.0
 22
0.0
 32
0.0
 14
1.000000000000000E+20
 24
1.000000000000000E+20
 34
1.000000000000000E+20
 15
-1.000000000000000E+20
 25
-1.000000000000000E+20
 35
-1.000000000000000E+20
146
0.0
 13
0.0
 23
0.0
 33
0.0
 16
1.0
 26
0.0
 36
0.0
 17
0.0
 27
1.0
 37
0.0
 76
     0
330
1B
  0
LAYOUT
  5
26
102
{ACAD_REACTORS
330
1A
102
}
330
1A
100
AcDbPlotSettings
  1

  2
none_device
  4

  6

 40
0.0
 41
0.0
 42
0.0
 43
0.0
 44
0.0
 45
0.0
 46
0.0
 47
0.0
 48
0.0
 49
0.0
140
0.0
141
0.0
142
1.0
143
1.0
 70
   688
 72
     1
 73
     0
 74
     5
  7

 75
    16
147
1.0
148
0.0
149
0.0
100
AcDbLayout
  1
Layout2
 70
     1
 71
     2
 10
0.0
 20
0.0
 11
0.0
 21
0.0
 12
0.0
 22
0.0
 32
0.0
 14
0.0
 24
0.0
 34
0.0
 15
0.0
 25
0.0
 35
0.0
146
0.0
 13
0.0
 23
0.0
 33
0.0
 16
1.0
 26
0.0
 36
0.0
 17
0.0
 27
1.0
 37
0.0
 76
     0
330
23
  0
LAYOUT
  5
22
102
{ACAD_REACTORS
330
1A
102
}
330
1A
100
AcDbPlotSettings
  1

  2
none_device
  4
ANSI_A_(11.00_x_8.50_Inches)
  6

 40
6.35
 41
19.05
 42
6.35000508
 43
19.05000254
 44
279.4
 45
215.9
 46
68.70602917239687
 47
109.8340999895738
 48
0.0
 49
0.0
140
0.0
141
0.0
142
0.0630004977059663
143
1.0
 70
  1696
 72
     0
 73
     0
 74
     0
  7

 75
     0
147
0.0235690232323232
148
0.0
149
0.0
100
AcDbLayout
  1
Model
 70
     1
 71
     0
 10
0.0
 20
0.0
 11
420.0
 21
297.0
 12
0.0
 22
0.0
 32
0.0
 14
1.000000000000000E+20
 24
1.000000000000000E+20
 34
1.000000000000000E+20
 15
-1.000000000000000E+20
 25
-1.000000000000000E+20
 35
-1.000000000000000E+20
146
0.0
 13
0.0
 23
0.0
 33
0.0
 16
1.0
 26
0.0
 36
0.0
 17
0.0
 27
1.0
 37
0.0
 76
     0
330
1F
331
29
  0
MLINESTYLE
  5
18
102
{ACAD_REACTORS
330
17
102
}
330
17
100
AcDbMlineStyle
  2
Standard
 70
     0
  3

 62
   256
 51
90.0
 52
90.0
 71
     2
 49
0.5
 62
   256
  6
BYLAYER
 49
-0.5
 62
   256
  6
BYLAYER
  0
ACDBPLACEHOLDER
  5
F
102
{ACAD_REACTORS
330
E
102
}
330
E
  0
SCALE
  5
48
102
{ACAD_REACTORS
330
47
102
}
330
47
100
AcDbScale
 70
     0
300
1:1
140
1.0
141
1.0
290
     1
  0
SCALE
  5
49
102
{ACAD_REACTORS
330
47
102
}
330
47
100
AcDbScale
 70
     0
300
1:2
140
1.0
141
2.0
290
     0
  0
SCALE
  5
4A
102
{ACAD_REACTORS
330
47
102
}
330
47
100
AcDbScale
 70
     0
300
1:4
140
1.0
141
4.0
290
     0
  0
SCALE
  5
4B
102
{ACAD_REACTORS
330
47
102
}
330
47
100
AcDbScale
 70
     0
300
1:5
140
1.0
141
5.0
290
     0
  0
SCALE
  5
4C
102
{ACAD_REACTORS
330
47
102
}
330
47
100
AcDbScale
 70
     0
300
1:8
140
1.0
141
8.0
290
     0
  0
SCALE
  5
4D
102
{ACAD_REACTORS
330
47
102
}
330
47
100
AcDbScale
 70
     0
300
1:10
140
1.0
141
10.0
290
     0
  0
SCALE
  5
4E
102
{ACAD_REACTORS
330
47
102
}
330
47
100
AcDbScale
 70
     0
300
1:16
140
1.0
141
16.0
290
     0
  0
SCALE
  5
4F
102
{ACAD_REACTORS
330
47
102
}
330
47
100
AcDbScale
 70
     0
300
1:20
140
1.0
141
20.0
290
     0
  0
SCALE
  5
50
102
{ACAD_REACTORS
330
47
102
}
330
47
100
AcDbScale
 70
     0
300
1:30
140
1.0
141
30.0
290
     0
  0
SCALE
  5
51
102
{ACAD_REACTORS
330
47
102
}
330
47
100
AcDbScale
 70
     0
300
1:40
140
1.0
141
40.0
290
     0
  0
SCALE
  5
52
102
{ACAD_REACTORS
330
47
102
}
330
47
100
AcDbScale
 70
     0
300
1:50
140
1.0
141
50.0
290
     0
  0
SCALE
  5
53
102
{ACAD_REACTORS
330
47
102
}
330
47
100
AcDbScale
 70
     0
300
1:100
140
1.0
141
100.0
290
     0
  0
SCALE
  5
54
102
{ACAD_REACTORS
330
47
102
}
330
47
100
AcDbScale
 70
     0
300
2:1
140
2.0
141
1.0
290
     0
  0
SCALE
  5
55
102
{ACAD_REACTORS
330
47
102
}
330
47
100
AcDbScale
 70
     0
300
4:1
140
4.0
141
1.0
290
     0
  0
SCALE
  5
56
102
{ACAD_REACTORS
330
47
102
}
330
47
100
AcDbScale
 70
     0
300
8:1
140
8.0
141
1.0
290
     0
  0
SCALE
  5
57
102
{ACAD_REACTORS
330
47
102
}
330
47
100
AcDbScale
 70
     0
300
10:1
140
10.0
141
1.0
290
     0
  0
SCALE
  5
58
102
{ACAD_REACTORS
330
47
102
}
330
47
100
AcDbScale
 70
     0
300
100:1
140
100.0
141
1.0
290
     0
  0
SCALE
  5
59
102
{ACAD_REACTORS
330
47
102
}
330
47
100
AcDbScale
 70
     0
300
1/128" = 1'-0"
140
0.0078125
141
12.0
290
     0
  0
SCALE
  5
5A
102
{ACAD_REACTORS
330
47
102
}
330
47
100
AcDbScale
 70
     0
300
1/64" = 1'-0"
140
0.015625
141
12.0
290
     0
  0
SCALE
  5
5B
102
{ACAD_REACTORS
330
47
102
}
330
47
100
AcDbScale
 70
     0
300
1/32" = 1'-0"
140
0.03125
141
12.0
290
     0
  0
SCALE
  5
5C
102
{ACAD_REACTORS
330
47
102
}
330
47
100
AcDbScale
 70
     0
300
1/16" = 1'-0"
140
0.0625
141
12.0
290
     0
  0
SCALE
  5
5D
102
{ACAD_REACTORS
330
47
102
}
330
47
100
AcDbScale
 70
     0
300
3/32" = 1'-0"
140
0.09375
141
12.0
290
     0
  0
SCALE
  5
5E
102
{ACAD_REACTORS
330
47
102
}
330
47
100
AcDbScale
 70
     0
300
1/8" = 1'-0"
140
0.125
141
12.0
290
     0
  0
SCALE
  5
5F
102
{ACAD_REACTORS
330
47
102
}
330
47
100
AcDbScale
 70
     0
300
3/16" = 1'-0"
140
0.1875
141
12.0
290
     0
  0
SCALE
  5
60
102
{ACAD_REACTORS
330
47
102
}
330
47
100
AcDbScale
 70
     0
300
1/4" = 1'-0"
140
0.25
141
12.0
290
     0
  0
SCALE
  5
61
102
{ACAD_REACTORS
330
47
102
}
330
47
100
AcDbScale
 70
     0
300
3/8" = 1'-0"
140
0.375
141
12.0
290
     0
  0
SCALE
  5
62
102
{ACAD_REACTORS
330
47
102
}
330
47
100
AcDbScale
 70
     0
300
1/2" = 1'-0"
140
0.5
141
12.0
290
     0
  0
SCALE
  5
63
102
{ACAD_REACTORS
330
47
102
}
330
47
100
AcDbScale
 70
     0
300
3/4" = 1'-0"
140
0.75
141
12.0
290
     0
  0
SCALE
  5
64
102
{ACAD_REACTORS
330
47
102
}
330
47
100
AcDbScale
 70
     0
300
1" = 1'-0"
140
1.0
141
12.0
290
     0
  0
SCALE
  5
65
102
{ACAD_REACTORS
330
47
102
}
330
47
100
AcDbScale
 70
     0
300
1-1/2" = 1'-0"
140
1.5
141
12.0
290
     0
  0
SCALE
  5
66
102
{ACAD_REACTORS
330
47
102
}
330
47
100
AcDbScale
 70
     0
300
3" = 1'-0"
140
3.0
141
12.0
290
     0
  0
SCALE
  5
67
102
{ACAD_REACTORS
330
47
102
}
330
47
100
AcDbScale
 70
     0
300
6" = 1'-0"
140
6.0
141
12.0
290
     0
  0
SCALE
  5
68
102
{ACAD_REACTORS
330
47
102
}
330
47
100
AcDbScale
 70
     0
300
1'-0" = 1'-0"
140
12.0
141
12.0
290
     0
  0
ENDSEC
  0
EOF
