  0
SECTION
  2
HEADER
  9
$ACADVER
  1
AC1015
  9
$ACADMAINTVER
 70
     6
  9
$DWGCODEPAGE
  3
ANSI_949
  9
$INSBASE
 10
0.0
 20
0.0
 30
0.0
  9
$EXTMIN
 10
1.000000000000000E+20
 20
1.000000000000000E+20
 30
1.000000000000000E+20
  9
$EXTMAX
 10
-1.000000000000000E+20
 20
-1.000000000000000E+20
 30
-1.000000000000000E+20
  9
$LIMMIN
 10
0.0
 20
0.0
  9
$LIMMAX
 10
420.0
 20
297.0
  9
$ORTHOMODE
 70
     1
  9
$REGENMODE
 70
     1
  9
$FILLMODE
 70
     1
  9
$QTEXTMODE
 70
     0
  9
$MIRRTEXT
 70
     1
  9
$LTSCALE
 40
1.0
  9
$ATTMODE
 70
     1
  9
$TEXTSIZE
 40
3.5
  9
$TRACEWID
 40
1.0
  9
$TEXTSTYLE
  7
Standard
  9
$CLAYER
  8
0
  9
$CELTYPE
  6
ByLayer
  9
$CECOLOR
 62
   256
  9
$CELTSCALE
 40
1.0
  9
$DISPSILH
 70
     0
  9
$DIMSCALE
 40
1.0
  9
$DIMASZ
 40
3.302
  9
$DIMEXO
 40
1.0
  9
$DIMDLI
 40
3.75
  9
$DIMRND
 40
0.0
  9
$DIMDLE
 40
0.0
  9
$DIMEXE
 40
1.0
  9
$DIMTP
 40
0.0
  9
$DIMTM
 40
0.0
  9
$DIMTXT
 40
3.5
  9
$DIMCEN
 40
2.5
  9
$DIMTSZ
 40
0.0
  9
$DIMTOL
 70
     0
  9
$DIMLIM
 70
     0
  9
$DIMTIH
 70
     1
  9
$DIMTOH
 70
     1
  9
$DIMSE1
 70
     0
  9
$DIMSE2
 70
     0
  9
$DIMTAD
 70
     1
  9
$DIMZIN
 70
     0
  9
$DIMBLK
  1

  9
$DIMASO
 70
     1
  9
$DIMSHO
 70
     1
  9
$DIMPOST
  1

  9
$DIMAPOST
  1

  9
$DIMALT
 70
     0
  9
$DIMALTD
 70
     3
  9
$DIMALTF
 40
0.0393700787401575
  9
$DIMLFAC
 40
1.0
  9
$DIMTOFL
 70
     1
  9
$DIMTVP
 40
0.0
  9
$DIMTIX
 70
     0
  9
$DIMSOXD
 70
     0
  9
$DIMSAH
 70
     0
  9
$DIMBLK1
  1

  9
$DIMBLK2
  1

  9
$DIMSTYLE
  2
ISO-25
  9
$DIMCLRD
 70
     0
  9
$DIMCLRE
 70
     0
  9
$DIMCLRT
 70
     0
  9
$DIMTFAC
 40
1.0
  9
$DIMGAP
 40
1.524
  9
$DIMJUST
 70
     0
  9
$DIMSD1
 70
     0
  9
$DIMSD2
 70
     0
  9
$DIMTOLJ
 70
     0
  9
$DIMTZIN
 70
     0
  9
$DIMALTZ
 70
     0
  9
$DIMALTTZ
 70
     0
  9
$DIMUPT
 70
     0
  9
$DIMDEC
 70
     2
  9
$DIMTDEC
 70
     2
  9
$DIMALTU
 70
     2
  9
$DIMALTTD
 70
     3
  9
$DIMTXSTY
  7
Standard
  9
$DIMAUNIT
 70
     0
  9
$DIMADEC
 70
     2
  9
$DIMALTRND
 40
0.0
  9
$DIMAZIN
 70
     0
  9
$DIMDSEP
 70
    44
  9
$DIMATFIT
 70
     3
  9
$DIMFRAC
 70
     0
  9
$DIMLDRBLK
  1

  9
$DIMLUNIT
 70
     2
  9
$DIMLWD
 70
    -2
  9
$DIMLWE
 70
    -2
  9
$DIMTMOVE
 70
     0
  9
$LUNITS
 70
     2
  9
$LUPREC
 70
     2
  9
$SKETCHINC
 40
1.0
  9
$FILLETRAD
 40
10.0
  9
$AUNITS
 70
     0
  9
$AUPREC
 70
     2
  9
$MENU
  1
.
  9
$ELEVATION
 40
0.0
  9
$PELEVATION
 40
0.0
  9
$THICKNESS
 40
0.0
  9
$LIMCHECK
 70
     0
  9
$CHAMFERA
 40
0.0
  9
$CHAMFERB
 40
0.0
  9
$CHAMFERC
 40
0.0
  9
$CHAMFERD
 40
0.0
  9
$SKPOLY
 70
     0
  9
$TDCREATE
 40
2458316.718973067
  9
$TDUCREATE
 40
2458316.343973067
  9
$TDUPDATE
 40
2458323.432247488
  9
$TDUUPDATE
 40
2458323.057247488
  9
$TDINDWG
 40
0.0012678819
  9
$TDUSRTIMER
 40
2458323.055979803
  9
$USRTIMER
 70
     1
  9
$ANGBASE
 50
0.0
  9
$ANGDIR
 70
     0
  9
$PDMODE
 70
     0
  9
$PDSIZE
 40
-1.0
  9
$PLINEWID
 40
0.0
  9
$SPLFRAME
 70
     0
  9
$SPLINETYPE
 70
     6
  9
$SPLINESEGS
 70
     8
  9
$HANDSEED
  5
2C0
  9
$SURFTAB1
 70
     6
  9
$SURFTAB2
 70
     6
  9
$SURFTYPE
 70
     6
  9
$SURFU
 70
     6
  9
$SURFV
 70
     6
  9
$UCSBASE
  2

  9
$UCSNAME
  2

  9
$UCSORG
 10
0.0
 20
0.0
 30
0.0
  9
$UCSXDIR
 10
1.0
 20
0.0
 30
0.0
  9
$UCSYDIR
 10
0.0
 20
1.0
 30
0.0
  9
$UCSORTHOREF
  2

  9
$UCSORTHOVIEW
 70
     0
  9
$UCSORGTOP
 10
0.0
 20
0.0
 30
0.0
  9
$UCSORGBOTTOM
 10
0.0
 20
0.0
 30
0.0
  9
$UCSORGLEFT
 10
0.0
 20
0.0
 30
0.0
  9
$UCSORGRIGHT
 10
0.0
 20
0.0
 30
0.0
  9
$UCSORGFRONT
 10
0.0
 20
0.0
 30
0.0
  9
$UCSORGBACK
 10
0.0
 20
0.0
 30
0.0
  9
$PUCSBASE
  2

  9
$PUCSNAME
  2

  9
$PUCSORG
 10
0.0
 20
0.0
 30
0.0
  9
$PUCSXDIR
 10
1.0
 20
0.0
 30
0.0
  9
$PUCSYDIR
 10
0.0
 20
1.0
 30
0.0
  9
$PUCSORTHOREF
  2

  9
$PUCSORTHOVIEW
 70
     0
  9
$PUCSORGTOP
 10
0.0
 20
0.0
 30
0.0
  9
$PUCSORGBOTTOM
 10
0.0
 20
0.0
 30
0.0
  9
$PUCSORGLEFT
 10
0.0
 20
0.0
 30
0.0
  9
$PUCSORGRIGHT
 10
0.0
 20
0.0
 30
0.0
  9
$PUCSORGFRONT
 10
0.0
 20
0.0
 30
0.0
  9
$PUCSORGBACK
 10
0.0
 20
0.0
 30
0.0
  9
$USERI1
 70
     0
  9
$USERI2
 70
     0
  9
$USERI3
 70
     0
  9
$USERI4
 70
     0
  9
$USERI5
 70
     0
  9
$USERR1
 40
0.0
  9
$USERR2
 40
0.0
  9
$USERR3
 40
0.0
  9
$USERR4
 40
0.0
  9
$USERR5
 40
0.0
  9
$WORLDVIEW
 70
     1
  9
$SHADEDGE
 70
     3
  9
$SHADEDIF
 70
    70
  9
$TILEMODE
 70
     1
  9
$MAXACTVP
 70
    64
  9
$PINSBASE
 10
0.0
 20
0.0
 30
0.0
  9
$PLIMCHECK
 70
     0
  9
$PEXTMIN
 10
1.000000000000000E+20
 20
1.000000000000000E+20
 30
1.000000000000000E+20
  9
$PEXTMAX
 10
-1.000000000000000E+20
 20
-1.000000000000000E+20
 30
-1.000000000000000E+20
  9
$PLIMMIN
 10
0.0
 20
0.0
  9
$PLIMMAX
 10
0.0
 20
0.0
  9
$UNITMODE
 70
     0
  9
$VISRETAIN
 70
     1
  9
$PLINEGEN
 70
     0
  9
$PSLTSCALE
 70
     1
  9
$TREEDEPTH
 70
  3020
  9
$CMLSTYLE
  2
Standard
  9
$CMLJUST
 70
     0
  9
$CMLSCALE
 40
20.0
  9
$PROXYGRAPHICS
 70
     1
  9
$MEASUREMENT
 70
     1
  9
$CELWEIGHT
370
    -1
  9
$ENDCAPS
280
     0
  9
$JOINSTYLE
280
     0
  9
$LWDISPLAY
290
     1
  9
$INSUNITS
 70
     4
  9
$HYPERLINKBASE
  1

  9
$STYLESHEET
  1

  9
$XEDIT
290
     1
  9
$CEPSNTYPE
380
     0
  9
$PSTYLEMODE
290
     1
  9
$FINGERPRINTGUID
  2
{B6C462FE-1728-4971-86BB-2865A4C2B669}
  9
$VERSIONGUID
  2
{FAEB1C32-E019-11D5-929B-00C0DF256EC4}
  9
$EXTNAMES
290
     1
  9
$PSVPSCALE
 40
0.0
  9
$OLESTARTUP
290
     0
  0
ENDSEC
  0
SECTION
  2
CLASSES
  0
CLASS
  1
ACDBDICTIONARYWDFLT
  2
AcDbDictionaryWithDefault
  3
ObjectDBX Classes
 90
        0
280
     0
281
     0
  0
CLASS
  1
VISUALSTYLE
  2
AcDbVisualStyle
  3
ObjectDBX Classes
 90
     4095
280
     0
281
     0
  0
CLASS
  1
MATERIAL
  2
AcDbMaterial
  3
ObjectDBX Classes
 90
     1153
280
     0
281
     0
  0
CLASS
  1
SCALE
  2
AcDbScale
  3
ObjectDBX Classes
 90
     1153
280
     0
281
     0
  0
CLASS
  1
SUN
  2
AcDbSun
  3
SCENEOE
 90
     1153
280
     0
281
     0
  0
CLASS
  1
ACDBPLACEHOLDER
  2
AcDbPlaceHolder
  3
ObjectDBX Classes
 90
        0
280
     0
281
     0
  0
CLASS
  1
LAYOUT
  2
AcDbLayout
  3
ObjectDBX Classes
 90
        0
280
     0
281
     0
  0
CLASS
  1
TABLESTYLE
  2
AcDbTableStyle
  3
ObjectDBX Classes
 90
     4095
280
     0
281
     0
  0
CLASS
  1
MLEADERSTYLE
  2
AcDbMLeaderStyle
  3
ACDB_MLEADERSTYLE_CLASS
 90
     4095
280
     0
281
     0
  0
CLASS
  1
RASTERVARIABLES
  2
AcDbRasterVariables
  3
ISM
 90
        0
280
     0
281
     0
  0
ENDSEC
  0
SECTION
  2
TABLES
  0
TABLE
  2
VPORT
  5
8
330
0
100
AcDbSymbolTable
 70
     1
  0
VPORT
  5
29
330
8
100
AcDbSymbolTableRecord
100
AcDbViewportTableRecord
  2
*Active
 70
     0
 10
0.0
 20
0.0
 11
1.0
 21
1.0
 12
18.06106667495516
 22
-4.236408803281989
 13
0.0
 23
0.0
 14
10.0
 24
10.0
 15
10.0
 25
10.0
 16
0.0
 26
0.0
 36
1.0
 17
0.0
 27
0.0
 37
0.0
 40
147.4023456616453
 41
1.970186335403727
 42
50.0
 43
0.0
 44
0.0
 50
0.0
 51
0.0
 71
    16
 72
  2000
 73
     1
 74
     3
 75
     0
 76
     0
 77
     0
 78
     0
281
     0
 65
     1
110
0.0
120
0.0
130
0.0
111
1.0
121
0.0
131
0.0
112
0.0
122
1.0
132
0.0
 79
     0
146
0.0
  0
ENDTAB
  0
TABLE
  2
LTYPE
  5
5
330
0
100
AcDbSymbolTable
 70
     6
  0
LTYPE
  5
14
330
5
100
AcDbSymbolTableRecord
100
AcDbLinetypeTableRecord
  2
ByBlock
 70
     0
  3

 72
    65
 73
     0
 40
0.0
  0
LTYPE
  5
15
330
5
100
AcDbSymbolTableRecord
100
AcDbLinetypeTableRecord
  2
ByLayer
 70
     0
  3

 72
    65
 73
     0
 40
0.0
  0
LTYPE
  5
16
330
5
100
AcDbSymbolTableRecord
100
AcDbLinetypeTableRecord
  2
Continuous
 70
     0
  3
Solid line
 72
    65
 73
     0
 40
0.0
  0
LTYPE
  5
6A
330
5
100
AcDbSymbolTableRecord
100
AcDbLinetypeTableRecord
  2
HIDDEN
 70
     0
  3
Hidden __ __ __ __ __ __ __ __ __ __ __ __ __ __
 72
    65
 73
     2
 40
1.905
 49
1.27
 74
     0
 49
-0.635
 74
     0
  0
LTYPE
  5
6B
330
5
100
AcDbSymbolTableRecord
100
AcDbLinetypeTableRecord
  2
PHANTOM
 70
     0
  3
Phantom ______  __  __  ______  __  __  ______
 72
    65
 73
     6
 40
12.7
 49
6.35
 74
     0
 49
-1.27
 74
     0
 49
1.27
 74
     0
 49
-1.27
 74
     0
 49
1.27
 74
     0
 49
-1.27
 74
     0
  0
LTYPE
  5
6C
330
5
100
AcDbSymbolTableRecord
100
AcDbLinetypeTableRecord
  2
CENTER
 70
     0
  3
Center ____ _ ____ _ ____ _ ____ _ ____ _ ____
 72
    65
 73
     4
 40
10.16
 49
6.35
 74
     0
 49
-1.27
 74
     0
 49
1.27
 74
     0
 49
-1.27
 74
     0
  0
LTYPE
  5
6D
330
5
100
AcDbSymbolTableRecord
100
AcDbLinetypeTableRecord
  2
CENTERX2
 70
     0
  3
Center (2x) ________  __  ________  __  _____
 72
    65
 73
     4
 40
20.32
 49
12.7
 74
     0
 49
-2.54
 74
     0
 49
2.54
 74
     0
 49
-2.54
 74
     0
  0
LTYPE
  5
6E
330
5
100
AcDbSymbolTableRecord
100
AcDbLinetypeTableRecord
  2
DOT2
 70
     0
  3
Dot (.5x) ........................................
 72
    65
 73
     2
 40
0.635
 49
0.0
 74
     0
 49
-0.635
 74
     0
  0
ENDTAB
  0
TABLE
  2
LAYER
  5
2
102
{ACAD_XDICTIONARY
360
207
102
}
330
0
100
AcDbSymbolTable
 70
    18
  0
LAYER
  5
10
330
2
100
AcDbSymbolTableRecord
100
AcDbLayerTableRecord
  2
0
 70
     0
 62
     7
  6
Continuous
370
    -3
390
F
  0
LAYER
  5
6F
330
2
100
AcDbSymbolTableRecord
100
AcDbLayerTableRecord
  2
FORMAT
 70
     0
 62
     2
  6
Continuous
370
    -3
390
F
  0
LAYER
  5
70
330
2
100
AcDbSymbolTableRecord
100
AcDbLayerTableRecord
  2
외형선
 70
     0
 62
     4
  6
Continuous
370
    30
390
F
  0
LAYER
  5
71
330
2
100
AcDbSymbolTableRecord
100
AcDbLayerTableRecord
  2
숨은선
 70
     0
 62
     2
  6
HIDDEN
370
    15
390
F
  0
LAYER
  5
72
330
2
100
AcDbSymbolTableRecord
100
AcDbLayerTableRecord
  2
중심선
 70
     0
 62
     1
  6
CENTERX2
370
    -3
390
F
  0
LAYER
  5
73
330
2
100
AcDbSymbolTableRecord
100
AcDbLayerTableRecord
  2
파단선
 70
     0
 62
     4
  6
Continuous
370
    -3
390
F
  0
LAYER
  5
74
330
2
100
AcDbSymbolTableRecord
100
AcDbLayerTableRecord
  2
해칭선
 70
     0
 62
   100
  6
Continuous
370
    -3
390
F
  0
LAYER
  5
75
330
2
100
AcDbSymbolTableRecord
100
AcDbLayerTableRecord
  2
가는실선
 70
     0
 62
     4
  6
Continuous
370
    -3
390
F
  0
LAYER
  5
76
330
2
100
AcDbSymbolTableRecord
100
AcDbLayerTableRecord
  2
치수_보조선
 70
     0
 62
     4
  6
Continuous
370
    -3
390
F
  0
LAYER
  5
77
330
2
100
AcDbSymbolTableRecord
100
AcDbLayerTableRecord
  2
치수문자_일반주서
 70
     0
 62
     7
  6
Continuous
370
    15
390
F
  0
LAYER
  5
78
330
2
100
AcDbSymbolTableRecord
100
AcDbLayerTableRecord
  2
개별주서
 70
     0
 62
   100
  6
Continuous
370
    30
390
F
  0
LAYER
  5
79
330
2
100
AcDbSymbolTableRecord
100
AcDbLayerTableRecord
  2
중간선
 70
     0
 62
     2
  6
Continuous
370
    15
390
F
  0
LAYER
  5
7A
330
2
100
AcDbSymbolTableRecord
100
AcDbLayerTableRecord
  2
윤곽선
 70
     0
 62
     3
  6
Continuous
370
    40
390
F
  0
LAYER
  5
7B
330
2
100
AcDbSymbolTableRecord
100
AcDbLayerTableRecord
  2
중심마크
 70
     0
 62
   100
  6
Continuous
370
    30
390
F
  0
LAYER
  5
7C
330
2
100
AcDbSymbolTableRecord
100
AcDbLayerTableRecord
  2
가상선
 70
     0
 62
     4
  6
PHANTOM
370
    -3
390
F
  0
LAYER
  5
7D
330
2
100
AcDbSymbolTableRecord
100
AcDbLayerTableRecord
  2
특수지정선
 70
     0
 62
     5
  6
CENTERX2
370
    60
390
F
  0
LAYER
  5
7E
330
2
100
AcDbSymbolTableRecord
100
AcDbLayerTableRecord
  2
참조1
 70
     0
 62
    -4
  6
Continuous
370
    -3
390
F
  0
LAYER
  5
14F
330
2
100
AcDbSymbolTableRecord
100
AcDbLayerTableRecord
  2
Defpoints
 70
     0
 62
     7
  6
Continuous
290
     0
370
    -3
390
F
  0
ENDTAB
  0
TABLE
  2
STYLE
  5
3
330
0
100
AcDbSymbolTable
 70
     2
  0
STYLE
  5
11
330
3
100
AcDbSymbolTableRecord
100
AcDbTextStyleTableRecord
  2
Standard
 70
     0
 40
0.0
 41
1.0
 50
0.0
 71
     0
 42
3.5
  3
txt
  4

  0
STYLE
  5
94
330
3
100
AcDbSymbolTableRecord
100
AcDbTextStyleTableRecord
  2
SLDTEXTSTYLE0
 70
     0
 40
0.0
 41
0.75
 50
0.0
 71
     0
 42
3.5
  3
TXT
  4

  0
ENDTAB
  0
TABLE
  2
VIEW
  5
6
330
0
100
AcDbSymbolTable
 70
     0
  0
ENDTAB
  0
TABLE
  2
UCS
  5
7
330
0
100
AcDbSymbolTable
 70
     0
  0
ENDTAB
  0
TABLE
  2
APPID
  5
9
330
0
100
AcDbSymbolTable
 70
     3
  0
APPID
  5
12
330
9
100
AcDbSymbolTableRecord
100
AcDbRegAppTableRecord
  2
ACAD
 70
     0
  0
APPID
  5
15B
330
9
100
AcDbSymbolTableRecord
100
AcDbRegAppTableRecord
  2
PE_URL
 70
     0
  0
APPID
  5
15C
330
9
100
AcDbSymbolTableRecord
100
AcDbRegAppTableRecord
  2
ACAD_DSTYLE_DIMRADIAL_EXTENSION
 70
     0
  0
ENDTAB
  0
TABLE
  2
DIMSTYLE
  5
A
330
0
100
AcDbSymbolTable
 70
     4
100
AcDbDimStyleTable
  0
DIMSTYLE
105
27
330
A
100
AcDbSymbolTableRecord
100
AcDbDimStyleTableRecord
  2
ISO-25
 70
     0
 41
2.5
 42
0.625
 43
3.75
 44
1.25
 73
     0
 74
     0
 77
     1
 78
     8
140
2.5
141
2.5
143
0.03937007874016
147
0.625
171
     3
172
     1
178
     0
271
     2
272
     2
274
     3
278
    44
283
     0
284
     8
340
11
  0
DIMSTYLE
105
CD
102
{ACAD_REACTORS
330
CC
330
E0
330
1BB
330
1C8
330
F3
330
108
102
}
330
A
100
AcDbSymbolTableRecord
100
AcDbDimStyleTableRecord
  2
SLDDIMSTYLE0
 70
     0
 41
3.302
 44
0.0
 45
0.000000001
 73
     0
 74
     0
 77
     1
 78
     4
 79
     1
140
3.5
143
0.0393700787401575
147
0.875
148
0.000000001
170
     1
173
     1
178
     0
271
     2
272
     2
276
     2
284
    12
340
94
  0
DIMSTYLE
105
F4
102
{ACAD_REACTORS
330
1FE
102
}
330
A
100
AcDbSymbolTableRecord
100
AcDbDimStyleTableRecord
  2
SLDDIMSTYLE1
 70
     0
 41
3.302
 44
0.0
 45
0.000000001
 73
     0
 74
     0
 77
     1
 78
    12
 79
     3
140
3.5
143
0.0393700787401575
147
0.875
148
0.000000001
170
     1
172
     1
173
     1
178
     0
271
     2
272
     2
276
     2
284
    12
289
     0
340
94
  0
DIMSTYLE
105
109
102
{ACAD_REACTORS
330
1D5
330
1E4
102
}
330
A
100
AcDbSymbolTableRecord
100
AcDbDimStyleTableRecord
  2
SLDDIMSTYLE2
 70
     0
 41
3.302
 44
0.0
 45
0.000000001
 73
     0
 74
     0
 77
     1
 78
    12
 79
     3
140
3.5
143
0.0393700787401575
147
0.875
148
0.000000001
170
     1
173
     1
178
     0
271
     2
272
     2
276
     2
284
    12
340
94
  0
ENDTAB
  0
TABLE
  2
BLOCK_RECORD
  5
1
330
0
100
AcDbSymbolTable
 70
    18
  0
BLOCK_RECORD
  5
1F
330
1
100
AcDbSymbolTableRecord
100
AcDbBlockTableRecord
  2
*Model_Space
340
22
  0
BLOCK_RECORD
  5
1B
330
1
100
AcDbSymbolTableRecord
100
AcDbBlockTableRecord
  2
*Paper_Space
340
1E
  0
BLOCK_RECORD
  5
23
330
1
100
AcDbSymbolTableRecord
100
AcDbBlockTableRecord
  2
*Paper_Space0
340
26
  0
BLOCK_RECORD
  5
7F
330
1
100
AcDbSymbolTableRecord
100
AcDbBlockTableRecord
  2
블럭10
340
0
102
{BLKREFS
331
C5
102
}
  0
BLOCK_RECORD
  5
CE
330
1
100
AcDbSymbolTableRecord
100
AcDbBlockTableRecord
  2
_D
340
0
  0
BLOCK_RECORD
  5
E1
330
1
100
AcDbSymbolTableRecord
100
AcDbBlockTableRecord
  2
_D_1
340
0
  0
BLOCK_RECORD
  5
F5
330
1
100
AcDbSymbolTableRecord
100
AcDbBlockTableRecord
  2
_D_2
340
0
  0
BLOCK_RECORD
  5
10A
330
1
100
AcDbSymbolTableRecord
100
AcDbBlockTableRecord
  2
_D_3
340
0
  0
BLOCK_RECORD
  5
123
330
1
100
AcDbSymbolTableRecord
100
AcDbBlockTableRecord
  2
SW_DOWELSYMBOL_0
340
0
102
{BLKREFS
331
129
331
1F3
331
0
102
}
  0
BLOCK_RECORD
  5
1E5
330
1
100
AcDbSymbolTableRecord
100
AcDbBlockTableRecord
  2
_D_4
340
0
  0
BLOCK_RECORD
  5
1FF
330
1
100
AcDbSymbolTableRecord
100
AcDbBlockTableRecord
  2
*D9
340
0
  0
BLOCK_RECORD
  5
20B
330
1
100
AcDbSymbolTableRecord
100
AcDbBlockTableRecord
  2
*D10
340
0
  0
BLOCK_RECORD
  5
217
330
1
100
AcDbSymbolTableRecord
100
AcDbBlockTableRecord
  2
*D11
340
0
  0
BLOCK_RECORD
  5
223
330
1
100
AcDbSymbolTableRecord
100
AcDbBlockTableRecord
  2
*D12
340
0
  0
BLOCK_RECORD
  5
27D
330
1
100
AcDbSymbolTableRecord
100
AcDbBlockTableRecord
  2
*D13
340
0
  0
BLOCK_RECORD
  5
289
330
1
100
AcDbSymbolTableRecord
100
AcDbBlockTableRecord
  2
*D14
340
0
  0
BLOCK_RECORD
  5
295
330
1
100
AcDbSymbolTableRecord
100
AcDbBlockTableRecord
  2
*D15
340
0
  0
BLOCK_RECORD
  5
2A3
330
1
100
AcDbSymbolTableRecord
100
AcDbBlockTableRecord
  2
*D16
340
0
  0
BLOCK_RECORD
  5
2B1
330
1
100
AcDbSymbolTableRecord
100
AcDbBlockTableRecord
  2
*D17
340
0
  0
ENDTAB
  0
ENDSEC
  0
SECTION
  2
BLOCKS
  0
BLOCK
  5
20
330
1F
100
AcDbEntity
  8
0
100
AcDbBlockBegin
  2
*Model_Space
 70
     0
 10
0.0
 20
0.0
 30
0.0
  3
*Model_Space
  1
*Model_Space
  0
ENDBLK
  5
21
330
1F
100
AcDbEntity
  8
0
100
AcDbBlockEnd
  0
BLOCK
  5
1C
330
1B
100
AcDbEntity
 67
     1
  8
0
100
AcDbBlockBegin
  2
*Paper_Space
 70
     0
 10
0.0
 20
0.0
 30
0.0
  3
*Paper_Space
  1
*Paper_Space
  0
ENDBLK
  5
1D
330
1B
100
AcDbEntity
 67
     1
  8
0
100
AcDbBlockEnd
  0
BLOCK
  5
24
330
23
100
AcDbEntity
  8
0
100
AcDbBlockBegin
  2
*Paper_Space0
 70
     0
 10
0.0
 20
0.0
 30
0.0
  3
*Paper_Space0
  1
*Paper_Space0
  0
ENDBLK
  5
25
330
23
100
AcDbEntity
  8
0
100
AcDbBlockEnd
  0
BLOCK
  5
80
330
7F
100
AcDbEntity
  8
0
100
AcDbBlockBegin
  2
블럭10
 70
     2
 10
0.0
 20
0.0
 30
0.0
  3
블럭10
  1
블럭10
  0
ELLIPSE
  5
82
330
7F
100
AcDbEntity
  8
중심선
100
AcDbEllipse
 10
20.54032771741204
 20
12.0471743016438
 30
0.0
 11
6.600054785286829
 21
-1.261213355974178E-13
 31
0.0
210
0.0
220
0.0
230
1.0
 40
0.636358354079598
 41
0.9219305317359503
 42
6.513795318482858
  0
ELLIPSE
  5
83
330
7F
100
AcDbEntity
  8
중심선
100
AcDbEllipse
 10
20.54032771746488
 20
12.04717430159265
 30
0.0
 11
3.960054785062283
 21
1.540847449632565E-10
 31
0.0
210
0.0
220
0.0
230
1.0
 40
0.3939339440162632
 41
1.131841032648279
 42
5.62031148352944
  0
LINE
  5
84
330
7F
100
AcDbEntity
  8
중심선
100
AcDbLine
 10
2.268634060543552
 20
16.24717430164393
 30
0.0
 11
5.714909304380834
 21
16.24717430164393
 31
0.0
  0
LINE
  5
85
330
7F
100
AcDbEntity
  8
중심선
100
AcDbLine
 10
5.245725140726316
 20
7.84717430164391
 30
0.0
 11
8.692000384563599
 21
7.84717430164391
 31
0.0
  0
LINE
  5
86
330
7F
100
AcDbEntity
  8
중심선
100
AcDbLine
 10
15.74043728645272
 20
16.24717430164393
 30
0.0
 11
8.692000384563599
 21
7.84717430164391
 31
0.0
  0
LINE
  5
87
330
7F
100
AcDbEntity
  8
중심선
100
AcDbLine
 10
0.1404042013395286
 20
13.71084872107135
 30
0.0
 11
3.58671253028996
 21
13.71088815037384
 31
0.0
  0
LINE
  5
88
330
7F
100
AcDbEntity
  8
중심선
100
AcDbLine
 10
2.750260043222114
 20
10.84717430164391
 30
0.0
 11
6.196535287059397
 21
10.84717430164391
 31
0.0
  0
LINE
  5
89
330
7F
100
AcDbEntity
  8
중심선
100
AcDbLine
 10
12.29416204261559
 20
16.24717430164393
 30
0.0
 11
5.245725140726316
 21
7.84717430164391
 31
0.0
  0
LINE
  5
8A
330
7F
100
AcDbEntity
  8
중심선
100
AcDbLine
 10
10.72767329541681
 20
16.24717430164393
 30
0.0
 11
6.196535287059397
 21
10.84717430164391
 31
0.0
  0
LINE
  5
8B
330
7F
100
AcDbEntity
  8
중심선
100
AcDbLine
 10
7.28139805157953
 20
16.24717430164393
 30
0.0
 11
2.750260043222114
 21
10.84717430164391
 31
0.0
  0
LINE
  5
8C
330
7F
100
AcDbEntity
  8
중심선
100
AcDbLine
 10
5.714909304380834
 20
16.24717430164393
 30
0.0
 11
3.58671253028996
 21
13.71088815037384
 31
0.0
  0
LINE
  5
8D
330
7F
100
AcDbEntity
  8
중심선
100
AcDbLine
 10
2.268634060543552
 20
16.24717430164393
 30
0.0
 11
0.1404042013395286
 21
13.71084872107135
 31
0.0
  0
LINE
  5
8E
330
7F
100
AcDbEntity
  8
중심선
100
AcDbLine
 10
7.28139805157953
 20
16.24717430164393
 30
0.0
 11
10.72767329541681
 21
16.24717430164393
 31
0.0
  0
LINE
  5
8F
330
7F
100
AcDbEntity
  8
중심선
100
AcDbLine
 10
12.29416204261559
 20
16.24717430164393
 30
0.0
 11
15.74043728645272
 21
16.24717430164393
 31
0.0
  0
LINE
  5
90
330
7F
100
AcDbEntity
  8
중심선
100
AcDbLine
 10
19.22036997980202
 20
11.08717430171403
 30
0.0
 11
23.66174974927406
 21
11.08717430171406
 31
0.0
  0
LINE
  5
91
330
7F
100
AcDbEntity
  8
중심선
100
AcDbLine
 10
19.22039502424796
 20
13.00717430171391
 30
0.0
 11
19.22036997980202
 21
11.08717430171403
 31
0.0
  0
LINE
  5
92
330
7F
100
AcDbEntity
  8
중심선
100
AcDbLine
 10
19.22039502424796
 20
13.00717430171391
 30
0.0
 11
26.96566020931264
 21
13.00717430171391
 31
0.0
  0
LINE
  5
93
330
7F
100
AcDbEntity
  8
중심선
100
AcDbLine
 10
22.22332737316547
 20
13.45928029700563
 30
0.0
 11
24.52862924686651
 21
15.39360700705356
 31
0.0
  0
ATTDEF
  5
95
330
7F
100
AcDbEntity
  8
FORMAT
 62
     2
100
AcDbText
 10
4.408487351596664
 20
2.075366912832191
 30
0.0
 40
4.233333333333333
  1
E5062028
 41
0.75
  7
SLDTEXTSTYLE0
 11
4.408487351596664
 21
-0.0412997538344756
 31
0.0
100
AcDbAttributeDefinition
  3

  2
AUTOATTR0
 70
     0
 74
     1
  0
ENDBLK
  5
81
330
7F
100
AcDbEntity
  8
0
100
AcDbBlockEnd
  0
BLOCK
  5
CF
330
CE
100
AcDbEntity
  8
0
100
AcDbBlockBegin
  2
_D
 70
     0
 10
0.0
 20
0.0
 30
0.0
  3
_D
  1
_D
  0
LINE
  5
D1
330
CE
100
AcDbEntity
  8
치수문자_일반주서
 62
     0
370
    -2
100
AcDbLine
 10
86.19999999999995
 20
5.618749999999995
 30
0.0
 11
86.19999999999995
 21
12.99892507127612
 31
0.0
  0
LINE
  5
D2
330
CE
100
AcDbEntity
  8
치수문자_일반주서
 62
     0
370
    -2
100
AcDbLine
 10
10.00000000000001
 20
5.598317399179268
 30
0.0
 11
10.00000000000001
 21
12.99892507127612
 31
0.0
  0
LINE
  5
D3
330
CE
100
AcDbEntity
  8
치수문자_일반주서
 62
     0
370
    -2
100
AcDbLine
 10
82.89799999999994
 20
12.99892507127612
 30
0.0
 11
13.30200000000001
 21
12.99892507127612
 31
0.0
  0
SOLID
  5
D4
330
CE
100
AcDbEntity
  8
치수문자_일반주서
 62
     0
100
AcDbTrace
 10
82.89799999999994
 20
12.44859173794278
 30
0.0
 11
82.89799999999994
 21
13.54925840460945
 31
0.0
 12
86.19999999999995
 22
12.99892507127612
 32
0.0
 13
86.19999999999995
 23
12.99892507127612
 33
0.0
  0
SOLID
  5
D5
330
CE
100
AcDbEntity
  8
치수문자_일반주서
 62
     0
100
AcDbTrace
 10
13.30200000000001
 20
13.54925840460945
 30
0.0
 11
13.30200000000001
 21
12.44859173794278
 31
0.0
 12
10.00000000000001
 22
12.99892507127612
 32
0.0
 13
10.00000000000001
 23
12.99892507127612
 33
0.0
  0
MTEXT
  5
D6
330
CE
100
AcDbEntity
  8
치수문자_일반주서
 62
     0
100
AcDbMText
 10
49.81274868483676
 20
17.37392507127612
 30
0.0
 40
3.5
 41
0.0
 71
     2
 72
     1
  1
\A1;76.20 [3]
  7
SLDTEXTSTYLE0
 73
     1
 44
1.0
  0
POINT
  5
D7
330
CE
100
AcDbEntity
  8
Defpoints
 62
     0
100
AcDbPoint
 10
86.19999999999995
 20
5.556249999999995
 30
0.0
  0
POINT
  5
D8
330
CE
100
AcDbEntity
  8
Defpoints
 62
     0
100
AcDbPoint
 10
10.00000000000001
 20
5.535817399179268
 30
0.0
  0
POINT
  5
D9
330
CE
100
AcDbEntity
  8
Defpoints
 62
     0
100
AcDbPoint
 10
10.00000000000001
 20
12.99892507127612
 30
0.0
  0
ENDBLK
  5
D0
330
CE
100
AcDbEntity
  8
0
100
AcDbBlockEnd
  0
BLOCK
  5
E2
330
E1
100
AcDbEntity
  8
0
100
AcDbBlockBegin
  2
_D_1
 70
     0
 10
0.0
 20
0.0
 30
0.0
  3
_D_1
  1
_D_1
  0
LINE
  5
E4
330
E1
100
AcDbEntity
  8
치수문자_일반주서
 62
     0
370
    -2
100
AcDbLine
 10
86.19999999999995
 20
5.618749999999995
 30
0.0
 11
86.19999999999995
 21
29.60639052598201
 31
0.0
  0
LINE
  5
E5
330
E1
100
AcDbEntity
  8
치수문자_일반주서
 62
     0
370
    -2
100
AcDbLine
 10
-66.2
 20
4.507500000000001
 30
0.0
 11
-66.2
 21
29.60639052598201
 31
0.0
  0
LINE
  5
E6
330
E1
100
AcDbEntity
  8
치수문자_일반주서
 62
     0
370
    -2
100
AcDbLine
 10
82.89799999999994
 20
29.60639052598201
 30
0.0
 11
-62.898
 21
29.60639052598201
 31
0.0
  0
SOLID
  5
E7
330
E1
100
AcDbEntity
  8
치수문자_일반주서
 62
     0
100
AcDbTrace
 10
82.89799999999994
 20
29.05605719264868
 30
0.0
 11
82.89799999999994
 21
30.15672385931535
 31
0.0
 12
86.19999999999995
 22
29.60639052598201
 32
0.0
 13
86.19999999999995
 23
29.60639052598201
 33
0.0
  0
SOLID
  5
E8
330
E1
100
AcDbEntity
  8
치수문자_일반주서
 62
     0
100
AcDbTrace
 10
-62.898
 20
30.15672385931535
 30
0.0
 11
-62.898
 21
29.05605719264868
 31
0.0
 12
-66.2
 22
29.60639052598201
 32
0.0
 13
-66.2
 23
29.60639052598201
 33
0.0
  0
MTEXT
  5
E9
330
E1
100
AcDbEntity
  8
치수문자_일반주서
 62
     0
100
AcDbMText
 10
9.999999999999972
 20
33.98139052598201
 30
0.0
 40
3.5
 41
0.0
 71
     2
 72
     1
  1
\A1;152.40 [6]
  7
SLDTEXTSTYLE0
 73
     1
 44
1.0
  0
POINT
  5
EA
330
E1
100
AcDbEntity
  8
Defpoints
 62
     0
100
AcDbPoint
 10
86.19999999999995
 20
5.556249999999995
 30
0.0
  0
POINT
  5
EB
330
E1
100
AcDbEntity
  8
Defpoints
 62
     0
100
AcDbPoint
 10
-66.2
 20
4.445000000000001
 30
0.0
  0
POINT
  5
EC
330
E1
100
AcDbEntity
  8
Defpoints
 62
     0
100
AcDbPoint
 10
-66.2
 20
29.60639052598201
 30
0.0
  0
ENDBLK
  5
E3
330
E1
100
AcDbEntity
  8
0
100
AcDbBlockEnd
  0
BLOCK
  5
F6
330
F5
100
AcDbEntity
  8
0
100
AcDbBlockBegin
  2
_D_2
 70
     0
 10
0.0
 20
0.0
 30
0.0
  3
_D_2
  1
_D_2
  0
LINE
  5
F8
330
F5
100
AcDbEntity
  8
치수문자_일반주서
 62
     0
370
    -2
100
AcDbLine
 10
-65.15124999999999
 20
5.556250000000009
 30
0.0
 11
-76.10809861309261
 21
5.556249999999967
 31
0.0
  0
LINE
  5
F9
330
F5
100
AcDbEntity
  8
치수문자_일반주서
 62
     0
370
    -2
100
AcDbLine
 10
-65.15124999999999
 20
-5.556250000000016
 30
0.0
 11
-76.10809861309257
 21
-5.556250000000059
 31
0.0
  0
LINE
  5
FA
330
F5
100
AcDbEntity
  8
치수문자_일반주서
 62
     0
370
    -2
100
AcDbLine
 10
-76.10809861309261
 20
5.556249999999967
 30
0.0
 11
-76.10809861309274
 21
38.62899999999997
 31
0.0
  0
LINE
  5
FB
330
F5
100
AcDbEntity
  8
치수문자_일반주서
 62
     0
370
    -2
100
AcDbLine
 10
-76.1080986130926
 20
2.254249999999967
 30
0.0
 11
-76.10809861309258
 21
-2.254250000000059
 31
0.0
  0
SOLID
  5
FC
330
F5
100
AcDbEntity
  8
치수문자_일반주서
 62
     0
100
AcDbTrace
 10
-75.55776527975927
 20
2.254249999999969
 30
0.0
 11
-76.65843194642592
 21
2.254249999999965
 31
0.0
 12
-76.10809861309261
 22
5.556249999999967
 32
0.0
 13
-76.10809861309261
 23
5.556249999999967
 33
0.0
  0
SOLID
  5
FD
330
F5
100
AcDbEntity
  8
치수문자_일반주서
 62
     0
100
AcDbTrace
 10
-76.6584319464259
 20
-2.254250000000062
 30
0.0
 11
-75.55776527975925
 21
-2.254250000000057
 31
0.0
 12
-76.10809861309257
 22
-5.556250000000059
 32
0.0
 13
-76.10809861309257
 23
-5.556250000000059
 33
0.0
  0
MTEXT
  5
FE
330
F5
100
AcDbEntity
  8
치수문자_일반주서
 62
     0
100
AcDbMText
 10
-80.48309861309268
 20
25.06649999999995
 30
0.0
 40
3.5
 41
0.0
 71
     2
 72
     1
  1
\A1;%%c11.11 [7/16]
  7
SLDTEXTSTYLE0
 11
-3.836451216702445E-15
 21
1.0
 31
0.0
 73
     1
 44
1.0
  0
POINT
  5
FF
330
F5
100
AcDbEntity
  8
Defpoints
 62
     0
100
AcDbPoint
 10
-65.08874999999999
 20
5.556250000000009
 30
0.0
  0
POINT
  5
100
330
F5
100
AcDbEntity
  8
Defpoints
 62
     0
100
AcDbPoint
 10
-65.08874999999999
 20
-5.556250000000016
 30
0.0
  0
POINT
  5
101
330
F5
100
AcDbEntity
  8
Defpoints
 62
     0
100
AcDbPoint
 10
-76.10809861309258
 20
-5.556250000000057
 30
0.0
  0
ENDBLK
  5
F7
330
F5
100
AcDbEntity
  8
0
100
AcDbBlockEnd
  0
BLOCK
  5
10B
330
10A
100
AcDbEntity
  8
0
100
AcDbBlockBegin
  2
_D_3
 70
     0
 10
0.0
 20
0.0
 30
0.0
  3
_D_3
  1
_D_3
  0
LINE
  5
10D
330
10A
100
AcDbEntity
  8
치수문자_일반주서
 62
     0
370
    -2
100
AcDbLine
 10
86.26249999999995
 20
-5.55625
 30
0.0
 11
99.1436771821475
 21
-5.556249999999952
 31
0.0
  0
LINE
  5
10E
330
10A
100
AcDbEntity
  8
치수문자_일반주서
 62
     0
370
    -2
100
AcDbLine
 10
86.26249999999995
 20
5.556249999999995
 30
0.0
 11
99.14367718214746
 21
5.556250000000041
 31
0.0
  0
LINE
  5
10F
330
10A
100
AcDbEntity
  8
치수문자_일반주서
 62
     0
370
    -2
100
AcDbLine
 10
99.14367718214746
 20
5.556250000000041
 30
0.0
 11
99.14367718214733
 21
35.98325000000004
 31
0.0
  0
LINE
  5
110
330
10A
100
AcDbEntity
  8
치수문자_일반주서
 62
     0
370
    -2
100
AcDbLine
 10
99.14367718214748
 20
-2.254249999999953
 30
0.0
 11
99.14367718214747
 21
2.254250000000042
 31
0.0
  0
SOLID
  5
111
330
10A
100
AcDbEntity
  8
치수문자_일반주서
 62
     0
100
AcDbTrace
 10
98.59334384881416
 20
-2.254249999999955
 30
0.0
 11
99.69401051548081
 21
-2.254249999999951
 31
0.0
 12
99.1436771821475
 22
-5.556249999999952
 32
0.0
 13
99.1436771821475
 23
-5.556249999999952
 33
0.0
  0
SOLID
  5
112
330
10A
100
AcDbEntity
  8
치수문자_일반주서
 62
     0
100
AcDbTrace
 10
99.6940105154808
 20
2.254250000000044
 30
0.0
 11
98.59334384881414
 21
2.254250000000039
 31
0.0
 12
99.14367718214746
 22
5.556250000000041
 32
0.0
 13
99.14367718214746
 23
5.556250000000041
 33
0.0
  0
MTEXT
  5
113
330
10A
100
AcDbEntity
  8
치수문자_일반주서
 62
     0
100
AcDbMText
 10
94.76867718214739
 20
22.42075000000002
 30
0.0
 40
3.5
 41
0.0
 71
     2
 72
     1
  1
\A1;%%c11.11 [7/16]
  7
SLDTEXTSTYLE0
 11
-3.836451216702455E-15
 21
1.0
 31
0.0
 73
     1
 44
1.0
  0
POINT
  5
114
330
10A
100
AcDbEntity
  8
Defpoints
 62
     0
100
AcDbPoint
 10
86.19999999999995
 20
-5.55625
 30
0.0
  0
POINT
  5
115
330
10A
100
AcDbEntity
  8
Defpoints
 62
     0
100
AcDbPoint
 10
86.19999999999995
 20
5.556249999999995
 30
0.0
  0
POINT
  5
116
330
10A
100
AcDbEntity
  8
Defpoints
 62
     0
100
AcDbPoint
 10
99.14367718214741
 20
5.556250000000043
 30
0.0
  0
ENDBLK
  5
10C
330
10A
100
AcDbEntity
  8
0
100
AcDbBlockEnd
  0
BLOCK
  5
124
330
123
100
AcDbEntity
  8
0
100
AcDbBlockBegin
  2
SW_DOWELSYMBOL_0
 70
     0
 10
0.0
 20
0.0
 30
0.0
  3
SW_DOWELSYMBOL_0
  1
SW_DOWELSYMBOL_0
  0
CIRCLE
  5
126
330
123
100
AcDbEntity
  8
해칭선
 62
     0
100
AcDbCircle
 10
0.0
 20
0.0
 30
0.0
 40
3.000000000000001
  0
HATCH
  5
127
330
123
100
AcDbEntity
  8
0
  6
Continuous
 62
     0
370
     0
100
AcDbHatch
 10
0.0
 20
0.0
 30
0.0
210
0.0
220
0.0
230
1.0
  2
SOLID
 70
     1
 71
     0
 91
        1
 92
        0
 93
        3
 72
     2
 10
0.0
 20
0.0
 40
3.000000000000001
 50
0.0
 51
90.0
 73
     1
 72
     1
 10
0.0
 20
3.000000000000001
 11
0.0
 21
0.0
 72
     1
 10
0.0
 20
0.0
 11
3.000000000000003
 21
0.0
 97
        0
 75
     0
 76
     1
 98
        1
 10
0.0
 20
0.0
  0
HATCH
  5
128
330
123
100
AcDbEntity
  8
0
  6
Continuous
 62
     0
370
     0
100
AcDbHatch
 10
0.0
 20
0.0
 30
0.0
210
0.0
220
0.0
230
1.0
  2
SOLID
 70
     1
 71
     0
 91
        1
 92
        0
 93
        3
 72
     2
 10
0.0
 20
0.0
 40
3.000000000000001
 50
180.0
 51
270.0000000000008
 73
     1
 72
     1
 10
0.0
 20
-3.000000000000001
 11
0.0
 21
0.0
 72
     1
 10
0.0
 20
0.0
 11
-3.000000000000003
 21
0.0
 97
        0
 75
     0
 76
     1
 98
        1
 10
0.0
 20
0.0
  0
ENDBLK
  5
125
330
123
100
AcDbEntity
  8
0
100
AcDbBlockEnd
  0
BLOCK
  5
1E6
330
1E5
100
AcDbEntity
  8
0
100
AcDbBlockBegin
  2
_D_4
 70
     0
 10
0.0
 20
0.0
 30
0.0
  3
_D_4
  1
_D_4
  0
LINE
  5
1E7
330
1E5
100
AcDbEntity
  8
치수문자_일반주서
 62
     0
370
    -2
100
AcDbLine
 10
102.4375000000001
 20
36.22143424691529
 30
0.0
 11
117.3750000000001
 21
36.22143424691535
 31
0.0
  0
LINE
  5
1E8
330
1E5
100
AcDbEntity
  8
치수문자_일반주서
 62
     0
370
    -2
100
AcDbLine
 10
102.4375000000001
 20
22.22143424691529
 30
0.0
 11
117.3750000000001
 21
22.22143424691535
 31
0.0
  0
LINE
  5
1E9
330
1E5
100
AcDbEntity
  8
치수문자_일반주서
 62
     0
370
    -2
100
AcDbLine
 10
117.3750000000001
 20
36.22143424691535
 30
0.0
 11
117.3750000000001
 21
22.22143424691535
 31
0.0
  0
LINE
  5
1EA
330
1E5
100
AcDbEntity
  8
치수문자_일반주서
 62
     0
370
    -2
100
AcDbLine
 10
117.3750000000001
 20
39.52343424691535
 30
0.0
 11
117.375
 21
42.82543424691535
 31
0.0
  0
LINE
  5
1EB
330
1E5
100
AcDbEntity
  8
치수문자_일반주서
 62
     0
370
    -2
100
AcDbLine
 10
117.3750000000001
 20
18.91943424691535
 30
0.0
 11
117.3750000000001
 21
15.61743424691535
 31
0.0
  0
SOLID
  5
1EC
330
1E5
100
AcDbEntity
  8
치수문자_일반주서
 62
     0
100
AcDbTrace
 10
116.8246666666667
 20
39.52343424691535
 30
0.0
 11
117.9253333333334
 21
39.52343424691535
 31
0.0
 12
117.3750000000001
 22
36.22143424691535
 32
0.0
 13
117.3750000000001
 23
36.22143424691535
 33
0.0
  0
SOLID
  5
1ED
330
1E5
100
AcDbEntity
  8
치수문자_일반주서
 62
     0
100
AcDbTrace
 10
117.9253333333335
 20
18.91943424691535
 30
0.0
 11
116.8246666666668
 21
18.91943424691535
 31
0.0
 12
117.3750000000001
 22
22.22143424691535
 32
0.0
 13
117.3750000000001
 23
22.22143424691535
 33
0.0
  0
MTEXT
  5
1EE
330
1E5
100
AcDbEntity
  8
치수문자_일반주서
 62
     0
100
AcDbMText
 10
113.0000000000001
 20
29.28713862862833
 30
0.0
 40
3.5
 41
0.0
 71
     2
 72
     1
  1
\A1;%%c14 [0.55]
  7
SLDTEXTSTYLE0
 11
-3.045183153257572E-15
 21
1.0
 31
0.0
 73
     1
 44
1.0
  0
POINT
  5
1EF
330
1E5
100
AcDbEntity
  8
Defpoints
 62
     0
100
AcDbPoint
 10
102.3750000000001
 20
36.22143424691529
 30
0.0
  0
POINT
  5
1F0
330
1E5
100
AcDbEntity
  8
Defpoints
 62
     0
100
AcDbPoint
 10
102.3750000000001
 20
22.22143424691529
 30
0.0
  0
POINT
  5
1F1
330
1E5
100
AcDbEntity
  8
Defpoints
 62
     0
100
AcDbPoint
 10
117.3750000000001
 20
22.22143424691535
 30
0.0
  0
ENDBLK
  5
1F2
330
1E5
100
AcDbEntity
  8
0
100
AcDbBlockEnd
  0
BLOCK
  5
200
330
1FF
100
AcDbEntity
  8
0
100
AcDbBlockBegin
  2
*D9
 70
     1
 10
0.0
 20
0.0
 30
0.0
  3
*D9
  1
*D8
  0
LINE
  5
201
330
1FF
100
AcDbEntity
  8
치수문자_일반주서
 62
     0
370
    -2
100
AcDbLine
 10
103.8657751816695
 20
19.48229575403651
 30
0.0
 11
119.6194267469468
 21
-6.150060756304035
 31
0.0
  0
MTEXT
  5
202
330
1FF
100
AcDbEntity
  8
치수문자_일반주서
 62
     0
100
AcDbMText
 10
115.6706384014277
 20
5.288158154535728
 30
0.0
 40
3.5
 41
0.0
 71
     5
 72
     1
  1
\A1;R.5 [R0.02]
  7
SLDTEXTSTYLE0
 11
0.5236126201129557
 21
-0.8519564684057781
 31
0.0
 73
     1
 44
1.0
  0
LINE
  5
203
330
1FF
100
AcDbEntity
  8
치수문자_일반주서
 62
     0
370
    -2
100
AcDbLine
 10
101.875
 20
22.72143424691529
 30
0.0
 11
102.1368063100565
 21
22.29545601271239
 31
0.0
  0
SOLID
  5
204
330
1FF
100
AcDbEntity
  8
치수문자_일반주서
 62
     0
100
AcDbTrace
 10
104.3346352247821
 20
19.77045723263868
 30
0.0
 11
103.3969151385569
 21
19.19413427543435
 31
0.0
 12
102.1368063100565
 22
22.29545601271239
 32
0.0
 13
102.1368063100565
 23
22.29545601271239
 33
0.0
  0
POINT
  5
205
330
1FF
100
AcDbEntity
  8
Defpoints
 62
     0
100
AcDbPoint
 10
102.1368063100565
 20
22.29545601271239
 30
0.0
  0
POINT
  5
231
330
1FF
100
AcDbEntity
  8
Defpoints
 62
     0
100
AcDbPoint
 10
101.875
 20
22.72143424691529
 30
0.0
  0
ENDBLK
  5
206
330
1FF
100
AcDbEntity
  8
0
100
AcDbBlockEnd
  0
BLOCK
  5
20C
330
20B
100
AcDbEntity
  8
0
100
AcDbBlockBegin
  2
*D10
 70
     1
 10
0.0
 20
0.0
 30
0.0
  3
*D10
  1
*D10
  0
LINE
  5
20E
330
20B
100
AcDbEntity
  8
치수문자_일반주서
 62
     0
370
    -2
100
AcDbLine
 10
19.37500000000004
 20
35.78393424691529
 30
0.0
 11
19.37500000000004
 21
70.88391841499404
 31
0.0
  0
LINE
  5
20F
330
20B
100
AcDbEntity
  8
치수문자_일반주서
 62
     0
370
    -2
100
AcDbLine
 10
102.3750000000001
 20
36.34643424691529
 30
0.0
 11
102.3750000000001
 21
70.88391841499404
 31
0.0
  0
LINE
  5
210
330
20B
100
AcDbEntity
  8
치수문자_일반주서
 62
     0
370
    -2
100
AcDbLine
 10
22.67700000000004
 20
70.88391841499404
 30
0.0
 11
99.07300000000006
 21
70.88391841499404
 31
0.0
  0
SOLID
  5
211
330
20B
100
AcDbEntity
  8
치수문자_일반주서
 62
     0
100
AcDbTrace
 10
22.67700000000004
 20
71.43425174832737
 30
0.0
 11
22.67700000000004
 21
70.33358508166071
 31
0.0
 12
19.37500000000004
 22
70.88391841499404
 32
0.0
 13
19.37500000000004
 23
70.88391841499404
 33
0.0
  0
SOLID
  5
212
330
20B
100
AcDbEntity
  8
치수문자_일반주서
 62
     0
100
AcDbTrace
 10
99.07300000000006
 20
70.33358508166071
 30
0.0
 11
99.07300000000006
 21
71.43425174832737
 31
0.0
 12
102.3750000000001
 22
70.88391841499404
 32
0.0
 13
102.3750000000001
 23
70.88391841499404
 33
0.0
  0
MTEXT
  5
213
330
20B
100
AcDbEntity
  8
치수문자_일반주서
 62
     0
100
AcDbMText
 10
60.87500000000005
 20
75.25891841499404
 30
0.0
 40
3.5
 41
0.0
 71
     2
 72
     1
  1
\A1;83.00 [3.27]
  7
SLDTEXTSTYLE0
 73
     1
 44
1.0
  0
POINT
  5
214
330
20B
100
AcDbEntity
  8
Defpoints
 62
     0
100
AcDbPoint
 10
19.37500000000004
 20
35.72143424691529
 30
0.0
  0
POINT
  5
215
330
20B
100
AcDbEntity
  8
Defpoints
 62
     0
100
AcDbPoint
 10
102.3750000000001
 20
36.28393424691529
 30
0.0
  0
POINT
  5
216
330
20B
100
AcDbEntity
  8
Defpoints
 62
     0
100
AcDbPoint
 10
102.3750000000001
 20
70.88391841499404
 30
0.0
  0
ENDBLK
  5
20D
330
20B
100
AcDbEntity
  8
0
100
AcDbBlockEnd
  0
BLOCK
  5
218
330
217
100
AcDbEntity
  8
0
100
AcDbBlockBegin
  2
*D11
 70
     1
 10
0.0
 20
0.0
 30
0.0
  3
*D11
  1
*D11
  0
LINE
  5
21A
330
217
100
AcDbEntity
  8
치수문자_일반주서
 62
     0
370
    -2
100
AcDbLine
 10
76.37504186422882
 20
28.62038676313042
 30
0.0
 11
76.37504186422882
 21
61.90091383617725
 31
0.0
  0
LINE
  5
21B
330
217
100
AcDbEntity
  8
치수문자_일반주서
 62
     0
370
    -2
100
AcDbLine
 10
102.3750000000001
 20
36.28393424691529
 30
0.0
 11
102.3750000000001
 21
61.90091383617725
 31
0.0
  0
LINE
  5
21C
330
217
100
AcDbEntity
  8
치수문자_일반주서
 62
     0
370
    -2
100
AcDbLine
 10
79.67704186422881
 20
61.90091383617725
 30
0.0
 11
99.07300000000006
 21
61.90091383617725
 31
0.0
  0
SOLID
  5
21D
330
217
100
AcDbEntity
  8
치수문자_일반주서
 62
     0
100
AcDbTrace
 10
79.67704186422881
 20
62.45124716951059
 30
0.0
 11
79.67704186422881
 21
61.35058050284392
 31
0.0
 12
76.37504186422882
 22
61.90091383617725
 32
0.0
 13
76.37504186422882
 23
61.90091383617725
 33
0.0
  0
SOLID
  5
21E
330
217
100
AcDbEntity
  8
치수문자_일반주서
 62
     0
100
AcDbTrace
 10
99.07300000000006
 20
61.35058050284392
 30
0.0
 11
99.07300000000006
 21
62.45124716951059
 31
0.0
 12
102.3750000000001
 22
61.90091383617725
 32
0.0
 13
102.3750000000001
 23
61.90091383617725
 33
0.0
  0
MTEXT
  5
21F
330
217
100
AcDbEntity
  8
치수문자_일반주서
 62
     0
100
AcDbMText
 10
89.42159572693208
 20
66.27591383617725
 30
0.0
 40
3.5
 41
0.0
 71
     2
 72
     1
  1
\A1;26.00 [1.02]
  7
SLDTEXTSTYLE0
 73
     1
 44
1.0
  0
POINT
  5
220
330
217
100
AcDbEntity
  8
Defpoints
 62
     0
100
AcDbPoint
 10
76.37504186422882
 20
28.55788676313042
 30
0.0
  0
POINT
  5
221
330
217
100
AcDbEntity
  8
Defpoints
 62
     0
100
AcDbPoint
 10
102.3750000000001
 20
36.22143424691529
 30
0.0
  0
POINT
  5
222
330
217
100
AcDbEntity
  8
Defpoints
 62
     0
100
AcDbPoint
 10
102.3750000000001
 20
61.90091383617725
 30
0.0
  0
ENDBLK
  5
219
330
217
100
AcDbEntity
  8
0
100
AcDbBlockEnd
  0
BLOCK
  5
224
330
223
100
AcDbEntity
  8
0
100
AcDbBlockBegin
  2
*D12
 70
     1
 10
0.0
 20
0.0
 30
0.0
  3
*D12
  1
*D12
  0
LINE
  5
226
330
223
100
AcDbEntity
  8
치수문자_일반주서
 62
     0
370
    -2
100
AcDbLine
 10
19.81250000000005
 20
36.22143424691529
 30
0.0
 11
4.374999999999983
 21
36.22143424691524
 31
0.0
  0
LINE
  5
227
330
223
100
AcDbEntity
  8
치수문자_일반주서
 62
     0
370
    -2
100
AcDbLine
 10
19.81250000000005
 20
22.22143424691529
 30
0.0
 11
4.375000000000032
 21
22.22143424691524
 31
0.0
  0
LINE
  5
228
330
223
100
AcDbEntity
  8
치수문자_일반주서
 62
     0
370
    -2
100
AcDbLine
 10
4.374999999999983
 20
36.22143424691524
 30
0.0
 11
4.375000000000032
 21
22.22143424691524
 31
0.0
  0
LINE
  5
229
330
223
100
AcDbEntity
  8
치수문자_일반주서
 62
     0
370
    -2
100
AcDbLine
 10
4.374999999999972
 20
39.52343424691524
 30
0.0
 11
4.37499999999996
 21
42.82543424691524
 31
0.0
  0
LINE
  5
22A
330
223
100
AcDbEntity
  8
치수문자_일반주서
 62
     0
370
    -2
100
AcDbLine
 10
4.375000000000044
 20
18.91943424691524
 30
0.0
 11
4.375000000000055
 21
15.61743424691524
 31
0.0
  0
SOLID
  5
22B
330
223
100
AcDbEntity
  8
치수문자_일반주서
 62
     0
100
AcDbTrace
 10
3.824666666666638
 20
39.52343424691524
 30
0.0
 11
4.925333333333305
 21
39.52343424691524
 31
0.0
 12
4.374999999999983
 22
36.22143424691524
 32
0.0
 13
4.374999999999983
 23
36.22143424691524
 33
0.0
  0
SOLID
  5
22C
330
223
100
AcDbEntity
  8
치수문자_일반주서
 62
     0
100
AcDbTrace
 10
4.925333333333377
 20
18.91943424691524
 30
0.0
 11
3.82466666666671
 21
18.91943424691523
 31
0.0
 12
4.375000000000032
 22
22.22143424691524
 32
0.0
 13
4.375000000000032
 23
22.22143424691524
 33
0.0
  0
MTEXT
  5
22D
330
223
100
AcDbEntity
  8
치수문자_일반주서
 62
     0
100
AcDbMText
 10
0.0000000000000071
 20
29.22143424691528
 30
0.0
 40
3.5
 41
0.0
 71
     2
 72
     1
  1
\A1;%%c14 [0.55]
  7
SLDTEXTSTYLE0
 11
-3.489272363107635E-15
 21
1.0
 31
0.0
 73
     1
 44
1.0
  0
POINT
  5
22E
330
223
100
AcDbEntity
  8
Defpoints
 62
     0
100
AcDbPoint
 10
19.87500000000005
 20
36.22143424691529
 30
0.0
  0
POINT
  5
22F
330
223
100
AcDbEntity
  8
Defpoints
 62
     0
100
AcDbPoint
 10
19.87500000000005
 20
22.22143424691529
 30
0.0
  0
POINT
  5
230
330
223
100
AcDbEntity
  8
Defpoints
 62
     0
100
AcDbPoint
 10
4.375000000000043
 20
22.22143424691524
 30
0.0
  0
ENDBLK
  5
225
330
223
100
AcDbEntity
  8
0
100
AcDbBlockEnd
  0
BLOCK
  5
27E
330
27D
100
AcDbEntity
  8
0
100
AcDbBlockBegin
  2
*D13
 70
     1
 10
0.0
 20
0.0
 30
0.0
  3
*D13
  1
*D13
  0
LINE
  5
280
330
27D
100
AcDbEntity
  8
치수문자_일반주서
 62
     0
370
    -2
100
AcDbLine
 10
-18.9573049336326
 20
104.5578797756881
 30
0.0
 11
-18.9573049336326
 21
139.6578639437668
 31
0.0
  0
LINE
  5
281
330
27D
100
AcDbEntity
  8
치수문자_일반주서
 62
     0
370
    -2
100
AcDbLine
 10
64.04269506636741
 20
105.1203797756881
 30
0.0
 11
64.04269506636741
 21
139.6578639437668
 31
0.0
  0
LINE
  5
282
330
27D
100
AcDbEntity
  8
치수문자_일반주서
 62
     0
370
    -2
100
AcDbLine
 10
-15.6553049336326
 20
139.6578639437668
 30
0.0
 11
60.74069506636742
 21
139.6578639437668
 31
0.0
  0
SOLID
  5
283
330
27D
100
AcDbEntity
  8
치수문자_일반주서
 62
     0
100
AcDbTrace
 10
-15.6553049336326
 20
140.2081972771002
 30
0.0
 11
-15.6553049336326
 21
139.1075306104335
 31
0.0
 12
-18.9573049336326
 22
139.6578639437668
 32
0.0
 13
-18.9573049336326
 23
139.6578639437668
 33
0.0
  0
SOLID
  5
284
330
27D
100
AcDbEntity
  8
치수문자_일반주서
 62
     0
100
AcDbTrace
 10
60.74069506636742
 20
139.1075306104335
 30
0.0
 11
60.74069506636742
 21
140.2081972771002
 31
0.0
 12
64.04269506636741
 22
139.6578639437668
 32
0.0
 13
64.04269506636741
 23
139.6578639437668
 33
0.0
  0
MTEXT
  5
285
330
27D
100
AcDbEntity
  8
치수문자_일반주서
 62
     0
100
AcDbMText
 10
22.54269506636741
 20
144.0328639437668
 30
0.0
 40
3.5
 41
0.0
 71
     2
 72
     1
  1
\A1;83.00 [3.27]
  7
SLDTEXTSTYLE0
 73
     1
 44
1.0
  0
POINT
  5
286
330
27D
100
AcDbEntity
  8
Defpoints
 62
     0
100
AcDbPoint
 10
-18.9573049336326
 20
104.4953797756881
 30
0.0
  0
POINT
  5
287
330
27D
100
AcDbEntity
  8
Defpoints
 62
     0
100
AcDbPoint
 10
64.04269506636741
 20
105.0578797756881
 30
0.0
  0
POINT
  5
288
330
27D
100
AcDbEntity
  8
Defpoints
 62
     0
100
AcDbPoint
 10
64.04269506636741
 20
139.6578639437668
 30
0.0
  0
ENDBLK
  5
27F
330
27D
100
AcDbEntity
  8
0
100
AcDbBlockEnd
  0
BLOCK
  5
28A
330
289
100
AcDbEntity
  8
0
100
AcDbBlockBegin
  2
*D14
 70
     1
 10
0.0
 20
0.0
 30
0.0
  3
*D14
  1
*D14
  0
LINE
  5
28C
330
289
100
AcDbEntity
  8
치수문자_일반주서
 62
     0
370
    -2
100
AcDbLine
 10
38.04273693059618
 20
97.39433229190323
 30
0.0
 11
38.04273693059618
 21
130.6748593649501
 31
0.0
  0
LINE
  5
28D
330
289
100
AcDbEntity
  8
치수문자_일반주서
 62
     0
370
    -2
100
AcDbLine
 10
64.04269506636741
 20
105.0578797756881
 30
0.0
 11
64.04269506636741
 21
130.6748593649501
 31
0.0
  0
LINE
  5
28E
330
289
100
AcDbEntity
  8
치수문자_일반주서
 62
     0
370
    -2
100
AcDbLine
 10
41.34473693059618
 20
130.6748593649501
 30
0.0
 11
60.74069506636742
 21
130.6748593649501
 31
0.0
  0
SOLID
  5
28F
330
289
100
AcDbEntity
  8
치수문자_일반주서
 62
     0
100
AcDbTrace
 10
41.34473693059618
 20
131.2251926982834
 30
0.0
 11
41.34473693059618
 21
130.1245260316167
 31
0.0
 12
38.04273693059618
 22
130.6748593649501
 32
0.0
 13
38.04273693059618
 23
130.6748593649501
 33
0.0
  0
SOLID
  5
290
330
289
100
AcDbEntity
  8
치수문자_일반주서
 62
     0
100
AcDbTrace
 10
60.74069506636742
 20
130.1245260316167
 30
0.0
 11
60.74069506636742
 21
131.2251926982834
 31
0.0
 12
64.04269506636741
 22
130.6748593649501
 32
0.0
 13
64.04269506636741
 23
130.6748593649501
 33
0.0
  0
MTEXT
  5
291
330
289
100
AcDbEntity
  8
치수문자_일반주서
 62
     0
100
AcDbMText
 10
51.08929079329944
 20
135.0498593649501
 30
0.0
 40
3.5
 41
0.0
 71
     2
 72
     1
  1
\A1;26.00 [1.02]
  7
SLDTEXTSTYLE0
 73
     1
 44
1.0
  0
POINT
  5
292
330
289
100
AcDbEntity
  8
Defpoints
 62
     0
100
AcDbPoint
 10
38.04273693059618
 20
97.33183229190323
 30
0.0
  0
POINT
  5
293
330
289
100
AcDbEntity
  8
Defpoints
 62
     0
100
AcDbPoint
 10
64.04269506636741
 20
104.9953797756881
 30
0.0
  0
POINT
  5
294
330
289
100
AcDbEntity
  8
Defpoints
 62
     0
100
AcDbPoint
 10
64.04269506636741
 20
130.6748593649501
 30
0.0
  0
ENDBLK
  5
28B
330
289
100
AcDbEntity
  8
0
100
AcDbBlockEnd
  0
BLOCK
  5
296
330
295
100
AcDbEntity
  8
0
100
AcDbBlockBegin
  2
*D15
 70
     1
 10
0.0
 20
0.0
 30
0.0
  3
*D15
  1
*D15
  0
LINE
  5
298
330
295
100
AcDbEntity
  8
치수문자_일반주서
 62
     0
370
    -2
100
AcDbLine
 10
-18.51980493363259
 20
104.9953797756881
 30
0.0
 11
-33.95730493363266
 21
104.995379775688
 31
0.0
  0
LINE
  5
299
330
295
100
AcDbEntity
  8
치수문자_일반주서
 62
     0
370
    -2
100
AcDbLine
 10
-18.51980493363259
 20
90.9953797756881
 30
0.0
 11
-33.95730493363261
 21
90.99537977568804
 31
0.0
  0
LINE
  5
29A
330
295
100
AcDbEntity
  8
치수문자_일반주서
 62
     0
370
    -2
100
AcDbLine
 10
-33.95730493363266
 20
104.995379775688
 30
0.0
 11
-33.95730493363261
 21
90.99537977568804
 31
0.0
  0
LINE
  5
29B
330
295
100
AcDbEntity
  8
치수문자_일반주서
 62
     0
370
    -2
100
AcDbLine
 10
-33.95730493363267
 20
108.297379775688
 30
0.0
 11
-33.95730493363268
 21
111.599379775688
 31
0.0
  0
LINE
  5
29C
330
295
100
AcDbEntity
  8
치수문자_일반주서
 62
     0
370
    -2
100
AcDbLine
 10
-33.95730493363259
 20
87.69337977568804
 30
0.0
 11
-33.95730493363258
 21
84.39137977568805
 31
0.0
  0
SOLID
  5
29D
330
295
100
AcDbEntity
  8
치수문자_일반주서
 62
     0
100
AcDbTrace
 10
-34.507638266966
 20
108.297379775688
 30
0.0
 11
-33.40697160029934
 21
108.297379775688
 31
0.0
 12
-33.95730493363266
 22
104.995379775688
 32
0.0
 13
-33.95730493363266
 23
104.995379775688
 33
0.0
  0
SOLID
  5
29E
330
295
100
AcDbEntity
  8
치수문자_일반주서
 62
     0
100
AcDbTrace
 10
-33.40697160029926
 20
87.69337977568804
 30
0.0
 11
-34.50763826696593
 21
87.69337977568804
 31
0.0
 12
-33.95730493363261
 22
90.99537977568804
 32
0.0
 13
-33.95730493363261
 23
90.99537977568804
 33
0.0
  0
MTEXT
  5
29F
330
295
100
AcDbEntity
  8
치수문자_일반주서
 62
     0
100
AcDbMText
 10
-38.33230493363263
 20
97.99537977568808
 30
0.0
 40
3.5
 41
0.0
 71
     2
 72
     1
  1
\A1;%%c14 [0.55]
  7
SLDTEXTSTYLE0
 11
-3.552713678800501E-15
 21
1.0
 31
0.0
 73
     1
 44
1.0
  0
POINT
  5
2A0
330
295
100
AcDbEntity
  8
Defpoints
 62
     0
100
AcDbPoint
 10
-18.45730493363259
 20
104.9953797756881
 30
0.0
  0
POINT
  5
2A1
330
295
100
AcDbEntity
  8
Defpoints
 62
     0
100
AcDbPoint
 10
-18.45730493363259
 20
90.9953797756881
 30
0.0
  0
POINT
  5
2A2
330
295
100
AcDbEntity
  8
Defpoints
 62
     0
100
AcDbPoint
 10
-33.95730493363261
 20
90.99537977568804
 30
0.0
  0
ENDBLK
  5
297
330
295
100
AcDbEntity
  8
0
100
AcDbBlockEnd
  0
BLOCK
  5
2A4
330
2A3
100
AcDbEntity
  8
0
100
AcDbBlockBegin
  2
*D16
 70
     1
 10
0.0
 20
0.0
 30
0.0
  3
*D16
  1
*D16
  0
LINE
  5
2A6
330
2A3
100
AcDbEntity
  8
치수문자_일반주서
 62
     0
370
    -2
100
AcDbLine
 10
64.10519506636743
 20
104.9953797756881
 30
0.0
 11
79.04269506636743
 21
104.9953797756881
 31
0.0
  0
LINE
  5
2A7
330
2A3
100
AcDbEntity
  8
치수문자_일반주서
 62
     0
370
    -2
100
AcDbLine
 10
64.10519506636741
 20
90.9953797756881
 30
0.0
 11
79.04269506636747
 21
90.99537977568815
 31
0.0
  0
LINE
  5
2A8
330
2A3
100
AcDbEntity
  8
치수문자_일반주서
 62
     0
370
    -2
100
AcDbLine
 10
79.04269506636743
 20
104.9953797756881
 30
0.0
 11
79.04269506636747
 21
90.99537977568815
 31
0.0
  0
LINE
  5
2A9
330
2A3
100
AcDbEntity
  8
치수문자_일반주서
 62
     0
370
    -2
100
AcDbLine
 10
79.04269506636741
 20
108.2973797756881
 30
0.0
 11
79.0426950663674
 21
111.5993797756881
 31
0.0
  0
LINE
  5
2AA
330
2A3
100
AcDbEntity
  8
치수문자_일반주서
 62
     0
370
    -2
100
AcDbLine
 10
79.04269506636749
 20
87.69337977568816
 30
0.0
 11
79.0426950663675
 21
84.39137977568816
 31
0.0
  0
SOLID
  5
2AB
330
2A3
100
AcDbEntity
  8
치수문자_일반주서
 62
     0
100
AcDbTrace
 10
78.49236173303409
 20
108.2973797756881
 30
0.0
 11
79.59302839970074
 21
108.2973797756881
 31
0.0
 12
79.04269506636743
 22
104.9953797756881
 32
0.0
 13
79.04269506636743
 23
104.9953797756881
 33
0.0
  0
SOLID
  5
2AC
330
2A3
100
AcDbEntity
  8
치수문자_일반주서
 62
     0
100
AcDbTrace
 10
79.59302839970081
 20
87.69337977568816
 30
0.0
 11
78.49236173303416
 21
87.69337977568816
 31
0.0
 12
79.04269506636747
 22
90.99537977568815
 32
0.0
 13
79.04269506636747
 23
90.99537977568815
 33
0.0
  0
MTEXT
  5
2AD
330
2A3
100
AcDbEntity
  8
치수문자_일반주서
 62
     0
100
AcDbMText
 10
74.66769506636744
 20
98.06108415740113
 30
0.0
 40
3.5
 41
0.0
 71
     2
 72
     1
  1
\A1;%%c14 [0.55]
  7
SLDTEXTSTYLE0
 11
-3.045183153257572E-15
 21
1.0
 31
0.0
 73
     1
 44
1.0
  0
POINT
  5
2AE
330
2A3
100
AcDbEntity
  8
Defpoints
 62
     0
100
AcDbPoint
 10
64.04269506636743
 20
104.9953797756881
 30
0.0
  0
POINT
  5
2AF
330
2A3
100
AcDbEntity
  8
Defpoints
 62
     0
100
AcDbPoint
 10
64.04269506636741
 20
90.9953797756881
 30
0.0
  0
POINT
  5
2B0
330
2A3
100
AcDbEntity
  8
Defpoints
 62
     0
100
AcDbPoint
 10
79.04269506636747
 20
90.99537977568815
 30
0.0
  0
ENDBLK
  5
2A5
330
2A3
100
AcDbEntity
  8
0
100
AcDbBlockEnd
  0
BLOCK
  5
2B2
330
2B1
100
AcDbEntity
  8
0
100
AcDbBlockBegin
  2
*D17
 70
     1
 10
0.0
 20
0.0
 30
0.0
  3
*D17
  1
*D17
  0
LINE
  5
2B4
330
2B1
100
AcDbEntity
  8
치수문자_일반주서
 62
     0
370
    -2
100
AcDbLine
 10
65.53347024803686
 20
88.25624128280931
 30
0.0
 11
81.28712181331416
 21
62.62388477246876
 31
0.0
  0
MTEXT
  5
2B5
330
2B1
100
AcDbEntity
  8
치수문자_일반주서
 62
     0
100
AcDbMText
 10
77.33833346779504
 20
74.06210368330852
 30
0.0
 40
3.5
 41
0.0
 71
     5
 72
     1
  1
\A1;R.5 [R0.02]
  7
SLDTEXTSTYLE0
 11
0.5236126201129557
 21
-0.8519564684057781
 31
0.0
 73
     1
 44
1.0
  0
LINE
  5
2B6
330
2B1
100
AcDbEntity
  8
치수문자_일반주서
 62
     0
370
    -2
100
AcDbLine
 10
63.5426950663674
 20
91.4953797756881
 30
0.0
 11
63.80450137642389
 21
91.06940154148519
 31
0.0
  0
SOLID
  5
2B7
330
2B1
100
AcDbEntity
  8
치수문자_일반주서
 62
     0
100
AcDbTrace
 10
66.0023302911495
 20
88.54440276141148
 30
0.0
 11
65.06461020492422
 21
87.96807980420715
 31
0.0
 12
63.80450137642389
 22
91.06940154148519
 32
0.0
 13
63.80450137642389
 23
91.06940154148519
 33
0.0
  0
POINT
  5
2B8
330
2B1
100
AcDbEntity
  8
Defpoints
 62
     0
100
AcDbPoint
 10
63.80450137642389
 20
91.06940154148519
 30
0.0
  0
POINT
  5
2B9
330
2B1
100
AcDbEntity
  8
Defpoints
 62
     0
100
AcDbPoint
 10
63.5426950663674
 20
91.4953797756881
 30
0.0
  0
ENDBLK
  5
2B3
330
2B1
100
AcDbEntity
  8
0
100
AcDbBlockEnd
  0
ENDSEC
  0
SECTION
  2
ENTITIES
  0
LINE
  5
96
330
1F
100
AcDbEntity
  8
0
  6
Continuous
 62
     1
370
    15
100
AcDbLine
 10
25.94330551551933
 20
-5.556250000000031
 30
0.0
 11
29.3304160891891
 21
-5.556250000000031
 31
0.0
  0
LINE
  5
97
330
1F
100
AcDbEntity
  8
0
  6
Continuous
 62
     1
370
    15
100
AcDbLine
 10
59.5638190010629
 20
5.556250000000024
 30
0.0
 11
56.17750359801749
 21
5.556250000000024
 31
0.0
  0
LINE
  5
98
330
1F
100
AcDbEntity
  8
0
  6
Continuous
 62
     1
370
    15
100
AcDbLine
 10
41.06072537311252
 20
-5.556250000000031
 30
0.0
 11
44.44704553054564
 21
-5.556250000000031
 31
0.0
  0
LINE
  5
99
330
1F
100
AcDbEntity
  8
0
  6
Continuous
 62
     1
370
    15
100
AcDbLine
 10
14.21373925043014
 20
5.556250000000024
 30
0.0
 11
10.82515548354785
 21
5.556250000000024
 31
0.0
  0
LINE
  5
9A
330
1F
100
AcDbEntity
  8
0
  6
Continuous
 62
     1
370
    15
100
AcDbLine
 10
74.6806516049782
 20
5.556250000000024
 30
0.0
 11
71.29423355822254
 21
5.556250000000024
 31
0.0
  0
LINE
  5
9B
330
1F
100
AcDbEntity
  8
0
  6
Continuous
 62
     1
370
    15
100
AcDbLine
 10
56.17750359801741
 20
-5.556250000000031
 30
0.0
 11
59.56381900106287
 21
-5.556250000000031
 31
0.0
  0
LINE
  5
9C
330
1F
100
AcDbEntity
  8
0
  6
Continuous
 62
     1
370
    15
100
AcDbLine
 10
29.33041608918907
 20
5.556250000000024
 30
0.0
 11
25.94330551551924
 21
5.556250000000024
 31
0.0
  0
LINE
  5
9D
330
1F
100
AcDbEntity
  8
0
  6
Continuous
 62
     1
370
    15
100
AcDbLine
 10
71.29423355822254
 20
-5.556250000000031
 30
0.0
 11
74.68065160497825
 21
-5.556250000000031
 31
0.0
  0
LINE
  5
9E
330
1F
100
AcDbEntity
  8
0
  6
Continuous
 62
     1
370
    15
100
AcDbLine
 10
10.82515548354777
 20
-5.556250000000031
 30
0.0
 11
14.21373925043019
 21
-5.556250000000031
 31
0.0
  0
LINE
  5
9F
330
1F
100
AcDbEntity
  8
0
  6
Continuous
 62
     1
370
    15
100
AcDbLine
 10
44.44704553054572
 20
5.556250000000024
 30
0.0
 11
41.06072537311248
 21
5.556250000000024
 31
0.0
  0
ARC
  5
A0
330
1F
100
AcDbEntity
  8
0
  6
Continuous
 62
     1
370
    15
100
AcDbCircle
 10
80.64374999999991
 20
0.0000000000000101
 30
0.0
 40
5.556250000000034
100
AcDbArc
 50
328.567903867034
 51
0.0
  0
ARC
  5
A1
330
1F
100
AcDbEntity
  8
0
  6
Continuous
 62
     1
370
    15
100
AcDbCircle
 10
80.64374999999991
 20
0.0000000000000101
 30
0.0
 40
5.55625000000005
100
AcDbArc
 50
0.0
 51
31.4115800151549
  0
LINE
  5
A2
330
1F
100
AcDbEntity
  8
외형선
  6
Continuous
370
    15
100
AcDbLine
 10
-65.08875
 20
5.556249999999997
 30
0.0
 11
-66.2
 21
4.445000000000001
 31
0.0
  0
LINE
  5
A3
330
1F
100
AcDbEntity
  8
외형선
  6
Continuous
370
    15
100
AcDbLine
 10
-66.2
 20
-4.445000000000008
 30
0.0
 11
-65.08875
 21
-5.556250000000004
 31
0.0
  0
LINE
  5
A4
330
1F
100
AcDbEntity
  8
외형선
  6
Continuous
370
    15
100
AcDbLine
 10
-65.08875
 20
-5.556250000000002
 30
0.0
 11
10.0
 21
-5.556250000000002
 31
0.0
  0
LINE
  5
A5
330
1F
100
AcDbEntity
  8
외형선
  6
Continuous
370
    15
100
AcDbLine
 10
10.0
 20
5.556249999999995
 30
0.0
 11
-65.08875
 21
5.556249999999995
 31
0.0
  0
SPLINE
  5
A6
330
1F
100
AcDbEntity
  8
0
  6
Continuous
 62
     1
370
    15
100
AcDbSpline
210
0.0
220
0.0
230
1.0
 70
     8
 71
     3
 72
    25
 73
    21
 74
     0
 42
0.000000001
 43
0.00000001
 40
0.0
 40
0.0
 40
0.0
 40
0.0
 40
0.0162239860813341
 40
0.0742870581801276
 40
0.1323487740740813
 40
0.1904092305689676
 40
0.2484685247362249
 40
0.307581040581767
 40
0.3666933882741212
 40
0.4258055742909709
 40
0.4849176051156171
 40
0.5440294872367565
 40
0.6020858590159404
 40
0.660141461417902
 40
0.7181963925406339
 40
0.7762507506244148
 40
0.8353614356008953
 40
0.8944720492817743
 40
0.9535825982050707
 40
1.0
 40
1.0
 40
1.0
 40
1.0
 10
20.08321564174883
 20
4.535980458191407
 30
0.0
 10
20.27841692117016
 20
4.606813126860302
 30
0.0
 10
21.17221260914171
 20
4.931144678433426
 30
0.0
 10
22.76456749313589
 20
5.287366425537736
 30
0.0
 10
24.86027483015189
 20
5.567668142604019
 30
0.0
 10
26.955929883566
 20
5.568617710366026
 30
0.0
 10
29.06420352179121
 20
5.309414398868723
 30
0.0
 10
31.18518610457757
 20
4.791257318271378
 30
0.0
 10
33.31882025886959
 20
4.035782785313218
 30
0.0
 10
35.45245284343012
 20
3.082661389036135
 30
0.0
 10
37.58607218124409
 20
1.978661733514909
 30
0.0
 10
39.70700797145473
 20
0.7849405888165657
 30
0.0
 10
41.81515764137933
 20
-0.4389002270969559
 30
0.0
 10
43.9106020088465
 20
-1.634606807310916
 30
0.0
 10
46.00601903278996
 20
-2.753267573966381
 30
0.0
 10
48.11410215921396
 20
-3.747316109767274
 30
0.0
 10
50.23497713356389
 20
-4.569123593137038
 30
0.0
 10
52.36853435936267
 20
-5.163776639139916
 30
0.0
 10
54.34937894300377
 20
-5.510316802081606
 30
0.0
 10
55.6190344165685
 20
-5.526258564014618
 30
0.0
 10
56.17750359801741
 20
-5.533270688896486
 30
0.0
  0
LINE
  5
A7
330
1F
100
AcDbEntity
  8
0
  6
Continuous
 62
     1
370
    15
100
AcDbLine
 10
80.54546360418658
 20
4.550947216994556
 30
0.0
 11
80.64374999999994
 21
4.588110696801777
 31
0.0
  0
SPLINE
  5
A8
330
1F
100
AcDbEntity
  8
0
  6
Continuous
 62
     1
370
    15
100
AcDbSpline
210
0.0
220
0.0
230
1.0
 70
     8
 71
     3
 72
    44
 73
    40
 74
     0
 42
0.000000001
 43
0.00000001
 40
0.0
 40
0.0
 40
0.0
 40
0.0
 40
0.0625
 40
0.0625
 40
0.125
 40
0.125
 40
0.1874999999999999
 40
0.1874999999999999
 40
0.2499999999999999
 40
0.2499999999999999
 40
0.3124999999999999
 40
0.3124999999999999
 40
0.3749999999999999
 40
0.3749999999999999
 40
0.4375
 40
0.4375
 40
0.46875
 40
0.46875
 40
0.5
 40
0.5
 40
0.53125
 40
0.53125
 40
0.5625
 40
0.5625
 40
0.59375
 40
0.59375
 40
0.625
 40
0.625
 40
0.6875000000000001
 40
0.6875000000000001
 40
0.75
 40
0.75
 40
0.8125
 40
0.8125
 40
0.875
 40
0.875
 40
0.9375
 40
0.9375
 40
1.0
 40
1.0
 40
1.0
 40
1.0
 10
80.64374999999991
 20
4.588110696801859
 30
0.0
 10
80.92602108328867
 20
4.679940664901914
 30
0.0
 10
81.2066903678525
 20
4.744344143033601
 30
0.0
 10
81.77015929588347
 20
4.814906810818595
 30
0.0
 10
82.05530915287893
 20
4.820742247469207
 30
0.0
 10
82.61930864071354
 20
4.769729455723524
 30
0.0
 10
82.89387014732306
 20
4.713786878984876
 30
0.0
 10
83.42747573185838
 20
4.544219333218944
 30
0.0
 10
83.68897338663479
 20
4.428922058278689
 30
0.0
 10
84.1781798117027
 20
4.148976896527739
 30
0.0
 10
84.40603255040652
 20
3.985247060100191
 30
0.0
 10
84.82358238187393
 20
3.618791793209255
 30
0.0
 10
85.01396062948739
 20
3.414480713734477
 30
0.0
 10
85.33549514262882
 20
2.992261743282032
 30
0.0
 10
85.46928225304788
 20
2.771847775443628
 30
0.0
 10
85.61621848198106
 20
2.446734579821866
 30
0.0
 10
85.65542300912371
 20
2.341041755952493
 30
0.0
 10
85.71230116827694
 20
2.139029731062968
 30
0.0
 10
85.73001816320445
 20
2.041756132156619
 30
0.0
 10
85.73957928995475
 20
1.867385257484548
 30
0.0
 10
85.73174941843598
 20
1.790287569455068
 30
0.0
 10
85.6878038331917
 20
1.662100430618483
 30
0.0
 10
85.65185322168904
 20
1.612811211169434
 30
0.0
 10
85.55401135380315
 20
1.549696508573602
 30
0.0
 10
85.49051888210042
 20
1.535464392530738
 30
0.0
 10
85.34282699634724
 20
1.543805181677421
 30
0.0
 10
85.25801533092343
 20
1.565865911536843
 30
0.0
 10
84.97792169320795
 20
1.678641968259363
 30
0.0
 10
84.76125307391183
 20
1.814106420468669
 30
0.0
 10
84.30723894477788
 20
2.138465393558891
 30
0.0
 10
84.06443442474557
 20
2.330834676679813
 30
0.0
 10
83.5740039314205
 20
2.723269989271939
 30
0.0
 10
83.32111512593094
 20
2.927827268513789
 30
0.0
 10
82.80682777089405
 20
3.323163457506829
 30
0.0
 10
82.54825543505518
 20
3.512176657266709
 30
0.0
 10
82.01979034328478
 20
3.863638303290347
 30
0.0
 10
81.74789798864937
 20
4.027027601014063
 30
0.0
 10
81.20168870230266
 20
4.309219632936433
 30
0.0
 10
80.92598673511434
 20
4.429148002266659
 30
0.0
 10
80.64374999999988
 20
4.523671635094837
 30
0.0
  0
SPLINE
  5
A9
330
1F
100
AcDbEntity
  8
0
  6
Continuous
 62
     1
370
    15
100
AcDbSpline
210
0.0
220
0.0
230
1.0
 70
     8
 71
     3
 72
    10
 73
     6
 74
     0
 42
0.000000001
 43
0.00000001
 40
0.0
 40
0.0
 40
0.0
 40
0.0
 40
0.3771187082565388
 40
0.7542440518085664
 40
1.0
 40
1.0
 40
1.0
 40
1.0
 10
80.64374999999994
 20
4.523671635094817
 30
0.0
 10
79.89415402814667
 20
4.748770517020691
 30
0.0
 10
78.3949488955141
 20
5.198972241422691
 30
0.0
 10
76.40724780422396
 20
5.524157794744169
 30
0.0
 10
75.16914238868111
 20
5.522515481355443
 30
0.0
 10
74.6806516049782
 20
5.521867511526484
 30
0.0
  0
SPLINE
  5
AA
330
1F
100
AcDbEntity
  8
0
  6
Continuous
 62
     1
370
    15
100
AcDbSpline
210
0.0
220
0.0
230
1.0
 70
     8
 71
     3
 72
    25
 73
    21
 74
     0
 42
0.000000001
 43
0.00000001
 40
0.0
 40
0.0
 40
0.0
 40
0.0
 40
0.00314405092283
 40
0.0611944151329196
 40
0.1203015946765094
 40
0.1794088585789458
 40
0.2385162133697185
 40
0.2976236655751474
 40
0.3567312217181629
 40
0.4147833225904891
 40
0.4728361952074511
 40
0.5308899374938458
 40
0.588944647190371
 40
0.6480537542800632
 40
0.7071630424495926
 40
0.7662725181580665
 40
0.8253821878580846
 40
0.8844920579955208
 40
0.9425502864580588
 40
1.0
 40
1.0
 40
1.0
 40
1.0
 10
50.31026107442977
 20
-4.551490545574455
 30
0.0
 10
50.27243224983356
 20
-4.565726003417709
 30
0.0
 10
49.53614875661094
 20
-4.842798652127592
 30
0.0
 10
48.08870923149867
 20
-5.190303985662116
 30
0.0
 10
45.96783387406232
 20
-5.53619341093974
 30
0.0
 10
43.83426731865499
 20
-5.589508478453497
 30
0.0
 10
41.70068798077583
 20
-5.375543595319299
 30
0.0
 10
39.56711234187924
 20
-4.896741126165804
 30
0.0
 10
37.44621027674006
 20
-4.18295874044089
 30
0.0
 10
35.3380781335737
 20
-3.273033351815217
 30
0.0
 10
33.2425980623336
 20
-2.214052884055074
 30
0.0
 10
31.14708257801894
 20
-1.050493204822164
 30
0.0
 10
29.03886418998135
 20
0.1700128560865744
 30
0.0
 10
26.91788347426997
 20
1.390041117329562
 30
0.0
 10
24.78422683467738
 20
2.549410809655251
 30
0.0
 10
22.65055693390894
 20
3.583602500272099
 30
0.0
 10
20.51688248767707
 20
4.443791477800866
 30
0.0
 10
18.39584529627705
 20
5.077345718235936
 30
0.0
 10
16.29481621663297
 20
5.481548900987769
 30
0.0
 10
14.90499096281817
 20
5.530526329737018
 30
0.0
 10
14.21373925043013
 20
5.554886033518737
 30
0.0
  0
SPLINE
  5
AB
330
1F
100
AcDbEntity
  8
0
  6
Continuous
 62
     1
370
    15
100
AcDbSpline
210
0.0
220
0.0
230
1.0
 70
     8
 71
     3
 72
    15
 73
    11
 74
     0
 42
0.000000001
 43
0.00000001
 40
0.0
 40
0.0
 40
0.0
 40
0.0
 40
0.1338350317016024
 40
0.2676694663552817
 40
0.4015033183779416
 40
0.5353366022065863
 40
0.6691693322978547
 40
0.8006210918551936
 40
0.9320697810356807
 40
1.0
 40
1.0
 40
1.0
 40
1.0
 10
10.00000000000001
 20
0.4760669968022969
 30
0.0
 10
10.71126216757096
 20
0.0646909254238597
 30
0.0
 10
12.13378332972
 20
-0.7580593821540941
 30
0.0
 10
14.26755785107108
 20
-1.961254976858015
 30
0.0
 10
16.40132184501209
 20
-3.067025119278389
 30
0.0
 10
18.53507315209551
 20
-4.022114299996185
 30
0.0
 10
20.65616982083531
 20
-4.77933838093985
 30
0.0
 10
22.76456763806068
 20
-5.289298748405771
 30
0.0
 10
24.52272987234192
 20
-5.546660724767531
 30
0.0
 10
25.58230020477648
 20
-5.529302410854546
 30
0.0
 10
25.94330551551933
 20
-5.523388274419895
 30
0.0
  0
SPLINE
  5
AC
330
1F
100
AcDbEntity
  8
0
  6
Continuous
 62
     1
370
    15
100
AcDbSpline
210
0.0
220
0.0
230
1.0
 70
     8
 71
     3
 72
    21
 73
    17
 74
     0
 42
0.000000001
 43
0.00000001
 40
0.0
 40
0.0
 40
0.0
 40
0.0
 40
0.0678567272363125
 40
0.1381954318381564
 40
0.2085340671642154
 40
0.278872640999519
 40
0.3479531798068238
 40
0.4170335084188522
 40
0.4861137442124509
 40
0.5551940045841774
 40
0.6293294936616999
 40
0.7034649414056363
 40
0.7776000317136204
 40
0.8517344486311657
 40
0.9258678764823077
 40
1.0
 40
1.0
 40
1.0
 40
1.0
 10
50.31026107442982
 20
4.551490545574445
 30
0.0
 10
50.99635271548651
 20
4.759778548769741
 30
0.0
 10
52.39363098807668
 20
5.183973049751766
 30
0.0
 10
54.50209634749298
 20
5.514411937445164
 30
0.0
 10
56.63564790637889
 20
5.596373385794566
 30
0.0
 10
58.75650439393759
 20
5.400856361335062
 30
0.0
 10
60.8645406061363
 20
4.948932026288492
 30
0.0
 10
62.95987137647114
 20
4.265706145244981
 30
0.0
 10
65.0552197738457
 20
3.381122250378235
 30
0.0
 10
67.20157470757697
 20
2.311385886316447
 30
0.0
 10
69.39946180267201
 20
1.096165682973321
 30
0.0
 10
71.64834420110098
 20
-0.2065813287810886
 30
0.0
 10
73.89724568988171
 20
-1.499374986811389
 30
0.0
 10
76.14611389650948
 20
-2.705876660614693
 30
0.0
 10
78.39494909953008
 20
-3.78320952137885
 30
0.0
 10
79.89415409615161
 20
-4.319811878541042
 30
0.0
 10
80.64374999999994
 20
-4.588110696801762
 30
0.0
  0
SPLINE
  5
AD
330
1F
100
AcDbEntity
  8
0
  6
Continuous
 62
     1
370
    15
100
AcDbSpline
210
0.0
220
0.0
230
1.0
 70
     8
 71
     3
 72
    15
 73
    11
 74
     0
 42
0.000000001
 43
0.00000001
 40
0.0
 40
0.0
 40
0.0
 40
0.0
 40
0.1402706834391674
 40
0.2846521544803171
 40
0.4233375039630058
 40
0.5662490474079737
 40
0.7022239499083884
 40
0.8415891528416963
 40
0.9542833041113018
 40
1.0
 40
1.0
 40
1.0
 40
1.0
 10
80.64374999999991
 20
-4.588110696801845
 30
0.0
 10
80.89951430552217
 20
-4.658579669994207
 30
0.0
 10
81.41853837256927
 20
-4.801582787619429
 30
0.0
 10
82.19960393412148
 20
-4.82986534500782
 30
0.0
 10
82.97069072939931
 20
-4.710988621800118
 30
0.0
 10
83.68815600440075
 20
-4.445185941311743
 30
0.0
 10
84.34606925699143
 20
-4.048124677320598
 30
0.0
 10
84.86737536926506
 20
-3.581689544979715
 30
0.0
 10
85.2145049746177
 20
-3.178773247769877
 30
0.0
 10
85.33926505275991
 20
-2.955651587665656
 30
0.0
 10
85.37527028001416
 20
-2.891259626735273
 30
0.0
  0
SPLINE
  5
AE
330
1F
100
AcDbEntity
  8
0
  6
Continuous
 62
     1
370
    15
100
AcDbSpline
210
0.0
220
0.0
230
1.0
 70
     8
 71
     3
 72
    24
 73
    20
 74
     0
 42
0.000000001
 43
0.00000001
 40
0.0
 40
0.0
 40
0.0
 40
0.0
 40
0.0621237820640696
 40
0.1242486571782651
 40
0.1863743611442819
 40
0.2485006294211398
 40
0.3106271972344486
 40
0.3727537996858942
 40
0.4316983745174456
 40
0.4906429363727596
 40
0.5495874917835727
 40
0.6085320472818441
 40
0.6674766093995305
 40
0.7253669180809931
 40
0.7832574053314335
 40
0.8411481694757456
 40
0.8990393087800408
 40
0.9579843647052404
 40
0.9999999999999999
 40
0.9999999999999999
 40
0.9999999999999999
 40
0.9999999999999999
 10
80.64374999999994
 20
-4.523671635094862
 30
0.0
 10
79.89415408801537
 20
-4.751071948710746
 30
0.0
 10
78.39494907512119
 20
-5.205876576985808
 30
0.0
 10
76.14611399414723
 20
-5.53926079774521
 30
0.0
 10
73.8972453237334
 20
-5.589238521447994
 30
0.0
 10
71.64834556807051
 20
-5.330705623198733
 30
0.0
 10
69.39945670091944
 20
-4.7837095680386
 30
0.0
 10
67.18887099493415
 20
-3.990154962459075
 30
0.0
 10
65.01699566066425
 20
-3.007073266112444
 30
0.0
 10
62.88343156762924
 20
-1.894167217032807
 30
0.0
 10
60.74988735837475
 20
-0.6885440898648773
 30
0.0
 10
58.61634472277429
 20
0.5507995005982833
 30
0.0
 10
56.49549603167445
 20
1.755895620607139
 30
0.0
 10
54.3874649582273
 20
2.869460186641314
 30
0.0
 10
52.2921215823327
 20
3.840119504351476
 30
0.0
 10
50.19676682794167
 20
4.631960545116264
 30
0.0
 10
48.08870842960006
 20
5.199063326485228
 30
0.0
 10
46.17209530731481
 20
5.520622546572254
 30
0.0
 10
44.95397604172076
 20
5.526071598217867
 30
0.0
 10
44.44704553054571
 20
5.52833926659333
 30
0.0
  0
SPLINE
  5
AF
330
1F
100
AcDbEntity
  8
0
  6
Continuous
 62
     1
370
    15
100
AcDbSpline
210
0.0
220
0.0
230
1.0
 70
     8
 71
     3
 72
    12
 73
     8
 74
     0
 42
0.000000001
 43
0.00000001
 40
0.0
 40
0.0
 40
0.0
 40
0.0
 40
0.1685986700187023
 40
0.3764413623428224
 40
0.5842889179738487
 40
0.7921416823967004
 40
1.0
 40
1.0
 40
1.0
 40
1.0
 10
20.08321564174891
 20
-4.535980458191417
 30
0.0
 10
19.51654166523061
 20
-4.717122211066594
 30
0.0
 10
18.25129133021247
 20
-5.121569341177021
 30
0.0
 10
16.28747784467133
 20
-5.467449466423597
 30
0.0
 10
14.19170834213044
 20
-5.598564440057403
 30
0.0
 10
12.09587982355422
 20
-5.475705060737054
 30
0.0
 10
10.6986328294518
 20
-5.180031001345065
 30
0.0
 10
10.0
 20
-5.032191996802261
 30
0.0
  0
SPLINE
  5
B0
330
1F
100
AcDbEntity
  8
0
  6
Continuous
 62
     1
370
    15
100
AcDbSpline
210
0.0
220
0.0
230
1.0
 70
     8
 71
     3
 72
    22
 73
    18
 74
     0
 42
0.000000001
 43
0.00000001
 40
0.0
 40
0.0
 40
0.0
 40
0.0
 40
0.068696471034195
 40
0.1373926356083787
 40
0.2060885011226342
 40
0.2747840749873627
 40
0.3434793646230432
 40
0.4109525207766468
 40
0.4784241009299179
 40
0.5458942175776103
 40
0.6133629835231992
 40
0.6820556631921674
 40
0.750748147455934
 40
0.8194404438419985
 40
0.8881325598843886
 40
0.9568245031234014
 40
1.0
 40
1.0
 40
1.0
 40
1.0
 10
10.00000000000001
 20
5.535817399179274
 30
0.0
 10
10.7112621673596
 20
5.544708116551379
 30
0.0
 10
12.1337833290859
 20
5.562489511633445
 30
0.0
 10
14.26755785360752
 20
5.244237775553638
 30
0.0
 10
16.40132183550049
 20
4.688712920579751
 30
0.0
 10
18.53507318760513
 20
3.898450873039508
 30
0.0
 10
20.65616968930536
 20
2.924521842731132
 30
0.0
 10
22.76456811922136
 20
1.816216690110117
 30
0.0
 10
24.8602746621892
 20
0.6288644583551979
 30
0.0
 10
26.95592992935079
 20
-0.5882147967363895
 30
0.0
 10
29.06420350624091
 20
-1.784632938344646
 30
0.0
 10
31.18518612035159
 20
-2.902760666482927
 30
0.0
 10
33.31882021151134
 20
-3.884665905622664
 30
0.0
 10
35.45245301708846
 20
-4.679350391486055
 30
0.0
 10
37.58607153397122
 20
-5.233998649592672
 30
0.0
 10
39.45552157877383
 20
-5.531348023995396
 30
0.0
 10
40.61371712653722
 20
-5.527444376832981
 30
0.0
 10
41.0607253731125
 20
-5.525937755194959
 30
0.0
  0
SPLINE
  5
B1
330
1F
100
AcDbEntity
  8
0
  6
Continuous
 62
     1
370
    15
100
AcDbSpline
210
0.0
220
0.0
230
1.0
 70
     8
 71
     3
 72
    14
 73
    10
 74
     0
 42
0.000000001
 43
0.00000001
 40
0.0
 40
0.0
 40
0.0
 40
0.0
 40
0.1132380259823163
 40
0.2610339939249096
 40
0.4088298794651686
 40
0.5566250524237313
 40
0.7044188829160484
 40
0.8522107416128295
 40
1.0
 40
1.0
 40
1.0
 40
1.0
 10
65.42765487779954
 20
4.539573888319554
 30
0.0
 10
66.00193164268848
 20
4.721728522410872
 30
0.0
 10
67.32574275875866
 20
5.14162767939735
 30
0.0
 10
69.39946233355904
 20
5.494529648505154
 30
0.0
 10
71.64834405885446
 20
5.604244193714146
 30
0.0
 10
73.89724572798306
 20
5.403312773389604
 30
0.0
 10
76.1461138863493
 20
4.907286240724055
 30
0.0
 10
78.39494910207007
 20
4.156285740004367
 30
0.0
 10
79.89415409699825
 20
3.474674643345049
 30
0.0
 10
80.64374999999994
 20
3.13387209317695
 30
0.0
  0
SPLINE
  5
B2
330
1F
100
AcDbEntity
  8
0
  6
Continuous
 62
     1
370
    15
100
AcDbSpline
210
0.0
220
0.0
230
1.0
 70
     8
 71
     3
 72
    44
 73
    40
 74
     0
 42
0.000000001
 43
0.00000001
 40
0.0
 40
0.0
 40
0.0
 40
0.0
 40
0.0625000000000001
 40
0.0625000000000001
 40
0.1250000000000002
 40
0.1250000000000002
 40
0.1875000000000002
 40
0.1875000000000002
 40
0.2500000000000003
 40
0.2500000000000003
 40
0.3125000000000003
 40
0.3125000000000003
 40
0.3750000000000003
 40
0.3750000000000003
 40
0.4375000000000003
 40
0.4375000000000003
 40
0.4687500000000003
 40
0.4687500000000003
 40
0.5000000000000002
 40
0.5000000000000002
 40
0.5312500000000002
 40
0.5312500000000002
 40
0.5625000000000002
 40
0.5625000000000002
 40
0.5937500000000001
 40
0.5937500000000001
 40
0.6250000000000001
 40
0.6250000000000001
 40
0.6875000000000001
 40
0.6875000000000001
 40
0.75
 40
0.75
 40
0.8125
 40
0.8125
 40
0.875
 40
0.875
 40
0.9375
 40
0.9375
 40
1.0
 40
1.0
 40
1.0
 40
1.0
 10
80.64374999999991
 20
3.133872093177017
 30
0.0
 10
80.92602108328867
 20
2.99942944638102
 30
0.0
 10
81.20669036785256
 20
2.854721606260044
 30
0.0
 10
81.7701592958835
 20
2.554019020254745
 30
0.0
 10
82.0553091528789
 20
2.396920849368277
 30
0.0
 10
82.61930864071351
 20
2.079455119268565
 30
0.0
 10
82.89387014732311
 20
1.921588813851755
 30
0.0
 10
83.42747573185835
 20
1.605077159761502
 30
0.0
 10
83.68897338663476
 20
1.444940988406261
 30
0.0
 10
84.17817981170273
 20
1.127114524357515
 30
0.0
 10
84.40603255040647
 20
0.9691239154949002
 30
0.0
 10
84.82358238187396
 20
0.6399316366254353
 30
0.0
 10
85.0139606294873
 20
0.4676443423805776
 30
0.0
 10
85.33549514262873
 20
0.1000394813037829
 30
0.0
 10
85.46928225304791
 20
-0.0970675504757507
 30
0.0
 10
85.61621848198104
 20
-0.431930051839197
 30
0.0
 10
85.65542300912371
 20
-0.5484648920709696
 30
0.0
 10
85.71230116827694
 20
-0.795297086322931
 30
0.0
 10
85.73001816320442
 20
-0.9270825776610261
 30
0.0
 10
85.73957928995475
 20
-1.201569883443377
 30
0.0
 10
85.73174941843598
 20
-1.343782939578254
 30
0.0
 10
85.68780383319175
 20
-1.641207890077468
 30
0.0
 10
85.65185322168898
 20
-1.793235090098288
 30
0.0
 10
85.55401135380318
 20
-2.094212056833723
 30
0.0
 10
85.4905188821005
 20
-2.247108596029938
 30
0.0
 10
85.3428269963473
 20
-2.536465549343179
 30
0.0
 10
85.25801533092331
 20
-2.674941849974463
 30
0.0
 10
84.9779216932079
 20
-3.062050404544752
 30
0.0
 10
84.76125307391177
 20
-3.275926624844312
 30
0.0
 10
84.30723894477788
 20
-3.603099142663732
 30
0.0
 10
84.06443442474551
 20
-3.720514418835973
 30
0.0
 10
83.57400393142042
 20
-3.869562278527393
 30
0.0
 10
83.32111512593094
 20
-3.903415738236458
 30
0.0
 10
82.80682777089405
 20
-3.905738105540551
 30
0.0
 10
82.54825543505515
 20
-3.874693383642071
 30
0.0
 10
82.01979034328473
 20
-3.762258188408125
 30
0.0
 10
81.7478979886494
 20
-3.679741468075624
 30
0.0
 10
81.20168870230266
 20
-3.477919192797748
 30
0.0
 10
80.92598673511434
 20
-3.358729395780315
 30
0.0
 10
80.64374999999988
 20
-3.226191097926288
 30
0.0
  0
SPLINE
  5
B3
330
1F
100
AcDbEntity
  8
0
  6
Continuous
 62
     1
370
    15
100
AcDbSpline
210
0.0
220
0.0
230
1.0
 70
     8
 71
     3
 72
    17
 73
    13
 74
     0
 42
0.000000001
 43
0.00000001
 40
0.0
 40
0.0
 40
0.0
 40
0.0
 40
0.1066767158586772
 40
0.2133553086635678
 40
0.320035324742886
 40
0.4267163098364107
 40
0.5333978092831125
 40
0.6400793682091747
 40
0.7412968641792512
 40
0.8425143378670015
 40
0.9437318004884874
 40
1.0
 40
1.0
 40
1.0
 40
1.0
 10
80.64374999999994
 20
-3.226191097926314
 30
0.0
 10
79.89415408802815
 20
-2.856834013040692
 30
0.0
 10
78.39494907515957
 20
-2.118113344537499
 30
0.0
 10
76.14611399399368
 20
-0.8479415447068506
 30
0.0
 10
73.89724532430945
 20
0.4557542534361373
 30
0.0
 10
71.6483455659201
 20
1.737983968987643
 30
0.0
 10
69.39945670894538
 20
2.925124684864414
 30
0.0
 10
67.18887096562945
 20
3.934962518476365
 30
0.0
 10
65.01699576381424
 20
4.728615633177927
 30
0.0
 10
62.88343118199255
 20
5.263923561069236
 30
0.0
 10
61.06571425673472
 20
5.541421065575933
 30
0.0
 10
59.95917532932458
 20
5.5275360393143
 30
0.0
 10
59.5638190010629
 20
5.522575045295349
 30
0.0
  0
SPLINE
  5
B4
330
1F
100
AcDbEntity
  8
0
  6
Continuous
 62
     1
370
    15
100
AcDbSpline
210
0.0
220
0.0
230
1.0
 70
     8
 71
     3
 72
    19
 73
    15
 74
     0
 42
0.000000001
 43
0.00000001
 40
0.0
 40
0.0
 40
0.0
 40
0.0
 40
0.0777547781744785
 40
0.1609043508163362
 40
0.2440553090663517
 40
0.3287164661284269
 40
0.4133778825486499
 40
0.4980395675783111
 40
0.5827015304593793
 40
0.6673637804241912
 40
0.7505197785541298
 40
0.8336777224495677
 40
0.9168377503359242
 40
1.0
 40
1.0
 40
1.0
 40
1.0
 10
35.20215654551355
 20
-4.547153216918161
 30
0.0
 10
34.54897421908952
 20
-4.747756823246262
 30
0.0
 10
33.19729036549884
 20
-5.162882347432161
 30
0.0
 10
31.14708223376672
 20
-5.497873332674737
 30
0.0
 10
29.03886428398216
 20
-5.59939316556845
 30
0.0
 10
26.91788344930632
 20
-5.426529240695376
 30
0.0
 10
24.78422683981938
 20
-4.988317810672456
 30
0.0
 10
22.65055693830463
 20
-4.305565620763562
 30
0.0
 10
20.51688246495194
 20
-3.412102231956804
 30
0.0
 10
18.39584538213434
 20
-2.358001200415621
 30
0.0
 10
16.28747780880317
 20
-1.196956873828338
 30
0.0
 10
14.19170835169562
 20
0.0115311484781821
 30
0.0
 10
12.09587982116281
 20
1.227471210287691
 30
0.0
 10
10.69863282865465
 20
1.979568778825702
 30
0.0
 10
10.0
 20
2.355622586455514
 30
0.0
  0
LINE
  5
B5
330
1F
100
AcDbEntity
  8
0
  6
Continuous
 62
     1
370
    15
100
AcDbLine
 10
10.00000000000001
 20
-5.535817399179281
 30
0.0
 11
10.82515548354777
 21
-5.523900740749992
 31
0.0
  0
SPLINE
  5
B6
330
1F
100
AcDbEntity
  8
0
  6
Continuous
 62
     1
370
    15
100
AcDbSpline
210
0.0
220
0.0
230
1.0
 70
     8
 71
     3
 72
    25
 73
    21
 74
     0
 42
0.000000001
 43
0.00000001
 40
0.0
 40
0.0
 40
0.0
 40
0.0
 40
0.0069349065727034
 40
0.0660506607714882
 40
0.1251662662573995
 40
0.183226294916414
 40
0.2412855541497441
 40
0.2993441420615619
 40
0.3574021568983337
 40
0.4165165651641799
 40
0.4756309021299338
 40
0.534745174334026
 40
0.5938593883171486
 40
0.6529735506220197
 40
0.711030431228168
 40
0.7690871351813504
 40
0.8271437611277802
 40
0.8852004077302366
 40
0.9475055853151716
 40
1.0
 40
1.0
 40
1.0
 40
1.0
 10
35.20215654551355
 20
4.547153216918153
 30
0.0
 10
35.28558885191813
 20
4.578290045534082
 30
0.0
 10
36.08022954533473
 20
4.874848922405722
 30
0.0
 10
37.58607197152278
 20
5.227371987633276
 30
0.0
 10
39.70700802642861
 20
5.549413721825678
 30
0.0
 10
41.8151576271442
 20
5.582160834345418
 30
0.0
 10
43.91060201123072
 20
5.356713097655354
 30
0.0
 10
46.00601903748782
 20
4.876789503114108
 30
0.0
 10
48.11410213788196
 20
4.162661364869646
 30
0.0
 10
50.23497721580689
 20
3.2431295844518
 30
0.0
 10
52.36853405234358
 20
2.159355922853701
 30
0.0
 10
54.50209665625042
 20
0.9698761993068998
 30
0.0
 10
56.63564782371897
 20
-0.2670903180853093
 30
0.0
 10
58.75650441519706
 20
-1.483640184170207
 30
0.0
 10
60.86454060212141
 20
-2.621593686619455
 30
0.0
 10
62.95987137142393
 20
-3.628342749450213
 30
0.0
 10
65.05521979804941
 20
-4.465743626624841
 30
0.0
 10
67.20157461298076
 20
-5.099912218406445
 30
0.0
 10
69.28141742932567
 20
-5.495861480863799
 30
0.0
 10
70.66264127062014
 20
-5.523529525437521
 30
0.0
 10
71.29423355822257
 20
-5.536181293415567
 30
0.0
  0
SPLINE
  5
B7
330
1F
100
AcDbEntity
  8
0
  6
Continuous
 62
     1
370
    15
100
AcDbSpline
210
0.0
220
0.0
230
1.0
 70
     8
 71
     3
 72
    25
 73
    21
 74
     0
 42
0.000000001
 43
0.00000001
 40
0.0
 40
0.0
 40
0.0
 40
0.0
 40
0.0113767460317228
 40
0.0704817920272961
 40
0.1295868315608224
 40
0.1886918711820451
 40
0.2477969174407051
 40
0.3058448399227571
 40
0.3638929414599638
 40
0.4219413206449212
 40
0.4799900760112831
 40
0.5390956174219107
 40
0.5982012431890471
 40
0.6573069598420008
 40
0.7164127739069109
 40
0.7755186919065271
 40
0.8335691838869945
 40
0.8916204475907092
 40
0.9496725809397542
 40
1.0
 40
1.0
 40
1.0
 40
1.0
 10
65.42765487779954
 20
-4.539573888319559
 30
0.0
 10
65.29076397881137
 20
-4.59004220015495
 30
0.0
 10
64.44269056256324
 20
-4.902706036442773
 30
0.0
 10
62.88343518477532
 20
-5.260041930503139
 30
0.0
 10
60.74988638909495
 20
-5.562682851017237
 30
0.0
 10
58.61634498274765
 20
-5.573951812773071
 30
0.0
 10
56.49549596303187
 20
-5.319010399952388
 30
0.0
 10
54.38746497782518
 20
-4.809359677485332
 30
0.0
 10
52.29212157205161
 20
-4.076031419245825
 30
0.0
 10
50.19676684946816
 20
-3.150118714535191
 30
0.0
 10
48.088708353184
 20
-2.068949097240734
 30
0.0
 10
45.96783411092893
 20
-0.8811522073095069
 30
0.0
 10
43.83426725619071
 20
0.3569129606904648
 30
0.0
 10
41.70068799376575
 20
1.57747022125668
 30
0.0
 10
39.56711235238402
 20
2.720944786772165
 30
0.0
 10
37.44621022212068
 20
3.724707151186167
 30
0.0
 10
35.33807833743661
 20
4.545476786414424
 30
0.0
 10
33.24259729992862
 20
5.139794583744644
 30
0.0
 10
31.24004352704243
 20
5.500230425809487
 30
0.0
 10
29.93597625723902
 20
5.528134750599325
 30
0.0
 10
29.33041608918909
 20
5.541092477551251
 30
0.0
  0
LINE
  5
B8
330
1F
100
AcDbEntity
  8
외형선
  6
Continuous
370
    15
100
AcDbLine
 10
10.0
 20
0.476066996802297
 30
0.0
 11
10.0
 21
2.355622586455514
 31
0.0
  0
LINE
  5
B9
330
1F
100
AcDbEntity
  8
외형선
  6
Continuous
370
    15
100
AcDbLine
 10
10.0
 20
-5.535817399179281
 30
0.0
 11
10.0
 21
-5.032191996802262
 31
0.0
  0
LINE
  5
BA
330
1F
100
AcDbEntity
  8
외형선
  6
Continuous
370
    15
100
AcDbLine
 10
-65.08875
 20
-0.0000000000000036
 30
0.0
 11
-65.08875
 21
5.556249999999997
 31
0.0
  0
LINE
  5
BB
330
1F
100
AcDbEntity
  8
외형선
  6
Continuous
370
    15
100
AcDbLine
 10
-65.08875
 20
-5.556250000000004
 30
0.0
 11
-65.08875
 21
-0.0000000000000036
 31
0.0
  0
LINE
  5
BC
330
1F
100
AcDbEntity
  8
외형선
  6
Continuous
370
    15
100
AcDbLine
 10
-66.2
 20
-0.0000000000000036
 30
0.0
 11
-66.2
 21
4.444999999999999
 31
0.0
  0
LINE
  5
BD
330
1F
100
AcDbEntity
  8
외형선
  6
Continuous
370
    15
100
AcDbLine
 10
-66.2
 20
-4.445000000000006
 30
0.0
 11
-66.2
 21
-0.0000000000000036
 31
0.0
  0
LINE
  5
BE
330
1F
100
AcDbEntity
  8
외형선
  6
Continuous
370
    15
100
AcDbLine
 10
10.0
 20
-0.0000000000000036
 30
0.0
 11
10.0
 21
5.556249999999995
 31
0.0
  0
LINE
  5
BF
330
1F
100
AcDbEntity
  8
외형선
  6
Continuous
370
    15
100
AcDbLine
 10
10.0
 20
-5.556250000000002
 30
0.0
 11
10.0
 21
-0.0000000000000036
 31
0.0
  0
LINE
  5
C0
330
1F
100
AcDbEntity
  8
중심선
 62
     1
100
AcDbLine
 10
-69.2
 20
-0.0000000000000075
 30
0.0
 11
89.19999999999995
 21
0.0000000000000115
 31
0.0
  0
LINE
  5
C1
330
1F
100
AcDbEntity
  8
참조1
100
AcDbLine
 10
123.825
 20
-0.0000000000000039
 30
0.0
 11
123.825
 21
1.241814676156848
 31
0.0
  0
LINE
  5
C2
330
1F
100
AcDbEntity
  8
참조1
100
AcDbLine
 10
47.62499999999999
 20
-0.0000000000000039
 30
0.0
 11
47.62499999999999
 21
-40.00000000000001
 31
0.0
  0
LINE
  5
C3
330
1F
100
AcDbEntity
  8
참조1
100
AcDbLine
 10
47.62499999999999
 20
-40.00000000000001
 30
0.0
 11
-15.15885681430868
 21
-40.0
 31
0.0
  0
CIRCLE
  5
C4
330
1F
100
AcDbEntity
  8
해칭선
100
AcDbCircle
 10
0.0
 20
0.0
 30
0.0
 40
2.999999999999997
  0
INSERT
  5
C5
330
1F
100
AcDbEntity
  8
0
  6
Continuous
 62
     7
100
AcDbBlockReference
 66
     1
  2
블럭10
 10
-3.940272932125239
 20
-52.04717430164393
 30
0.0
  0
ATTRIB
  5
C6
330
C5
100
AcDbEntity
  8
FORMAT
 62
     2
100
AcDbText
 10
-13.12156822086652
 20
-49.97180738881175
 30
0.0
 40
4.233333333333333
  1
E5062028 [ 4 FLUTE ]
 41
0.75
  7
SLDTEXTSTYLE0
 11
-13.12156822086652
 21
-52.08847405547841
 31
0.0
100
AcDbAttribute
  2
AUTOATTR0
 70
     0
 74
     1
  0
SEQEND
  5
C7
330
C5
100
AcDbEntity
  8
0
  6
Continuous
 62
     7
  0
HATCH
  5
C8
330
1F
100
AcDbEntity
  8
중심선
100
AcDbHatch
 10
0.0
 20
0.0
 30
0.0
210
0.0
220
0.0
230
1.0
  2
SOLID
 70
     1
 71
     0
 91
        1
 92
        0
 93
        4
 72
     1
 10
1.774636372255614
 20
-35.8
 11
-1.671638871581663
 21
-35.8
 72
     1
 10
-1.671638871581663
 20
-35.8
 11
-3.79986873078569
 21
-38.33632558057259
 72
     1
 10
-3.79986873078569
 20
-38.33632558057259
 11
-0.3535604018352316
 21
-38.3362861512701
 72
     1
 10
-0.3535604018352316
 20
-38.3362861512701
 11
1.774636372255614
 21
-35.8
 97
        0
 75
     0
 76
     1
 98
        1
 10
-37.62500000000001
 20
-0.0000000000000036
  0
HATCH
  5
C9
330
1F
100
AcDbEntity
  8
중심선
100
AcDbHatch
 10
0.0
 20
0.0
 30
0.0
210
0.0
220
0.0
230
1.0
  2
SOLID
 70
     1
 71
     0
 91
        1
 92
        0
 93
        4
 72
     1
 10
6.787400363291567
 20
-35.8
 11
3.341125119454283
 21
-35.79999999999997
 72
     1
 10
3.341125119454283
 20
-35.79999999999997
 11
-1.190012888903105
 21
-41.20000000000002
 72
     1
 10
-1.190012888903105
 20
-41.20000000000002
 11
2.256262354934179
 21
-41.20000000000002
 72
     1
 10
2.256262354934179
 20
-41.20000000000002
 11
6.787400363291567
 21
-35.8
 97
        0
 75
     0
 76
     1
 98
        1
 10
-37.62500000000001
 20
-0.0000000000000036
  0
HATCH
  5
CA
330
1F
100
AcDbEntity
  8
중심선
100
AcDbHatch
 10
0.0
 20
0.0
 30
0.0
210
0.0
220
0.0
230
1.0
  2
SOLID
 70
     1
 71
     0
 91
        1
 92
        0
 93
        4
 72
     1
 10
11.80016435432758
 20
-35.79999999999997
 11
8.353889110490293
 21
-35.8
 72
     1
 10
8.353889110490293
 20
-35.8
 11
1.305452208601096
 21
-44.20000000000002
 72
     1
 10
1.305452208601096
 20
-44.20000000000002
 11
4.751727452438352
 21
-44.20000000000002
 72
     1
 10
4.751727452438352
 20
-44.20000000000002
 11
11.80016435432758
 21
-35.79999999999997
 97
        0
 75
     0
 76
     1
 98
        1
 10
-37.62500000000001
 20
-0.0000000000000036
  0
HATCH
  5
CB
330
1F
100
AcDbEntity
  8
중심선
100
AcDbHatch
 10
0.0
 20
0.0
 30
0.0
210
0.0
220
0.0
230
1.0
  2
SOLID
 70
     1
 71
     0
 91
        1
 92
        0
 93
        6
 72
     3
 10
16.60005478533967
 20
-40.00000000005127
 11
3.960054785062283
 21
1.540882976769353E-10
 40
0.3939339440162628
 50
17.09539180608467
 51
320.0019657685079
 73
     0
 72
     1
 10
18.28305444104029
 20
-38.58789400463827
 11
20.58835631474127
 21
-36.65356729459038
 72
     3
 10
16.60005478528682
 20
-40.00000000000016
 11
6.600054785286829
 21
-1.278976924368180E-13
 40
0.636358354079598
 50
39.99873849337429
 51
368.4976242363727
 73
     1
 72
     1
 10
23.0253872771874
 20
-39.03999999993002
 11
15.28012209212271
 21
-39.03999999992999
 72
     1
 10
15.28012209212271
 20
-39.03999999992999
 11
15.2800970476768
 21
-40.95999999992991
 72
     1
 10
15.2800970476768
 20
-40.95999999992992
 11
19.72147681714881
 21
-40.95999999992989
 97
        0
 75
     0
 76
     1
 98
        1
 10
-37.62500000000001
 20
-0.0000000000000036
  0
DIMENSION
  5
CC
330
1F
100
AcDbEntity
  8
치수문자_일반주서
100
AcDbDimension
  2
_D
 10
10.00000000000001
 20
12.99892507127612
 30
0.0
 11
49.81274868483676
 21
12.99892507127612
 31
0.0
 70
   160
  1
<>
 71
     2
 42
76.19999999999993
  3
SLDDIMSTYLE0
100
AcDbAlignedDimension
 13
86.19999999999995
 23
5.556249999999995
 33
0.0
 14
10.00000000000001
 24
5.535817399179268
 34
0.0
 50
0.000000000000004
100
AcDbRotatedDimension
1001
ACAD
1000
DSTYLE
1002
{
1070
   171
1070
     6
1070
   273
1070
     5
1002
}
  0
DIMENSION
  5
E0
330
1F
100
AcDbEntity
  8
치수문자_일반주서
100
AcDbDimension
  2
_D_1
 10
-66.2
 20
29.60639052598201
 30
0.0
 11
9.999999999999972
 21
29.60639052598201
 31
0.0
 70
   160
  1
<>
 71
     2
 42
152.3999999999999
  3
SLDDIMSTYLE0
100
AcDbAlignedDimension
 13
86.19999999999995
 23
5.556249999999995
 33
0.0
 14
-66.2
 24
4.445000000000001
 34
0.0
 50
0.0000000000000027
100
AcDbRotatedDimension
1001
ACAD
1000
DSTYLE
1002
{
1070
   171
1070
     6
1070
   273
1070
     5
1002
}
  0
DIMENSION
  5
F3
330
1F
100
AcDbEntity
  8
치수문자_일반주서
100
AcDbDimension
  2
_D_2
 10
-76.10809861309257
 20
-5.556250000000059
 30
0.0
 11
-76.10809861309268
 21
25.06649999999997
 31
0.0
 70
   160
  1
%%c<>
 71
     2
 42
11.11250000000003
 52
-270.0
  3
SLDDIMSTYLE0
100
AcDbAlignedDimension
 13
-65.08874999999999
 23
5.556250000000009
 33
0.0
 14
-65.08874999999999
 24
-5.556250000000016
 34
0.0
 50
90.0000000000002
100
AcDbRotatedDimension
1001
ACAD
1000
DSTYLE
1002
{
1070
   171
1070
     6
1070
   273
1070
     5
1002
}
  0
DIMENSION
  5
108
330
1F
100
AcDbEntity
  8
치수문자_일반주서
100
AcDbDimension
  2
_D_3
 10
99.14367718214746
 20
5.556250000000041
 30
0.0
 11
99.14367718214739
 21
22.42075000000004
 31
0.0
 70
   160
  1
%%c<>
 71
     2
 42
11.1125
 52
-270.0
  3
SLDDIMSTYLE0
100
AcDbAlignedDimension
 13
86.19999999999995
 23
-5.55625
 33
0.0
 14
86.19999999999995
 24
5.556249999999995
 34
0.0
 50
90.0000000000002
100
AcDbRotatedDimension
1001
ACAD
1000
DSTYLE
1002
{
1070
   171
1070
     6
1070
   273
1070
     5
1002
}
  0
LINE
  5
11C
330
1F
100
AcDbEntity
  8
참조1
100
AcDbLine
 10
82.81348381534559
 20
7.440000000000002
 30
0.0
 11
82.81348381534559
 21
-7.440000000000002
 31
0.0
  0
LINE
  5
11D
330
1F
100
AcDbEntity
  8
참조1
100
AcDbLine
 10
95.5134838153456
 20
5.440000000000002
 30
0.0
 11
82.81348381534559
 21
5.440000000000002
 31
0.0
  0
SOLID
  5
11E
330
1F
100
AcDbEntity
  8
참조1
100
AcDbTrace
 10
82.81348381534559
 20
5.440000000000002
 30
0.0
 11
89.16348381534559
 21
4.424000000000002
 31
0.0
 12
89.16348381534559
 22
6.456000000000002
 32
0.0
 13
89.16348381534559
 23
6.456000000000002
 33
0.0
  0
LINE
  5
11F
330
1F
100
AcDbEntity
  8
참조1
100
AcDbLine
 10
95.5134838153456
 20
-5.440000000000002
 30
0.0
 11
82.81348381534559
 21
-5.440000000000002
 31
0.0
  0
SOLID
  5
120
330
1F
100
AcDbEntity
  8
참조1
100
AcDbTrace
 10
82.81348381534559
 20
-5.440000000000002
 30
0.0
 11
89.16348381534559
 21
-6.456000000000002
 31
0.0
 12
89.16348381534559
 22
-4.424000000000002
 32
0.0
 13
89.16348381534559
 23
-4.424000000000002
 33
0.0
  0
MTEXT
  5
121
330
1F
100
AcDbEntity
  8
참조1
100
AcDbMText
 10
92.19783394797159
 20
11.01029177718833
 30
0.0
 40
3.5
 41
0.0
 71
     1
 72
     1
  1
A
  7
SLDTEXTSTYLE0
 73
     1
 44
1.0
  0
MTEXT
  5
122
330
1F
100
AcDbEntity
  8
참조1
100
AcDbMText
 10
92.19783394797159
 20
0.1302917771883261
 30
0.0
 40
3.5
 41
0.0
 71
     1
 72
     1
  1
A
  7
SLDTEXTSTYLE0
 73
     1
 44
1.0
  0
INSERT
  5
129
330
1F
100
AcDbEntity
  8
해칭선
100
AcDbBlockReference
  2
SW_DOWELSYMBOL_0
 10
0.0
 20
0.0
 30
0.0
  0
ENDSEC
  0
SECTION
  2
OBJECTS
  0
DICTIONARY
  5
C
330
0
100
AcDbDictionary
281
     1
  3
ACAD_GROUP
350
D
  3
ACAD_IMAGE_VARS
350
14D
  3
ACAD_LAYOUT
350
1A
  3
ACAD_MLINESTYLE
350
17
  3
ACAD_PLOTSETTINGS
350
19
  3
ACAD_PLOTSTYLENAME
350
E
  3
ACAD_SCALELIST
350
47
  3
APPDATA
350
14B
  3
DWGPROPS
350
2BF
  0
DICTIONARY
  5
207
330
2
100
AcDbDictionary
280
     1
281
     1
  3
ACAD_LAYERSTATES
360
208
  0
DICTIONARY
  5
D
102
{ACAD_REACTORS
330
C
102
}
330
C
100
AcDbDictionary
281
     1
  0
RASTERVARIABLES
  5
14D
102
{ACAD_REACTORS
330
C
102
}
330
C
100
AcDbRasterVariables
 90
        0
 70
     1
 71
     1
 72
     1
  0
DICTIONARY
  5
1A
102
{ACAD_REACTORS
330
C
102
}
330
C
100
AcDbDictionary
281
     1
  3
Layout1
350
1E
  3
Layout2
350
26
  3
Model
350
22
  0
DICTIONARY
  5
17
102
{ACAD_REACTORS
330
C
102
}
330
C
100
AcDbDictionary
281
     1
  3
Standard
350
18
  0
DICTIONARY
  5
19
102
{ACAD_REACTORS
330
C
102
}
330
C
100
AcDbDictionary
281
     1
  0
ACDBDICTIONARYWDFLT
  5
E
102
{ACAD_REACTORS
330
C
102
}
330
C
100
AcDbDictionary
281
     1
  3
Normal
350
F
100
AcDbDictionaryWithDefault
340
F
  0
DICTIONARY
  5
47
102
{ACAD_REACTORS
330
C
102
}
330
C
100
AcDbDictionary
281
     1
  3
A0
350
48
  3
A1
350
49
  3
A2
350
4A
  3
A3
350
4B
  3
A4
350
4C
  3
A5
350
4D
  3
A6
350
4E
  3
A7
350
4F
  3
A8
350
50
  3
A9
350
51
  3
B0
350
52
  3
B1
350
53
  3
B2
350
54
  3
B3
350
55
  3
B4
350
56
  3
B5
350
57
  3
B6
350
58
  3
B7
350
59
  3
B8
350
5A
  3
B9
350
5B
  3
C0
350
5C
  3
C1
350
5D
  3
C2
350
5E
  3
C3
350
5F
  3
C4
350
60
  3
C5
350
61
  3
C6
350
62
  3
C7
350
63
  3
C8
350
64
  3
C9
350
65
  3
D0
350
66
  3
D1
350
67
  3
D2
350
68
  0
DICTIONARY
  5
14B
102
{ACAD_REACTORS
330
C
102
}
330
C
100
AcDbDictionary
281
     1
  0
XRECORD
  5
2BF
102
{ACAD_REACTORS
330
C
102
}
330
C
100
AcDbXrecord
280
     1
  1
DWGPROPS COOKIE
  2

  3

  4

  6

  7

  8
12014074
  9

300
=
301
=
302
=
303
=
304
=
305
=
306
=
307
=
308
=
309
=
 40
0.0
 41
2458316.343973067
 42
2458323.057247488
  1

 90
        0
  0
DICTIONARY
  5
208
102
{ACAD_REACTORS
330
207
102
}
330
207
100
AcDbDictionary
281
     1
  0
LAYOUT
  5
1E
102
{ACAD_REACTORS
330
1A
102
}
330
1A
100
AcDbPlotSettings
  1

  2
none_device
  4

  6

 40
0.0
 41
0.0
 42
0.0
 43
0.0
 44
0.0
 45
0.0
 46
0.0
 47
0.0
 48
0.0
 49
0.0
140
0.0
141
0.0
142
1.0
143
1.0
 70
   688
 72
     1
 73
     0
 74
     5
  7

 75
    16
147
1.0
148
0.0
149
0.0
100
AcDbLayout
  1
Layout1
 70
     1
 71
     1
 10
0.0
 20
0.0
 11
420.0
 21
297.0
 12
0.0
 22
0.0
 32
0.0
 14
1.000000000000000E+20
 24
1.000000000000000E+20
 34
1.000000000000000E+20
 15
-1.000000000000000E+20
 25
-1.000000000000000E+20
 35
-1.000000000000000E+20
146
0.0
 13
0.0
 23
0.0
 33
0.0
 16
1.0
 26
0.0
 36
0.0
 17
0.0
 27
1.0
 37
0.0
 76
     0
330
1B
  0
LAYOUT
  5
26
102
{ACAD_REACTORS
330
1A
102
}
330
1A
100
AcDbPlotSettings
  1

  2
none_device
  4

  6

 40
0.0
 41
0.0
 42
0.0
 43
0.0
 44
0.0
 45
0.0
 46
0.0
 47
0.0
 48
0.0
 49
0.0
140
0.0
141
0.0
142
1.0
143
1.0
 70
   688
 72
     1
 73
     0
 74
     5
  7

 75
    16
147
1.0
148
0.0
149
0.0
100
AcDbLayout
  1
Layout2
 70
     1
 71
     2
 10
0.0
 20
0.0
 11
0.0
 21
0.0
 12
0.0
 22
0.0
 32
0.0
 14
0.0
 24
0.0
 34
0.0
 15
0.0
 25
0.0
 35
0.0
146
0.0
 13
0.0
 23
0.0
 33
0.0
 16
1.0
 26
0.0
 36
0.0
 17
0.0
 27
1.0
 37
0.0
 76
     0
330
23
  0
LAYOUT
  5
22
102
{ACAD_REACTORS
330
1A
102
}
330
1A
100
AcDbPlotSettings
  1

  2
none_device
  4
ANSI_A_(11.00_x_8.50_Inches)
  6

 40
6.35
 41
19.05
 42
6.35000508
 43
19.05000254
 44
279.4
 45
215.9
 46
69.26364968352586
 47
97.13161664989738
 48
0.0
 49
0.0
140
0.0
141
0.0
142
0.0628273964764747
143
1.0
 70
  1696
 72
     0
 73
     0
 74
     0
  7

 75
     0
147
0.0235690232323232
148
0.0
149
0.0
100
AcDbLayout
  1
Model
 70
     1
 71
     0
 10
0.0
 20
0.0
 11
420.0
 21
297.0
 12
0.0
 22
0.0
 32
0.0
 14
1.000000000000000E+20
 24
1.000000000000000E+20
 34
1.000000000000000E+20
 15
-1.000000000000000E+20
 25
-1.000000000000000E+20
 35
-1.000000000000000E+20
146
0.0
 13
0.0
 23
0.0
 33
0.0
 16
1.0
 26
0.0
 36
0.0
 17
0.0
 27
1.0
 37
0.0
 76
     0
330
1F
331
29
  0
MLINESTYLE
  5
18
102
{ACAD_REACTORS
330
17
102
}
330
17
100
AcDbMlineStyle
  2
Standard
 70
     0
  3

 62
   256
 51
90.0
 52
90.0
 71
     2
 49
0.5
 62
   256
  6
BYLAYER
 49
-0.5
 62
   256
  6
BYLAYER
  0
ACDBPLACEHOLDER
  5
F
102
{ACAD_REACTORS
330
E
102
}
330
E
  0
SCALE
  5
48
102
{ACAD_REACTORS
330
47
102
}
330
47
100
AcDbScale
 70
     0
300
1:1
140
1.0
141
1.0
290
     1
  0
SCALE
  5
49
102
{ACAD_REACTORS
330
47
102
}
330
47
100
AcDbScale
 70
     0
300
1:2
140
1.0
141
2.0
290
     0
  0
SCALE
  5
4A
102
{ACAD_REACTORS
330
47
102
}
330
47
100
AcDbScale
 70
     0
300
1:4
140
1.0
141
4.0
290
     0
  0
SCALE
  5
4B
102
{ACAD_REACTORS
330
47
102
}
330
47
100
AcDbScale
 70
     0
300
1:5
140
1.0
141
5.0
290
     0
  0
SCALE
  5
4C
102
{ACAD_REACTORS
330
47
102
}
330
47
100
AcDbScale
 70
     0
300
1:8
140
1.0
141
8.0
290
     0
  0
SCALE
  5
4D
102
{ACAD_REACTORS
330
47
102
}
330
47
100
AcDbScale
 70
     0
300
1:10
140
1.0
141
10.0
290
     0
  0
SCALE
  5
4E
102
{ACAD_REACTORS
330
47
102
}
330
47
100
AcDbScale
 70
     0
300
1:16
140
1.0
141
16.0
290
     0
  0
SCALE
  5
4F
102
{ACAD_REACTORS
330
47
102
}
330
47
100
AcDbScale
 70
     0
300
1:20
140
1.0
141
20.0
290
     0
  0
SCALE
  5
50
102
{ACAD_REACTORS
330
47
102
}
330
47
100
AcDbScale
 70
     0
300
1:30
140
1.0
141
30.0
290
     0
  0
SCALE
  5
51
102
{ACAD_REACTORS
330
47
102
}
330
47
100
AcDbScale
 70
     0
300
1:40
140
1.0
141
40.0
290
     0
  0
SCALE
  5
52
102
{ACAD_REACTORS
330
47
102
}
330
47
100
AcDbScale
 70
     0
300
1:50
140
1.0
141
50.0
290
     0
  0
SCALE
  5
53
102
{ACAD_REACTORS
330
47
102
}
330
47
100
AcDbScale
 70
     0
300
1:100
140
1.0
141
100.0
290
     0
  0
SCALE
  5
54
102
{ACAD_REACTORS
330
47
102
}
330
47
100
AcDbScale
 70
     0
300
2:1
140
2.0
141
1.0
290
     0
  0
SCALE
  5
55
102
{ACAD_REACTORS
330
47
102
}
330
47
100
AcDbScale
 70
     0
300
4:1
140
4.0
141
1.0
290
     0
  0
SCALE
  5
56
102
{ACAD_REACTORS
330
47
102
}
330
47
100
AcDbScale
 70
     0
300
8:1
140
8.0
141
1.0
290
     0
  0
SCALE
  5
57
102
{ACAD_REACTORS
330
47
102
}
330
47
100
AcDbScale
 70
     0
300
10:1
140
10.0
141
1.0
290
     0
  0
SCALE
  5
58
102
{ACAD_REACTORS
330
47
102
}
330
47
100
AcDbScale
 70
     0
300
100:1
140
100.0
141
1.0
290
     0
  0
SCALE
  5
59
102
{ACAD_REACTORS
330
47
102
}
330
47
100
AcDbScale
 70
     0
300
1/128" = 1'-0"
140
0.0078125
141
12.0
290
     0
  0
SCALE
  5
5A
102
{ACAD_REACTORS
330
47
102
}
330
47
100
AcDbScale
 70
     0
300
1/64" = 1'-0"
140
0.015625
141
12.0
290
     0
  0
SCALE
  5
5B
102
{ACAD_REACTORS
330
47
102
}
330
47
100
AcDbScale
 70
     0
300
1/32" = 1'-0"
140
0.03125
141
12.0
290
     0
  0
SCALE
  5
5C
102
{ACAD_REACTORS
330
47
102
}
330
47
100
AcDbScale
 70
     0
300
1/16" = 1'-0"
140
0.0625
141
12.0
290
     0
  0
SCALE
  5
5D
102
{ACAD_REACTORS
330
47
102
}
330
47
100
AcDbScale
 70
     0
300
3/32" = 1'-0"
140
0.09375
141
12.0
290
     0
  0
SCALE
  5
5E
102
{ACAD_REACTORS
330
47
102
}
330
47
100
AcDbScale
 70
     0
300
1/8" = 1'-0"
140
0.125
141
12.0
290
     0
  0
SCALE
  5
5F
102
{ACAD_REACTORS
330
47
102
}
330
47
100
AcDbScale
 70
     0
300
3/16" = 1'-0"
140
0.1875
141
12.0
290
     0
  0
SCALE
  5
60
102
{ACAD_REACTORS
330
47
102
}
330
47
100
AcDbScale
 70
     0
300
1/4" = 1'-0"
140
0.25
141
12.0
290
     0
  0
SCALE
  5
61
102
{ACAD_REACTORS
330
47
102
}
330
47
100
AcDbScale
 70
     0
300
3/8" = 1'-0"
140
0.375
141
12.0
290
     0
  0
SCALE
  5
62
102
{ACAD_REACTORS
330
47
102
}
330
47
100
AcDbScale
 70
     0
300
1/2" = 1'-0"
140
0.5
141
12.0
290
     0
  0
SCALE
  5
63
102
{ACAD_REACTORS
330
47
102
}
330
47
100
AcDbScale
 70
     0
300
3/4" = 1'-0"
140
0.75
141
12.0
290
     0
  0
SCALE
  5
64
102
{ACAD_REACTORS
330
47
102
}
330
47
100
AcDbScale
 70
     0
300
1" = 1'-0"
140
1.0
141
12.0
290
     0
  0
SCALE
  5
65
102
{ACAD_REACTORS
330
47
102
}
330
47
100
AcDbScale
 70
     0
300
1-1/2" = 1'-0"
140
1.5
141
12.0
290
     0
  0
SCALE
  5
66
102
{ACAD_REACTORS
330
47
102
}
330
47
100
AcDbScale
 70
     0
300
3" = 1'-0"
140
3.0
141
12.0
290
     0
  0
SCALE
  5
67
102
{ACAD_REACTORS
330
47
102
}
330
47
100
AcDbScale
 70
     0
300
6" = 1'-0"
140
6.0
141
12.0
290
     0
  0
SCALE
  5
68
102
{ACAD_REACTORS
330
47
102
}
330
47
100
AcDbScale
 70
     0
300
1'-0" = 1'-0"
140
12.0
141
12.0
290
     0
  0
ENDSEC
  0
EOF
