  0
SECTION
  2
HEADER
  9
$ACADVER
  1
AC1015
  9
$ACADMAINTVER
 70
     6
  9
$DWGCODEPAGE
  3
ANSI_949
  9
$INSBASE
 10
0.0
 20
0.0
 30
0.0
  9
$EXTMIN
 10
-73.00250000000007
 20
-49.97073246008785
 30
0.0
  9
$EXTMAX
 10
122.9759838153456
 20
58.35136907984727
 30
0.0
  9
$LIMMIN
 10
0.0
 20
0.0
  9
$LIMMAX
 10
420.0
 20
297.0
  9
$ORTHOMODE
 70
     1
  9
$REGENMODE
 70
     1
  9
$FILLMODE
 70
     1
  9
$QTEXTMODE
 70
     0
  9
$MIRRTEXT
 70
     1
  9
$LTSCALE
 40
1.0
  9
$ATTMODE
 70
     1
  9
$TEXTSIZE
 40
3.5
  9
$TRACEWID
 40
1.0
  9
$TEXTSTYLE
  7
Standard
  9
$CLAYER
  8
0
  9
$CELTYPE
  6
ByLayer
  9
$CECOLOR
 62
   256
  9
$CELTSCALE
 40
1.0
  9
$DISPSILH
 70
     0
  9
$DIMSCALE
 40
1.0
  9
$DIMASZ
 40
3.302
  9
$DIMEXO
 40
1.0
  9
$DIMDLI
 40
3.75
  9
$DIMRND
 40
0.0
  9
$DIMDLE
 40
0.0
  9
$DIMEXE
 40
1.0
  9
$DIMTP
 40
0.0
  9
$DIMTM
 40
0.0
  9
$DIMTXT
 40
3.5
  9
$DIMCEN
 40
2.5
  9
$DIMTSZ
 40
0.0
  9
$DIMTOL
 70
     0
  9
$DIMLIM
 70
     0
  9
$DIMTIH
 70
     1
  9
$DIMTOH
 70
     1
  9
$DIMSE1
 70
     0
  9
$DIMSE2
 70
     0
  9
$DIMTAD
 70
     1
  9
$DIMZIN
 70
     0
  9
$DIMBLK
  1

  9
$DIMASO
 70
     1
  9
$DIMSHO
 70
     1
  9
$DIMPOST
  1

  9
$DIMAPOST
  1

  9
$DIMALT
 70
     0
  9
$DIMALTD
 70
     3
  9
$DIMALTF
 40
0.0393700787401575
  9
$DIMLFAC
 40
1.0
  9
$DIMTOFL
 70
     1
  9
$DIMTVP
 40
0.0
  9
$DIMTIX
 70
     0
  9
$DIMSOXD
 70
     0
  9
$DIMSAH
 70
     0
  9
$DIMBLK1
  1

  9
$DIMBLK2
  1

  9
$DIMSTYLE
  2
ISO-25
  9
$DIMCLRD
 70
     0
  9
$DIMCLRE
 70
     0
  9
$DIMCLRT
 70
     0
  9
$DIMTFAC
 40
1.0
  9
$DIMGAP
 40
1.524
  9
$DIMJUST
 70
     0
  9
$DIMSD1
 70
     0
  9
$DIMSD2
 70
     0
  9
$DIMTOLJ
 70
     0
  9
$DIMTZIN
 70
     0
  9
$DIMALTZ
 70
     0
  9
$DIMALTTZ
 70
     0
  9
$DIMUPT
 70
     0
  9
$DIMDEC
 70
     2
  9
$DIMTDEC
 70
     2
  9
$DIMALTU
 70
     2
  9
$DIMALTTD
 70
     3
  9
$DIMTXSTY
  7
Standard
  9
$DIMAUNIT
 70
     0
  9
$DIMADEC
 70
     2
  9
$DIMALTRND
 40
0.0
  9
$DIMAZIN
 70
     0
  9
$DIMDSEP
 70
    44
  9
$DIMATFIT
 70
     3
  9
$DIMFRAC
 70
     0
  9
$DIMLDRBLK
  1

  9
$DIMLUNIT
 70
     2
  9
$DIMLWD
 70
    -2
  9
$DIMLWE
 70
    -2
  9
$DIMTMOVE
 70
     0
  9
$LUNITS
 70
     2
  9
$LUPREC
 70
     2
  9
$SKETCHINC
 40
1.0
  9
$FILLETRAD
 40
10.0
  9
$AUNITS
 70
     0
  9
$AUPREC
 70
     2
  9
$MENU
  1
.
  9
$ELEVATION
 40
0.0
  9
$PELEVATION
 40
0.0
  9
$THICKNESS
 40
0.0
  9
$LIMCHECK
 70
     0
  9
$CHAMFERA
 40
0.0
  9
$CHAMFERB
 40
0.0
  9
$CHAMFERC
 40
0.0
  9
$CHAMFERD
 40
0.0
  9
$SKPOLY
 70
     0
  9
$TDCREATE
 40
2458289.513228113
  9
$TDUCREATE
 40
2458289.138228113
  9
$TDUPDATE
 40
2458310.407007847
  9
$TDUUPDATE
 40
2458310.032007847
  9
$TDINDWG
 40
0.0012614468
  9
$TDUSRTIMER
 40
2458310.031920972
  9
$USRTIMER
 70
     1
  9
$ANGBASE
 50
0.0
  9
$ANGDIR
 70
     0
  9
$PDMODE
 70
     0
  9
$PDSIZE
 40
-1.0
  9
$PLINEWID
 40
0.0
  9
$SPLFRAME
 70
     0
  9
$SPLINETYPE
 70
     6
  9
$SPLINESEGS
 70
     8
  9
$HANDSEED
  5
19C
  9
$SURFTAB1
 70
     6
  9
$SURFTAB2
 70
     6
  9
$SURFTYPE
 70
     6
  9
$SURFU
 70
     6
  9
$SURFV
 70
     6
  9
$UCSBASE
  2

  9
$UCSNAME
  2

  9
$UCSORG
 10
0.0
 20
0.0
 30
0.0
  9
$UCSXDIR
 10
1.0
 20
0.0
 30
0.0
  9
$UCSYDIR
 10
0.0
 20
1.0
 30
0.0
  9
$UCSORTHOREF
  2

  9
$UCSORTHOVIEW
 70
     0
  9
$UCSORGTOP
 10
0.0
 20
0.0
 30
0.0
  9
$UCSORGBOTTOM
 10
0.0
 20
0.0
 30
0.0
  9
$UCSORGLEFT
 10
0.0
 20
0.0
 30
0.0
  9
$UCSORGRIGHT
 10
0.0
 20
0.0
 30
0.0
  9
$UCSORGFRONT
 10
0.0
 20
0.0
 30
0.0
  9
$UCSORGBACK
 10
0.0
 20
0.0
 30
0.0
  9
$PUCSBASE
  2

  9
$PUCSNAME
  2

  9
$PUCSORG
 10
0.0
 20
0.0
 30
0.0
  9
$PUCSXDIR
 10
1.0
 20
0.0
 30
0.0
  9
$PUCSYDIR
 10
0.0
 20
1.0
 30
0.0
  9
$PUCSORTHOREF
  2

  9
$PUCSORTHOVIEW
 70
     0
  9
$PUCSORGTOP
 10
0.0
 20
0.0
 30
0.0
  9
$PUCSORGBOTTOM
 10
0.0
 20
0.0
 30
0.0
  9
$PUCSORGLEFT
 10
0.0
 20
0.0
 30
0.0
  9
$PUCSORGRIGHT
 10
0.0
 20
0.0
 30
0.0
  9
$PUCSORGFRONT
 10
0.0
 20
0.0
 30
0.0
  9
$PUCSORGBACK
 10
0.0
 20
0.0
 30
0.0
  9
$USERI1
 70
     0
  9
$USERI2
 70
     0
  9
$USERI3
 70
     0
  9
$USERI4
 70
     0
  9
$USERI5
 70
     0
  9
$USERR1
 40
0.0
  9
$USERR2
 40
0.0
  9
$USERR3
 40
0.0
  9
$USERR4
 40
0.0
  9
$USERR5
 40
0.0
  9
$WORLDVIEW
 70
     1
  9
$SHADEDGE
 70
     3
  9
$SHADEDIF
 70
    70
  9
$TILEMODE
 70
     1
  9
$MAXACTVP
 70
    64
  9
$PINSBASE
 10
0.0
 20
0.0
 30
0.0
  9
$PLIMCHECK
 70
     0
  9
$PEXTMIN
 10
1.000000000000000E+20
 20
1.000000000000000E+20
 30
1.000000000000000E+20
  9
$PEXTMAX
 10
-1.000000000000000E+20
 20
-1.000000000000000E+20
 30
-1.000000000000000E+20
  9
$PLIMMIN
 10
0.0
 20
0.0
  9
$PLIMMAX
 10
0.0
 20
0.0
  9
$UNITMODE
 70
     0
  9
$VISRETAIN
 70
     1
  9
$PLINEGEN
 70
     0
  9
$PSLTSCALE
 70
     1
  9
$TREEDEPTH
 70
  3020
  9
$CMLSTYLE
  2
Standard
  9
$CMLJUST
 70
     0
  9
$CMLSCALE
 40
20.0
  9
$PROXYGRAPHICS
 70
     1
  9
$MEASUREMENT
 70
     1
  9
$CELWEIGHT
370
    -1
  9
$ENDCAPS
280
     0
  9
$JOINSTYLE
280
     0
  9
$LWDISPLAY
290
     1
  9
$INSUNITS
 70
     4
  9
$HYPERLINKBASE
  1

  9
$STYLESHEET
  1

  9
$XEDIT
290
     1
  9
$CEPSNTYPE
380
     0
  9
$PSTYLEMODE
290
     1
  9
$FINGERPRINTGUID
  2
{2F6FC42E-DEDA-4742-BD8C-E28CB5A1A7F5}
  9
$VERSIONGUID
  2
{FAEB1C32-E019-11D5-929B-00C0DF256EC4}
  9
$EXTNAMES
290
     1
  9
$PSVPSCALE
 40
0.0
  9
$OLESTARTUP
290
     0
  0
ENDSEC
  0
SECTION
  2
CLASSES
  0
CLASS
  1
ACDBDICTIONARYWDFLT
  2
AcDbDictionaryWithDefault
  3
ObjectDBX Classes
 90
        0
280
     0
281
     0
  0
CLASS
  1
VISUALSTYLE
  2
AcDbVisualStyle
  3
ObjectDBX Classes
 90
     4095
280
     0
281
     0
  0
CLASS
  1
MATERIAL
  2
AcDbMaterial
  3
ObjectDBX Classes
 90
     1153
280
     0
281
     0
  0
CLASS
  1
SCALE
  2
AcDbScale
  3
ObjectDBX Classes
 90
     1153
280
     0
281
     0
  0
CLASS
  1
SUN
  2
AcDbSun
  3
SCENEOE
 90
     1153
280
     0
281
     0
  0
CLASS
  1
ACDBPLACEHOLDER
  2
AcDbPlaceHolder
  3
ObjectDBX Classes
 90
        0
280
     0
281
     0
  0
CLASS
  1
LAYOUT
  2
AcDbLayout
  3
ObjectDBX Classes
 90
        0
280
     0
281
     0
  0
CLASS
  1
TABLESTYLE
  2
AcDbTableStyle
  3
ObjectDBX Classes
 90
     4095
280
     0
281
     0
  0
CLASS
  1
MLEADERSTYLE
  2
AcDbMLeaderStyle
  3
ACDB_MLEADERSTYLE_CLASS
 90
     4095
280
     0
281
     0
  0
CLASS
  1
RASTERVARIABLES
  2
AcDbRasterVariables
  3
ISM
 90
        0
280
     0
281
     0
  0
ENDSEC
  0
SECTION
  2
TABLES
  0
TABLE
  2
VPORT
  5
8
330
0
100
AcDbSymbolTable
 70
     1
  0
VPORT
  5
29
330
8
100
AcDbSymbolTableRecord
100
AcDbViewportTableRecord
  2
*Active
 70
     0
 10
0.0
 20
0.0
 11
1.0
 21
1.0
 12
15.34259569218795
 22
-17.88420008158024
 13
0.0
 23
0.0
 14
10.0
 24
10.0
 15
10.0
 25
10.0
 16
0.0
 26
0.0
 36
1.0
 17
0.0
 27
0.0
 37
0.0
 40
128.4186091906687
 41
1.669245647969052
 42
50.0
 43
0.0
 44
0.0
 50
0.0
 51
0.0
 71
    16
 72
  2000
 73
     1
 74
     3
 75
     0
 76
     0
 77
     0
 78
     0
281
     0
 65
     1
110
0.0
120
0.0
130
0.0
111
1.0
121
0.0
131
0.0
112
0.0
122
1.0
132
0.0
 79
     0
146
0.0
  0
ENDTAB
  0
TABLE
  2
LTYPE
  5
5
330
0
100
AcDbSymbolTable
 70
     6
  0
LTYPE
  5
14
330
5
100
AcDbSymbolTableRecord
100
AcDbLinetypeTableRecord
  2
ByBlock
 70
     0
  3

 72
    65
 73
     0
 40
0.0
  0
LTYPE
  5
15
330
5
100
AcDbSymbolTableRecord
100
AcDbLinetypeTableRecord
  2
ByLayer
 70
     0
  3

 72
    65
 73
     0
 40
0.0
  0
LTYPE
  5
16
330
5
100
AcDbSymbolTableRecord
100
AcDbLinetypeTableRecord
  2
Continuous
 70
     0
  3
Solid line
 72
    65
 73
     0
 40
0.0
  0
LTYPE
  5
6A
330
5
100
AcDbSymbolTableRecord
100
AcDbLinetypeTableRecord
  2
HIDDEN
 70
     0
  3
Hidden __ __ __ __ __ __ __ __ __ __ __ __ __ __
 72
    65
 73
     2
 40
1.905
 49
1.27
 74
     0
 49
-0.635
 74
     0
  0
LTYPE
  5
6B
330
5
100
AcDbSymbolTableRecord
100
AcDbLinetypeTableRecord
  2
PHANTOM
 70
     0
  3
Phantom ______  __  __  ______  __  __  ______
 72
    65
 73
     6
 40
12.7
 49
6.35
 74
     0
 49
-1.27
 74
     0
 49
1.27
 74
     0
 49
-1.27
 74
     0
 49
1.27
 74
     0
 49
-1.27
 74
     0
  0
LTYPE
  5
6C
330
5
100
AcDbSymbolTableRecord
100
AcDbLinetypeTableRecord
  2
CENTER
 70
     0
  3
Center ____ _ ____ _ ____ _ ____ _ ____ _ ____
 72
    65
 73
     4
 40
10.16
 49
6.35
 74
     0
 49
-1.27
 74
     0
 49
1.27
 74
     0
 49
-1.27
 74
     0
  0
LTYPE
  5
6D
330
5
100
AcDbSymbolTableRecord
100
AcDbLinetypeTableRecord
  2
CENTERX2
 70
     0
  3
Center (2x) ________  __  ________  __  _____
 72
    65
 73
     4
 40
20.32
 49
12.7
 74
     0
 49
-2.54
 74
     0
 49
2.54
 74
     0
 49
-2.54
 74
     0
  0
LTYPE
  5
6E
330
5
100
AcDbSymbolTableRecord
100
AcDbLinetypeTableRecord
  2
DOT2
 70
     0
  3
Dot (.5x) ........................................
 72
    65
 73
     2
 40
0.635
 49
0.0
 74
     0
 49
-0.635
 74
     0
  0
ENDTAB
  0
TABLE
  2
LAYER
  5
2
102
{ACAD_XDICTIONARY
360
16A
102
}
330
0
100
AcDbSymbolTable
 70
    18
  0
LAYER
  5
10
330
2
100
AcDbSymbolTableRecord
100
AcDbLayerTableRecord
  2
0
 70
     0
 62
     7
  6
Continuous
370
    -3
390
F
  0
LAYER
  5
6F
330
2
100
AcDbSymbolTableRecord
100
AcDbLayerTableRecord
  2
FORMAT
 70
     0
 62
     2
  6
Continuous
370
    -3
390
F
  0
LAYER
  5
70
330
2
100
AcDbSymbolTableRecord
100
AcDbLayerTableRecord
  2
외형선
 70
     0
 62
     4
  6
Continuous
370
    30
390
F
  0
LAYER
  5
71
330
2
100
AcDbSymbolTableRecord
100
AcDbLayerTableRecord
  2
숨은선
 70
     0
 62
     2
  6
HIDDEN
370
    15
390
F
  0
LAYER
  5
72
330
2
100
AcDbSymbolTableRecord
100
AcDbLayerTableRecord
  2
중심선
 70
     0
 62
     1
  6
CENTERX2
370
    -3
390
F
  0
LAYER
  5
73
330
2
100
AcDbSymbolTableRecord
100
AcDbLayerTableRecord
  2
파단선
 70
     0
 62
     4
  6
Continuous
370
    -3
390
F
  0
LAYER
  5
74
330
2
100
AcDbSymbolTableRecord
100
AcDbLayerTableRecord
  2
해칭선
 70
     0
 62
   100
  6
Continuous
370
    -3
390
F
  0
LAYER
  5
75
330
2
100
AcDbSymbolTableRecord
100
AcDbLayerTableRecord
  2
가는실선
 70
     0
 62
     4
  6
Continuous
370
    -3
390
F
  0
LAYER
  5
76
330
2
100
AcDbSymbolTableRecord
100
AcDbLayerTableRecord
  2
치수_보조선
 70
     0
 62
     4
  6
Continuous
370
    -3
390
F
  0
LAYER
  5
77
330
2
100
AcDbSymbolTableRecord
100
AcDbLayerTableRecord
  2
치수문자_일반주서
 70
     0
 62
     7
  6
Continuous
370
    15
390
F
  0
LAYER
  5
78
330
2
100
AcDbSymbolTableRecord
100
AcDbLayerTableRecord
  2
개별주서
 70
     0
 62
   100
  6
Continuous
370
    30
390
F
  0
LAYER
  5
79
330
2
100
AcDbSymbolTableRecord
100
AcDbLayerTableRecord
  2
중간선
 70
     0
 62
     2
  6
Continuous
370
    15
390
F
  0
LAYER
  5
7A
330
2
100
AcDbSymbolTableRecord
100
AcDbLayerTableRecord
  2
윤곽선
 70
     0
 62
     3
  6
Continuous
370
    40
390
F
  0
LAYER
  5
7B
330
2
100
AcDbSymbolTableRecord
100
AcDbLayerTableRecord
  2
중심마크
 70
     0
 62
   100
  6
Continuous
370
    30
390
F
  0
LAYER
  5
7C
330
2
100
AcDbSymbolTableRecord
100
AcDbLayerTableRecord
  2
가상선
 70
     0
 62
     4
  6
PHANTOM
370
    -3
390
F
  0
LAYER
  5
7D
330
2
100
AcDbSymbolTableRecord
100
AcDbLayerTableRecord
  2
특수지정선
 70
     0
 62
     5
  6
CENTERX2
370
    60
390
F
  0
LAYER
  5
7E
330
2
100
AcDbSymbolTableRecord
100
AcDbLayerTableRecord
  2
참조1
 70
     0
 62
    -4
  6
Continuous
370
    -3
390
F
  0
LAYER
  5
171
330
2
100
AcDbSymbolTableRecord
100
AcDbLayerTableRecord
  2
Defpoints
 70
     0
 62
     7
  6
Continuous
290
     0
370
    -3
390
F
  0
ENDTAB
  0
TABLE
  2
STYLE
  5
3
330
0
100
AcDbSymbolTable
 70
     2
  0
STYLE
  5
11
330
3
100
AcDbSymbolTableRecord
100
AcDbTextStyleTableRecord
  2
Standard
 70
     0
 40
0.0
 41
1.0
 50
0.0
 71
     0
 42
3.5
  3
txt
  4

  0
STYLE
  5
94
330
3
100
AcDbSymbolTableRecord
100
AcDbTextStyleTableRecord
  2
SLDTEXTSTYLE0
 70
     0
 40
0.0
 41
0.75
 50
0.0
 71
     0
 42
3.5
  3
TXT
  4

  0
ENDTAB
  0
TABLE
  2
VIEW
  5
6
330
0
100
AcDbSymbolTable
 70
     0
  0
ENDTAB
  0
TABLE
  2
UCS
  5
7
330
0
100
AcDbSymbolTable
 70
     0
  0
ENDTAB
  0
TABLE
  2
APPID
  5
9
330
0
100
AcDbSymbolTable
 70
     1
  0
APPID
  5
12
330
9
100
AcDbSymbolTableRecord
100
AcDbRegAppTableRecord
  2
ACAD
 70
     0
  0
ENDTAB
  0
TABLE
  2
DIMSTYLE
  5
A
330
0
100
AcDbSymbolTable
 70
     5
100
AcDbDimStyleTable
  0
DIMSTYLE
105
27
330
A
100
AcDbSymbolTableRecord
100
AcDbDimStyleTableRecord
  2
ISO-25
 70
     0
 41
2.5
 42
0.625
 43
3.75
 44
1.25
 73
     0
 74
     0
 77
     1
 78
     8
140
2.5
141
2.5
143
0.03937007874016
147
0.625
171
     3
172
     1
178
     0
271
     2
272
     2
274
     3
278
    44
283
     0
284
     8
340
11
  0
DIMSTYLE
105
C1
330
A
100
AcDbSymbolTableRecord
100
AcDbDimStyleTableRecord
  2
SLDDIMSTYLE0
 70
     0
 41
3.302
 44
0.0
 45
0.000000001
 73
     0
 74
     0
 77
     1
 78
    12
 79
     3
140
3.5
143
0.0393700787401575
147
0.875
148
0.000000001
170
     1
173
     1
178
     0
271
     2
272
     2
276
     2
284
    12
340
94
  0
DIMSTYLE
105
D5
330
A
100
AcDbSymbolTableRecord
100
AcDbDimStyleTableRecord
  2
SLDDIMSTYLE1
 70
     0
 41
3.302
 44
0.0
 45
0.000000001
 73
     0
 74
     0
 77
     1
 78
     4
 79
     1
140
3.5
143
0.0393700787401575
147
0.875
148
0.000000001
170
     1
173
     1
178
     0
271
     2
272
     2
276
     2
284
    12
340
94
  0
DIMSTYLE
105
E9
102
{ACAD_REACTORS
330
E8
330
C0
330
D4
102
}
330
A
100
AcDbSymbolTableRecord
100
AcDbDimStyleTableRecord
  2
SLDDIMSTYLE2
 70
     0
 41
3.302
 44
0.0
 45
0.000000001
 73
     0
 74
     0
 77
     1
 78
     4
 79
     1
140
3.5
143
0.0393700787401575
147
0.875
148
0.000000001
170
     1
172
     1
173
     1
178
     0
271
     2
272
     2
276
     2
284
    12
289
     0
340
94
  0
DIMSTYLE
105
FE
102
{ACAD_REACTORS
330
FD
102
}
330
A
100
AcDbSymbolTableRecord
100
AcDbDimStyleTableRecord
  2
SLDDIMSTYLE3
 70
     0
 41
3.302
 44
0.0
 45
0.000000001
 73
     0
 74
     0
 77
     1
 78
    12
 79
     3
140
3.5
143
0.0393700787401575
147
0.875
148
0.000000001
170
     1
172
     1
173
     1
178
     0
271
     2
272
     2
276
     2
284
    12
289
     0
340
94
  0
ENDTAB
  0
TABLE
  2
BLOCK_RECORD
  5
1
330
0
100
AcDbSymbolTable
 70
     7
  0
BLOCK_RECORD
  5
1F
330
1
100
AcDbSymbolTableRecord
100
AcDbBlockTableRecord
  2
*Model_Space
340
22
  0
BLOCK_RECORD
  5
1B
330
1
100
AcDbSymbolTableRecord
100
AcDbBlockTableRecord
  2
*Paper_Space
340
1E
  0
BLOCK_RECORD
  5
23
330
1
100
AcDbSymbolTableRecord
100
AcDbBlockTableRecord
  2
*Paper_Space0
340
26
  0
BLOCK_RECORD
  5
7F
330
1
100
AcDbSymbolTableRecord
100
AcDbBlockTableRecord
  2
블럭10
340
0
102
{BLKREFS
331
B9
102
}
  0
BLOCK_RECORD
  5
C2
330
1
100
AcDbSymbolTableRecord
100
AcDbBlockTableRecord
  2
_D
340
0
  0
BLOCK_RECORD
  5
D6
330
1
100
AcDbSymbolTableRecord
100
AcDbBlockTableRecord
  2
_D_1
340
0
  0
BLOCK_RECORD
  5
EA
330
1
100
AcDbSymbolTableRecord
100
AcDbBlockTableRecord
  2
_D_2
340
0
  0
BLOCK_RECORD
  5
FF
330
1
100
AcDbSymbolTableRecord
100
AcDbBlockTableRecord
  2
_D_3
340
0
  0
BLOCK_RECORD
  5
119
330
1
100
AcDbSymbolTableRecord
100
AcDbBlockTableRecord
  2
SW_DOWELSYMBOL_0
340
0
102
{BLKREFS
331
11F
102
}
  0
ENDTAB
  0
ENDSEC
  0
SECTION
  2
BLOCKS
  0
BLOCK
  5
20
330
1F
100
AcDbEntity
  8
0
100
AcDbBlockBegin
  2
*Model_Space
 70
     0
 10
0.0
 20
0.0
 30
0.0
  3
*Model_Space
  1
*Model_Space
  0
ENDBLK
  5
21
330
1F
100
AcDbEntity
  8
0
100
AcDbBlockEnd
  0
BLOCK
  5
1C
330
1B
100
AcDbEntity
 67
     1
  8
0
100
AcDbBlockBegin
  2
*Paper_Space
 70
     0
 10
0.0
 20
0.0
 30
0.0
  3
*Paper_Space
  1
*Paper_Space
  0
ENDBLK
  5
1D
330
1B
100
AcDbEntity
 67
     1
  8
0
100
AcDbBlockEnd
  0
BLOCK
  5
24
330
23
100
AcDbEntity
  8
0
100
AcDbBlockBegin
  2
*Paper_Space0
 70
     0
 10
0.0
 20
0.0
 30
0.0
  3
*Paper_Space0
  1
*Paper_Space0
  0
ENDBLK
  5
25
330
23
100
AcDbEntity
  8
0
100
AcDbBlockEnd
  0
BLOCK
  5
80
330
7F
100
AcDbEntity
  8
0
100
AcDbBlockBegin
  2
블럭10
 70
     2
 10
0.0
 20
0.0
 30
0.0
  3
블럭10
  1
블럭10
  0
ELLIPSE
  5
82
330
7F
100
AcDbEntity
  8
중심선
100
AcDbEllipse
 10
20.54032771741204
 20
12.0471743016438
 30
0.0
 11
6.600054785286829
 21
-1.261213355974178E-13
 31
0.0
210
0.0
220
0.0
230
1.0
 40
0.636358354079598
 41
0.9219305317359503
 42
6.513795318482858
  0
ELLIPSE
  5
83
330
7F
100
AcDbEntity
  8
중심선
100
AcDbEllipse
 10
20.54032771746488
 20
12.04717430159265
 30
0.0
 11
3.960054785062283
 21
1.540847449632565E-10
 31
0.0
210
0.0
220
0.0
230
1.0
 40
0.3939339440162632
 41
1.131841032648279
 42
5.62031148352944
  0
LINE
  5
84
330
7F
100
AcDbEntity
  8
중심선
100
AcDbLine
 10
2.268634060543552
 20
16.24717430164393
 30
0.0
 11
5.714909304380834
 21
16.24717430164393
 31
0.0
  0
LINE
  5
85
330
7F
100
AcDbEntity
  8
중심선
100
AcDbLine
 10
5.245725140726316
 20
7.84717430164391
 30
0.0
 11
8.692000384563599
 21
7.84717430164391
 31
0.0
  0
LINE
  5
86
330
7F
100
AcDbEntity
  8
중심선
100
AcDbLine
 10
15.74043728645272
 20
16.24717430164393
 30
0.0
 11
8.692000384563599
 21
7.84717430164391
 31
0.0
  0
LINE
  5
87
330
7F
100
AcDbEntity
  8
중심선
100
AcDbLine
 10
0.1404042013395286
 20
13.71084872107135
 30
0.0
 11
3.58671253028996
 21
13.71088815037384
 31
0.0
  0
LINE
  5
88
330
7F
100
AcDbEntity
  8
중심선
100
AcDbLine
 10
2.750260043222114
 20
10.84717430164391
 30
0.0
 11
6.196535287059397
 21
10.84717430164391
 31
0.0
  0
LINE
  5
89
330
7F
100
AcDbEntity
  8
중심선
100
AcDbLine
 10
12.29416204261559
 20
16.24717430164393
 30
0.0
 11
5.245725140726316
 21
7.84717430164391
 31
0.0
  0
LINE
  5
8A
330
7F
100
AcDbEntity
  8
중심선
100
AcDbLine
 10
10.72767329541681
 20
16.24717430164393
 30
0.0
 11
6.196535287059397
 21
10.84717430164391
 31
0.0
  0
LINE
  5
8B
330
7F
100
AcDbEntity
  8
중심선
100
AcDbLine
 10
7.28139805157953
 20
16.24717430164393
 30
0.0
 11
2.750260043222114
 21
10.84717430164391
 31
0.0
  0
LINE
  5
8C
330
7F
100
AcDbEntity
  8
중심선
100
AcDbLine
 10
5.714909304380834
 20
16.24717430164393
 30
0.0
 11
3.58671253028996
 21
13.71088815037384
 31
0.0
  0
LINE
  5
8D
330
7F
100
AcDbEntity
  8
중심선
100
AcDbLine
 10
2.268634060543552
 20
16.24717430164393
 30
0.0
 11
0.1404042013395286
 21
13.71084872107135
 31
0.0
  0
LINE
  5
8E
330
7F
100
AcDbEntity
  8
중심선
100
AcDbLine
 10
7.28139805157953
 20
16.24717430164393
 30
0.0
 11
10.72767329541681
 21
16.24717430164393
 31
0.0
  0
LINE
  5
8F
330
7F
100
AcDbEntity
  8
중심선
100
AcDbLine
 10
12.29416204261559
 20
16.24717430164393
 30
0.0
 11
15.74043728645272
 21
16.24717430164393
 31
0.0
  0
LINE
  5
90
330
7F
100
AcDbEntity
  8
중심선
100
AcDbLine
 10
19.22036997980202
 20
11.08717430171403
 30
0.0
 11
23.66174974927406
 21
11.08717430171406
 31
0.0
  0
LINE
  5
91
330
7F
100
AcDbEntity
  8
중심선
100
AcDbLine
 10
19.22039502424796
 20
13.00717430171391
 30
0.0
 11
19.22036997980202
 21
11.08717430171403
 31
0.0
  0
LINE
  5
92
330
7F
100
AcDbEntity
  8
중심선
100
AcDbLine
 10
19.22039502424796
 20
13.00717430171391
 30
0.0
 11
26.96566020931264
 21
13.00717430171391
 31
0.0
  0
LINE
  5
93
330
7F
100
AcDbEntity
  8
중심선
100
AcDbLine
 10
22.22332737316547
 20
13.45928029700563
 30
0.0
 11
24.52862924686651
 21
15.39360700705356
 31
0.0
  0
ATTDEF
  5
95
330
7F
100
AcDbEntity
  8
FORMAT
 62
     2
100
AcDbText
 10
3.448148490846466
 20
2.075366912832191
 30
0.0
 40
4.233333333333333
  1
EM210909
 41
0.75
  7
SLDTEXTSTYLE0
 11
3.448148490846466
 21
-0.0412997538344756
 31
0.0
100
AcDbAttributeDefinition
  3

  2
AUTOATTR0
 70
     0
 74
     1
  0
ENDBLK
  5
81
330
7F
100
AcDbEntity
  8
0
100
AcDbBlockEnd
  0
BLOCK
  5
C3
330
C2
100
AcDbEntity
  8
0
100
AcDbBlockBegin
  2
_D
 70
     0
 10
0.0
 20
0.0
 30
0.0
  3
_D
  1
_D
  0
LINE
  5
C5
330
C2
100
AcDbEntity
  8
치수문자_일반주서
 62
     0
370
    -2
100
AcDbLine
 10
69.14999999999995
 20
12.7635749287239
 30
0.0
 11
69.14999999999995
 21
38.39811096570963
 31
0.0
  0
LINE
  5
C6
330
C2
100
AcDbEntity
  8
치수문자_일반주서
 62
     0
370
    -2
100
AcDbLine
 10
12.0
 20
12.76357492872388
 30
0.0
 11
12.0
 21
38.39811096570963
 31
0.0
  0
LINE
  5
C7
330
C2
100
AcDbEntity
  8
치수문자_일반주서
 62
     0
370
    -2
100
AcDbLine
 10
65.84799999999996
 20
38.39811096570963
 30
0.0
 11
15.302
 21
38.39811096570963
 31
0.0
  0
SOLID
  5
C8
330
C2
100
AcDbEntity
  8
치수문자_일반주서
 62
     0
100
AcDbTrace
 10
65.84799999999996
 20
37.8477776323763
 30
0.0
 11
65.84799999999996
 21
38.94844429904297
 31
0.0
 12
69.14999999999995
 22
38.39811096570963
 32
0.0
 13
69.14999999999995
 23
38.39811096570963
 33
0.0
  0
SOLID
  5
C9
330
C2
100
AcDbEntity
  8
치수문자_일반주서
 62
     0
100
AcDbTrace
 10
15.302
 20
38.94844429904297
 30
0.0
 11
15.302
 21
37.8477776323763
 31
0.0
 12
12.0
 22
38.39811096570963
 32
0.0
 13
12.0
 23
38.39811096570963
 33
0.0
  0
MTEXT
  5
CA
330
C2
100
AcDbEntity
  8
치수문자_일반주서
 62
     0
100
AcDbMText
 10
40.57499999999998
 20
42.77311096570963
 30
0.0
 40
3.5
 41
0.0
 71
     2
 72
     1
  1
\A1;57.15 [2 1/4]
  7
SLDTEXTSTYLE0
 73
     1
 44
1.0
  0
POINT
  5
CB
330
C2
100
AcDbEntity
  8
Defpoints
 62
     0
100
AcDbPoint
 10
69.14999999999995
 20
12.7010749287239
 30
0.0
  0
POINT
  5
CC
330
C2
100
AcDbEntity
  8
Defpoints
 62
     0
100
AcDbPoint
 10
12.0
 20
12.70107492872388
 30
0.0
  0
POINT
  5
CD
330
C2
100
AcDbEntity
  8
Defpoints
 62
     0
100
AcDbPoint
 10
12.0
 20
38.39811096570963
 30
0.0
  0
ENDBLK
  5
C4
330
C2
100
AcDbEntity
  8
0
100
AcDbBlockEnd
  0
BLOCK
  5
D7
330
D6
100
AcDbEntity
  8
0
100
AcDbBlockBegin
  2
_D_1
 70
     0
 10
0.0
 20
0.0
 30
0.0
  3
_D_1
  1
_D_1
  0
LINE
  5
D9
330
D6
100
AcDbEntity
  8
치수문자_일반주서
 62
     0
370
    -2
100
AcDbLine
 10
69.14999999999995
 20
12.7635749287239
 30
0.0
 11
69.14999999999995
 21
53.97636907984727
 31
0.0
  0
LINE
  5
DA
330
D6
100
AcDbEntity
  8
치수문자_일반주서
 62
     0
370
    -2
100
AcDbLine
 10
-57.84999999999999
 20
10.2235749287239
 30
0.0
 11
-57.84999999999999
 21
53.97636907984727
 31
0.0
  0
LINE
  5
DB
330
D6
100
AcDbEntity
  8
치수문자_일반주서
 62
     0
370
    -2
100
AcDbLine
 10
65.84799999999996
 20
53.97636907984727
 30
0.0
 11
-54.54799999999999
 21
53.97636907984727
 31
0.0
  0
SOLID
  5
DC
330
D6
100
AcDbEntity
  8
치수문자_일반주서
 62
     0
100
AcDbTrace
 10
65.84799999999996
 20
53.42603574651393
 30
0.0
 11
65.84799999999996
 21
54.5267024131806
 31
0.0
 12
69.14999999999995
 22
53.97636907984727
 32
0.0
 13
69.14999999999995
 23
53.97636907984727
 33
0.0
  0
SOLID
  5
DD
330
D6
100
AcDbEntity
  8
치수문자_일반주서
 62
     0
100
AcDbTrace
 10
-54.54799999999999
 20
54.5267024131806
 30
0.0
 11
-54.54799999999999
 21
53.42603574651393
 31
0.0
 12
-57.84999999999999
 22
53.97636907984727
 32
0.0
 13
-57.84999999999999
 23
53.97636907984727
 33
0.0
  0
MTEXT
  5
DE
330
D6
100
AcDbEntity
  8
치수문자_일반주서
 62
     0
100
AcDbMText
 10
-7.254684605604083
 20
58.35136907984727
 30
0.0
 40
3.5
 41
0.0
 71
     2
 72
     1
  1
\A1;127.00 [5]
  7
SLDTEXTSTYLE0
 73
     1
 44
1.0
  0
POINT
  5
DF
330
D6
100
AcDbEntity
  8
Defpoints
 62
     0
100
AcDbPoint
 10
69.14999999999995
 20
12.7010749287239
 30
0.0
  0
POINT
  5
E0
330
D6
100
AcDbEntity
  8
Defpoints
 62
     0
100
AcDbPoint
 10
-57.84999999999999
 20
10.1610749287239
 30
0.0
  0
POINT
  5
E1
330
D6
100
AcDbEntity
  8
Defpoints
 62
     0
100
AcDbPoint
 10
-57.84999999999999
 20
53.97636907984727
 30
0.0
  0
ENDBLK
  5
D8
330
D6
100
AcDbEntity
  8
0
100
AcDbBlockEnd
  0
BLOCK
  5
EB
330
EA
100
AcDbEntity
  8
0
100
AcDbBlockBegin
  2
_D_2
 70
     0
 10
0.0
 20
0.0
 30
0.0
  3
_D_2
  1
_D_2
  0
LINE
  5
ED
330
EA
100
AcDbEntity
  8
치수문자_일반주서
 62
     0
370
    -2
100
AcDbLine
 10
-55.37250000000002
 20
12.70107492872388
 30
0.0
 11
-68.62750000000008
 21
12.70107492872383
 31
0.0
  0
LINE
  5
EE
330
EA
100
AcDbEntity
  8
치수문자_일반주서
 62
     0
370
    -2
100
AcDbLine
 10
-55.37250000000002
 20
-12.6989250712761
 30
0.0
 11
-68.6275
 21
-12.69892507127615
 31
0.0
  0
LINE
  5
EF
330
EA
100
AcDbEntity
  8
치수문자_일반주서
 62
     0
370
    -2
100
AcDbLine
 10
-68.62750000000007
 20
9.399074928723833
 30
0.0
 11
-68.62750000000001
 21
-9.396925071276145
 31
0.0
  0
SOLID
  5
F0
330
EA
100
AcDbEntity
  8
치수문자_일반주서
 62
     0
100
AcDbTrace
 10
-68.07716666666674
 20
9.399074928723834
 30
0.0
 11
-69.1778333333334
 21
9.39907492872383
 31
0.0
 12
-68.62750000000008
 22
12.70107492872383
 32
0.0
 13
-68.62750000000008
 23
12.70107492872383
 33
0.0
  0
SOLID
  5
F1
330
EA
100
AcDbEntity
  8
치수문자_일반주서
 62
     0
100
AcDbTrace
 10
-69.17783333333334
 20
-9.396925071276147
 30
0.0
 11
-68.07716666666668
 21
-9.396925071276144
 31
0.0
 12
-68.6275
 22
-12.69892507127615
 32
0.0
 13
-68.6275
 23
-12.69892507127615
 33
0.0
  0
MTEXT
  5
F2
330
EA
100
AcDbEntity
  8
치수문자_일반주서
 62
     0
100
AcDbMText
 10
-73.00250000000004
 20
0.0010749287238691
 30
0.0
 40
3.5
 41
0.0
 71
     2
 72
     1
  1
\A1;%%c25.40 [1]
  7
SLDTEXTSTYLE0
 11
-3.356894814614650E-15
 21
1.0
 31
0.0
 73
     1
 44
1.0
  0
POINT
  5
F3
330
EA
100
AcDbEntity
  8
Defpoints
 62
     0
100
AcDbPoint
 10
-55.31000000000002
 20
12.70107492872388
 30
0.0
  0
POINT
  5
F4
330
EA
100
AcDbEntity
  8
Defpoints
 62
     0
100
AcDbPoint
 10
-55.31000000000002
 20
-12.6989250712761
 30
0.0
  0
POINT
  5
F5
330
EA
100
AcDbEntity
  8
Defpoints
 62
     0
100
AcDbPoint
 10
-68.6275
 20
-12.69892507127615
 30
0.0
  0
ENDBLK
  5
EC
330
EA
100
AcDbEntity
  8
0
100
AcDbBlockEnd
  0
BLOCK
  5
100
330
FF
100
AcDbEntity
  8
0
100
AcDbBlockBegin
  2
_D_3
 70
     0
 10
0.0
 20
0.0
 30
0.0
  3
_D_3
  1
_D_3
  0
LINE
  5
102
330
FF
100
AcDbEntity
  8
치수문자_일반주서
 62
     0
370
    -2
100
AcDbLine
 10
69.21249999999995
 20
12.7010749287239
 30
0.0
 11
98.77596991629761
 21
12.70107492872401
 31
0.0
  0
LINE
  5
103
330
FF
100
AcDbEntity
  8
치수문자_일반주서
 62
     0
370
    -2
100
AcDbLine
 10
69.21249999999995
 20
-12.6989250712761
 30
0.0
 11
98.7759699162977
 21
-12.69892507127599
 31
0.0
  0
LINE
  5
104
330
FF
100
AcDbEntity
  8
치수문자_일반주서
 62
     0
370
    -2
100
AcDbLine
 10
98.77596991629763
 20
9.39907492872401
 30
0.0
 11
98.77596991629768
 21
-9.396925071275989
 31
0.0
  0
SOLID
  5
105
330
FF
100
AcDbEntity
  8
치수문자_일반주서
 62
     0
100
AcDbTrace
 10
99.32630324963095
 20
9.399074928724012
 30
0.0
 11
98.2256365829643
 21
9.399074928724009
 31
0.0
 12
98.77596991629761
 22
12.70107492872401
 32
0.0
 13
98.77596991629761
 23
12.70107492872401
 33
0.0
  0
SOLID
  5
106
330
FF
100
AcDbEntity
  8
치수문자_일반주서
 62
     0
100
AcDbTrace
 10
98.22563658296436
 20
-9.39692507127599
 30
0.0
 11
99.32630324963101
 21
-9.396925071275987
 31
0.0
 12
98.7759699162977
 22
-12.69892507127599
 32
0.0
 13
98.7759699162977
 23
-12.69892507127599
 33
0.0
  0
MTEXT
  5
107
330
FF
100
AcDbEntity
  8
치수문자_일반주서
 62
     0
100
AcDbMText
 10
94.40096991629765
 20
-1.092534545294156
 30
0.0
 40
3.5
 41
0.0
 71
     2
 72
     1
  1
\A1;%%c25.4 [1]
  7
SLDTEXTSTYLE0
 11
-3.356894814614647E-15
 21
1.0
 31
0.0
 73
     1
 44
1.0
  0
POINT
  5
108
330
FF
100
AcDbEntity
  8
Defpoints
 62
     0
100
AcDbPoint
 10
69.14999999999995
 20
12.7010749287239
 30
0.0
  0
POINT
  5
109
330
FF
100
AcDbEntity
  8
Defpoints
 62
     0
100
AcDbPoint
 10
69.14999999999995
 20
-12.6989250712761
 30
0.0
  0
POINT
  5
10A
330
FF
100
AcDbEntity
  8
Defpoints
 62
     0
100
AcDbPoint
 10
98.7759699162977
 20
-12.69892507127599
 30
0.0
  0
ENDBLK
  5
101
330
FF
100
AcDbEntity
  8
0
100
AcDbBlockEnd
  0
BLOCK
  5
11A
330
119
100
AcDbEntity
  8
0
100
AcDbBlockBegin
  2
SW_DOWELSYMBOL_0
 70
     0
 10
0.0
 20
0.0
 30
0.0
  3
SW_DOWELSYMBOL_0
  1
SW_DOWELSYMBOL_0
  0
CIRCLE
  5
11C
330
119
100
AcDbEntity
  8
해칭선
 62
     0
100
AcDbCircle
 10
0.0
 20
0.0
 30
0.0
 40
3.000000000000001
  0
HATCH
  5
11D
330
119
100
AcDbEntity
  8
0
  6
Continuous
 62
     0
370
     0
100
AcDbHatch
 10
0.0
 20
0.0
 30
0.0
210
0.0
220
0.0
230
1.0
  2
SOLID
 70
     1
 71
     0
 91
        1
 92
        0
 93
        3
 72
     2
 10
0.0
 20
0.0
 40
3.000000000000001
 50
0.0
 51
90.0
 73
     1
 72
     1
 10
0.0
 20
3.000000000000001
 11
0.0
 21
0.0
 72
     1
 10
0.0
 20
0.0
 11
3.000000000000003
 21
0.0
 97
        0
 75
     0
 76
     1
 98
        1
 10
0.0
 20
0.0
  0
HATCH
  5
11E
330
119
100
AcDbEntity
  8
0
  6
Continuous
 62
     0
370
     0
100
AcDbHatch
 10
0.0
 20
0.0
 30
0.0
210
0.0
220
0.0
230
1.0
  2
SOLID
 70
     1
 71
     0
 91
        1
 92
        0
 93
        3
 72
     2
 10
0.0
 20
0.0
 40
3.000000000000001
 50
180.0
 51
270.0000000000007
 73
     1
 72
     1
 10
0.0
 20
-3.000000000000001
 11
0.0
 21
0.0
 72
     1
 10
0.0
 20
0.0
 11
-3.000000000000001
 21
0.0
 97
        0
 75
     0
 76
     1
 98
        1
 10
0.0
 20
0.0
  0
ENDBLK
  5
11B
330
119
100
AcDbEntity
  8
0
100
AcDbBlockEnd
  0
ENDSEC
  0
SECTION
  2
ENTITIES
  0
LINE
  5
96
330
1F
100
AcDbEntity
  8
0
  6
Continuous
 62
     1
370
    15
100
AcDbLine
 10
41.82452562107211
 20
3.763495841848827
 30
0.0
 11
41.73661655211342
 21
3.811181888272162
 31
0.0
  0
ARC
  5
97
330
1F
100
AcDbEntity
  8
0
  6
Continuous
 62
     1
370
    15
100
AcDbCircle
 10
56.44999999999994
 20
0.0010749287238933
 30
0.0
 40
12.70000000000003
100
AcDbArc
 50
336.2919026660708
 51
0.0
  0
ARC
  5
98
330
1F
100
AcDbEntity
  8
0
  6
Continuous
 62
     1
370
    15
100
AcDbCircle
 10
56.44999999999994
 20
0.0010749287238933
 30
0.0
 40
12.70000000000003
100
AcDbArc
 50
0.0
 51
23.70965084824922
  0
LINE
  5
99
330
1F
100
AcDbEntity
  8
0
  6
Continuous
 62
     1
370
    15
100
AcDbLine
 10
48.43995895825973
 20
-12.69892507127612
 30
0.0
 11
56.18311584115042
 21
-12.69892507127612
 31
0.0
  0
LINE
  5
9A
330
1F
100
AcDbEntity
  8
0
  6
Continuous
 62
     1
370
    15
100
AcDbLine
 10
21.63148928366438
 20
12.70107492872391
 30
0.0
 11
13.88726002918836
 21
12.70107492872391
 31
0.0
  0
LINE
  5
9B
330
1F
100
AcDbEntity
  8
0
  6
Continuous
 62
     1
370
    15
100
AcDbLine
 10
13.88726002918834
 20
-12.69892507127612
 30
0.0
 11
21.63148928366456
 21
-12.69892507127612
 31
0.0
  0
LINE
  5
9C
330
1F
100
AcDbEntity
  8
0
  6
Continuous
 62
     1
370
    15
100
AcDbLine
 10
56.18311584115039
 20
12.70107492872391
 30
0.0
 11
48.43995895825957
 21
12.70107492872391
 31
0.0
  0
LINE
  5
9D
330
1F
100
AcDbEntity
  8
외형선
  6
Continuous
370
    15
100
AcDbLine
 10
-55.31000000000001
 20
-12.6989250712761
 30
0.0
 11
11.99999999999999
 21
-12.6989250712761
 31
0.0
  0
LINE
  5
9E
330
1F
100
AcDbEntity
  8
외형선
  6
Continuous
370
    15
100
AcDbLine
 10
11.99999999999999
 20
12.70107492872389
 30
0.0
 11
-55.31000000000001
 21
12.70107492872389
 31
0.0
  0
LINE
  5
9F
330
1F
100
AcDbEntity
  8
외형선
  6
Continuous
370
    15
100
AcDbLine
 10
-55.31000000000001
 20
12.70107492872389
 30
0.0
 11
-57.85000000000001
 21
10.1610749287239
 31
0.0
  0
LINE
  5
A0
330
1F
100
AcDbEntity
  8
외형선
  6
Continuous
370
    15
100
AcDbLine
 10
-57.85000000000001
 20
-10.15892507127611
 30
0.0
 11
-55.31000000000001
 21
-12.6989250712761
 31
0.0
  0
SPLINE
  5
A1
330
1F
100
AcDbEntity
  8
0
  6
Continuous
 62
     1
370
    15
100
AcDbSpline
210
0.0
220
0.0
230
1.0
 70
     8
 71
     3
 72
    18
 73
    14
 74
     0
 42
0.000000001
 43
0.00000001
 40
0.0
 40
0.0
 40
0.0
 40
0.0
 40
0.0975923125848567
 40
0.1951838177581624
 40
0.2927745528334834
 40
0.3903645551742675
 40
0.4879538621914504
 40
0.5855425113410501
 40
0.6831305401217589
 40
0.7725891480253911
 40
0.8620389199706224
 40
0.9514836677670869
 40
0.9999999999999999
 40
0.9999999999999999
 40
0.9999999999999999
 40
0.9999999999999999
 10
11.99999999999999
 20
1.089228064272017
 30
0.0
 10
13.18545182303061
 20
0.4046181265231237
 30
0.0
 10
15.55634566148029
 20
-0.9645960849837504
 30
0.0
 10
19.11266454844193
 20
-3.00084365049852
 30
0.0
 10
22.66895056282935
 20
-4.956754352064552
 30
0.0
 10
26.22520309431967
 20
-6.783932726033169
 30
0.0
 10
29.78143021934137
 20
-8.433937549827288
 30
0.0
 10
33.33761005306648
 20
-9.864300067566502
 30
0.0
 10
36.79509043986781
 20
-11.00373652949542
 30
0.0
 10
40.15347013501525
 20
-11.85379157992846
 30
0.0
 10
43.41291020164373
 20
-12.40555304094063
 30
0.0
 10
46.17502201817578
 20
-12.68552315912414
 30
0.0
 10
47.85068419442318
 20
-12.66984722601541
 30
0.0
 10
48.43995895825973
 20
-12.66433452070314
 30
0.0
  0
SPLINE
  5
A2
330
1F
100
AcDbEntity
  8
0
  6
Continuous
 62
     1
370
    15
100
AcDbSpline
210
0.0
220
0.0
230
1.0
 70
     8
 71
     3
 72
    14
 73
    10
 74
     0
 42
0.000000001
 43
0.00000001
 40
0.0
 40
0.0
 40
0.0
 40
0.0
 40
0.1527925803705468
 40
0.2939764738192394
 40
0.435159274486586
 40
0.5763470126060907
 40
0.717545711506043
 40
0.8587613791962243
 40
1.0
 40
1.0
 40
1.0
 40
1.0
 10
35.08518706043539
 20
-10.3950924689176
 30
0.0
 10
33.90937204964766
 20
-10.75975209560649
 30
0.0
 10
31.64707665613563
 20
-11.46136568795671
 30
0.0
 10
28.2986759765633
 20
-12.16144464450943
 30
0.0
 10
25.03949239657624
 20
-12.59332694742723
 30
0.0
 10
21.78019501241447
 20
-12.74580039637547
 30
0.0
 10
18.52058556968979
 20
-12.61527180004525
 30
0.0
 10
15.26051738907825
 20
-12.22592422654356
 30
0.0
 10
13.08689800804889
 20
-11.74270663598513
 30
0.0
 10
12.0
 20
-11.50107820682408
 30
0.0
  0
SPLINE
  5
A3
330
1F
100
AcDbEntity
  8
0
  6
Continuous
 62
     1
370
    15
100
AcDbSpline
210
0.0
220
0.0
230
1.0
 70
     8
 71
     3
 72
    52
 73
    48
 74
     0
 42
0.000000001
 43
0.00000001
 40
0.0
 40
0.0
 40
0.0
 40
0.0
 40
0.0625000000000005
 40
0.0625000000000005
 40
0.0937500000000007
 40
0.0937500000000007
 40
0.125000000000001
 40
0.125000000000001
 40
0.1562500000000012
 40
0.1562500000000012
 40
0.1875000000000015
 40
0.1875000000000015
 40
0.2500000000000021
 40
0.2500000000000021
 40
0.3125000000000026
 40
0.3125000000000026
 40
0.3437500000000029
 40
0.3437500000000029
 40
0.3750000000000031
 40
0.3750000000000031
 40
0.437500000000003
 40
0.437500000000003
 40
0.4687500000000029
 40
0.4687500000000029
 40
0.5000000000000029
 40
0.5000000000000029
 40
0.5625000000000021
 40
0.5625000000000021
 40
0.5937500000000018
 40
0.5937500000000018
 40
0.6250000000000013
 40
0.6250000000000013
 40
0.6875000000000004
 40
0.6875000000000004
 40
0.7187500000000001
 40
0.7187500000000001
 40
0.7499999999999997
 40
0.7499999999999997
 40
0.8124999999999996
 40
0.8124999999999996
 40
0.8749999999999996
 40
0.8749999999999996
 40
0.9374999999999994
 40
0.9374999999999994
 40
0.9687499999999998
 40
0.9687499999999998
 40
1.0
 40
1.0
 40
1.0
 40
1.0
 10
11.99999999999999
 20
12.65437184113361
 30
0.0
 10
12.92290356737875
 20
12.70013047281112
 30
0.0
 10
13.85305741510296
 20
12.71231139462112
 30
0.0
 10
15.24254670131807
 20
12.6798121712256
 30
0.0
 10
15.70357039740437
 20
12.66057256442401
 30
0.0
 10
16.6288349638578
 20
12.60527235229496
 30
0.0
 10
17.09275294940484
 20
12.56919747551271
 30
0.0
 10
18.02038911056055
 20
12.48037105325277
 30
0.0
 10
18.48410544180561
 20
12.42761969398885
 30
0.0
 10
19.40856739852239
 20
12.30581253444032
 30
0.0
 10
19.87011592307741
 20
12.23673690999865
 30
0.0
 10
21.26035117636317
 20
12.00496459258381
 30
0.0
 10
22.18832629342899
 20
11.81796256948257
 30
0.0
 10
24.03611510309926
 20
11.38285883303478
 30
0.0
 10
24.96646141300099
 20
11.13389066450812
 30
0.0
 10
26.35503046737664
 20
10.71767658039475
 30
0.0
 10
26.81592800186719
 20
10.57193265780755
 30
0.0
 10
27.74187944574008
 20
10.26616240126935
 30
0.0
 10
28.20594068129549
 20
10.10622732888657
 30
0.0
 10
29.59721983481372
 20
9.606672494901659
 30
0.0
 10
30.51933001067677
 20
9.247865022323454
 30
0.0
 10
31.91013665382236
 20
8.673267619162528
 30
0.0
 10
32.37429536438447
 20
8.475756775135181
 30
0.0
 10
33.30094977659404
 20
8.069966394491717
 30
0.0
 10
33.76225928953428
 20
7.861872145679517
 30
0.0
 10
35.14941441305092
 20
7.22187758558198
 30
0.0
 10
36.0798353262312
 20
6.773957211059461
 30
0.0
 10
37.46731026914775
 20
6.078191516895948
 30
0.0
 10
37.92848036163033
 20
5.842305643192157
 30
0.0
 10
38.85500266327955
 20
5.362373125797067
 30
0.0
 10
39.31914868433049
 20
5.118526470177629
 30
0.0
 10
40.71007773484941
 20
4.37752430343675
 30
0.0
 10
41.63214255409803
 20
3.87150601078234
 30
0.0
 10
43.02334577043192
 20
3.097600574399146
 30
0.0
 10
43.48743523332521
 20
2.8373325068497
 30
0.0
 10
44.41354964999856
 20
2.313759370729557
 30
0.0
 10
44.87448069926298
 20
2.050664948155563
 30
0.0
 10
46.26277605059519
 20
1.25678165138315
 30
0.0
 10
47.19315367652913
 20
0.7218464202438286
 30
0.0
 10
49.04143022233648
 20
-0.3466257854806468
 30
0.0
 10
49.96888352272567
 20
-0.8819948451558428
 30
0.0
 10
51.82275562877008
 20
-1.945003032666893
 30
0.0
 10
52.74511655877858
 20
-2.471873896635038
 30
0.0
 10
54.136541365361
 20
-3.251718472550096
 30
0.0
 10
54.60050310420387
 20
-3.509701659926932
 30
0.0
 10
55.52596143748675
 20
-4.020206152995131
 30
0.0
 10
55.9869127286592
 20
-4.272633708719713
 30
0.0
 10
56.44999999999995
 20
-4.522443223919089
 30
0.0
  0
SPLINE
  5
A4
330
1F
100
AcDbEntity
  8
0
  6
Continuous
 62
     1
370
    15
100
AcDbSpline
210
0.0
220
0.0
230
1.0
 70
     8
 71
     3
 72
    66
 73
    62
 74
     0
 42
0.000000001
 43
0.00000001
 40
0.0
 40
0.0
 40
0.0
 40
0.0
 40
0.0624999999999982
 40
0.0624999999999982
 40
0.0937499999999973
 40
0.0937499999999973
 40
0.1249999999999964
 40
0.1249999999999964
 40
0.1874999999999947
 40
0.1874999999999947
 40
0.2187499999999938
 40
0.2187499999999938
 40
0.2499999999999929
 40
0.2499999999999929
 40
0.3124999999999919
 40
0.3124999999999919
 40
0.3749999999999909
 40
0.3749999999999909
 40
0.4062499999999904
 40
0.4062499999999904
 40
0.4374999999999899
 40
0.4374999999999899
 40
0.4687499999999894
 40
0.4687499999999894
 40
0.4843749999999893
 40
0.4843749999999893
 40
0.4999999999999893
 40
0.4999999999999893
 40
0.5312499999999893
 40
0.5312499999999893
 40
0.5468749999999893
 40
0.5468749999999893
 40
0.5624999999999893
 40
0.5624999999999893
 40
0.5781249999999893
 40
0.5781249999999893
 40
0.5937499999999892
 40
0.5937499999999892
 40
0.6093749999999891
 40
0.6093749999999891
 40
0.6249999999999897
 40
0.6249999999999897
 40
0.6562499999999908
 40
0.6562499999999908
 40
0.6718749999999913
 40
0.6718749999999913
 40
0.6874999999999919
 40
0.6874999999999919
 40
0.718749999999993
 40
0.718749999999993
 40
0.7499999999999941
 40
0.7499999999999941
 40
0.7812499999999952
 40
0.7812499999999952
 40
0.8124999999999963
 40
0.8124999999999963
 40
0.8749999999999976
 40
0.8749999999999976
 40
0.9374999999999988
 40
0.9374999999999988
 40
1.0
 40
1.0
 40
1.0
 40
1.0
 10
56.44999999999992
 20
-4.522443223919073
 30
0.0
 10
57.09512540722046
 20
-4.870452066299816
 30
0.0
 10
57.73766043944637
 20
-5.178402329572934
 30
0.0
 10
58.70416055194267
 20
-5.571073022436772
 30
0.0
 10
59.02670204087242
 20
-5.690490321603114
 30
0.0
 10
59.67338790035078
 20
-5.90446518834792
 30
0.0
 10
59.99954714842671
 20
-5.99906163901369
 30
0.0
 10
60.96608679415721
 20
-6.238475145362189
 30
0.0
 10
61.59360444099543
 20
-6.33937781800299
 30
0.0
 10
62.50845853993402
 20
-6.409810702575522
 30
0.0
 10
62.80889405801997
 20
-6.419913048593855
 30
0.0
 10
63.39998606403618
 20
-6.413962882172095
 30
0.0
 10
63.69074266890113
 20
-6.397627252701317
 30
0.0
 10
64.52936195536697
 20
-6.314506947100242
 30
0.0
 10
65.05008130590599
 20
-6.213513282210027
 30
0.0
 10
66.00425689300289
 20
-5.955703016697041
 30
0.0
 10
66.43922122561764
 20
-5.797439373394039
 30
0.0
 10
66.99033928158943
 20
-5.562892890003669
 30
0.0
 10
67.15810097039346
 20
-5.485061506862547
 30
0.0
 10
67.45859822445664
 20
-5.338800451888755
 30
0.0
 10
67.59186964597754
 20
-5.270053327484384
 30
0.0
 10
67.81579529811472
 20
-5.154369884852152
 30
0.0
 10
67.90539679670138
 20
-5.108017192441541
 30
0.0
 10
68.002867705309
 20
-5.065206555442036
 30
0.0
 10
68.0291781541174
 20
-5.055411660753874
 30
0.0
 10
68.06841155364643
 20
-5.046813677574292
 30
0.0
 10
68.08126103063918
 20
-5.048095221109234
 30
0.0
 10
68.09759227973518
 20
-5.071315380978429
 30
0.0
 10
68.07965532063966
 20
-5.112218706158355
 30
0.0
 10
68.00427697496053
 20
-5.222866204929146
 30
0.0
 10
67.97090094472492
 20
-5.26810352177041
 30
0.0
 10
67.88937258520679
 20
-5.373606865766892
 30
0.0
 10
67.84106032642242
 20
-5.434120811066322
 30
0.0
 10
67.72925479869889
 20
-5.571170122903496
 30
0.0
 10
67.66576496797077
 20
-5.647701880489482
 30
0.0
 10
67.52290956806368
 20
-5.817616621278035
 30
0.0
 10
67.4438903019155
 20
-5.910568735326172
 30
0.0
 10
67.27513362850132
 20
-6.10704407725983
 30
0.0
 10
67.18486562197856
 20
-6.211199166285009
 30
0.0
 10
66.99275392914004
 20
-6.43065627012897
 30
0.0
 10
66.89024420816477
 20
-6.546701096693964
 30
0.0
 10
66.5701190079512
 20
-6.905103407095406
 30
0.0
 10
66.34178476550159
 20
-7.155766254284756
 30
0.0
 10
65.97746942236859
 20
-7.543982959391093
 30
0.0
 10
65.85247127813332
 20
-7.675304701099052
 30
0.0
 10
65.60026109465741
 20
-7.935934006974274
 30
0.0
 10
65.47239851400585
 20
-8.065940430181632
 30
0.0
 10
65.08329450705742
 20
-8.454339618238821
 30
0.0
 10
64.81656562710447
 20
-8.711116203457022
 30
0.0
 10
64.26636834480476
 20
-9.216766331710229
 30
0.0
 10
63.98875019164466
 20
-9.460209722690397
 30
0.0
 10
63.42825287409854
 20
-9.925665613364696
 30
0.0
 10
63.144974671936
 20
-10.148071219584
 30
0.0
 10
62.56968675780436
 20
-10.5710600878591
 30
0.0
 10
62.27593270002578
 20
-10.77257114053852
 30
0.0
 10
61.39407621726451
 20
-11.33134201302256
 30
0.0
 10
60.80312262716443
 20
-11.64557241696625
 30
0.0
 10
59.59582434200123
 20
-12.15851276472349
 30
0.0
 10
58.97518890214992
 20
-12.35753143267653
 30
0.0
 10
57.72605862548303
 20
-12.62387446172404
 30
0.0
 10
57.09491289785988
 20
-12.6934623174132
 30
0.0
 10
56.44999999999994
 20
-12.69798712722488
 30
0.0
  0
SPLINE
  5
A5
330
1F
100
AcDbEntity
  8
0
  6
Continuous
 62
     1
370
    15
100
AcDbSpline
210
0.0
220
0.0
230
1.0
 70
     8
 71
     3
 72
    52
 73
    48
 74
     0
 42
0.000000001
 43
0.00000001
 40
0.0
 40
0.0
 40
0.0
 40
0.0
 40
0.0624999999999991
 40
0.0624999999999991
 40
0.093749999999999
 40
0.093749999999999
 40
0.1249999999999989
 40
0.1249999999999989
 40
0.1562499999999988
 40
0.1562499999999988
 40
0.1874999999999986
 40
0.1874999999999986
 40
0.2499999999999991
 40
0.2499999999999991
 40
0.3124999999999996
 40
0.3124999999999996
 40
0.3437499999999994
 40
0.3437499999999994
 40
0.3749999999999993
 40
0.3749999999999993
 40
0.4374999999999983
 40
0.4374999999999983
 40
0.4687499999999982
 40
0.4687499999999982
 40
0.4999999999999981
 40
0.4999999999999981
 40
0.5624999999999979
 40
0.5624999999999979
 40
0.5937499999999981
 40
0.5937499999999981
 40
0.6249999999999982
 40
0.6249999999999982
 40
0.687499999999998
 40
0.687499999999998
 40
0.7187499999999982
 40
0.7187499999999982
 40
0.7499999999999984
 40
0.7499999999999984
 40
0.8124999999999989
 40
0.8124999999999989
 40
0.8749999999999992
 40
0.8749999999999992
 40
0.9374999999999997
 40
0.9374999999999997
 40
0.9687499999999999
 40
0.9687499999999999
 40
1.0
 40
1.0
 40
1.0
 40
1.0
 10
12.0
 20
5.385355126336472
 30
0.0
 10
12.92290356737873
 20
4.901670641465946
 30
0.0
 10
13.853057415103
 20
4.402385645921465
 30
0.0
 10
15.24254670131805
 20
3.638912129104624
 30
0.0
 10
15.70357039740434
 20
3.382229161459127
 30
0.0
 10
16.6288349638578
 20
2.864121791499075
 30
0.0
 10
17.09275294940484
 20
2.602752341465862
 30
0.0
 10
18.02038911056058
 20
2.076935054434809
 30
0.0
 10
18.48410544180557
 20
1.812488264724329
 30
0.0
 10
19.40856739852239
 20
1.282107376247446
 30
0.0
 10
19.87011592307741
 20
1.016021421590591
 30
0.0
 10
21.26035117636317
 20
0.2151983767183357
 30
0.0
 10
22.18832629342898
 20
-0.3208937560593486
 30
0.0
 10
24.03611510309927
 20
-1.38696314075018
 30
0.0
 10
24.96646141300098
 20
-1.918954191422429
 30
0.0
 10
26.35503046737661
 20
-2.705853013868981
 30
0.0
 10
26.81592800186719
 20
-2.966161051049602
 30
0.0
 10
27.74187944574008
 20
-3.483269853156358
 30
0.0
 10
28.20594068129549
 20
-3.739880214843474
 30
0.0
 10
29.59721983481373
 20
-4.501565326153272
 30
0.0
 10
30.51933001067681
 20
-4.997748732524727
 30
0.0
 10
31.91013665382241
 20
-5.721498512663697
 30
0.0
 10
32.37429536438451
 20
-5.959195035101505
 30
0.0
 10
33.30094977659412
 20
-6.426064224638337
 30
0.0
 10
33.76225928953435
 20
-6.655046179354456
 30
0.0
 10
35.14941441305098
 20
-7.32882230758911
 30
0.0
 10
36.07983532623125
 20
-7.760567355914838
 30
0.0
 10
37.46731026914778
 20
-8.374301374872411
 30
0.0
 10
37.92848036163036
 20
-8.573265524333488
 30
0.0
 10
38.85500266327956
 20
-8.960132688608955
 30
0.0
 10
39.31914868433049
 20
-9.147854151037738
 30
0.0
 10
40.71007773484938
 20
-9.692183230393683
 30
0.0
 10
41.63214255409802
 20
-10.02959129964414
 30
0.0
 10
43.02334577043187
 20
-10.49537796815789
 30
0.0
 10
43.48743523332519
 20
-10.64379268889764
 30
0.0
 10
44.41354964999853
 20
-10.92606011411888
 30
0.0
 10
44.87448069926293
 20
-11.05982002288409
 30
0.0
 10
46.26277605059518
 20
-11.43933746957148
 30
0.0
 10
47.19315367652919
 20
-11.6629381440238
 30
0.0
 10
49.04143022233647
 20
-12.04608009599227
 30
0.0
 10
49.96888352272564
 20
-12.20633342804354
 30
0.0
 10
51.82275562877006
 20
-12.46102173876787
 30
0.0
 10
52.74511655877865
 20
-12.55537695389465
 30
0.0
 10
54.136541365361
 20
-12.64676208075756
 30
0.0
 10
54.60050310420387
 20
-12.66882337470741
 30
0.0
 10
55.52596143748674
 20
-12.6960523941269
 30
0.0
 10
55.98691272865917
 20
-12.7012362199876
 30
0.0
 10
56.44999999999992
 20
-12.69798712722487
 30
0.0
  0
SPLINE
  5
A6
330
1F
100
AcDbEntity
  8
0
  6
Continuous
 62
     1
370
    15
100
AcDbSpline
210
0.0
220
0.0
230
1.0
 70
     8
 71
     3
 72
    14
 73
    10
 74
     0
 42
0.000000001
 43
0.00000001
 40
0.0
 40
0.0
 40
0.0
 40
0.0
 40
0.0846484373915476
 40
0.2372230148011441
 40
0.3897825221951139
 40
0.5423334607392784
 40
0.6948823435800071
 40
0.8474356867390741
 40
0.9999999999999999
 40
0.9999999999999999
 40
0.9999999999999999
 40
0.9999999999999999
 10
35.08518706043522
 20
10.39724232636538
 30
0.0
 10
35.68806129249167
 20
10.60232350240575
 30
0.0
 10
37.37758619432565
 20
11.17705324767234
 30
0.0
 10
40.15346739065411
 20
11.84596100690832
 30
0.0
 10
43.41291081059696
 20
12.41802092416061
 30
0.0
 10
46.67212055222391
 20
12.70676857880221
 30
0.0
 10
49.9312827022793
 20
12.71536874326472
 30
0.0
 10
53.19055283911563
 20
12.46306887247807
 30
0.0
 10
55.36349157132562
 20
12.06646982940955
 30
0.0
 10
56.44999999999992
 20
11.86816317827821
 30
0.0
  0
SPLINE
  5
A7
330
1F
100
AcDbEntity
  8
0
  6
Continuous
 62
     1
370
    15
100
AcDbSpline
210
0.0
220
0.0
230
1.0
 70
     8
 71
     3
 72
    66
 73
    62
 74
     0
 42
0.000000001
 43
0.00000001
 40
0.0
 40
0.0
 40
0.0
 40
0.0
 40
0.0624999999999992
 40
0.0624999999999992
 40
0.0937499999999988
 40
0.0937499999999988
 40
0.1249999999999984
 40
0.1249999999999984
 40
0.1874999999999977
 40
0.1874999999999977
 40
0.2187499999999973
 40
0.2187499999999973
 40
0.2499999999999969
 40
0.2499999999999969
 40
0.3124999999999968
 40
0.3124999999999968
 40
0.3749999999999968
 40
0.3749999999999968
 40
0.4062499999999969
 40
0.4062499999999969
 40
0.4374999999999969
 40
0.4374999999999969
 40
0.4687499999999969
 40
0.4687499999999969
 40
0.4843749999999971
 40
0.4843749999999971
 40
0.4999999999999972
 40
0.4999999999999972
 40
0.5312499999999977
 40
0.5312499999999977
 40
0.5468749999999978
 40
0.5468749999999978
 40
0.5624999999999979
 40
0.5624999999999979
 40
0.578124999999998
 40
0.578124999999998
 40
0.5937499999999982
 40
0.5937499999999982
 40
0.6093749999999983
 40
0.6093749999999983
 40
0.6249999999999984
 40
0.6249999999999984
 40
0.6562499999999988
 40
0.6562499999999988
 40
0.6718749999999989
 40
0.6718749999999989
 40
0.6874999999999991
 40
0.6874999999999991
 40
0.7187499999999996
 40
0.7187499999999996
 40
0.7499999999999999
 40
0.7499999999999999
 40
0.7812500000000003
 40
0.7812500000000003
 40
0.8125000000000008
 40
0.8125000000000008
 40
0.8750000000000006
 40
0.8750000000000006
 40
0.9375000000000003
 40
0.9375000000000003
 40
1.0
 40
1.0
 40
1.0
 40
1.0
 10
56.44999999999992
 20
11.86816317827824
 30
0.0
 10
57.09512540722044
 20
11.73550853859873
 30
0.0
 10
57.73766043944637
 20
11.5485562979182
 30
0.0
 10
58.70416055194271
 20
11.19458967738738
 30
0.0
 10
59.02670204087239
 20
11.06421394164436
 30
0.0
 10
59.67338790035074
 20
10.77886318025753
 30
0.0
 10
59.99954714842671
 20
10.62306631775217
 30
0.0
 10
60.96608679415727
 20
10.12596872454202
 30
0.0
 10
61.59360444099544
 20
9.756699052109337
 30
0.0
 10
62.50845853993403
 20
9.145509190679098
 30
0.0
 10
62.80889405801997
 20
8.932075204224711
 30
0.0
 10
63.39998606403618
 20
8.484728019312513
 30
0.0
 10
63.6907426689011
 20
8.250618968885867
 30
0.0
 10
64.52936195536694
 20
7.529303104164736
 30
0.0
 10
65.05008130590602
 20
7.019061478298926
 30
0.0
 10
66.00425689300289
 20
5.922866215247082
 30
0.0
 10
66.43922122561762
 20
5.332776130863089
 30
0.0
 10
66.9903392815894
 20
4.402165312926324
 30
0.0
 10
67.15810097039346
 20
4.083377023325611
 30
0.0
 10
67.45859822445664
 20
3.424933253131821
 30
0.0
 10
67.59186964597754
 20
3.083756463687897
 30
0.0
 10
67.81579529811472
 20
2.382054509250703
 30
0.0
 10
67.90539679670135
 20
2.025465290992803
 30
0.0
 10
68.00286770530903
 20
1.480369797789911
 30
0.0
 10
68.02917815411737
 20
1.296962124872618
 30
0.0
 10
68.06841155364643
 20
0.9263211489270613
 30
0.0
 10
68.08126103063921
 20
0.7387760049468982
 30
0.0
 10
68.09759227973518
 20
0.1818278038412421
 30
0.0
 10
68.07965532063966
 20
-0.1856346644221104
 30
0.0
 10
68.0042769749605
 20
-0.7296790684732137
 30
0.0
 10
67.97090094472492
 20
-0.9093746940614134
 30
0.0
 10
67.88937258520679
 20
-1.255057668471115
 30
0.0
 10
67.84106032642245
 20
-1.422440432762602
 30
0.0
 10
67.72925479869892
 20
-1.746065690991424
 30
0.0
 10
67.66576496797077
 20
-1.90231070026438
 30
0.0
 10
67.52290956806368
 20
-2.203112552668375
 30
0.0
 10
67.4438903019155
 20
-2.346546345144124
 30
0.0
 10
67.27513362850135
 20
-2.612704817276814
 30
0.0
 10
67.18486562197859
 20
-2.736591058938298
 30
0.0
 10
66.99275392914012
 20
-2.966698275003632
 30
0.0
 10
66.89024420816477
 20
-3.073483612674045
 30
0.0
 10
66.57011900795123
 20
-3.363120811318669
 30
0.0
 10
66.34178476550167
 20
-3.514864389809254
 30
0.0
 10
65.97746942236867
 20
-3.690040158235691
 30
0.0
 10
65.85247127813338
 20
-3.739411716599071
 30
0.0
 10
65.60026109465741
 20
-3.820066491764081
 30
0.0
 10
65.47239851400587
 20
-3.851682296268566
 30
0.0
 10
65.08329450705747
 20
-3.923054365497346
 30
0.0
 10
64.8165656271045
 20
-3.939484920575874
 30
0.0
 10
64.26636834480479
 20
-3.918809640747992
 30
0.0
 10
63.98875019164476
 20
-3.881888496377702
 30
0.0
 10
63.42825287409858
 20
-3.765870213294646
 30
0.0
 10
63.14497467193599
 20
-3.686609780807705
 30
0.0
 10
62.56968675780433
 20
-3.492671927014929
 30
0.0
 10
62.27593270002578
 20
-3.377456213602649
 30
0.0
 10
61.39407621726455
 20
-2.994270316628062
 30
0.0
 10
60.80312262716448
 20
-2.689360311525085
 30
0.0
 10
59.59582434200134
 20
-2.019006534636263
 30
0.0
 10
58.97518890214997
 20
-1.649715147818376
 30
0.0
 10
57.72605862548306
 20
-0.9040026024067295
 30
0.0
 10
57.09491289785991
 20
-0.5255560110059813
 30
0.0
 10
56.44999999999994
 20
-0.1532717562509759
 30
0.0
  0
SPLINE
  5
A8
330
1F
100
AcDbEntity
  8
0
  6
Continuous
 62
     1
370
    15
100
AcDbSpline
210
0.0
220
0.0
230
1.0
 70
     8
 71
     3
 72
    18
 73
    14
 74
     0
 42
0.000000001
 43
0.00000001
 40
0.0
 40
0.0
 40
0.0
 40
0.0
 40
0.1021295166594448
 40
0.2042585784170612
 40
0.3063872247303961
 40
0.4085154950840054
 40
0.5106434289868989
 40
0.6127710659699742
 40
0.714898445583447
 40
0.8085073056965205
 40
0.902115441265075
 40
0.995726850502156
 40
1.0
 40
1.0
 40
1.0
 40
1.0
 10
56.44999999999994
 20
-0.1532717562509724
 30
0.0
 10
55.26464107625747
 20
0.5314331766542644
 30
0.0
 10
52.89392850855803
 20
1.900839992675255
 30
0.0
 10
49.33787135847158
 20
3.906493307727682
 30
0.0
 10
45.78183071563114
 20
5.809996451773775
 30
0.0
 10
42.22580810910529
 20
7.562142282373708
 30
0.0
 10
38.66979109703357
 20
9.11690336455514
 30
0.0
 10
35.11381801408415
 20
10.43465295981428
 30
0.0
 10
31.65660725825258
 20
11.44870002138322
 30
0.0
 10
28.29867829652051
 20
12.17174341421609
 30
0.0
 10
25.03948766302159
 20
12.57508538566977
 30
0.0
 10
22.81711370528011
 20
12.74301880332895
 30
0.0
 10
21.68108270631944
 20
12.69701846029292
 30
0.0
 10
21.63148928366439
 20
12.69501031574708
 30
0.0
  0
SPLINE
  5
A9
330
1F
100
AcDbEntity
  8
0
  6
Continuous
 62
     1
370
    15
100
AcDbSpline
210
0.0
220
0.0
230
1.0
 70
     8
 71
     3
 72
    22
 73
    18
 74
     0
 42
0.000000001
 43
0.00000001
 40
0.0
 40
0.0
 40
0.0
 40
0.0
 40
0.0416262962499385
 40
0.0881031893074676
 40
0.136384947563006
 40
0.1767226043635083
 40
0.2182116464200582
 40
0.2592066833110034
 40
0.3010931027859444
 40
0.3610384695712573
 40
0.4226991370848145
 40
0.5046990885116059
 40
0.5889999055565914
 40
0.6994187822453943
 40
0.8129780449458204
 40
0.9057349951767245
 40
1.0
 40
1.0
 40
1.0
 40
1.0
 10
68.07535499415485
 20
5.106682354327011
 30
0.0
 10
68.05810336046204
 20
5.139137926997072
 30
0.0
 10
68.02158980806783
 20
5.207831030170693
 30
0.0
 10
67.84152018146787
 20
5.437907436933402
 30
0.0
 10
67.57683138826178
 20
5.75755521696209
 30
0.0
 10
67.24339095715015
 20
6.147111381826514
 30
0.0
 10
66.87267512293374
 20
6.570163242826808
 30
0.0
 10
66.45107119382334
 20
7.038894072796349
 30
0.0
 10
65.92595243421783
 20
7.604568185185713
 30
0.0
 10
65.28052335460418
 20
8.268123020771382
 30
0.0
 10
64.43395635142264
 20
9.078742446847176
 30
0.0
 10
63.44575229876536
 20
9.931880466645783
 30
0.0
 10
62.21022515287859
 20
10.84727911586467
 30
0.0
 10
60.79272390222372
 20
11.68052235278529
 30
0.0
 10
59.2960169078275
 20
12.27979658339678
 30
0.0
 10
57.84324228577349
 20
12.63047438709288
 30
0.0
 10
56.91690394338094
 20
12.6767916255429
 30
0.0
 10
56.44999999999994
 20
12.70013698467266
 30
0.0
  0
LINE
  5
AA
330
1F
100
AcDbEntity
  8
외형선
  6
Continuous
370
    15
100
AcDbLine
 10
11.99999999999999
 20
1.089228064272018
 30
0.0
 11
12.0
 21
5.385355126336472
 31
0.0
  0
LINE
  5
AB
330
1F
100
AcDbEntity
  8
0
  6
Continuous
 62
     1
370
    15
100
AcDbLine
 10
11.99999999999999
 20
-12.65222198368583
 30
0.0
 11
13.88726002918834
 21
-12.65761305837215
 31
0.0
  0
LINE
  5
AC
330
1F
100
AcDbEntity
  8
0
  6
Continuous
 62
     1
370
    15
100
AcDbLine
 10
56.44999999999994
 20
12.70013698467266
 30
0.0
 11
56.18311584115039
 21
12.68957455981301
 31
0.0
  0
LINE
  5
AD
330
1F
100
AcDbEntity
  8
외형선
  6
Continuous
370
    15
100
AcDbLine
 10
11.99999999999999
 20
-12.65222198368583
 30
0.0
 11
12.0
 21
-11.50107820682408
 31
0.0
  0
LINE
  5
AE
330
1F
100
AcDbEntity
  8
외형선
  6
Continuous
370
    15
100
AcDbLine
 10
11.99999999999999
 20
0.0010749287238931
 30
0.0
 11
11.99999999999999
 21
12.70107492872389
 31
0.0
  0
LINE
  5
AF
330
1F
100
AcDbEntity
  8
외형선
  6
Continuous
370
    15
100
AcDbLine
 10
11.99999999999999
 20
-12.6989250712761
 30
0.0
 11
11.99999999999999
 21
0.0010749287238931
 31
0.0
  0
LINE
  5
B0
330
1F
100
AcDbEntity
  8
외형선
  6
Continuous
370
    15
100
AcDbLine
 10
-55.31000000000001
 20
0.0010749287238931
 30
0.0
 11
-55.31000000000001
 21
12.70107492872389
 31
0.0
  0
LINE
  5
B1
330
1F
100
AcDbEntity
  8
외형선
  6
Continuous
370
    15
100
AcDbLine
 10
-55.31000000000001
 20
-12.6989250712761
 30
0.0
 11
-55.31000000000001
 21
0.0010749287238931
 31
0.0
  0
LINE
  5
B2
330
1F
100
AcDbEntity
  8
외형선
  6
Continuous
370
    15
100
AcDbLine
 10
-57.85000000000001
 20
0.0010749287238931
 30
0.0
 11
-57.85000000000001
 21
10.1610749287239
 31
0.0
  0
LINE
  5
B3
330
1F
100
AcDbEntity
  8
외형선
  6
Continuous
370
    15
100
AcDbLine
 10
-57.85000000000001
 20
-10.15892507127611
 30
0.0
 11
-57.85000000000001
 21
0.0010749287238931
 31
0.0
  0
LINE
  5
B4
330
1F
100
AcDbEntity
  8
중심선
100
AcDbLine
 10
-60.84999999999999
 20
0.0010749287238931
 30
0.0
 11
72.15
 21
0.0010749287239016
 31
0.0
  0
LINE
  5
B5
330
1F
100
AcDbEntity
  8
참조1
100
AcDbLine
 10
5.412499999999959
 20
0.0010749287238892
 30
0.0
 11
5.412499999999962
 21
-39.99892507127611
 31
0.0
  0
LINE
  5
B6
330
1F
100
AcDbEntity
  8
참조1
100
AcDbLine
 10
59.21249999999992
 20
0.0010749287238933
 30
0.0
 11
59.21249999999992
 21
10.39811096570963
 31
0.0
  0
LINE
  5
B7
330
1F
100
AcDbEntity
  8
참조1
100
AcDbLine
 10
5.412499999999962
 20
-39.99892507127611
 30
0.0
 11
12.3036431856913
 21
-39.9989250712761
 31
0.0
  0
CIRCLE
  5
B8
330
1F
100
AcDbEntity
  8
해칭선
100
AcDbCircle
 10
0.0
 20
0.0
 30
0.0
 40
3.000000000000001
  0
INSERT
  5
B9
330
1F
100
AcDbEntity
  8
0
  6
Continuous
 62
     7
100
AcDbBlockReference
 66
     1
  2
블럭10
 10
-23.99027293212525
 20
-52.04609937292004
 30
0.0
  0
ATTRIB
  5
BA
330
B9
100
AcDbEntity
  8
FORMAT
 62
     2
100
AcDbText
 10
-34.13190894426187
 20
-49.97073246008785
 30
0.0
 40
4.233333333333333
  1
E5060064 [ 4 FLUTE ]
 41
0.75
  7
SLDTEXTSTYLE0
 11
-34.13190894426187
 21
-52.08739912675452
 31
0.0
100
AcDbAttribute
  2
AUTOATTR0
 70
     0
 74
     1
  0
SEQEND
  5
BB
330
B9
100
AcDbEntity
  8
0
  6
Continuous
 62
     7
  0
HATCH
  5
BC
330
1F
100
AcDbEntity
  8
중심선
100
AcDbHatch
 10
0.0
 20
0.0
 30
0.0
210
0.0
220
0.0
230
1.0
  2
SOLID
 70
     1
 71
     0
 91
        1
 92
        0
 93
        4
 72
     1
 10
-18.27536362774441
 20
-35.7989250712761
 11
-21.72163887158169
 21
-35.7989250712761
 72
     1
 10
-21.72163887158169
 20
-35.7989250712761
 11
-23.84986873078572
 21
-38.33525065184873
 72
     1
 10
-23.84986873078572
 20
-38.33525065184873
 11
-20.40356040183528
 21
-38.33521122254624
 72
     1
 10
-20.40356040183528
 20
-38.33521122254624
 11
-18.27536362774441
 21
-35.7989250712761
 97
        0
 75
     0
 76
     1
 98
        1
 10
-15.4625
 20
0.0
  0
HATCH
  5
BD
330
1F
100
AcDbEntity
  8
중심선
100
AcDbHatch
 10
0.0
 20
0.0
 30
0.0
210
0.0
220
0.0
230
1.0
  2
SOLID
 70
     1
 71
     0
 91
        1
 92
        0
 93
        4
 72
     1
 10
-13.26259963670843
 20
-35.79892507127608
 11
-16.70887488054574
 21
-35.79892507127613
 72
     1
 10
-16.70887488054574
 20
-35.79892507127613
 11
-21.24001288890313
 21
-41.19892507127612
 72
     1
 10
-21.24001288890313
 20
-41.19892507127612
 11
-17.79373764506585
 21
-41.19892507127612
 72
     1
 10
-17.79373764506585
 20
-41.19892507127612
 11
-13.26259963670843
 21
-35.79892507127608
 97
        0
 75
     0
 76
     1
 98
        1
 10
-15.4625
 20
0.0
  0
HATCH
  5
BE
330
1F
100
AcDbEntity
  8
중심선
100
AcDbHatch
 10
0.0
 20
0.0
 30
0.0
210
0.0
220
0.0
230
1.0
  2
SOLID
 70
     1
 71
     0
 91
        1
 92
        0
 93
        4
 72
     1
 10
-8.249835645672562
 20
-35.79892507127608
 11
-11.69611088950968
 21
-35.7989250712761
 72
     1
 10
-11.69611088950968
 20
-35.7989250712761
 11
-18.74454779139893
 21
-44.19892507127612
 72
     1
 10
-18.74454779139893
 20
-44.19892507127612
 11
-15.29827254756165
 21
-44.19892507127612
 72
     1
 10
-15.29827254756164
 20
-44.19892507127612
 11
-8.249835645672562
 21
-35.79892507127608
 97
        0
 75
     0
 76
     1
 98
        1
 10
-15.4625
 20
0.0
  0
HATCH
  5
BF
330
1F
100
AcDbEntity
  8
중심선
100
AcDbHatch
 10
0.0
 20
0.0
 30
0.0
210
0.0
220
0.0
230
1.0
  2
SOLID
 70
     1
 71
     0
 91
        1
 92
        0
 93
        6
 72
     3
 10
-3.449945214660364
 20
-39.99892507132738
 11
3.960054785062283
 21
1.540882976769353E-10
 40
0.3939339440162628
 50
17.09539180608436
 51
320.0019657685077
 73
     0
 72
     1
 10
-1.766945558959796
 20
-38.58681907591441
 11
0.5383563147412715
 21
-36.65249236586646
 72
     3
 10
-3.44994521471321
 20
-39.99892507127625
 11
6.600054785286829
 21
-1.278976924368180E-13
 40
0.636358354079598
 50
39.99873849337429
 51
368.4976242363724
 73
     1
 72
     1
 10
2.975387277187398
 20
-39.03892507120613
 11
-4.769877907877287
 21
-39.03892507120613
 72
     1
 10
-4.769877907877287
 20
-39.03892507120613
 11
-4.769902952323221
 21
-40.95892507120602
 72
     1
 10
-4.769902952323221
 20
-40.95892507120602
 11
-0.3285231828511836
 21
-40.95892507120599
 97
        0
 75
     0
 76
     1
 98
        1
 10
-15.4625
 20
0.0
  0
DIMENSION
  5
C0
330
1F
100
AcDbEntity
  8
치수문자_일반주서
100
AcDbDimension
  2
_D
 10
12.0
 20
38.39811096570963
 30
0.0
 11
40.57499999999998
 21
38.39811096570963
 31
0.0
 70
   160
  1
<>
 71
     2
 42
57.14999999999995
  3
SLDDIMSTYLE2
100
AcDbAlignedDimension
 13
69.14999999999995
 23
12.7010749287239
 33
0.0
 14
12.0
 24
12.70107492872388
 34
0.0
100
AcDbRotatedDimension
1001
ACAD
1000
DSTYLE
1002
{
1070
   171
1070
     6
1070
   273
1070
     7
1002
}
  0
DIMENSION
  5
D4
330
1F
100
AcDbEntity
  8
치수문자_일반주서
100
AcDbDimension
  2
_D_1
 10
-57.84999999999999
 20
53.97636907984727
 30
0.0
 11
-7.254684605604083
 21
53.97636907984727
 31
0.0
 70
   160
  1
<>
 71
     2
 42
126.9999999999999
  3
SLDDIMSTYLE2
100
AcDbAlignedDimension
 13
69.14999999999995
 23
12.7010749287239
 33
0.0
 14
-57.84999999999999
 24
10.1610749287239
 34
0.0
 50
0.000000000000004
100
AcDbRotatedDimension
1001
ACAD
1000
DSTYLE
1002
{
1070
   171
1070
     6
1070
   273
1070
     7
1002
}
  0
DIMENSION
  5
E8
330
1F
100
AcDbEntity
  8
치수문자_일반주서
100
AcDbDimension
  2
_D_2
 10
-68.6275
 20
-12.69892507127615
 30
0.0
 11
-68.62750000000004
 21
0.0010749287238837
 31
0.0
 70
   160
  1
%%c<>
 71
     2
 42
25.39999999999998
 52
-270.0
  3
SLDDIMSTYLE2
100
AcDbAlignedDimension
 13
-55.31000000000002
 23
12.70107492872388
 33
0.0
 14
-55.31000000000002
 24
-12.6989250712761
 34
0.0
 50
90.0000000000002
100
AcDbRotatedDimension
1001
ACAD
1000
DSTYLE
1002
{
1070
   171
1070
     6
1070
   273
1070
     7
1002
}
  0
DIMENSION
  5
FD
330
1F
100
AcDbEntity
  8
치수문자_일반주서
100
AcDbDimension
  2
_D_3
 10
98.7759699162977
 20
-12.69892507127599
 30
0.0
 11
98.77596991629765
 21
-1.092534545294141
 31
0.0
 70
   160
  1
%%c<>
 71
     2
 42
25.4
 52
-270.0
  3
SLDDIMSTYLE3
100
AcDbAlignedDimension
 13
69.14999999999995
 23
12.7010749287239
 33
0.0
 14
69.14999999999995
 24
-12.6989250712761
 34
0.0
 50
90.0000000000002
100
AcDbRotatedDimension
1001
ACAD
1000
DSTYLE
1002
{
1070
   171
1070
     6
1070
   273
1070
     7
1002
}
  0
LINE
  5
112
330
1F
100
AcDbEntity
  8
참조1
100
AcDbLine
 10
110.2759838153456
 20
7.441074928723896
 30
0.0
 11
110.2759838153456
 21
-7.438925071276109
 31
0.0
  0
LINE
  5
113
330
1F
100
AcDbEntity
  8
참조1
100
AcDbLine
 10
122.9759838153456
 20
5.441074928723896
 30
0.0
 11
110.2759838153456
 21
5.441074928723896
 31
0.0
  0
SOLID
  5
114
330
1F
100
AcDbEntity
  8
참조1
100
AcDbTrace
 10
110.2759838153456
 20
5.441074928723896
 30
0.0
 11
116.6259838153456
 21
4.425074928723896
 31
0.0
 12
116.6259838153456
 22
6.457074928723896
 32
0.0
 13
116.6259838153456
 23
6.457074928723896
 33
0.0
  0
LINE
  5
115
330
1F
100
AcDbEntity
  8
참조1
100
AcDbLine
 10
122.9759838153456
 20
-5.438925071276109
 30
0.0
 11
110.2759838153456
 21
-5.438925071276109
 31
0.0
  0
SOLID
  5
116
330
1F
100
AcDbEntity
  8
참조1
100
AcDbTrace
 10
110.2759838153456
 20
-5.438925071276109
 30
0.0
 11
116.6259838153456
 21
-6.454925071276109
 31
0.0
 12
116.6259838153456
 22
-4.422925071276109
 32
0.0
 13
116.6259838153456
 23
-4.422925071276109
 33
0.0
  0
MTEXT
  5
117
330
1F
100
AcDbEntity
  8
참조1
100
AcDbMText
 10
119.6734739078158
 20
10.98929157337383
 30
0.0
 40
3.5
 41
0.0
 71
     1
 72
     1
  1
A
  7
SLDTEXTSTYLE0
 73
     1
 44
1.0
  0
MTEXT
  5
118
330
1F
100
AcDbEntity
  8
참조1
100
AcDbMText
 10
119.6734739078158
 20
0.1092915733738251
 30
0.0
 40
3.5
 41
0.0
 71
     1
 72
     1
  1
A
  7
SLDTEXTSTYLE0
 73
     1
 44
1.0
  0
INSERT
  5
11F
330
1F
100
AcDbEntity
  8
해칭선
100
AcDbBlockReference
  2
SW_DOWELSYMBOL_0
 10
0.0
 20
0.0
 30
0.0
  0
ENDSEC
  0
SECTION
  2
OBJECTS
  0
DICTIONARY
  5
C
330
0
100
AcDbDictionary
281
     1
  3
ACAD_GROUP
350
D
  3
ACAD_IMAGE_VARS
350
143
  3
ACAD_LAYOUT
350
1A
  3
ACAD_MLINESTYLE
350
17
  3
ACAD_PLOTSETTINGS
350
19
  3
ACAD_PLOTSTYLENAME
350
E
  3
ACAD_SCALELIST
350
47
  3
APPDATA
350
141
  3
DWGPROPS
350
19B
  0
DICTIONARY
  5
16A
330
2
100
AcDbDictionary
280
     1
281
     1
  3
ACAD_LAYERSTATES
360
16B
  0
DICTIONARY
  5
D
102
{ACAD_REACTORS
330
C
102
}
330
C
100
AcDbDictionary
281
     1
  0
RASTERVARIABLES
  5
143
102
{ACAD_REACTORS
330
C
102
}
330
C
100
AcDbRasterVariables
 90
        0
 70
     1
 71
     1
 72
     1
  0
DICTIONARY
  5
1A
102
{ACAD_REACTORS
330
C
102
}
330
C
100
AcDbDictionary
281
     1
  3
Layout1
350
1E
  3
Layout2
350
26
  3
Model
350
22
  0
DICTIONARY
  5
17
102
{ACAD_REACTORS
330
C
102
}
330
C
100
AcDbDictionary
281
     1
  3
Standard
350
18
  0
DICTIONARY
  5
19
102
{ACAD_REACTORS
330
C
102
}
330
C
100
AcDbDictionary
281
     1
  0
ACDBDICTIONARYWDFLT
  5
E
102
{ACAD_REACTORS
330
C
102
}
330
C
100
AcDbDictionary
281
     1
  3
Normal
350
F
100
AcDbDictionaryWithDefault
340
F
  0
DICTIONARY
  5
47
102
{ACAD_REACTORS
330
C
102
}
330
C
100
AcDbDictionary
281
     1
  3
A0
350
48
  3
A1
350
49
  3
A2
350
4A
  3
A3
350
4B
  3
A4
350
4C
  3
A5
350
4D
  3
A6
350
4E
  3
A7
350
4F
  3
A8
350
50
  3
A9
350
51
  3
B0
350
52
  3
B1
350
53
  3
B2
350
54
  3
B3
350
55
  3
B4
350
56
  3
B5
350
57
  3
B6
350
58
  3
B7
350
59
  3
B8
350
5A
  3
B9
350
5B
  3
C0
350
5C
  3
C1
350
5D
  3
C2
350
5E
  3
C3
350
5F
  3
C4
350
60
  3
C5
350
61
  3
C6
350
62
  3
C7
350
63
  3
C8
350
64
  3
C9
350
65
  3
D0
350
66
  3
D1
350
67
  3
D2
350
68
  0
DICTIONARY
  5
141
102
{ACAD_REACTORS
330
C
102
}
330
C
100
AcDbDictionary
281
     1
  0
XRECORD
  5
19B
102
{ACAD_REACTORS
330
C
102
}
330
C
100
AcDbXrecord
280
     1
  1
DWGPROPS COOKIE
  2

  3

  4

  6

  7

  8
12016016
  9

300
=
301
=
302
=
303
=
304
=
305
=
306
=
307
=
308
=
309
=
 40
0.0
 41
2458289.138228113
 42
2458310.032007847
  1

 90
        0
  0
DICTIONARY
  5
16B
102
{ACAD_REACTORS
330
16A
102
}
330
16A
100
AcDbDictionary
281
     1
  0
LAYOUT
  5
1E
102
{ACAD_REACTORS
330
1A
102
}
330
1A
100
AcDbPlotSettings
  1

  2
none_device
  4

  6

 40
0.0
 41
0.0
 42
0.0
 43
0.0
 44
0.0
 45
0.0
 46
0.0
 47
0.0
 48
0.0
 49
0.0
140
0.0
141
0.0
142
1.0
143
1.0
 70
   688
 72
     1
 73
     0
 74
     5
  7

 75
    16
147
1.0
148
0.0
149
0.0
100
AcDbLayout
  1
Layout1
 70
     1
 71
     1
 10
0.0
 20
0.0
 11
420.0
 21
297.0
 12
0.0
 22
0.0
 32
0.0
 14
1.000000000000000E+20
 24
1.000000000000000E+20
 34
1.000000000000000E+20
 15
-1.000000000000000E+20
 25
-1.000000000000000E+20
 35
-1.000000000000000E+20
146
0.0
 13
0.0
 23
0.0
 33
0.0
 16
1.0
 26
0.0
 36
0.0
 17
0.0
 27
1.0
 37
0.0
 76
     0
330
1B
  0
LAYOUT
  5
26
102
{ACAD_REACTORS
330
1A
102
}
330
1A
100
AcDbPlotSettings
  1

  2
none_device
  4

  6

 40
0.0
 41
0.0
 42
0.0
 43
0.0
 44
0.0
 45
0.0
 46
0.0
 47
0.0
 48
0.0
 49
0.0
140
0.0
141
0.0
142
1.0
143
1.0
 70
   688
 72
     1
 73
     0
 74
     5
  7

 75
    16
147
1.0
148
0.0
149
0.0
100
AcDbLayout
  1
Layout2
 70
     1
 71
     2
 10
0.0
 20
0.0
 11
0.0
 21
0.0
 12
0.0
 22
0.0
 32
0.0
 14
0.0
 24
0.0
 34
0.0
 15
0.0
 25
0.0
 35
0.0
146
0.0
 13
0.0
 23
0.0
 33
0.0
 16
1.0
 26
0.0
 36
0.0
 17
0.0
 27
1.0
 37
0.0
 76
     0
330
23
  0
LAYOUT
  5
22
102
{ACAD_REACTORS
330
1A
102
}
330
1A
100
AcDbPlotSettings
  1

  2
none_device
  4
ANSI_A_(11.00_x_8.50_Inches)
  6

 40
6.35
 41
19.05
 42
6.35000508
 43
19.05000254
 44
279.4
 45
215.9
 46
89.68546106667694
 47
78.50173952519657
 48
0.0
 49
0.0
140
0.0
141
0.0
142
0.0582558969132933
143
1.0
 70
  1696
 72
     0
 73
     0
 74
     0
  7

 75
     0
147
0.0235690232323232
148
0.0
149
0.0
100
AcDbLayout
  1
Model
 70
     1
 71
     0
 10
0.0
 20
0.0
 11
420.0
 21
297.0
 12
0.0
 22
0.0
 32
0.0
 14
-73.00250000000007
 24
-49.97073246008785
 34
0.0
 15
122.9759838153456
 25
58.35136907984727
 35
0.0
146
0.0
 13
0.0
 23
0.0
 33
0.0
 16
1.0
 26
0.0
 36
0.0
 17
0.0
 27
1.0
 37
0.0
 76
     0
330
1F
331
29
  0
MLINESTYLE
  5
18
102
{ACAD_REACTORS
330
17
102
}
330
17
100
AcDbMlineStyle
  2
Standard
 70
     0
  3

 62
   256
 51
90.0
 52
90.0
 71
     2
 49
0.5
 62
   256
  6
BYLAYER
 49
-0.5
 62
   256
  6
BYLAYER
  0
ACDBPLACEHOLDER
  5
F
102
{ACAD_REACTORS
330
E
102
}
330
E
  0
SCALE
  5
48
102
{ACAD_REACTORS
330
47
102
}
330
47
100
AcDbScale
 70
     0
300
1:1
140
1.0
141
1.0
290
     1
  0
SCALE
  5
49
102
{ACAD_REACTORS
330
47
102
}
330
47
100
AcDbScale
 70
     0
300
1:2
140
1.0
141
2.0
290
     0
  0
SCALE
  5
4A
102
{ACAD_REACTORS
330
47
102
}
330
47
100
AcDbScale
 70
     0
300
1:4
140
1.0
141
4.0
290
     0
  0
SCALE
  5
4B
102
{ACAD_REACTORS
330
47
102
}
330
47
100
AcDbScale
 70
     0
300
1:5
140
1.0
141
5.0
290
     0
  0
SCALE
  5
4C
102
{ACAD_REACTORS
330
47
102
}
330
47
100
AcDbScale
 70
     0
300
1:8
140
1.0
141
8.0
290
     0
  0
SCALE
  5
4D
102
{ACAD_REACTORS
330
47
102
}
330
47
100
AcDbScale
 70
     0
300
1:10
140
1.0
141
10.0
290
     0
  0
SCALE
  5
4E
102
{ACAD_REACTORS
330
47
102
}
330
47
100
AcDbScale
 70
     0
300
1:16
140
1.0
141
16.0
290
     0
  0
SCALE
  5
4F
102
{ACAD_REACTORS
330
47
102
}
330
47
100
AcDbScale
 70
     0
300
1:20
140
1.0
141
20.0
290
     0
  0
SCALE
  5
50
102
{ACAD_REACTORS
330
47
102
}
330
47
100
AcDbScale
 70
     0
300
1:30
140
1.0
141
30.0
290
     0
  0
SCALE
  5
51
102
{ACAD_REACTORS
330
47
102
}
330
47
100
AcDbScale
 70
     0
300
1:40
140
1.0
141
40.0
290
     0
  0
SCALE
  5
52
102
{ACAD_REACTORS
330
47
102
}
330
47
100
AcDbScale
 70
     0
300
1:50
140
1.0
141
50.0
290
     0
  0
SCALE
  5
53
102
{ACAD_REACTORS
330
47
102
}
330
47
100
AcDbScale
 70
     0
300
1:100
140
1.0
141
100.0
290
     0
  0
SCALE
  5
54
102
{ACAD_REACTORS
330
47
102
}
330
47
100
AcDbScale
 70
     0
300
2:1
140
2.0
141
1.0
290
     0
  0
SCALE
  5
55
102
{ACAD_REACTORS
330
47
102
}
330
47
100
AcDbScale
 70
     0
300
4:1
140
4.0
141
1.0
290
     0
  0
SCALE
  5
56
102
{ACAD_REACTORS
330
47
102
}
330
47
100
AcDbScale
 70
     0
300
8:1
140
8.0
141
1.0
290
     0
  0
SCALE
  5
57
102
{ACAD_REACTORS
330
47
102
}
330
47
100
AcDbScale
 70
     0
300
10:1
140
10.0
141
1.0
290
     0
  0
SCALE
  5
58
102
{ACAD_REACTORS
330
47
102
}
330
47
100
AcDbScale
 70
     0
300
100:1
140
100.0
141
1.0
290
     0
  0
SCALE
  5
59
102
{ACAD_REACTORS
330
47
102
}
330
47
100
AcDbScale
 70
     0
300
1/128" = 1'-0"
140
0.0078125
141
12.0
290
     0
  0
SCALE
  5
5A
102
{ACAD_REACTORS
330
47
102
}
330
47
100
AcDbScale
 70
     0
300
1/64" = 1'-0"
140
0.015625
141
12.0
290
     0
  0
SCALE
  5
5B
102
{ACAD_REACTORS
330
47
102
}
330
47
100
AcDbScale
 70
     0
300
1/32" = 1'-0"
140
0.03125
141
12.0
290
     0
  0
SCALE
  5
5C
102
{ACAD_REACTORS
330
47
102
}
330
47
100
AcDbScale
 70
     0
300
1/16" = 1'-0"
140
0.0625
141
12.0
290
     0
  0
SCALE
  5
5D
102
{ACAD_REACTORS
330
47
102
}
330
47
100
AcDbScale
 70
     0
300
3/32" = 1'-0"
140
0.09375
141
12.0
290
     0
  0
SCALE
  5
5E
102
{ACAD_REACTORS
330
47
102
}
330
47
100
AcDbScale
 70
     0
300
1/8" = 1'-0"
140
0.125
141
12.0
290
     0
  0
SCALE
  5
5F
102
{ACAD_REACTORS
330
47
102
}
330
47
100
AcDbScale
 70
     0
300
3/16" = 1'-0"
140
0.1875
141
12.0
290
     0
  0
SCALE
  5
60
102
{ACAD_REACTORS
330
47
102
}
330
47
100
AcDbScale
 70
     0
300
1/4" = 1'-0"
140
0.25
141
12.0
290
     0
  0
SCALE
  5
61
102
{ACAD_REACTORS
330
47
102
}
330
47
100
AcDbScale
 70
     0
300
3/8" = 1'-0"
140
0.375
141
12.0
290
     0
  0
SCALE
  5
62
102
{ACAD_REACTORS
330
47
102
}
330
47
100
AcDbScale
 70
     0
300
1/2" = 1'-0"
140
0.5
141
12.0
290
     0
  0
SCALE
  5
63
102
{ACAD_REACTORS
330
47
102
}
330
47
100
AcDbScale
 70
     0
300
3/4" = 1'-0"
140
0.75
141
12.0
290
     0
  0
SCALE
  5
64
102
{ACAD_REACTORS
330
47
102
}
330
47
100
AcDbScale
 70
     0
300
1" = 1'-0"
140
1.0
141
12.0
290
     0
  0
SCALE
  5
65
102
{ACAD_REACTORS
330
47
102
}
330
47
100
AcDbScale
 70
     0
300
1-1/2" = 1'-0"
140
1.5
141
12.0
290
     0
  0
SCALE
  5
66
102
{ACAD_REACTORS
330
47
102
}
330
47
100
AcDbScale
 70
     0
300
3" = 1'-0"
140
3.0
141
12.0
290
     0
  0
SCALE
  5
67
102
{ACAD_REACTORS
330
47
102
}
330
47
100
AcDbScale
 70
     0
300
6" = 1'-0"
140
6.0
141
12.0
290
     0
  0
SCALE
  5
68
102
{ACAD_REACTORS
330
47
102
}
330
47
100
AcDbScale
 70
     0
300
1'-0" = 1'-0"
140
12.0
141
12.0
290
     0
  0
ENDSEC
  0
EOF
