  0
SECTION
  2
HEADER
  9
$ACADVER
  1
AC1015
  9
$ACADMAINTVER
 70
     6
  9
$DWGCODEPAGE
  3
ANSI_949
  9
$INSBASE
 10
0.0
 20
0.0
 30
0.0
  9
$EXTMIN
 10
-73.95500000000007
 20
-49.97073246008785
 30
0.0
  9
$EXTMAX
 10
122.9759838153456
 20
58.35136907984727
 30
0.0
  9
$LIMMIN
 10
0.0
 20
0.0
  9
$LIMMAX
 10
420.0
 20
297.0
  9
$ORTHOMODE
 70
     1
  9
$REGENMODE
 70
     1
  9
$FILLMODE
 70
     1
  9
$QTEXTMODE
 70
     0
  9
$MIRRTEXT
 70
     1
  9
$LTSCALE
 40
1.0
  9
$ATTMODE
 70
     1
  9
$TEXTSIZE
 40
3.5
  9
$TRACEWID
 40
1.0
  9
$TEXTSTYLE
  7
Standard
  9
$CLAYER
  8
0
  9
$CELTYPE
  6
ByLayer
  9
$CECOLOR
 62
   256
  9
$CELTSCALE
 40
1.0
  9
$DISPSILH
 70
     0
  9
$DIMSCALE
 40
1.0
  9
$DIMASZ
 40
3.302
  9
$DIMEXO
 40
1.0
  9
$DIMDLI
 40
3.75
  9
$DIMRND
 40
0.0
  9
$DIMDLE
 40
0.0
  9
$DIMEXE
 40
1.0
  9
$DIMTP
 40
0.0
  9
$DIMTM
 40
0.0
  9
$DIMTXT
 40
3.5
  9
$DIMCEN
 40
2.5
  9
$DIMTSZ
 40
0.0
  9
$DIMTOL
 70
     0
  9
$DIMLIM
 70
     0
  9
$DIMTIH
 70
     1
  9
$DIMTOH
 70
     1
  9
$DIMSE1
 70
     0
  9
$DIMSE2
 70
     0
  9
$DIMTAD
 70
     1
  9
$DIMZIN
 70
     0
  9
$DIMBLK
  1

  9
$DIMASO
 70
     1
  9
$DIMSHO
 70
     1
  9
$DIMPOST
  1

  9
$DIMAPOST
  1

  9
$DIMALT
 70
     0
  9
$DIMALTD
 70
     3
  9
$DIMALTF
 40
0.0393700787401575
  9
$DIMLFAC
 40
1.0
  9
$DIMTOFL
 70
     1
  9
$DIMTVP
 40
0.0
  9
$DIMTIX
 70
     0
  9
$DIMSOXD
 70
     0
  9
$DIMSAH
 70
     0
  9
$DIMBLK1
  1

  9
$DIMBLK2
  1

  9
$DIMSTYLE
  2
ISO-25
  9
$DIMCLRD
 70
     0
  9
$DIMCLRE
 70
     0
  9
$DIMCLRT
 70
     0
  9
$DIMTFAC
 40
1.0
  9
$DIMGAP
 40
1.524
  9
$DIMJUST
 70
     0
  9
$DIMSD1
 70
     0
  9
$DIMSD2
 70
     0
  9
$DIMTOLJ
 70
     0
  9
$DIMTZIN
 70
     0
  9
$DIMALTZ
 70
     0
  9
$DIMALTTZ
 70
     0
  9
$DIMUPT
 70
     0
  9
$DIMDEC
 70
     2
  9
$DIMTDEC
 70
     2
  9
$DIMALTU
 70
     2
  9
$DIMALTTD
 70
     3
  9
$DIMTXSTY
  7
Standard
  9
$DIMAUNIT
 70
     0
  9
$DIMADEC
 70
     2
  9
$DIMALTRND
 40
0.0
  9
$DIMAZIN
 70
     0
  9
$DIMDSEP
 70
    44
  9
$DIMATFIT
 70
     3
  9
$DIMFRAC
 70
     0
  9
$DIMLDRBLK
  1

  9
$DIMLUNIT
 70
     2
  9
$DIMLWD
 70
    -2
  9
$DIMLWE
 70
    -2
  9
$DIMTMOVE
 70
     0
  9
$LUNITS
 70
     2
  9
$LUPREC
 70
     2
  9
$SKETCHINC
 40
1.0
  9
$FILLETRAD
 40
10.0
  9
$AUNITS
 70
     0
  9
$AUPREC
 70
     2
  9
$MENU
  1
.
  9
$ELEVATION
 40
0.0
  9
$PELEVATION
 40
0.0
  9
$THICKNESS
 40
0.0
  9
$LIMCHECK
 70
     0
  9
$CHAMFERA
 40
0.0
  9
$CHAMFERB
 40
0.0
  9
$CHAMFERC
 40
0.0
  9
$CHAMFERD
 40
0.0
  9
$SKPOLY
 70
     0
  9
$TDCREATE
 40
2458289.512849491
  9
$TDUCREATE
 40
2458289.137849491
  9
$TDUPDATE
 40
2458310.407202106
  9
$TDUUPDATE
 40
2458310.032202106
  9
$TDINDWG
 40
0.000440463
  9
$TDUSRTIMER
 40
2458310.032112673
  9
$USRTIMER
 70
     1
  9
$ANGBASE
 50
0.0
  9
$ANGDIR
 70
     0
  9
$PDMODE
 70
     0
  9
$PDSIZE
 40
-1.0
  9
$PLINEWID
 40
0.0
  9
$SPLFRAME
 70
     0
  9
$SPLINETYPE
 70
     6
  9
$SPLINESEGS
 70
     8
  9
$HANDSEED
  5
19D
  9
$SURFTAB1
 70
     6
  9
$SURFTAB2
 70
     6
  9
$SURFTYPE
 70
     6
  9
$SURFU
 70
     6
  9
$SURFV
 70
     6
  9
$UCSBASE
  2

  9
$UCSNAME
  2

  9
$UCSORG
 10
0.0
 20
0.0
 30
0.0
  9
$UCSXDIR
 10
1.0
 20
0.0
 30
0.0
  9
$UCSYDIR
 10
0.0
 20
1.0
 30
0.0
  9
$UCSORTHOREF
  2

  9
$UCSORTHOVIEW
 70
     0
  9
$UCSORGTOP
 10
0.0
 20
0.0
 30
0.0
  9
$UCSORGBOTTOM
 10
0.0
 20
0.0
 30
0.0
  9
$UCSORGLEFT
 10
0.0
 20
0.0
 30
0.0
  9
$UCSORGRIGHT
 10
0.0
 20
0.0
 30
0.0
  9
$UCSORGFRONT
 10
0.0
 20
0.0
 30
0.0
  9
$UCSORGBACK
 10
0.0
 20
0.0
 30
0.0
  9
$PUCSBASE
  2

  9
$PUCSNAME
  2

  9
$PUCSORG
 10
0.0
 20
0.0
 30
0.0
  9
$PUCSXDIR
 10
1.0
 20
0.0
 30
0.0
  9
$PUCSYDIR
 10
0.0
 20
1.0
 30
0.0
  9
$PUCSORTHOREF
  2

  9
$PUCSORTHOVIEW
 70
     0
  9
$PUCSORGTOP
 10
0.0
 20
0.0
 30
0.0
  9
$PUCSORGBOTTOM
 10
0.0
 20
0.0
 30
0.0
  9
$PUCSORGLEFT
 10
0.0
 20
0.0
 30
0.0
  9
$PUCSORGRIGHT
 10
0.0
 20
0.0
 30
0.0
  9
$PUCSORGFRONT
 10
0.0
 20
0.0
 30
0.0
  9
$PUCSORGBACK
 10
0.0
 20
0.0
 30
0.0
  9
$USERI1
 70
     0
  9
$USERI2
 70
     0
  9
$USERI3
 70
     0
  9
$USERI4
 70
     0
  9
$USERI5
 70
     0
  9
$USERR1
 40
0.0
  9
$USERR2
 40
0.0
  9
$USERR3
 40
0.0
  9
$USERR4
 40
0.0
  9
$USERR5
 40
0.0
  9
$WORLDVIEW
 70
     1
  9
$SHADEDGE
 70
     3
  9
$SHADEDIF
 70
    70
  9
$TILEMODE
 70
     1
  9
$MAXACTVP
 70
    64
  9
$PINSBASE
 10
0.0
 20
0.0
 30
0.0
  9
$PLIMCHECK
 70
     0
  9
$PEXTMIN
 10
1.000000000000000E+20
 20
1.000000000000000E+20
 30
1.000000000000000E+20
  9
$PEXTMAX
 10
-1.000000000000000E+20
 20
-1.000000000000000E+20
 30
-1.000000000000000E+20
  9
$PLIMMIN
 10
0.0
 20
0.0
  9
$PLIMMAX
 10
0.0
 20
0.0
  9
$UNITMODE
 70
     0
  9
$VISRETAIN
 70
     1
  9
$PLINEGEN
 70
     0
  9
$PSLTSCALE
 70
     1
  9
$TREEDEPTH
 70
  3020
  9
$CMLSTYLE
  2
Standard
  9
$CMLJUST
 70
     0
  9
$CMLSCALE
 40
20.0
  9
$PROXYGRAPHICS
 70
     1
  9
$MEASUREMENT
 70
     1
  9
$CELWEIGHT
370
    -1
  9
$ENDCAPS
280
     0
  9
$JOINSTYLE
280
     0
  9
$LWDISPLAY
290
     1
  9
$INSUNITS
 70
     4
  9
$HYPERLINKBASE
  1

  9
$STYLESHEET
  1

  9
$XEDIT
290
     1
  9
$CEPSNTYPE
380
     0
  9
$PSTYLEMODE
290
     1
  9
$FINGERPRINTGUID
  2
{491347C0-93F9-4E37-BD6D-9006A2B540BC}
  9
$VERSIONGUID
  2
{FAEB1C32-E019-11D5-929B-00C0DF256EC4}
  9
$EXTNAMES
290
     1
  9
$PSVPSCALE
 40
0.0
  9
$OLESTARTUP
290
     0
  0
ENDSEC
  0
SECTION
  2
CLASSES
  0
CLASS
  1
ACDBDICTIONARYWDFLT
  2
AcDbDictionaryWithDefault
  3
ObjectDBX Classes
 90
        0
280
     0
281
     0
  0
CLASS
  1
VISUALSTYLE
  2
AcDbVisualStyle
  3
ObjectDBX Classes
 90
     4095
280
     0
281
     0
  0
CLASS
  1
MATERIAL
  2
AcDbMaterial
  3
ObjectDBX Classes
 90
     1153
280
     0
281
     0
  0
CLASS
  1
SCALE
  2
AcDbScale
  3
ObjectDBX Classes
 90
     1153
280
     0
281
     0
  0
CLASS
  1
SUN
  2
AcDbSun
  3
SCENEOE
 90
     1153
280
     0
281
     0
  0
CLASS
  1
ACDBPLACEHOLDER
  2
AcDbPlaceHolder
  3
ObjectDBX Classes
 90
        0
280
     0
281
     0
  0
CLASS
  1
LAYOUT
  2
AcDbLayout
  3
ObjectDBX Classes
 90
        0
280
     0
281
     0
  0
CLASS
  1
TABLESTYLE
  2
AcDbTableStyle
  3
ObjectDBX Classes
 90
     4095
280
     0
281
     0
  0
CLASS
  1
MLEADERSTYLE
  2
AcDbMLeaderStyle
  3
ACDB_MLEADERSTYLE_CLASS
 90
     4095
280
     0
281
     0
  0
CLASS
  1
RASTERVARIABLES
  2
AcDbRasterVariables
  3
ISM
 90
        0
280
     0
281
     0
  0
ENDSEC
  0
SECTION
  2
TABLES
  0
TABLE
  2
VPORT
  5
8
330
0
100
AcDbSymbolTable
 70
     1
  0
VPORT
  5
29
330
8
100
AcDbSymbolTableRecord
100
AcDbViewportTableRecord
  2
*Active
 70
     0
 10
0.0
 20
0.0
 11
1.0
 21
1.0
 12
-8.766070065605643
 22
15.70836354556383
 13
0.0
 23
0.0
 14
10.0
 24
10.0
 15
10.0
 25
10.0
 16
0.0
 26
0.0
 36
1.0
 17
0.0
 27
0.0
 37
0.0
 40
148.9922286513717
 41
1.798434442270059
 42
50.0
 43
0.0
 44
0.0
 50
0.0
 51
0.0
 71
    16
 72
  2000
 73
     1
 74
     3
 75
     0
 76
     0
 77
     0
 78
     0
281
     0
 65
     1
110
0.0
120
0.0
130
0.0
111
1.0
121
0.0
131
0.0
112
0.0
122
1.0
132
0.0
 79
     0
146
0.0
  0
ENDTAB
  0
TABLE
  2
LTYPE
  5
5
330
0
100
AcDbSymbolTable
 70
     6
  0
LTYPE
  5
14
330
5
100
AcDbSymbolTableRecord
100
AcDbLinetypeTableRecord
  2
ByBlock
 70
     0
  3

 72
    65
 73
     0
 40
0.0
  0
LTYPE
  5
15
330
5
100
AcDbSymbolTableRecord
100
AcDbLinetypeTableRecord
  2
ByLayer
 70
     0
  3

 72
    65
 73
     0
 40
0.0
  0
LTYPE
  5
16
330
5
100
AcDbSymbolTableRecord
100
AcDbLinetypeTableRecord
  2
Continuous
 70
     0
  3
Solid line
 72
    65
 73
     0
 40
0.0
  0
LTYPE
  5
6A
330
5
100
AcDbSymbolTableRecord
100
AcDbLinetypeTableRecord
  2
HIDDEN
 70
     0
  3
Hidden __ __ __ __ __ __ __ __ __ __ __ __ __ __
 72
    65
 73
     2
 40
1.905
 49
1.27
 74
     0
 49
-0.635
 74
     0
  0
LTYPE
  5
6B
330
5
100
AcDbSymbolTableRecord
100
AcDbLinetypeTableRecord
  2
PHANTOM
 70
     0
  3
Phantom ______  __  __  ______  __  __  ______
 72
    65
 73
     6
 40
12.7
 49
6.35
 74
     0
 49
-1.27
 74
     0
 49
1.27
 74
     0
 49
-1.27
 74
     0
 49
1.27
 74
     0
 49
-1.27
 74
     0
  0
LTYPE
  5
6C
330
5
100
AcDbSymbolTableRecord
100
AcDbLinetypeTableRecord
  2
CENTER
 70
     0
  3
Center ____ _ ____ _ ____ _ ____ _ ____ _ ____
 72
    65
 73
     4
 40
10.16
 49
6.35
 74
     0
 49
-1.27
 74
     0
 49
1.27
 74
     0
 49
-1.27
 74
     0
  0
LTYPE
  5
6D
330
5
100
AcDbSymbolTableRecord
100
AcDbLinetypeTableRecord
  2
CENTERX2
 70
     0
  3
Center (2x) ________  __  ________  __  _____
 72
    65
 73
     4
 40
20.32
 49
12.7
 74
     0
 49
-2.54
 74
     0
 49
2.54
 74
     0
 49
-2.54
 74
     0
  0
LTYPE
  5
6E
330
5
100
AcDbSymbolTableRecord
100
AcDbLinetypeTableRecord
  2
DOT2
 70
     0
  3
Dot (.5x) ........................................
 72
    65
 73
     2
 40
0.635
 49
0.0
 74
     0
 49
-0.635
 74
     0
  0
ENDTAB
  0
TABLE
  2
LAYER
  5
2
102
{ACAD_XDICTIONARY
360
16A
102
}
330
0
100
AcDbSymbolTable
 70
    18
  0
LAYER
  5
10
330
2
100
AcDbSymbolTableRecord
100
AcDbLayerTableRecord
  2
0
 70
     0
 62
     7
  6
Continuous
370
    -3
390
F
  0
LAYER
  5
6F
330
2
100
AcDbSymbolTableRecord
100
AcDbLayerTableRecord
  2
FORMAT
 70
     0
 62
     2
  6
Continuous
370
    -3
390
F
  0
LAYER
  5
70
330
2
100
AcDbSymbolTableRecord
100
AcDbLayerTableRecord
  2
외형선
 70
     0
 62
     4
  6
Continuous
370
    30
390
F
  0
LAYER
  5
71
330
2
100
AcDbSymbolTableRecord
100
AcDbLayerTableRecord
  2
숨은선
 70
     0
 62
     2
  6
HIDDEN
370
    15
390
F
  0
LAYER
  5
72
330
2
100
AcDbSymbolTableRecord
100
AcDbLayerTableRecord
  2
중심선
 70
     0
 62
     1
  6
CENTERX2
370
    -3
390
F
  0
LAYER
  5
73
330
2
100
AcDbSymbolTableRecord
100
AcDbLayerTableRecord
  2
파단선
 70
     0
 62
     4
  6
Continuous
370
    -3
390
F
  0
LAYER
  5
74
330
2
100
AcDbSymbolTableRecord
100
AcDbLayerTableRecord
  2
해칭선
 70
     0
 62
   100
  6
Continuous
370
    -3
390
F
  0
LAYER
  5
75
330
2
100
AcDbSymbolTableRecord
100
AcDbLayerTableRecord
  2
가는실선
 70
     0
 62
     4
  6
Continuous
370
    -3
390
F
  0
LAYER
  5
76
330
2
100
AcDbSymbolTableRecord
100
AcDbLayerTableRecord
  2
치수_보조선
 70
     0
 62
     4
  6
Continuous
370
    -3
390
F
  0
LAYER
  5
77
330
2
100
AcDbSymbolTableRecord
100
AcDbLayerTableRecord
  2
치수문자_일반주서
 70
     0
 62
     7
  6
Continuous
370
    15
390
F
  0
LAYER
  5
78
330
2
100
AcDbSymbolTableRecord
100
AcDbLayerTableRecord
  2
개별주서
 70
     0
 62
   100
  6
Continuous
370
    30
390
F
  0
LAYER
  5
79
330
2
100
AcDbSymbolTableRecord
100
AcDbLayerTableRecord
  2
중간선
 70
     0
 62
     2
  6
Continuous
370
    15
390
F
  0
LAYER
  5
7A
330
2
100
AcDbSymbolTableRecord
100
AcDbLayerTableRecord
  2
윤곽선
 70
     0
 62
     3
  6
Continuous
370
    40
390
F
  0
LAYER
  5
7B
330
2
100
AcDbSymbolTableRecord
100
AcDbLayerTableRecord
  2
중심마크
 70
     0
 62
   100
  6
Continuous
370
    30
390
F
  0
LAYER
  5
7C
330
2
100
AcDbSymbolTableRecord
100
AcDbLayerTableRecord
  2
가상선
 70
     0
 62
     4
  6
PHANTOM
370
    -3
390
F
  0
LAYER
  5
7D
330
2
100
AcDbSymbolTableRecord
100
AcDbLayerTableRecord
  2
특수지정선
 70
     0
 62
     5
  6
CENTERX2
370
    60
390
F
  0
LAYER
  5
7E
330
2
100
AcDbSymbolTableRecord
100
AcDbLayerTableRecord
  2
참조1
 70
     0
 62
    -4
  6
Continuous
370
    -3
390
F
  0
LAYER
  5
171
330
2
100
AcDbSymbolTableRecord
100
AcDbLayerTableRecord
  2
Defpoints
 70
     0
 62
     7
  6
Continuous
290
     0
370
    -3
390
F
  0
ENDTAB
  0
TABLE
  2
STYLE
  5
3
330
0
100
AcDbSymbolTable
 70
     2
  0
STYLE
  5
11
330
3
100
AcDbSymbolTableRecord
100
AcDbTextStyleTableRecord
  2
Standard
 70
     0
 40
0.0
 41
1.0
 50
0.0
 71
     0
 42
3.5
  3
txt
  4

  0
STYLE
  5
94
330
3
100
AcDbSymbolTableRecord
100
AcDbTextStyleTableRecord
  2
SLDTEXTSTYLE0
 70
     0
 40
0.0
 41
0.75
 50
0.0
 71
     0
 42
3.5
  3
TXT
  4

  0
ENDTAB
  0
TABLE
  2
VIEW
  5
6
330
0
100
AcDbSymbolTable
 70
     0
  0
ENDTAB
  0
TABLE
  2
UCS
  5
7
330
0
100
AcDbSymbolTable
 70
     0
  0
ENDTAB
  0
TABLE
  2
APPID
  5
9
330
0
100
AcDbSymbolTable
 70
     1
  0
APPID
  5
12
330
9
100
AcDbSymbolTableRecord
100
AcDbRegAppTableRecord
  2
ACAD
 70
     0
  0
ENDTAB
  0
TABLE
  2
DIMSTYLE
  5
A
330
0
100
AcDbSymbolTable
 70
     3
100
AcDbDimStyleTable
  0
DIMSTYLE
105
27
330
A
100
AcDbSymbolTableRecord
100
AcDbDimStyleTableRecord
  2
ISO-25
 70
     0
 41
2.5
 42
0.625
 43
3.75
 44
1.25
 73
     0
 74
     0
 77
     1
 78
     8
140
2.5
141
2.5
143
0.03937007874016
147
0.625
171
     3
172
     1
178
     0
271
     2
272
     2
274
     3
278
    44
283
     0
284
     8
340
11
  0
DIMSTYLE
105
C3
330
A
100
AcDbSymbolTableRecord
100
AcDbDimStyleTableRecord
  2
SLDDIMSTYLE0
 70
     0
 41
3.302
 44
0.0
 45
0.000000001
 73
     0
 74
     0
 77
     1
 78
    12
 79
     3
140
3.5
143
0.0393700787401575
147
0.875
148
0.000000001
170
     1
173
     1
178
     0
271
     2
272
     2
276
     2
284
    12
340
94
  0
DIMSTYLE
105
EA
102
{ACAD_REACTORS
330
E9
330
FE
330
C2
330
D6
102
}
330
A
100
AcDbSymbolTableRecord
100
AcDbDimStyleTableRecord
  2
SLDDIMSTYLE1
 70
     0
 41
3.302
 44
0.0
 45
0.000000001
 73
     0
 74
     0
 77
     1
 78
    12
 79
     3
140
3.5
143
0.0393700787401575
147
0.875
148
0.000000001
170
     1
172
     1
173
     1
178
     0
271
     2
272
     2
276
     2
284
    12
289
     0
340
94
  0
ENDTAB
  0
TABLE
  2
BLOCK_RECORD
  5
1
330
0
100
AcDbSymbolTable
 70
     7
  0
BLOCK_RECORD
  5
1F
330
1
100
AcDbSymbolTableRecord
100
AcDbBlockTableRecord
  2
*Model_Space
340
22
  0
BLOCK_RECORD
  5
1B
330
1
100
AcDbSymbolTableRecord
100
AcDbBlockTableRecord
  2
*Paper_Space
340
1E
  0
BLOCK_RECORD
  5
23
330
1
100
AcDbSymbolTableRecord
100
AcDbBlockTableRecord
  2
*Paper_Space0
340
26
  0
BLOCK_RECORD
  5
7F
330
1
100
AcDbSymbolTableRecord
100
AcDbBlockTableRecord
  2
블럭10
340
0
102
{BLKREFS
331
BB
102
}
  0
BLOCK_RECORD
  5
C4
330
1
100
AcDbSymbolTableRecord
100
AcDbBlockTableRecord
  2
_D
340
0
  0
BLOCK_RECORD
  5
D7
330
1
100
AcDbSymbolTableRecord
100
AcDbBlockTableRecord
  2
_D_1
340
0
  0
BLOCK_RECORD
  5
EB
330
1
100
AcDbSymbolTableRecord
100
AcDbBlockTableRecord
  2
_D_2
340
0
  0
BLOCK_RECORD
  5
FF
330
1
100
AcDbSymbolTableRecord
100
AcDbBlockTableRecord
  2
_D_3
340
0
  0
BLOCK_RECORD
  5
119
330
1
100
AcDbSymbolTableRecord
100
AcDbBlockTableRecord
  2
SW_DOWELSYMBOL_0
340
0
102
{BLKREFS
331
11F
102
}
  0
ENDTAB
  0
ENDSEC
  0
SECTION
  2
BLOCKS
  0
BLOCK
  5
20
330
1F
100
AcDbEntity
  8
0
100
AcDbBlockBegin
  2
*Model_Space
 70
     0
 10
0.0
 20
0.0
 30
0.0
  3
*Model_Space
  1
*Model_Space
  0
ENDBLK
  5
21
330
1F
100
AcDbEntity
  8
0
100
AcDbBlockEnd
  0
BLOCK
  5
1C
330
1B
100
AcDbEntity
 67
     1
  8
0
100
AcDbBlockBegin
  2
*Paper_Space
 70
     0
 10
0.0
 20
0.0
 30
0.0
  3
*Paper_Space
  1
*Paper_Space
  0
ENDBLK
  5
1D
330
1B
100
AcDbEntity
 67
     1
  8
0
100
AcDbBlockEnd
  0
BLOCK
  5
24
330
23
100
AcDbEntity
  8
0
100
AcDbBlockBegin
  2
*Paper_Space0
 70
     0
 10
0.0
 20
0.0
 30
0.0
  3
*Paper_Space0
  1
*Paper_Space0
  0
ENDBLK
  5
25
330
23
100
AcDbEntity
  8
0
100
AcDbBlockEnd
  0
BLOCK
  5
80
330
7F
100
AcDbEntity
  8
0
100
AcDbBlockBegin
  2
블럭10
 70
     2
 10
0.0
 20
0.0
 30
0.0
  3
블럭10
  1
블럭10
  0
ELLIPSE
  5
82
330
7F
100
AcDbEntity
  8
중심선
100
AcDbEllipse
 10
20.54032771741204
 20
12.0471743016438
 30
0.0
 11
6.600054785286829
 21
-1.261213355974178E-13
 31
0.0
210
0.0
220
0.0
230
1.0
 40
0.636358354079598
 41
0.9219305317359503
 42
6.513795318482858
  0
ELLIPSE
  5
83
330
7F
100
AcDbEntity
  8
중심선
100
AcDbEllipse
 10
20.54032771746488
 20
12.04717430159265
 30
0.0
 11
3.960054785062283
 21
1.540847449632565E-10
 31
0.0
210
0.0
220
0.0
230
1.0
 40
0.3939339440162632
 41
1.131841032648279
 42
5.62031148352944
  0
LINE
  5
84
330
7F
100
AcDbEntity
  8
중심선
100
AcDbLine
 10
2.268634060543552
 20
16.24717430164393
 30
0.0
 11
5.714909304380834
 21
16.24717430164393
 31
0.0
  0
LINE
  5
85
330
7F
100
AcDbEntity
  8
중심선
100
AcDbLine
 10
5.245725140726316
 20
7.84717430164391
 30
0.0
 11
8.692000384563599
 21
7.84717430164391
 31
0.0
  0
LINE
  5
86
330
7F
100
AcDbEntity
  8
중심선
100
AcDbLine
 10
15.74043728645272
 20
16.24717430164393
 30
0.0
 11
8.692000384563599
 21
7.84717430164391
 31
0.0
  0
LINE
  5
87
330
7F
100
AcDbEntity
  8
중심선
100
AcDbLine
 10
0.1404042013395286
 20
13.71084872107135
 30
0.0
 11
3.58671253028996
 21
13.71088815037384
 31
0.0
  0
LINE
  5
88
330
7F
100
AcDbEntity
  8
중심선
100
AcDbLine
 10
2.750260043222114
 20
10.84717430164391
 30
0.0
 11
6.196535287059397
 21
10.84717430164391
 31
0.0
  0
LINE
  5
89
330
7F
100
AcDbEntity
  8
중심선
100
AcDbLine
 10
12.29416204261559
 20
16.24717430164393
 30
0.0
 11
5.245725140726316
 21
7.84717430164391
 31
0.0
  0
LINE
  5
8A
330
7F
100
AcDbEntity
  8
중심선
100
AcDbLine
 10
10.72767329541681
 20
16.24717430164393
 30
0.0
 11
6.196535287059397
 21
10.84717430164391
 31
0.0
  0
LINE
  5
8B
330
7F
100
AcDbEntity
  8
중심선
100
AcDbLine
 10
7.28139805157953
 20
16.24717430164393
 30
0.0
 11
2.750260043222114
 21
10.84717430164391
 31
0.0
  0
LINE
  5
8C
330
7F
100
AcDbEntity
  8
중심선
100
AcDbLine
 10
5.714909304380834
 20
16.24717430164393
 30
0.0
 11
3.58671253028996
 21
13.71088815037384
 31
0.0
  0
LINE
  5
8D
330
7F
100
AcDbEntity
  8
중심선
100
AcDbLine
 10
2.268634060543552
 20
16.24717430164393
 30
0.0
 11
0.1404042013395286
 21
13.71084872107135
 31
0.0
  0
LINE
  5
8E
330
7F
100
AcDbEntity
  8
중심선
100
AcDbLine
 10
7.28139805157953
 20
16.24717430164393
 30
0.0
 11
10.72767329541681
 21
16.24717430164393
 31
0.0
  0
LINE
  5
8F
330
7F
100
AcDbEntity
  8
중심선
100
AcDbLine
 10
12.29416204261559
 20
16.24717430164393
 30
0.0
 11
15.74043728645272
 21
16.24717430164393
 31
0.0
  0
LINE
  5
90
330
7F
100
AcDbEntity
  8
중심선
100
AcDbLine
 10
19.22036997980202
 20
11.08717430171403
 30
0.0
 11
23.66174974927406
 21
11.08717430171406
 31
0.0
  0
LINE
  5
91
330
7F
100
AcDbEntity
  8
중심선
100
AcDbLine
 10
19.22039502424796
 20
13.00717430171391
 30
0.0
 11
19.22036997980202
 21
11.08717430171403
 31
0.0
  0
LINE
  5
92
330
7F
100
AcDbEntity
  8
중심선
100
AcDbLine
 10
19.22039502424796
 20
13.00717430171391
 30
0.0
 11
26.96566020931264
 21
13.00717430171391
 31
0.0
  0
LINE
  5
93
330
7F
100
AcDbEntity
  8
중심선
100
AcDbLine
 10
22.22332737316547
 20
13.45928029700563
 30
0.0
 11
24.52862924686651
 21
15.39360700705356
 31
0.0
  0
ATTDEF
  5
95
330
7F
100
AcDbEntity
  8
FORMAT
 62
     2
100
AcDbText
 10
3.448148490846466
 20
2.075366912832191
 30
0.0
 40
4.233333333333333
  1
EM210907
 41
0.75
  7
SLDTEXTSTYLE0
 11
3.448148490846466
 21
-0.0412997538344756
 31
0.0
100
AcDbAttributeDefinition
  3

  2
AUTOATTR0
 70
     0
 74
     1
  0
ENDBLK
  5
81
330
7F
100
AcDbEntity
  8
0
100
AcDbBlockEnd
  0
BLOCK
  5
C5
330
C4
100
AcDbEntity
  8
0
100
AcDbBlockBegin
  2
_D
 70
     0
 10
0.0
 20
0.0
 30
0.0
  3
_D
  1
_D
  0
LINE
  5
C7
330
C4
100
AcDbEntity
  8
치수문자_일반주서
 62
     0
370
    -2
100
AcDbLine
 10
69.14999999999995
 20
8.001074928723924
 30
0.0
 11
69.14999999999995
 21
38.39811096570963
 31
0.0
  0
LINE
  5
C8
330
C4
100
AcDbEntity
  8
치수문자_일반주서
 62
     0
370
    -2
100
AcDbLine
 10
12.0
 20
8.001074928723908
 30
0.0
 11
12.0
 21
38.39811096570963
 31
0.0
  0
LINE
  5
C9
330
C4
100
AcDbEntity
  8
치수문자_일반주서
 62
     0
370
    -2
100
AcDbLine
 10
65.84799999999996
 20
38.39811096570963
 30
0.0
 11
15.302
 21
38.39811096570963
 31
0.0
  0
SOLID
  5
CA
330
C4
100
AcDbEntity
  8
치수문자_일반주서
 62
     0
100
AcDbTrace
 10
65.84799999999996
 20
37.8477776323763
 30
0.0
 11
65.84799999999996
 21
38.94844429904297
 31
0.0
 12
69.14999999999995
 22
38.39811096570963
 32
0.0
 13
69.14999999999995
 23
38.39811096570963
 33
0.0
  0
SOLID
  5
CB
330
C4
100
AcDbEntity
  8
치수문자_일반주서
 62
     0
100
AcDbTrace
 10
15.302
 20
38.94844429904297
 30
0.0
 11
15.302
 21
37.8477776323763
 31
0.0
 12
12.0
 22
38.39811096570963
 32
0.0
 13
12.0
 23
38.39811096570963
 33
0.0
  0
MTEXT
  5
CC
330
C4
100
AcDbEntity
  8
치수문자_일반주서
 62
     0
100
AcDbMText
 10
32.63749999999994
 20
42.77311096570963
 30
0.0
 40
3.5
 41
0.0
 71
     2
 72
     1
  1
\A1;57.15 [2 1/4]
  7
SLDTEXTSTYLE0
 73
     1
 44
1.0
  0
POINT
  5
CD
330
C4
100
AcDbEntity
  8
Defpoints
 62
     0
100
AcDbPoint
 10
69.14999999999995
 20
7.938574928723923
 30
0.0
  0
POINT
  5
CE
330
C4
100
AcDbEntity
  8
Defpoints
 62
     0
100
AcDbPoint
 10
12.0
 20
7.938574928723908
 30
0.0
  0
POINT
  5
CF
330
C4
100
AcDbEntity
  8
Defpoints
 62
     0
100
AcDbPoint
 10
12.0
 20
38.39811096570963
 30
0.0
  0
ENDBLK
  5
C6
330
C4
100
AcDbEntity
  8
0
100
AcDbBlockEnd
  0
BLOCK
  5
D8
330
D7
100
AcDbEntity
  8
0
100
AcDbBlockBegin
  2
_D_1
 70
     0
 10
0.0
 20
0.0
 30
0.0
  3
_D_1
  1
_D_1
  0
LINE
  5
DA
330
D7
100
AcDbEntity
  8
치수문자_일반주서
 62
     0
370
    -2
100
AcDbLine
 10
69.14999999999995
 20
8.001074928723924
 30
0.0
 11
69.14999999999995
 21
53.97636907984727
 31
0.0
  0
LINE
  5
DB
330
D7
100
AcDbEntity
  8
치수문자_일반주서
 62
     0
370
    -2
100
AcDbLine
 10
-57.84999999999999
 20
6.413574928723888
 30
0.0
 11
-57.84999999999999
 21
53.97636907984727
 31
0.0
  0
LINE
  5
DC
330
D7
100
AcDbEntity
  8
치수문자_일반주서
 62
     0
370
    -2
100
AcDbLine
 10
65.84799999999996
 20
53.97636907984727
 30
0.0
 11
-54.54799999999999
 21
53.97636907984727
 31
0.0
  0
SOLID
  5
DD
330
D7
100
AcDbEntity
  8
치수문자_일반주서
 62
     0
100
AcDbTrace
 10
65.84799999999996
 20
53.42603574651393
 30
0.0
 11
65.84799999999996
 21
54.5267024131806
 31
0.0
 12
69.14999999999995
 22
53.97636907984727
 32
0.0
 13
69.14999999999995
 23
53.97636907984727
 33
0.0
  0
SOLID
  5
DE
330
D7
100
AcDbEntity
  8
치수문자_일반주서
 62
     0
100
AcDbTrace
 10
-54.54799999999999
 20
54.5267024131806
 30
0.0
 11
-54.54799999999999
 21
53.42603574651393
 31
0.0
 12
-57.84999999999999
 22
53.97636907984727
 32
0.0
 13
-57.84999999999999
 23
53.97636907984727
 33
0.0
  0
MTEXT
  5
DF
330
D7
100
AcDbEntity
  8
치수문자_일반주서
 62
     0
100
AcDbMText
 10
-2.511373787379483
 20
58.35136907984727
 30
0.0
 40
3.5
 41
0.0
 71
     2
 72
     1
  1
\A1;127 [5]
  7
SLDTEXTSTYLE0
 73
     1
 44
1.0
  0
POINT
  5
E0
330
D7
100
AcDbEntity
  8
Defpoints
 62
     0
100
AcDbPoint
 10
69.14999999999995
 20
7.938574928723923
 30
0.0
  0
POINT
  5
E1
330
D7
100
AcDbEntity
  8
Defpoints
 62
     0
100
AcDbPoint
 10
-57.84999999999999
 20
6.351074928723888
 30
0.0
  0
POINT
  5
E2
330
D7
100
AcDbEntity
  8
Defpoints
 62
     0
100
AcDbPoint
 10
-57.84999999999999
 20
53.97636907984727
 30
0.0
  0
ENDBLK
  5
D9
330
D7
100
AcDbEntity
  8
0
100
AcDbBlockEnd
  0
BLOCK
  5
EC
330
EB
100
AcDbEntity
  8
0
100
AcDbBlockBegin
  2
_D_2
 70
     0
 10
0.0
 20
0.0
 30
0.0
  3
_D_2
  1
_D_2
  0
LINE
  5
EE
330
EB
100
AcDbEntity
  8
치수문자_일반주서
 62
     0
370
    -2
100
AcDbLine
 10
-56.32499999999999
 20
7.938574928723908
 30
0.0
 11
-69.58000000000004
 21
7.938574928723858
 31
0.0
  0
LINE
  5
EF
330
EB
100
AcDbEntity
  8
치수문자_일반주서
 62
     0
370
    -2
100
AcDbLine
 10
-56.32499999999999
 20
-7.936425071276121
 30
0.0
 11
-69.57999999999998
 21
-7.936425071276171
 31
0.0
  0
LINE
  5
F0
330
EB
100
AcDbEntity
  8
치수문자_일반주서
 62
     0
370
    -2
100
AcDbLine
 10
-69.58000000000003
 20
4.636574928723858
 30
0.0
 11
-69.58
 21
-4.634425071276171
 31
0.0
  0
SOLID
  5
F1
330
EB
100
AcDbEntity
  8
치수문자_일반주서
 62
     0
100
AcDbTrace
 10
-69.0296666666667
 20
4.63657492872386
 30
0.0
 11
-70.13033333333335
 21
4.636574928723856
 31
0.0
 12
-69.58000000000004
 22
7.938574928723858
 32
0.0
 13
-69.58000000000004
 23
7.938574928723858
 33
0.0
  0
SOLID
  5
F2
330
EB
100
AcDbEntity
  8
치수문자_일반주서
 62
     0
100
AcDbTrace
 10
-70.13033333333333
 20
-4.634425071276173
 30
0.0
 11
-69.02966666666667
 21
-4.634425071276169
 31
0.0
 12
-69.57999999999998
 22
-7.936425071276171
 32
0.0
 13
-69.57999999999998
 23
-7.936425071276171
 33
0.0
  0
MTEXT
  5
F3
330
EB
100
AcDbEntity
  8
치수문자_일반주서
 62
     0
100
AcDbMText
 10
-73.95500000000001
 20
0.001074928723889
 30
0.0
 40
3.5
 41
0.0
 71
     2
 72
     1
  1
\A1;%%c15.88 [5/8]
  7
SLDTEXTSTYLE0
 11
-3.580687802255617E-15
 21
1.0
 31
0.0
 73
     1
 44
1.0
  0
POINT
  5
F4
330
EB
100
AcDbEntity
  8
Defpoints
 62
     0
100
AcDbPoint
 10
-56.26249999999999
 20
7.938574928723908
 30
0.0
  0
POINT
  5
F5
330
EB
100
AcDbEntity
  8
Defpoints
 62
     0
100
AcDbPoint
 10
-56.26249999999999
 20
-7.936425071276121
 30
0.0
  0
POINT
  5
F6
330
EB
100
AcDbEntity
  8
Defpoints
 62
     0
100
AcDbPoint
 10
-69.57999999999998
 20
-7.936425071276171
 30
0.0
  0
ENDBLK
  5
ED
330
EB
100
AcDbEntity
  8
0
100
AcDbBlockEnd
  0
BLOCK
  5
100
330
FF
100
AcDbEntity
  8
0
100
AcDbBlockBegin
  2
_D_3
 70
     0
 10
0.0
 20
0.0
 30
0.0
  3
_D_3
  1
_D_3
  0
LINE
  5
102
330
FF
100
AcDbEntity
  8
치수문자_일반주서
 62
     0
370
    -2
100
AcDbLine
 10
69.21249999999995
 20
7.938574928723923
 30
0.0
 11
91.90333555690732
 21
7.938574928724009
 31
0.0
  0
LINE
  5
103
330
FF
100
AcDbEntity
  8
치수문자_일반주서
 62
     0
370
    -2
100
AcDbLine
 10
72.21249999999995
 20
-7.936425071276098
 30
0.0
 11
91.90333555690738
 21
-7.93642507127603
 31
0.0
  0
LINE
  5
104
330
FF
100
AcDbEntity
  8
치수문자_일반주서
 62
     0
370
    -2
100
AcDbLine
 10
91.90333555690732
 20
7.938574928724009
 30
0.0
 11
91.9033355569072
 21
42.76132492872397
 31
0.0
  0
LINE
  5
105
330
FF
100
AcDbEntity
  8
치수문자_일반주서
 62
     0
370
    -2
100
AcDbLine
 10
91.90333555690732
 20
7.938574928724009
 30
0.0
 11
91.90333555690738
 21
-7.93642507127603
 31
0.0
  0
LINE
  5
106
330
FF
100
AcDbEntity
  8
치수문자_일반주서
 62
     0
370
    -2
100
AcDbLine
 10
91.90333555690731
 20
11.24057492872401
 30
0.0
 11
91.9033355569073
 21
14.54257492872401
 31
0.0
  0
LINE
  5
107
330
FF
100
AcDbEntity
  8
치수문자_일반주서
 62
     0
370
    -2
100
AcDbLine
 10
91.9033355569074
 20
-11.23842507127603
 30
0.0
 11
91.90333555690741
 21
-14.54042507127603
 31
0.0
  0
SOLID
  5
108
330
FF
100
AcDbEntity
  8
치수문자_일반주서
 62
     0
100
AcDbTrace
 10
91.35300222357398
 20
11.24057492872401
 30
0.0
 11
92.45366889024064
 21
11.24057492872401
 31
0.0
 12
91.90333555690732
 22
7.938574928724009
 32
0.0
 13
91.90333555690732
 23
7.938574928724009
 33
0.0
  0
SOLID
  5
109
330
FF
100
AcDbEntity
  8
치수문자_일반주서
 62
     0
100
AcDbTrace
 10
92.45366889024072
 20
-11.23842507127603
 30
0.0
 11
91.35300222357407
 21
-11.23842507127603
 31
0.0
 12
91.90333555690738
 22
-7.93642507127603
 32
0.0
 13
91.90333555690738
 23
-7.93642507127603
 33
0.0
  0
MTEXT
  5
10A
330
FF
100
AcDbEntity
  8
치수문자_일반주서
 62
     0
100
AcDbMText
 10
87.52833555690725
 20
28.76132492872395
 30
0.0
 40
3.5
 41
0.0
 71
     2
 72
     1
  1
\A1;%%c15.88 [5/8]
  7
SLDTEXTSTYLE0
 11
-3.580687802255616E-15
 21
1.0
 31
0.0
 73
     1
 44
1.0
  0
POINT
  5
10B
330
FF
100
AcDbEntity
  8
Defpoints
 62
     0
100
AcDbPoint
 10
69.14999999999995
 20
7.938574928723923
 30
0.0
  0
POINT
  5
10C
330
FF
100
AcDbEntity
  8
Defpoints
 62
     0
100
AcDbPoint
 10
72.14999999999995
 20
-7.936425071276098
 30
0.0
  0
POINT
  5
10D
330
FF
100
AcDbEntity
  8
Defpoints
 62
     0
100
AcDbPoint
 10
91.9033355569074
 20
-7.936425071276024
 30
0.0
  0
ENDBLK
  5
101
330
FF
100
AcDbEntity
  8
0
100
AcDbBlockEnd
  0
BLOCK
  5
11A
330
119
100
AcDbEntity
  8
0
100
AcDbBlockBegin
  2
SW_DOWELSYMBOL_0
 70
     0
 10
0.0
 20
0.0
 30
0.0
  3
SW_DOWELSYMBOL_0
  1
SW_DOWELSYMBOL_0
  0
CIRCLE
  5
11C
330
119
100
AcDbEntity
  8
해칭선
 62
     0
100
AcDbCircle
 10
0.0
 20
0.0
 30
0.0
 40
3.000000000000001
  0
HATCH
  5
11D
330
119
100
AcDbEntity
  8
0
  6
Continuous
 62
     0
370
     0
100
AcDbHatch
 10
0.0
 20
0.0
 30
0.0
210
0.0
220
0.0
230
1.0
  2
SOLID
 70
     1
 71
     0
 91
        1
 92
        0
 93
        3
 72
     2
 10
0.0
 20
0.0
 40
3.000000000000001
 50
0.0
 51
90.0
 73
     1
 72
     1
 10
0.0
 20
3.000000000000001
 11
0.0
 21
0.0
 72
     1
 10
0.0
 20
0.0
 11
3.000000000000003
 21
0.0
 97
        0
 75
     0
 76
     1
 98
        1
 10
0.0
 20
0.0
  0
HATCH
  5
11E
330
119
100
AcDbEntity
  8
0
  6
Continuous
 62
     0
370
     0
100
AcDbHatch
 10
0.0
 20
0.0
 30
0.0
210
0.0
220
0.0
230
1.0
  2
SOLID
 70
     1
 71
     0
 91
        1
 92
        0
 93
        3
 72
     2
 10
0.0
 20
0.0
 40
3.000000000000001
 50
180.0
 51
270.0000000000007
 73
     1
 72
     1
 10
0.0
 20
-3.000000000000001
 11
0.0
 21
0.0
 72
     1
 10
0.0
 20
0.0
 11
-3.000000000000001
 21
0.0
 97
        0
 75
     0
 76
     1
 98
        1
 10
0.0
 20
0.0
  0
ENDBLK
  5
11B
330
119
100
AcDbEntity
  8
0
100
AcDbBlockEnd
  0
ENDSEC
  0
SECTION
  2
ENTITIES
  0
LINE
  5
96
330
1F
100
AcDbEntity
  8
외형선
  6
Continuous
370
    15
100
AcDbLine
 10
-56.2625
 20
-7.936425071276107
 30
0.0
 11
11.99999999999999
 21
-7.936425071276107
 31
0.0
  0
LINE
  5
97
330
1F
100
AcDbEntity
  8
외형선
  6
Continuous
370
    15
100
AcDbLine
 10
11.99999999999999
 20
7.938574928723893
 30
0.0
 11
-56.2625
 21
7.938574928723893
 31
0.0
  0
LINE
  5
98
330
1F
100
AcDbEntity
  8
외형선
  6
Continuous
370
    15
100
AcDbLine
 10
-56.2625
 20
7.938574928723895
 30
0.0
 11
-57.85000000000001
 21
6.351074928723901
 31
0.0
  0
LINE
  5
99
330
1F
100
AcDbEntity
  8
외형선
  6
Continuous
370
    15
100
AcDbLine
 10
-57.85000000000001
 20
-6.348925071276114
 30
0.0
 11
-56.2625
 21
-7.936425071276108
 31
0.0
  0
LINE
  5
9A
330
1F
100
AcDbEntity
  8
0
  6
Continuous
 62
     1
370
    15
100
AcDbLine
 10
34.77442028342119
 20
-7.936425071276124
 30
0.0
 11
39.6153213180949
 21
-7.936425071276124
 31
0.0
  0
LINE
  5
9B
330
1F
100
AcDbEntity
  8
0
  6
Continuous
 62
     1
370
    15
100
AcDbLine
 10
39.6153213180949
 20
7.93857492872391
 30
0.0
 11
34.77442028342107
 21
7.93857492872391
 31
0.0
  0
LINE
  5
9C
330
1F
100
AcDbEntity
  8
0
  6
Continuous
 62
     1
370
    15
100
AcDbLine
 10
56.37055363168223
 20
-7.936425071276124
 30
0.0
 11
61.21249999999993
 21
-7.936425071276124
 31
0.0
  0
LINE
  5
9D
330
1F
100
AcDbEntity
  8
0
  6
Continuous
 62
     1
370
    15
100
AcDbLine
 10
18.01988849559966
 20
7.93857492872391
 30
0.0
 11
13.17941314091468
 21
7.93857492872391
 31
0.0
  0
ARC
  5
9E
330
1F
100
AcDbEntity
  8
0
  6
Continuous
 62
     1
370
    15
100
AcDbCircle
 10
61.21249999999993
 20
0.0010749287238904
 30
0.0
 40
7.937500000000048
100
AcDbArc
 50
336.2387695244804
 51
0.0
  0
ARC
  5
9F
330
1F
100
AcDbEntity
  8
0
  6
Continuous
 62
     1
370
    15
100
AcDbCircle
 10
61.21249999999993
 20
0.0010749287238904
 30
0.0
 40
7.937500000000043
100
AcDbArc
 50
0.0
 51
23.76321039657423
  0
LINE
  5
A0
330
1F
100
AcDbEntity
  8
0
  6
Continuous
 62
     1
370
    15
100
AcDbLine
 10
13.17941314091465
 20
-7.936425071276124
 30
0.0
 11
18.01988849559972
 21
-7.936425071276124
 31
0.0
  0
LINE
  5
A1
330
1F
100
AcDbEntity
  8
0
  6
Continuous
 62
     1
370
    15
100
AcDbLine
 10
61.21249999999993
 20
7.93857492872391
 30
0.0
 11
56.37055363168222
 21
7.93857492872391
 31
0.0
  0
LINE
  5
A2
330
1F
100
AcDbEntity
  8
외형선
  6
Continuous
370
    15
100
AcDbLine
 10
11.99999999999999
 20
0.0010749287238931
 30
0.0
 11
11.99999999999999
 21
7.938574928723893
 31
0.0
  0
LINE
  5
A3
330
1F
100
AcDbEntity
  8
외형선
  6
Continuous
370
    15
100
AcDbLine
 10
11.99999999999999
 20
-7.936425071276107
 30
0.0
 11
11.99999999999999
 21
0.0010749287238931
 31
0.0
  0
LINE
  5
A4
330
1F
100
AcDbEntity
  8
외형선
  6
Continuous
370
    15
100
AcDbLine
 10
-56.2625
 20
0.0010749287238931
 30
0.0
 11
-56.2625
 21
7.938574928723893
 31
0.0
  0
LINE
  5
A5
330
1F
100
AcDbEntity
  8
외형선
  6
Continuous
370
    15
100
AcDbLine
 10
-56.2625
 20
-7.936425071276107
 30
0.0
 11
-56.2625
 21
0.0010749287238931
 31
0.0
  0
LINE
  5
A6
330
1F
100
AcDbEntity
  8
외형선
  6
Continuous
370
    15
100
AcDbLine
 10
-57.85000000000001
 20
0.0010749287238931
 30
0.0
 11
-57.85000000000001
 21
6.351074928723901
 31
0.0
  0
LINE
  5
A7
330
1F
100
AcDbEntity
  8
외형선
  6
Continuous
370
    15
100
AcDbLine
 10
-57.85000000000001
 20
-6.348925071276114
 30
0.0
 11
-57.85000000000001
 21
0.0010749287238931
 31
0.0
  0
SPLINE
  5
A8
330
1F
100
AcDbEntity
  8
0
  6
Continuous
 62
     1
370
    15
100
AcDbSpline
210
0.0
220
0.0
230
1.0
 70
     8
 71
     3
 72
    17
 73
    13
 74
     0
 42
0.000000001
 43
0.00000001
 40
0.0
 40
0.0
 40
0.0
 40
0.0
 40
0.1129616025353957
 40
0.2259174743007088
 40
0.3388682052105382
 40
0.4518143872737852
 40
0.5647566143548236
 40
0.6776954819330412
 40
0.7841722937890568
 40
0.8906422644165588
 40
0.9971113998728852
 40
1.0
 40
1.0
 40
1.0
 40
1.0
 10
11.99999999999999
 20
0.6811706384414697
 30
0.0
 10
12.8575909418411
 20
0.1856379131689773
 30
0.0
 10
14.57272931820403
 20
-0.8054023980007406
 30
0.0
 10
17.14534268364124
 20
-2.270184283332874
 30
0.0
 10
19.7178163058938
 20
-3.653994899993846
 30
0.0
 10
22.29017014959129
 20
-4.910497338547918
 30
0.0
 10
24.86239718236416
 20
-5.996040549857128
 30
0.0
 10
27.38556573333113
 20
-6.853338227149533
 30
0.0
 10
29.85934111641046
 20
-7.477851122265876
 30
0.0
 10
32.28402785298252
 20
-7.828944416277203
 30
0.0
 10
33.92235432432985
 20
-7.975145388835472
 30
0.0
 10
34.75249281628242
 20
-7.934253720920692
 30
0.0
 10
34.77442028342119
 20
-7.933173599093862
 30
0.0
  0
SPLINE
  5
A9
330
1F
100
AcDbEntity
  8
0
  6
Continuous
 62
     1
370
    15
100
AcDbSpline
210
0.0
220
0.0
230
1.0
 70
     8
 71
     3
 72
    20
 73
    16
 74
     0
 42
0.000000001
 43
0.00000001
 40
0.0
 40
0.0
 40
0.0
 40
0.0
 40
0.0380897607925456
 40
0.0847527761019354
 40
0.1332281664921732
 40
0.2150962419091164
 40
0.2982140824052249
 40
0.3582153372147672
 40
0.4199353473782911
 40
0.5025810623702224
 40
0.587541813277732
 40
0.698182551913771
 40
0.8119681811120413
 40
0.9052240620914529
 40
1.0
 40
1.0
 40
1.0
 40
1.0
 10
68.47456252404479
 20
3.198551484170887
 30
0.0
 10
68.46462022802265
 20
3.218770148388348
 30
0.0
 10
68.44249782107741
 20
3.263758299688002
 30
0.0
 10
68.33230098781917
 20
3.409747708633569
 30
0.0
 10
68.11708250606142
 20
3.676147355717599
 30
0.0
 10
67.737827855814
 20
4.121240451761286
 30
0.0
 10
67.23604207905751
 20
4.676443285770135
 30
0.0
 10
66.73316616877852
 20
5.195002852103524
 30
0.0
 10
66.20428053875645
 20
5.702027111458549
 30
0.0
 10
65.58597096064372
 20
6.235311249765749
 30
0.0
 10
64.81220179711411
 20
6.804908253729236
 30
0.0
 10
63.9265498774967
 20
7.320193298779586
 30
0.0
 10
62.99274291550288
 20
7.68811432393028
 30
0.0
 10
62.08442551611834
 20
7.901031402180417
 30
0.0
 10
61.5047040028625
 20
7.92599301981137
 30
0.0
 10
61.21249999999997
 20
7.938574723996753
 30
0.0
  0
SPLINE
  5
AA
330
1F
100
AcDbEntity
  8
0
  6
Continuous
 62
     1
370
    15
100
AcDbSpline
210
0.0
220
0.0
230
1.0
 70
     8
 71
     3
 72
    14
 73
    10
 74
     0
 42
0.000000001
 43
0.00000001
 40
0.0
 40
0.0
 40
0.0
 40
0.0
 40
0.0039517743854224
 40
0.1719374365311856
 40
0.3399163760771177
 40
0.5048950388935053
 40
0.669892104329883
 40
0.8349222324896273
 40
1.0
 40
1.0
 40
1.0
 40
1.0
 10
26.43433445919314
 20
-6.492878535297967
 30
0.0
 10
26.41532067897916
 20
-6.499926023029564
 30
0.0
 10
25.58805163223939
 20
-6.806554604617006
 30
0.0
 10
23.95261184152326
 20
-7.231682659109889
 30
0.0
 10
21.5423945115188
 20
-7.720016497173273
 30
0.0
 10
19.1466359766314
 20
-7.949136736987666
 30
0.0
 10
16.76498452049212
 20
-7.940702832027996
 30
0.0
 10
14.3827798761259
 20
-7.708294042158698
 30
0.0
 10
12.79433637051025
 20
-7.361295227033617
 30
0.0
 10
12.0
 20
-7.187770780993599
 30
0.0
  0
SPLINE
  5
AB
330
1F
100
AcDbEntity
  8
0
  6
Continuous
 62
     1
370
    15
100
AcDbSpline
210
0.0
220
0.0
230
1.0
 70
     8
 71
     3
 72
    22
 73
    18
 74
     0
 42
0.000000001
 43
0.00000001
 40
0.0
 40
0.0
 40
0.0
 40
0.0
 40
0.0287592910480204
 40
0.0984828732112582
 40
0.168201975573213
 40
0.2379205310449568
 40
0.3076424735719736
 40
0.3773717306949611
 40
0.4471122161363195
 40
0.516867822441972
 40
0.5866254855424963
 40
0.6563676231779222
 40
0.7260980519167354
 40
0.7945739687292703
 40
0.8630455278260946
 40
0.9315188370963524
 40
1.0
 40
1.0
 40
1.0
 40
1.0
 10
26.43433445919305
 20
6.495028392745754
 30
0.0
 10
26.76775222585823
 20
6.611654415104333
 30
0.0
 10
27.90950288953222
 20
7.011026769377439
 30
0.0
 10
29.85933718901258
 20
7.466877990729064
 30
0.0
 10
32.28402649820023
 20
7.851450980618712
 30
0.0
 10
34.7086723895682
 20
7.979158374865086
 30
0.0
 10
37.13346460084574
 20
7.862813397772271
 30
0.0
 10
39.55856246565602
 20
7.501507958496597
 30
0.0
 10
41.98412158469164
 20
6.907605340639137
 30
0.0
 10
44.41014301105321
 20
6.099256871086504
 30
0.0
 10
46.83621080923493
 20
5.101670460603133
 30
0.0
 10
49.26183052841782
 20
3.945645043052989
 30
0.0
 10
51.67254176276814
 20
2.675013080461193
 30
0.0
 10
54.0683916592743
 20
1.330579923232392
 30
0.0
 10
56.44965543568555
 20
-0.0439528849775707
 30
0.0
 10
58.830981219984
 20
-1.423047686119155
 30
0.0
 10
60.41863005883416
 20
-2.299310635413653
 30
0.0
 10
61.21249999999993
 20
-2.737467234643721
 30
0.0
  0
SPLINE
  5
AC
330
1F
100
AcDbEntity
  8
0
  6
Continuous
 62
     1
370
    15
100
AcDbSpline
210
0.0
220
0.0
230
1.0
 70
     8
 71
     3
 72
    52
 73
    48
 74
     0
 42
0.000000001
 43
0.00000001
 40
0.0
 40
0.0
 40
0.0
 40
0.0
 40
0.0624999999999983
 40
0.0624999999999983
 40
0.0937499999999982
 40
0.0937499999999982
 40
0.1249999999999981
 40
0.1249999999999981
 40
0.187499999999998
 40
0.187499999999998
 40
0.2187499999999972
 40
0.2187499999999972
 40
0.2499999999999963
 40
0.2499999999999963
 40
0.3124999999999946
 40
0.3124999999999946
 40
0.3749999999999927
 40
0.3749999999999927
 40
0.437499999999991
 40
0.437499999999991
 40
0.4687499999999907
 40
0.4687499999999907
 40
0.4999999999999903
 40
0.4999999999999903
 40
0.53124999999999
 40
0.53124999999999
 40
0.5624999999999897
 40
0.5624999999999897
 40
0.5937499999999895
 40
0.5937499999999895
 40
0.6249999999999891
 40
0.6249999999999891
 40
0.6562499999999888
 40
0.6562499999999888
 40
0.6874999999999897
 40
0.6874999999999897
 40
0.7499999999999928
 40
0.7499999999999928
 40
0.7812499999999938
 40
0.7812499999999938
 40
0.8124999999999947
 40
0.8124999999999947
 40
0.8749999999999963
 40
0.8749999999999963
 40
0.9374999999999982
 40
0.9374999999999982
 40
1.0
 40
1.0
 40
1.0
 40
1.0
 10
61.21249999999993
 20
-2.737467234643721
 30
0.0
 10
61.6157655913582
 20
-2.955950746507618
 30
0.0
 10
62.0174415952312
 20
-3.14974895462076
 30
0.0
 10
62.62168713291329
 20
-3.397625353483553
 30
0.0
 10
62.82336538292505
 20
-3.47311955500497
 30
0.0
 10
63.22764877781479
 20
-3.608889263533824
 30
0.0
 10
63.4313567616727
 20
-3.66949216863451
 30
0.0
 10
64.03524740751243
 20
-3.823202825595396
 30
0.0
 10
64.42743237625729
 20
-3.888961417397097
 30
0.0
 10
64.99932567212656
 20
-3.937122158978117
 30
0.0
 10
65.18718329022715
 20
-3.944763536423447
 30
0.0
 10
65.5566814140038
 20
-3.944116604819648
 30
0.0
 10
65.73836846478153
 20
-3.93572459886563
 30
0.0
 10
66.26228107898416
 20
-3.889800100957581
 30
0.0
 10
66.58763854760443
 20
-3.830736553331358
 30
0.0
 10
67.18401682138031
 20
-3.677633118967268
 30
0.0
 10
67.4559523949442
 20
-3.582784131103425
 30
0.0
 10
67.91525331634983
 20
-3.396354683299097
 30
0.0
 10
68.10639117728888
 20
-3.303336667540283
 30
0.0
 10
68.31623064140032
 20
-3.202889718559134
 30
0.0
 10
68.37220558019371
 20
-3.17662946851008
 30
0.0
 10
68.45338990050416
 20
-3.146456878227643
 30
0.0
 10
68.47866009737027
 20
-3.142668133733407
 30
0.0
 10
68.49223794027662
 20
-3.167613418458883
 30
0.0
 10
68.48101479730295
 20
-3.195943051319601
 30
0.0
 10
68.41815723151282
 20
-3.293637635550008
 30
0.0
 10
68.36677458702988
 20
-3.362434400577285
 30
0.0
 10
68.22697027190642
 20
-3.538668772502412
 30
0.0
 10
68.1362656723467
 20
-3.648899374261531
 30
0.0
 10
67.92530101678824
 20
-3.898493511208692
 30
0.0
 10
67.80415296059991
 20
-4.038947762738491
 30
0.0
 10
67.53741851056526
 20
-4.340340205202529
 30
0.0
 10
67.39472065417888
 20
-4.498017252811169
 30
0.0
 10
67.09111436459102
 20
-4.823135844015727
 30
0.0
 10
66.93240198565638
 20
-4.988109092247121
 30
0.0
 10
66.44602280573423
 20
-5.474620365520314
 30
0.0
 10
66.09937144820114
 20
-5.795880008033764
 30
0.0
 10
65.57404483610989
 20
-6.230948291850533
 30
0.0
 10
65.39696927661629
 20
-6.369337749958428
 30
0.0
 10
65.03726624002485
 20
-6.632185623574088
 30
0.0
 10
64.85360478228898
 20
-6.757246606188538
 30
0.0
 10
64.30228783055077
 20
-7.103582575438893
 30
0.0
 10
63.93295347053644
 20
-7.29768133250186
 30
0.0
 10
63.17869111470296
 20
-7.61324094948518
 30
0.0
 10
62.7907914437801
 20
-7.734846968785465
 30
0.0
 10
62.01002745233831
 20
-7.895709774755454
 30
0.0
 10
61.61555254226418
 20
-7.93637202561458
 30
0.0
 10
61.21249999999997
 20
-7.936424866548967
 30
0.0
  0
SPLINE
  5
AD
330
1F
100
AcDbEntity
  8
0
  6
Continuous
 62
     1
370
    15
100
AcDbSpline
210
0.0
220
0.0
230
1.0
 70
     8
 71
     3
 72
    25
 73
    21
 74
     0
 42
0.000000001
 43
0.00000001
 40
0.0
 40
0.0
 40
0.0
 40
0.0
 40
0.0595489861436327
 40
0.1190964852614095
 40
0.1786428125974104
 40
0.2381882838753279
 40
0.2977332151694136
 40
0.3572779227751259
 40
0.4134159159632709
 40
0.4695575065967258
 40
0.5257058546759433
 40
0.5818641074405719
 40
0.6380346888500185
 40
0.6942000323204818
 40
0.7503536748440776
 40
0.8064987536758644
 40
0.8626384222267506
 40
0.9187758441303838
 40
0.9739105939070866
 40
1.0
 40
1.0
 40
1.0
 40
1.0
 10
61.21249999999986
 20
-7.93642486654895
 30
0.0
 10
60.35511435359297
 20
-7.909723712206844
 30
0.0
 10
58.64036447096115
 20
-7.856322070289767
 30
0.0
 10
56.06828385098343
 20
-7.427749038489299
 30
0.0
 10
53.49626438503063
 20
-6.759790737751193
 30
0.0
 10
50.92428380684829
 20
-5.850546637847393
 30
0.0
 10
48.35235271069967
 20
-4.738502310334917
 30
0.0
 10
45.82940432299234
 20
-3.485050870740613
 30
0.0
 10
43.35573767622965
 20
-2.143089622215469
 30
0.0
 10
40.93086406696942
 20
-0.7611583900625559
 30
0.0
 10
38.50565629109916
 20
0.6444942157120774
 30
0.0
 10
36.07995343931406
 20
2.030282908491924
 30
0.0
 10
33.6538460555359
 20
3.35297005416286
 30
0.0
 10
31.22788412083713
 20
4.571634377211375
 30
0.0
 10
28.80240387921002
 20
5.64866100480601
 30
0.0
 10
26.37736189612836
 20
6.549362728153765
 30
0.0
 10
23.95260821346353
 20
7.250387704848445
 30
0.0
 10
21.54239294665176
 20
7.710278603991374
 30
0.0
 10
19.56488219818664
 20
7.934545306578649
 30
0.0
 10
18.39549776045531
 20
7.915134440900895
 30
0.0
 10
18.01988849559967
 20
7.908899621322163
 30
0.0
  0
SPLINE
  5
AE
330
1F
100
AcDbEntity
  8
0
  6
Continuous
 62
     1
370
    15
100
AcDbSpline
210
0.0
220
0.0
230
1.0
 70
     8
 71
     3
 72
    25
 73
    21
 74
     0
 42
0.000000001
 43
0.00000001
 40
0.0
 40
0.0
 40
0.0
 40
0.0
 40
0.057980037853671
 40
0.1159571342630029
 40
0.1739315920146948
 40
0.2319037149703931
 40
0.2898738079441062
 40
0.3478421765787842
 40
0.4024937523654818
 40
0.4571418167405202
 40
0.5117894524455036
 40
0.5664397430328408
 40
0.621095767034665
 40
0.6757605921518846
 40
0.7304372694866077
 40
0.7851155590029962
 40
0.8397816791628181
 40
0.8944386215146338
 40
0.9481122372574723
 40
1.0
 40
1.0
 40
1.0
 40
1.0
 10
11.99999999999999
 20
7.909385498979979
 30
0.0
 10
12.85759094192803
 20
7.925083697906971
 30
0.0
 10
14.57272931846478
 20
7.956479299359642
 30
0.0
 10
17.14534268259834
 20
7.651906890060832
 30
0.0
 10
19.71781630980446
 20
7.100099047315693
 30
0.0
 10
22.29017013499234
 20
6.295201305890085
 30
0.0
 10
24.86239723684674
 20
5.272049530519144
 30
0.0
 10
27.38556553492238
 20
4.08757709168665
 30
0.0
 10
29.85934180986077
 20
2.793736148674379
 30
0.0
 10
32.28402526009459
 20
1.438831054607435
 30
0.0
 10
34.70867272133279
 20
0.0393189561702537
 30
0.0
 10
37.13346451193939
 20
-1.361408606546987
 30
0.0
 10
39.55856248947862
 20
-2.71991112854994
 30
0.0
 10
41.98412157832491
 20
-3.994024099119359
 30
0.0
 10
44.41014301269055
 20
-5.144182805807468
 30
0.0
 10
46.83621080905319
 20
-6.134242533402912
 30
0.0
 10
49.261830527508
 20
-6.935275399841117
 30
0.0
 10
51.67254176656004
 20
-7.512378839769201
 30
0.0
 10
54.04203095292456
 20
-7.872175843172019
 30
0.0
 10
55.6031830931469
 20
-7.912693380544662
 30
0.0
 10
56.37055363168225
 20
-7.932609417984383
 30
0.0
  0
SPLINE
  5
AF
330
1F
100
AcDbEntity
  8
0
  6
Continuous
 62
     1
370
    15
100
AcDbSpline
210
0.0
220
0.0
230
1.0
 70
     8
 71
     3
 72
    22
 73
    18
 74
     0
 42
0.000000001
 43
0.00000001
 40
0.0
 40
0.0
 40
0.0
 40
0.0
 40
0.0619350788298295
 40
0.1292685748413344
 40
0.1966063857304413
 40
0.263952301691024
 40
0.3313100976112873
 40
0.3986826808566674
 40
0.4660489815699582
 40
0.5334012478367987
 40
0.6007432425695938
 40
0.6680787480585315
 40
0.7354115588552433
 40
0.8015417363580778
 40
0.8676792903816436
 40
0.9338300972933559
 40
0.9999999999999999
 40
0.9999999999999999
 40
0.9999999999999999
 40
0.9999999999999999
 10
48.01078365936106
 20
-6.488114624639392
 30
0.0
 10
47.26731123600685
 20
-6.723335158924925
 30
0.0
 10
45.71556346371621
 20
-7.214278640631829
 30
0.0
 10
43.35573768840683
 20
-7.680762775652116
 30
0.0
 10
40.93086406377341
 20
-7.942123610702414
 30
0.0
 10
38.50565629170432
 20
-7.951472553427751
 30
0.0
 10
36.07995344009044
 20
-7.715417682641962
 30
0.0
 10
33.65384605182435
 20
-7.239473614717557
 30
0.0
 10
31.22788413490409
 20
-6.538849280878054
 30
0.0
 10
28.8024038266684
 20
-5.635183937947066
 30
0.0
 10
26.37736209219219
 20
-4.556655491588698
 30
0.0
 10
23.95260748182591
 20
-3.336673336551348
 30
0.0
 10
21.54239565643827
 20
-2.021163215971247
 30
0.0
 10
19.14663567225998
 20
-0.6517466778405888
 30
0.0
 10
16.76498460167901
 20
0.7270651136205964
 30
0.0
 10
14.38277985582064
 20
2.091502736168952
 30
0.0
 10
12.7943363637412
 20
2.941293401177045
 30
0.0
 10
12.0
 20
3.366250052231758
 30
0.0
  0
LINE
  5
B0
330
1F
100
AcDbEntity
  8
외형선
  6
Continuous
370
    15
100
AcDbLine
 10
11.99999999999999
 20
0.6811706384414694
 30
0.0
 11
12.0
 21
3.366250052231758
 31
0.0
  0
SPLINE
  5
B1
330
1F
100
AcDbEntity
  8
0
  6
Continuous
 62
     1
370
    15
100
AcDbSpline
210
0.0
220
0.0
230
1.0
 70
     8
 71
     3
 72
    16
 73
    12
 74
     0
 42
0.000000001
 43
0.00000001
 40
0.0
 40
0.0
 40
0.0
 40
0.0
 40
0.1190938034177093
 40
0.2381846328878084
 40
0.3572731188763899
 40
0.4763598928087335
 40
0.5954455868112185
 40
0.7145308334526153
 40
0.8268028897540881
 40
0.9390821406943335
 40
1.0
 40
1.0
 40
1.0
 40
1.0
 10
61.21249999999988
 20
-0.0007278590788073
 30
0.0
 10
60.35511435336205
 20
0.4942944058851204
 30
0.0
 10
58.64036447026827
 20
1.48432657437821
 30
0.0
 10
56.0682838537548
 20
2.917653165761001
 30
0.0
 10
53.49626437463818
 20
4.249102099432641
 30
0.0
 10
50.92428384564611
 20
5.432534008571117
 30
0.0
 10
48.35235256590244
 20
6.425465637783404
 30
0.0
 10
45.82940485031473
 20
7.182935346745029
 30
0.0
 10
43.35573583309945
 20
7.678871150474417
 30
0.0
 10
41.30070737743782
 20
7.926695096531413
 30
0.0
 10
40.05386700799858
 20
7.912822429498227
 30
0.0
 10
39.6153213180949
 20
7.907943057219313
 30
0.0
  0
LINE
  5
B2
330
1F
100
AcDbEntity
  8
0
  6
Continuous
 62
     1
370
    15
100
AcDbLine
 10
11.99999999999999
 20
-7.907235641532192
 30
0.0
 11
13.17941314091465
 21
-7.901954370231827
 31
0.0
  0
SPLINE
  5
B3
330
1F
100
AcDbEntity
  8
0
  6
Continuous
 62
     1
370
    15
100
AcDbSpline
210
0.0
220
0.0
230
1.0
 70
     8
 71
     3
 72
    13
 73
     9
 74
     0
 42
0.000000001
 43
0.00000001
 40
0.0
 40
0.0
 40
0.0
 40
0.0
 40
0.0947678467895196
 40
0.2784589958462005
 40
0.4588453790867048
 40
0.6392202827791746
 40
0.8195997969605645
 40
1.0
 40
1.0
 40
1.0
 40
1.0
 10
48.01078365936107
 20
6.490264482087177
 30
0.0
 10
48.42784360676038
 20
6.632411660489107
 30
0.0
 10
49.65330243161285
 20
7.050086662096821
 30
0.0
 10
51.67253853029151
 20
7.511173158084294
 30
0.0
 10
54.068392518402
 20
7.869163421759553
 30
0.0
 10
56.44965520658534
 20
7.975117062876834
 30
0.0
 10
58.83098127726735
 20
7.861019251045555
 30
0.0
 10
60.41863007792931
 20
7.587808484747842
 30
0.0
 10
61.21249999999993
 20
7.451195267984054
 30
0.0
  0
SPLINE
  5
B4
330
1F
100
AcDbEntity
  8
0
  6
Continuous
 62
     1
370
    15
100
AcDbSpline
210
0.0
220
0.0
230
1.0
 70
     8
 71
     3
 72
    52
 73
    48
 74
     0
 42
0.000000001
 43
0.00000001
 40
0.0
 40
0.0
 40
0.0
 40
0.0
 40
0.062499999999998
 40
0.062499999999998
 40
0.0937499999999962
 40
0.0937499999999962
 40
0.1249999999999944
 40
0.1249999999999944
 40
0.1874999999999907
 40
0.1874999999999907
 40
0.2187499999999897
 40
0.2187499999999897
 40
0.2499999999999887
 40
0.2499999999999887
 40
0.3124999999999865
 40
0.3124999999999865
 40
0.3749999999999844
 40
0.3749999999999844
 40
0.4374999999999822
 40
0.4374999999999822
 40
0.4687499999999817
 40
0.4687499999999817
 40
0.4999999999999812
 40
0.4999999999999812
 40
0.5312499999999807
 40
0.5312499999999807
 40
0.5624999999999801
 40
0.5624999999999801
 40
0.5937499999999796
 40
0.5937499999999796
 40
0.624999999999979
 40
0.624999999999979
 40
0.6562499999999786
 40
0.6562499999999786
 40
0.6874999999999792
 40
0.6874999999999792
 40
0.7499999999999821
 40
0.7499999999999821
 40
0.7812499999999845
 40
0.7812499999999845
 40
0.8124999999999867
 40
0.8124999999999867
 40
0.8749999999999911
 40
0.8749999999999911
 40
0.9374999999999956
 40
0.9374999999999956
 40
1.0
 40
1.0
 40
1.0
 40
1.0
 10
61.21249999999993
 20
7.45119526798408
 30
0.0
 10
61.61576559135819
 20
7.370884308966831
 30
0.0
 10
62.01744159523115
 20
7.256351366636308
 30
0.0
 10
62.62168713291329
 20
7.038092925019173
 30
0.0
 10
62.82336538292504
 20
6.957530252251794
 30
0.0
 10
63.22764877781476
 20
6.780788727609987
 30
0.0
 10
63.43135676167271
 20
6.683984247914241
 30
0.0
 10
64.03524740751237
 20
6.374922937219805
 30
0.0
 10
64.42743237625734
 20
6.144911799997038
 30
0.0
 10
64.99932567212664
 20
5.763644739976053
 30
0.0
 10
65.18718329022718
 20
5.630446137340019
 30
0.0
 10
65.55668141400386
 20
5.350945979592661
 30
0.0
 10
65.73836846478147
 20
5.20448124347063
 30
0.0
 10
66.26228107898407
 20
4.752741629666854
 30
0.0
 10
66.58763854760431
 20
4.432977569855907
 30
0.0
 10
67.18401682138023
 20
3.746038027640942
 30
0.0
 10
67.45595239494423
 20
3.376245678908254
 30
0.0
 10
67.91525331634992
 20
2.598591275746919
 30
0.0
 10
68.10639117728886
 20
2.18651383953009
 30
0.0
 10
68.31623064140027
 20
1.5274447723608
 30
0.0
 10
68.37220558019365
 20
1.304250547710263
 30
0.0
 10
68.4533899005041
 20
0.8496106664405881
 30
0.0
 10
68.47866009737015
 20
0.6156388788173105
 30
0.0
 10
68.49223794027657
 20
0.1518115581244144
 30
0.0
 10
68.48101479730289
 20
-0.0775226824815201
 30
0.0
 10
68.41815723151285
 20
-0.5297563896644204
 30
0.0
 10
68.36677458702982
 20
-0.7473877475122233
 30
0.0
 10
68.22697027190642
 20
-1.149775881245052
 30
0.0
 10
68.13626567234667
 20
-1.339422543090989
 30
0.0
 10
67.92530101678821
 20
-1.669088375043631
 30
0.0
 10
67.80415296059982
 20
-1.811900226827205
 30
0.0
 10
67.53741851056532
 20
-2.049795980130413
 30
0.0
 10
67.39472065417897
 20
-2.142930129215471
 30
0.0
 10
67.09111436459108
 20
-2.285259241073469
 30
0.0
 10
66.93240198565644
 20
-2.333026070527827
 30
0.0
 10
66.4460228057342
 20
-2.416431000492687
 30
0.0
 10
66.09937144820108
 20
-2.392729268871917
 30
0.0
 10
65.57404483610986
 20
-2.27836959021977
 30
0.0
 10
65.39696927661629
 20
-2.227248477341723
 30
0.0
 10
65.03726624002485
 20
-2.103297585869524
 30
0.0
 10
64.85360478228904
 20
-2.029942834297968
 30
0.0
 10
64.30228783055085
 20
-1.786572350536841
 30
0.0
 10
63.93295347053647
 20
-1.593642369527445
 30
0.0
 10
63.17869111470305
 20
-1.170300124277564
 30
0.0
 10
62.79079144378012
 20
-0.9380620473193969
 30
0.0
 10
62.01002745233831
 20
-0.4703177476166169
 30
0.0
 10
61.61555254226416
 20
-0.2333813667306344
 30
0.0
 10
61.21249999999997
 20
-0.0007278590788548
 30
0.0
  0
LINE
  5
B5
330
1F
100
AcDbEntity
  8
외형선
  6
Continuous
370
    15
100
AcDbLine
 10
11.99999999999999
 20
-7.907235641532192
 30
0.0
 11
12.0
 21
-7.187770780993598
 31
0.0
  0
LINE
  5
B6
330
1F
100
AcDbEntity
  8
중심선
 48
0.8
100
AcDbLine
 10
-60.84999999999999
 20
0.0010749287238931
 30
0.0
 11
72.14999999999995
 21
0.0010749287239017
 31
0.0
  0
LINE
  5
B7
330
1F
100
AcDbEntity
  8
참조1
100
AcDbLine
 10
10.17499999999995
 20
0.0010749287238892
 30
0.0
 11
10.17499999999995
 21
-39.99892507127611
 31
0.0
  0
LINE
  5
B8
330
1F
100
AcDbEntity
  8
참조1
100
AcDbLine
 10
68.7374999999999
 20
0.0010749287238904
 30
0.0
 11
68.7374999999999
 21
10.39811096570963
 31
0.0
  0
LINE
  5
B9
330
1F
100
AcDbEntity
  8
참조1
100
AcDbLine
 10
10.17499999999995
 20
-39.99892507127611
 30
0.0
 11
12.3036431856913
 21
-39.9989250712761
 31
0.0
  0
CIRCLE
  5
BA
330
1F
100
AcDbEntity
  8
해칭선
100
AcDbCircle
 10
0.0
 20
0.0
 30
0.0
 40
3.000000000000001
  0
INSERT
  5
BB
330
1F
100
AcDbEntity
  8
0
  6
Continuous
 62
     7
100
AcDbBlockReference
 66
     1
  2
블럭10
 10
-3.765272932125256
 20
-52.04609937292004
 30
0.0
  0
ATTRIB
  5
BC
330
BB
100
AcDbEntity
  8
FORMAT
 62
     2
100
AcDbText
 10
-13.90690894426188
 20
-49.97073246008785
 30
0.0
 40
4.233333333333333
  1
E5060040 [ 4 FLUTE ]
 41
0.75
  7
SLDTEXTSTYLE0
 11
-13.90690894426188
 21
-52.08739912675452
 31
0.0
100
AcDbAttribute
  2
AUTOATTR0
 70
     0
 74
     1
  0
SEQEND
  5
BD
330
BB
100
AcDbEntity
  8
0
  6
Continuous
 62
     7
  0
HATCH
  5
BE
330
1F
100
AcDbEntity
  8
중심선
100
AcDbHatch
 10
0.0
 20
0.0
 30
0.0
210
0.0
220
0.0
230
1.0
  2
SOLID
 70
     1
 71
     0
 91
        1
 92
        0
 93
        4
 72
     1
 10
1.949636372255592
 20
-35.7989250712761
 11
-1.49663887158169
 21
-35.7989250712761
 72
     1
 10
-1.49663887158169
 20
-35.7989250712761
 11
-3.624868730785713
 21
-38.3352506518487
 72
     1
 10
-3.624868730785713
 20
-38.3352506518487
 11
-0.1785604018352815
 21
-38.33521122254621
 72
     1
 10
-0.1785604018352815
 20
-38.33521122254621
 11
1.949636372255592
 21
-35.7989250712761
 97
        0
 75
     0
 76
     1
 98
        1
 10
0.0
 20
0.0
  0
HATCH
  5
BF
330
1F
100
AcDbEntity
  8
중심선
100
AcDbHatch
 10
0.0
 20
0.0
 30
0.0
210
0.0
220
0.0
230
1.0
  2
SOLID
 70
     1
 71
     0
 91
        1
 92
        0
 93
        4
 72
     1
 10
6.962400363291571
 20
-35.79892507127613
 11
3.516125119454316
 21
-35.79892507127608
 72
     1
 10
3.516125119454316
 20
-35.79892507127608
 11
-1.015012888903128
 21
-41.19892507127612
 72
     1
 10
-1.015012888903127
 20
-41.19892507127612
 11
2.431262354934155
 21
-41.19892507127612
 72
     1
 10
2.431262354934155
 20
-41.19892507127612
 11
6.962400363291571
 21
-35.79892507127613
 97
        0
 75
     0
 76
     1
 98
        1
 10
0.0
 20
0.0
  0
HATCH
  5
C0
330
1F
100
AcDbEntity
  8
중심선
100
AcDbHatch
 10
0.0
 20
0.0
 30
0.0
210
0.0
220
0.0
230
1.0
  2
SOLID
 70
     1
 71
     0
 91
        1
 92
        0
 93
        4
 72
     1
 10
11.97516435432744
 20
-35.79892507127613
 11
8.528889110490322
 21
-35.79892507127608
 72
     1
 10
8.528889110490322
 20
-35.79892507127608
 11
1.480452208601074
 21
-44.19892507127612
 72
     1
 10
1.480452208601074
 20
-44.19892507127612
 11
4.926727452438357
 21
-44.19892507127612
 72
     1
 10
4.926727452438357
 20
-44.19892507127612
 11
11.97516435432744
 21
-35.79892507127613
 97
        0
 75
     0
 76
     1
 98
        1
 10
0.0
 20
0.0
  0
HATCH
  5
C1
330
1F
100
AcDbEntity
  8
중심선
100
AcDbHatch
 10
0.0
 20
0.0
 30
0.0
210
0.0
220
0.0
230
1.0
  2
SOLID
 70
     1
 71
     0
 91
        1
 92
        0
 93
        6
 72
     3
 10
16.77505478533964
 20
-39.99892507132738
 11
3.960054785062284
 21
1.540850780301639E-10
 40
0.3939339440162633
 50
17.09539180608434
 51
320.0019657685079
 73
     0
 72
     1
 10
18.45805444104023
 20
-38.58681907591441
 11
20.76335631474127
 21
-36.65249236586649
 72
     3
 10
16.77505478528679
 20
-39.99892507127625
 11
6.600054785286829
 21
-1.249000902703301E-13
 40
0.6363583540795982
 50
39.99873849337406
 51
368.4976242363724
 73
     1
 72
     1
 10
23.2003872771874
 20
-39.03892507120613
 11
15.45512209212271
 21
-39.03892507120613
 72
     1
 10
15.45512209212271
 20
-39.03892507120613
 11
15.45509704767678
 21
-40.95892507120602
 72
     1
 10
15.45509704767678
 20
-40.95892507120602
 11
19.89647681714882
 21
-40.95892507120599
 97
        0
 75
     0
 76
     1
 98
        1
 10
0.0
 20
0.0
  0
DIMENSION
  5
C2
330
1F
100
AcDbEntity
  8
치수문자_일반주서
100
AcDbDimension
  2
_D
 10
12.0
 20
38.39811096570963
 30
0.0
 11
32.63749999999994
 21
38.39811096570963
 31
0.0
 70
   160
  1
<>
 71
     2
 42
57.14999999999995
  3
SLDDIMSTYLE1
100
AcDbAlignedDimension
 13
69.14999999999995
 23
7.938574928723923
 33
0.0
 14
12.0
 24
7.938574928723908
 34
0.0
100
AcDbRotatedDimension
1001
ACAD
1000
DSTYLE
1002
{
1070
   171
1070
     6
1070
   273
1070
     7
1002
}
  0
DIMENSION
  5
D6
330
1F
100
AcDbEntity
  8
치수문자_일반주서
100
AcDbDimension
  2
_D_1
 10
-57.84999999999999
 20
53.97636907984727
 30
0.0
 11
-2.511373787379483
 21
53.97636907984727
 31
0.0
 70
   160
  1
<>
 71
     2
 42
126.9999999999999
  3
SLDDIMSTYLE1
100
AcDbAlignedDimension
 13
69.14999999999995
 23
7.938574928723923
 33
0.0
 14
-57.84999999999999
 24
6.351074928723888
 34
0.0
100
AcDbRotatedDimension
1001
ACAD
1000
DSTYLE
1002
{
1070
   171
1070
     6
1070
   273
1070
     7
1002
}
  0
DIMENSION
  5
E9
330
1F
100
AcDbEntity
  8
치수문자_일반주서
100
AcDbDimension
  2
_D_2
 10
-69.57999999999998
 20
-7.936425071276171
 30
0.0
 11
-69.58000000000001
 21
0.0010749287239045
 31
0.0
 70
   160
  1
%%c<>
 71
     2
 42
15.87500000000003
 52
-270.0
  3
SLDDIMSTYLE1
100
AcDbAlignedDimension
 13
-56.26249999999999
 23
7.938574928723908
 33
0.0
 14
-56.26249999999999
 24
-7.936425071276121
 34
0.0
 50
90.0000000000002
100
AcDbRotatedDimension
1001
ACAD
1000
DSTYLE
1002
{
1070
   171
1070
     6
1070
   273
1070
     7
1002
}
  0
DIMENSION
  5
FE
330
1F
100
AcDbEntity
  8
치수문자_일반주서
100
AcDbDimension
  2
_D_3
 10
91.90333555690738
 20
-7.93642507127603
 30
0.0
 11
91.90333555690725
 21
28.76132492872397
 31
0.0
 70
   160
  1
%%c<>
 71
     2
 42
15.87500000000003
 52
-270.0
  3
SLDDIMSTYLE1
100
AcDbAlignedDimension
 13
69.14999999999995
 23
7.938574928723923
 33
0.0
 14
72.14999999999995
 24
-7.936425071276098
 34
0.0
 50
90.0000000000002
100
AcDbRotatedDimension
1001
ACAD
1000
DSTYLE
1002
{
1070
   171
1070
     6
1070
   273
1070
     7
1002
}
  0
LINE
  5
112
330
1F
100
AcDbEntity
  8
참조1
100
AcDbLine
 10
110.2759838153456
 20
7.441074928723896
 30
0.0
 11
110.2759838153456
 21
-7.438925071276109
 31
0.0
  0
LINE
  5
113
330
1F
100
AcDbEntity
  8
참조1
100
AcDbLine
 10
122.9759838153456
 20
5.441074928723896
 30
0.0
 11
110.2759838153456
 21
5.441074928723896
 31
0.0
  0
SOLID
  5
114
330
1F
100
AcDbEntity
  8
참조1
100
AcDbTrace
 10
110.2759838153456
 20
5.441074928723896
 30
0.0
 11
116.6259838153456
 21
4.425074928723896
 31
0.0
 12
116.6259838153456
 22
6.457074928723896
 32
0.0
 13
116.6259838153456
 23
6.457074928723896
 33
0.0
  0
LINE
  5
115
330
1F
100
AcDbEntity
  8
참조1
100
AcDbLine
 10
122.9759838153456
 20
-5.438925071276109
 30
0.0
 11
110.2759838153456
 21
-5.438925071276109
 31
0.0
  0
SOLID
  5
116
330
1F
100
AcDbEntity
  8
참조1
100
AcDbTrace
 10
110.2759838153456
 20
-5.438925071276109
 30
0.0
 11
116.6259838153456
 21
-6.454925071276109
 31
0.0
 12
116.6259838153456
 22
-4.422925071276109
 32
0.0
 13
116.6259838153456
 23
-4.422925071276109
 33
0.0
  0
MTEXT
  5
117
330
1F
100
AcDbEntity
  8
참조1
100
AcDbMText
 10
119.6734739078158
 20
10.98929157337383
 30
0.0
 40
3.5
 41
0.0
 71
     1
 72
     1
  1
A
  7
SLDTEXTSTYLE0
 73
     1
 44
1.0
  0
MTEXT
  5
118
330
1F
100
AcDbEntity
  8
참조1
100
AcDbMText
 10
119.6734739078158
 20
0.1092915733738251
 30
0.0
 40
3.5
 41
0.0
 71
     1
 72
     1
  1
A
  7
SLDTEXTSTYLE0
 73
     1
 44
1.0
  0
INSERT
  5
11F
330
1F
100
AcDbEntity
  8
해칭선
100
AcDbBlockReference
  2
SW_DOWELSYMBOL_0
 10
0.0
 20
0.0
 30
0.0
  0
ENDSEC
  0
SECTION
  2
OBJECTS
  0
DICTIONARY
  5
C
330
0
100
AcDbDictionary
281
     1
  3
ACAD_GROUP
350
D
  3
ACAD_IMAGE_VARS
350
143
  3
ACAD_LAYOUT
350
1A
  3
ACAD_MLINESTYLE
350
17
  3
ACAD_PLOTSETTINGS
350
19
  3
ACAD_PLOTSTYLENAME
350
E
  3
ACAD_SCALELIST
350
47
  3
APPDATA
350
141
  3
DWGPROPS
350
19C
  0
DICTIONARY
  5
16A
330
2
100
AcDbDictionary
280
     1
281
     1
  3
ACAD_LAYERSTATES
360
16B
  0
DICTIONARY
  5
D
102
{ACAD_REACTORS
330
C
102
}
330
C
100
AcDbDictionary
281
     1
  0
RASTERVARIABLES
  5
143
102
{ACAD_REACTORS
330
C
102
}
330
C
100
AcDbRasterVariables
 90
        0
 70
     1
 71
     1
 72
     1
  0
DICTIONARY
  5
1A
102
{ACAD_REACTORS
330
C
102
}
330
C
100
AcDbDictionary
281
     1
  3
Layout1
350
1E
  3
Layout2
350
26
  3
Model
350
22
  0
DICTIONARY
  5
17
102
{ACAD_REACTORS
330
C
102
}
330
C
100
AcDbDictionary
281
     1
  3
Standard
350
18
  0
DICTIONARY
  5
19
102
{ACAD_REACTORS
330
C
102
}
330
C
100
AcDbDictionary
281
     1
  0
ACDBDICTIONARYWDFLT
  5
E
102
{ACAD_REACTORS
330
C
102
}
330
C
100
AcDbDictionary
281
     1
  3
Normal
350
F
100
AcDbDictionaryWithDefault
340
F
  0
DICTIONARY
  5
47
102
{ACAD_REACTORS
330
C
102
}
330
C
100
AcDbDictionary
281
     1
  3
A0
350
48
  3
A1
350
49
  3
A2
350
4A
  3
A3
350
4B
  3
A4
350
4C
  3
A5
350
4D
  3
A6
350
4E
  3
A7
350
4F
  3
A8
350
50
  3
A9
350
51
  3
B0
350
52
  3
B1
350
53
  3
B2
350
54
  3
B3
350
55
  3
B4
350
56
  3
B5
350
57
  3
B6
350
58
  3
B7
350
59
  3
B8
350
5A
  3
B9
350
5B
  3
C0
350
5C
  3
C1
350
5D
  3
C2
350
5E
  3
C3
350
5F
  3
C4
350
60
  3
C5
350
61
  3
C6
350
62
  3
C7
350
63
  3
C8
350
64
  3
C9
350
65
  3
D0
350
66
  3
D1
350
67
  3
D2
350
68
  0
DICTIONARY
  5
141
102
{ACAD_REACTORS
330
C
102
}
330
C
100
AcDbDictionary
281
     1
  0
XRECORD
  5
19C
102
{ACAD_REACTORS
330
C
102
}
330
C
100
AcDbXrecord
280
     1
  1
DWGPROPS COOKIE
  2

  3

  4

  6

  7

  8
12016016
  9

300
=
301
=
302
=
303
=
304
=
305
=
306
=
307
=
308
=
309
=
 40
0.0
 41
2458289.137849491
 42
2458310.032202106
  1

 90
        0
  0
DICTIONARY
  5
16B
102
{ACAD_REACTORS
330
16A
102
}
330
16A
100
AcDbDictionary
281
     1
  0
LAYOUT
  5
1E
102
{ACAD_REACTORS
330
1A
102
}
330
1A
100
AcDbPlotSettings
  1

  2
none_device
  4

  6

 40
0.0
 41
0.0
 42
0.0
 43
0.0
 44
0.0
 45
0.0
 46
0.0
 47
0.0
 48
0.0
 49
0.0
140
0.0
141
0.0
142
1.0
143
1.0
 70
   688
 72
     1
 73
     0
 74
     5
  7

 75
    16
147
1.0
148
0.0
149
0.0
100
AcDbLayout
  1
Layout1
 70
     1
 71
     1
 10
0.0
 20
0.0
 11
420.0
 21
297.0
 12
0.0
 22
0.0
 32
0.0
 14
1.000000000000000E+20
 24
1.000000000000000E+20
 34
1.000000000000000E+20
 15
-1.000000000000000E+20
 25
-1.000000000000000E+20
 35
-1.000000000000000E+20
146
0.0
 13
0.0
 23
0.0
 33
0.0
 16
1.0
 26
0.0
 36
0.0
 17
0.0
 27
1.0
 37
0.0
 76
     0
330
1B
  0
LAYOUT
  5
26
102
{ACAD_REACTORS
330
1A
102
}
330
1A
100
AcDbPlotSettings
  1

  2
none_device
  4

  6

 40
0.0
 41
0.0
 42
0.0
 43
0.0
 44
0.0
 45
0.0
 46
0.0
 47
0.0
 48
0.0
 49
0.0
140
0.0
141
0.0
142
1.0
143
1.0
 70
   688
 72
     1
 73
     0
 74
     5
  7

 75
    16
147
1.0
148
0.0
149
0.0
100
AcDbLayout
  1
Layout2
 70
     1
 71
     2
 10
0.0
 20
0.0
 11
0.0
 21
0.0
 12
0.0
 22
0.0
 32
0.0
 14
0.0
 24
0.0
 34
0.0
 15
0.0
 25
0.0
 35
0.0
146
0.0
 13
0.0
 23
0.0
 33
0.0
 16
1.0
 26
0.0
 36
0.0
 17
0.0
 27
1.0
 37
0.0
 76
     0
330
23
  0
LAYOUT
  5
22
102
{ACAD_REACTORS
330
1A
102
}
330
1A
100
AcDbPlotSettings
  1

  2
none_device
  4
ANSI_A_(11.00_x_8.50_Inches)
  6

 40
6.35
 41
19.05
 42
6.35000508
 43
19.05000254
 44
279.4
 45
215.9
 46
90.60795524513652
 47
78.55445405753936
 48
0.0
 49
0.0
140
0.0
141
0.0
142
0.0579605655216143
143
1.0
 70
  1696
 72
     0
 73
     0
 74
     0
  7

 75
     0
147
0.0235690232323232
148
0.0
149
0.0
100
AcDbLayout
  1
Model
 70
     1
 71
     0
 10
0.0
 20
0.0
 11
420.0
 21
297.0
 12
0.0
 22
0.0
 32
0.0
 14
-73.95500000000007
 24
-49.97073246008785
 34
0.0
 15
122.9759838153456
 25
58.35136907984727
 35
0.0
146
0.0
 13
0.0
 23
0.0
 33
0.0
 16
1.0
 26
0.0
 36
0.0
 17
0.0
 27
1.0
 37
0.0
 76
     0
330
1F
331
29
  0
MLINESTYLE
  5
18
102
{ACAD_REACTORS
330
17
102
}
330
17
100
AcDbMlineStyle
  2
Standard
 70
     0
  3

 62
   256
 51
90.0
 52
90.0
 71
     2
 49
0.5
 62
   256
  6
BYLAYER
 49
-0.5
 62
   256
  6
BYLAYER
  0
ACDBPLACEHOLDER
  5
F
102
{ACAD_REACTORS
330
E
102
}
330
E
  0
SCALE
  5
48
102
{ACAD_REACTORS
330
47
102
}
330
47
100
AcDbScale
 70
     0
300
1:1
140
1.0
141
1.0
290
     1
  0
SCALE
  5
49
102
{ACAD_REACTORS
330
47
102
}
330
47
100
AcDbScale
 70
     0
300
1:2
140
1.0
141
2.0
290
     0
  0
SCALE
  5
4A
102
{ACAD_REACTORS
330
47
102
}
330
47
100
AcDbScale
 70
     0
300
1:4
140
1.0
141
4.0
290
     0
  0
SCALE
  5
4B
102
{ACAD_REACTORS
330
47
102
}
330
47
100
AcDbScale
 70
     0
300
1:5
140
1.0
141
5.0
290
     0
  0
SCALE
  5
4C
102
{ACAD_REACTORS
330
47
102
}
330
47
100
AcDbScale
 70
     0
300
1:8
140
1.0
141
8.0
290
     0
  0
SCALE
  5
4D
102
{ACAD_REACTORS
330
47
102
}
330
47
100
AcDbScale
 70
     0
300
1:10
140
1.0
141
10.0
290
     0
  0
SCALE
  5
4E
102
{ACAD_REACTORS
330
47
102
}
330
47
100
AcDbScale
 70
     0
300
1:16
140
1.0
141
16.0
290
     0
  0
SCALE
  5
4F
102
{ACAD_REACTORS
330
47
102
}
330
47
100
AcDbScale
 70
     0
300
1:20
140
1.0
141
20.0
290
     0
  0
SCALE
  5
50
102
{ACAD_REACTORS
330
47
102
}
330
47
100
AcDbScale
 70
     0
300
1:30
140
1.0
141
30.0
290
     0
  0
SCALE
  5
51
102
{ACAD_REACTORS
330
47
102
}
330
47
100
AcDbScale
 70
     0
300
1:40
140
1.0
141
40.0
290
     0
  0
SCALE
  5
52
102
{ACAD_REACTORS
330
47
102
}
330
47
100
AcDbScale
 70
     0
300
1:50
140
1.0
141
50.0
290
     0
  0
SCALE
  5
53
102
{ACAD_REACTORS
330
47
102
}
330
47
100
AcDbScale
 70
     0
300
1:100
140
1.0
141
100.0
290
     0
  0
SCALE
  5
54
102
{ACAD_REACTORS
330
47
102
}
330
47
100
AcDbScale
 70
     0
300
2:1
140
2.0
141
1.0
290
     0
  0
SCALE
  5
55
102
{ACAD_REACTORS
330
47
102
}
330
47
100
AcDbScale
 70
     0
300
4:1
140
4.0
141
1.0
290
     0
  0
SCALE
  5
56
102
{ACAD_REACTORS
330
47
102
}
330
47
100
AcDbScale
 70
     0
300
8:1
140
8.0
141
1.0
290
     0
  0
SCALE
  5
57
102
{ACAD_REACTORS
330
47
102
}
330
47
100
AcDbScale
 70
     0
300
10:1
140
10.0
141
1.0
290
     0
  0
SCALE
  5
58
102
{ACAD_REACTORS
330
47
102
}
330
47
100
AcDbScale
 70
     0
300
100:1
140
100.0
141
1.0
290
     0
  0
SCALE
  5
59
102
{ACAD_REACTORS
330
47
102
}
330
47
100
AcDbScale
 70
     0
300
1/128" = 1'-0"
140
0.0078125
141
12.0
290
     0
  0
SCALE
  5
5A
102
{ACAD_REACTORS
330
47
102
}
330
47
100
AcDbScale
 70
     0
300
1/64" = 1'-0"
140
0.015625
141
12.0
290
     0
  0
SCALE
  5
5B
102
{ACAD_REACTORS
330
47
102
}
330
47
100
AcDbScale
 70
     0
300
1/32" = 1'-0"
140
0.03125
141
12.0
290
     0
  0
SCALE
  5
5C
102
{ACAD_REACTORS
330
47
102
}
330
47
100
AcDbScale
 70
     0
300
1/16" = 1'-0"
140
0.0625
141
12.0
290
     0
  0
SCALE
  5
5D
102
{ACAD_REACTORS
330
47
102
}
330
47
100
AcDbScale
 70
     0
300
3/32" = 1'-0"
140
0.09375
141
12.0
290
     0
  0
SCALE
  5
5E
102
{ACAD_REACTORS
330
47
102
}
330
47
100
AcDbScale
 70
     0
300
1/8" = 1'-0"
140
0.125
141
12.0
290
     0
  0
SCALE
  5
5F
102
{ACAD_REACTORS
330
47
102
}
330
47
100
AcDbScale
 70
     0
300
3/16" = 1'-0"
140
0.1875
141
12.0
290
     0
  0
SCALE
  5
60
102
{ACAD_REACTORS
330
47
102
}
330
47
100
AcDbScale
 70
     0
300
1/4" = 1'-0"
140
0.25
141
12.0
290
     0
  0
SCALE
  5
61
102
{ACAD_REACTORS
330
47
102
}
330
47
100
AcDbScale
 70
     0
300
3/8" = 1'-0"
140
0.375
141
12.0
290
     0
  0
SCALE
  5
62
102
{ACAD_REACTORS
330
47
102
}
330
47
100
AcDbScale
 70
     0
300
1/2" = 1'-0"
140
0.5
141
12.0
290
     0
  0
SCALE
  5
63
102
{ACAD_REACTORS
330
47
102
}
330
47
100
AcDbScale
 70
     0
300
3/4" = 1'-0"
140
0.75
141
12.0
290
     0
  0
SCALE
  5
64
102
{ACAD_REACTORS
330
47
102
}
330
47
100
AcDbScale
 70
     0
300
1" = 1'-0"
140
1.0
141
12.0
290
     0
  0
SCALE
  5
65
102
{ACAD_REACTORS
330
47
102
}
330
47
100
AcDbScale
 70
     0
300
1-1/2" = 1'-0"
140
1.5
141
12.0
290
     0
  0
SCALE
  5
66
102
{ACAD_REACTORS
330
47
102
}
330
47
100
AcDbScale
 70
     0
300
3" = 1'-0"
140
3.0
141
12.0
290
     0
  0
SCALE
  5
67
102
{ACAD_REACTORS
330
47
102
}
330
47
100
AcDbScale
 70
     0
300
6" = 1'-0"
140
6.0
141
12.0
290
     0
  0
SCALE
  5
68
102
{ACAD_REACTORS
330
47
102
}
330
47
100
AcDbScale
 70
     0
300
1'-0" = 1'-0"
140
12.0
141
12.0
290
     0
  0
ENDSEC
  0
EOF
