  0
SECTION
  2
HEADER
  9
$ACADVER
  1
AC1015
  9
$ACADMAINTVER
 70
     6
  9
$DWGCODEPAGE
  3
ANSI_949
  9
$INSBASE
 10
0.0
 20
0.0
 30
0.0
  9
$EXTMIN
 10
-55.22250011648422
 20
-49.97073246008785
 30
0.0
  9
$EXTMAX
 10
122.9759838153456
 20
58.35068648438818
 30
0.0
  9
$LIMMIN
 10
0.0
 20
0.0
  9
$LIMMAX
 10
420.0
 20
297.0
  9
$ORTHOMODE
 70
     0
  9
$REGENMODE
 70
     1
  9
$FILLMODE
 70
     1
  9
$QTEXTMODE
 70
     0
  9
$MIRRTEXT
 70
     1
  9
$LTSCALE
 40
1.0
  9
$ATTMODE
 70
     1
  9
$TEXTSIZE
 40
3.5
  9
$TRACEWID
 40
1.0
  9
$TEXTSTYLE
  7
Standard
  9
$CLAYER
  8
0
  9
$CELTYPE
  6
ByLayer
  9
$CECOLOR
 62
   256
  9
$CELTSCALE
 40
1.0
  9
$DISPSILH
 70
     0
  9
$DIMSCALE
 40
1.0
  9
$DIMASZ
 40
3.302
  9
$DIMEXO
 40
1.0
  9
$DIMDLI
 40
3.75
  9
$DIMRND
 40
0.0
  9
$DIMDLE
 40
0.0
  9
$DIMEXE
 40
1.0
  9
$DIMTP
 40
0.0
  9
$DIMTM
 40
0.0
  9
$DIMTXT
 40
3.5
  9
$DIMCEN
 40
2.5
  9
$DIMTSZ
 40
0.0
  9
$DIMTOL
 70
     0
  9
$DIMLIM
 70
     0
  9
$DIMTIH
 70
     1
  9
$DIMTOH
 70
     1
  9
$DIMSE1
 70
     0
  9
$DIMSE2
 70
     0
  9
$DIMTAD
 70
     1
  9
$DIMZIN
 70
     0
  9
$DIMBLK
  1

  9
$DIMASO
 70
     1
  9
$DIMSHO
 70
     1
  9
$DIMPOST
  1

  9
$DIMAPOST
  1

  9
$DIMALT
 70
     0
  9
$DIMALTD
 70
     3
  9
$DIMALTF
 40
0.0393700787401575
  9
$DIMLFAC
 40
1.0
  9
$DIMTOFL
 70
     1
  9
$DIMTVP
 40
0.0
  9
$DIMTIX
 70
     0
  9
$DIMSOXD
 70
     0
  9
$DIMSAH
 70
     0
  9
$DIMBLK1
  1

  9
$DIMBLK2
  1

  9
$DIMSTYLE
  2
ISO-25
  9
$DIMCLRD
 70
     0
  9
$DIMCLRE
 70
     0
  9
$DIMCLRT
 70
     0
  9
$DIMTFAC
 40
1.0
  9
$DIMGAP
 40
1.524
  9
$DIMJUST
 70
     0
  9
$DIMSD1
 70
     0
  9
$DIMSD2
 70
     0
  9
$DIMTOLJ
 70
     0
  9
$DIMTZIN
 70
     0
  9
$DIMALTZ
 70
     0
  9
$DIMALTTZ
 70
     0
  9
$DIMUPT
 70
     0
  9
$DIMDEC
 70
     2
  9
$DIMTDEC
 70
     2
  9
$DIMALTU
 70
     2
  9
$DIMALTTD
 70
     3
  9
$DIMTXSTY
  7
Standard
  9
$DIMAUNIT
 70
     0
  9
$DIMADEC
 70
     2
  9
$DIMALTRND
 40
0.0
  9
$DIMAZIN
 70
     0
  9
$DIMDSEP
 70
    44
  9
$DIMATFIT
 70
     3
  9
$DIMFRAC
 70
     0
  9
$DIMLDRBLK
  1

  9
$DIMLUNIT
 70
     2
  9
$DIMLWD
 70
    -2
  9
$DIMLWE
 70
    -2
  9
$DIMTMOVE
 70
     0
  9
$LUNITS
 70
     2
  9
$LUPREC
 70
     2
  9
$SKETCHINC
 40
1.0
  9
$FILLETRAD
 40
10.0
  9
$AUNITS
 70
     0
  9
$AUPREC
 70
     2
  9
$MENU
  1
.
  9
$ELEVATION
 40
0.0
  9
$PELEVATION
 40
0.0
  9
$THICKNESS
 40
0.0
  9
$LIMCHECK
 70
     0
  9
$CHAMFERA
 40
0.0
  9
$CHAMFERB
 40
0.0
  9
$CHAMFERC
 40
0.0
  9
$CHAMFERD
 40
0.0
  9
$SKPOLY
 70
     0
  9
$TDCREATE
 40
2458289.512660822
  9
$TDUCREATE
 40
2458289.137660822
  9
$TDUPDATE
 40
2458310.410448854
  9
$TDUUPDATE
 40
2458310.035448854
  9
$TDINDWG
 40
0.0039120255
  9
$TDUSRTIMER
 40
2458310.032661643
  9
$USRTIMER
 70
     1
  9
$ANGBASE
 50
0.0
  9
$ANGDIR
 70
     0
  9
$PDMODE
 70
     0
  9
$PDSIZE
 40
-1.0
  9
$PLINEWID
 40
0.0
  9
$SPLFRAME
 70
     0
  9
$SPLINETYPE
 70
     6
  9
$SPLINESEGS
 70
     8
  9
$HANDSEED
  5
1CA
  9
$SURFTAB1
 70
     6
  9
$SURFTAB2
 70
     6
  9
$SURFTYPE
 70
     6
  9
$SURFU
 70
     6
  9
$SURFV
 70
     6
  9
$UCSBASE
  2

  9
$UCSNAME
  2

  9
$UCSORG
 10
0.0
 20
0.0
 30
0.0
  9
$UCSXDIR
 10
1.0
 20
0.0
 30
0.0
  9
$UCSYDIR
 10
0.0
 20
1.0
 30
0.0
  9
$UCSORTHOREF
  2

  9
$UCSORTHOVIEW
 70
     0
  9
$UCSORGTOP
 10
0.0
 20
0.0
 30
0.0
  9
$UCSORGBOTTOM
 10
0.0
 20
0.0
 30
0.0
  9
$UCSORGLEFT
 10
0.0
 20
0.0
 30
0.0
  9
$UCSORGRIGHT
 10
0.0
 20
0.0
 30
0.0
  9
$UCSORGFRONT
 10
0.0
 20
0.0
 30
0.0
  9
$UCSORGBACK
 10
0.0
 20
0.0
 30
0.0
  9
$PUCSBASE
  2

  9
$PUCSNAME
  2

  9
$PUCSORG
 10
0.0
 20
0.0
 30
0.0
  9
$PUCSXDIR
 10
1.0
 20
0.0
 30
0.0
  9
$PUCSYDIR
 10
0.0
 20
1.0
 30
0.0
  9
$PUCSORTHOREF
  2

  9
$PUCSORTHOVIEW
 70
     0
  9
$PUCSORGTOP
 10
0.0
 20
0.0
 30
0.0
  9
$PUCSORGBOTTOM
 10
0.0
 20
0.0
 30
0.0
  9
$PUCSORGLEFT
 10
0.0
 20
0.0
 30
0.0
  9
$PUCSORGRIGHT
 10
0.0
 20
0.0
 30
0.0
  9
$PUCSORGFRONT
 10
0.0
 20
0.0
 30
0.0
  9
$PUCSORGBACK
 10
0.0
 20
0.0
 30
0.0
  9
$USERI1
 70
     0
  9
$USERI2
 70
     0
  9
$USERI3
 70
     0
  9
$USERI4
 70
     0
  9
$USERI5
 70
     0
  9
$USERR1
 40
0.0
  9
$USERR2
 40
0.0
  9
$USERR3
 40
0.0
  9
$USERR4
 40
0.0
  9
$USERR5
 40
0.0
  9
$WORLDVIEW
 70
     1
  9
$SHADEDGE
 70
     3
  9
$SHADEDIF
 70
    70
  9
$TILEMODE
 70
     1
  9
$MAXACTVP
 70
    64
  9
$PINSBASE
 10
0.0
 20
0.0
 30
0.0
  9
$PLIMCHECK
 70
     0
  9
$PEXTMIN
 10
1.000000000000000E+20
 20
1.000000000000000E+20
 30
1.000000000000000E+20
  9
$PEXTMAX
 10
-1.000000000000000E+20
 20
-1.000000000000000E+20
 30
-1.000000000000000E+20
  9
$PLIMMIN
 10
0.0
 20
0.0
  9
$PLIMMAX
 10
0.0
 20
0.0
  9
$UNITMODE
 70
     0
  9
$VISRETAIN
 70
     1
  9
$PLINEGEN
 70
     0
  9
$PSLTSCALE
 70
     1
  9
$TREEDEPTH
 70
  3020
  9
$CMLSTYLE
  2
Standard
  9
$CMLJUST
 70
     0
  9
$CMLSCALE
 40
20.0
  9
$PROXYGRAPHICS
 70
     1
  9
$MEASUREMENT
 70
     1
  9
$CELWEIGHT
370
    -1
  9
$ENDCAPS
280
     0
  9
$JOINSTYLE
280
     0
  9
$LWDISPLAY
290
     1
  9
$INSUNITS
 70
     4
  9
$HYPERLINKBASE
  1

  9
$STYLESHEET
  1

  9
$XEDIT
290
     1
  9
$CEPSNTYPE
380
     0
  9
$PSTYLEMODE
290
     1
  9
$FINGERPRINTGUID
  2
{FC3A4459-2163-4400-BC45-A36F4755C01D}
  9
$VERSIONGUID
  2
{FAEB1C32-E019-11D5-929B-00C0DF256EC4}
  9
$EXTNAMES
290
     1
  9
$PSVPSCALE
 40
0.0
  9
$OLESTARTUP
290
     0
  0
ENDSEC
  0
SECTION
  2
CLASSES
  0
CLASS
  1
ACDBDICTIONARYWDFLT
  2
AcDbDictionaryWithDefault
  3
ObjectDBX Classes
 90
        0
280
     0
281
     0
  0
CLASS
  1
VISUALSTYLE
  2
AcDbVisualStyle
  3
ObjectDBX Classes
 90
     4095
280
     0
281
     0
  0
CLASS
  1
MATERIAL
  2
AcDbMaterial
  3
ObjectDBX Classes
 90
     1153
280
     0
281
     0
  0
CLASS
  1
SCALE
  2
AcDbScale
  3
ObjectDBX Classes
 90
     1153
280
     0
281
     0
  0
CLASS
  1
SUN
  2
AcDbSun
  3
SCENEOE
 90
     1153
280
     0
281
     0
  0
CLASS
  1
ACDBPLACEHOLDER
  2
AcDbPlaceHolder
  3
ObjectDBX Classes
 90
        0
280
     0
281
     0
  0
CLASS
  1
LAYOUT
  2
AcDbLayout
  3
ObjectDBX Classes
 90
        0
280
     0
281
     0
  0
CLASS
  1
TABLESTYLE
  2
AcDbTableStyle
  3
ObjectDBX Classes
 90
     4095
280
     0
281
     0
  0
CLASS
  1
MLEADERSTYLE
  2
AcDbMLeaderStyle
  3
ACDB_MLEADERSTYLE_CLASS
 90
     4095
280
     0
281
     0
  0
CLASS
  1
RASTERVARIABLES
  2
AcDbRasterVariables
  3
ISM
 90
        0
280
     0
281
     0
  0
ENDSEC
  0
SECTION
  2
TABLES
  0
TABLE
  2
VPORT
  5
8
330
0
100
AcDbSymbolTable
 70
     1
  0
VPORT
  5
29
330
8
100
AcDbSymbolTableRecord
100
AcDbViewportTableRecord
  2
*Active
 70
     0
 10
0.0
 20
0.0
 11
1.0
 21
1.0
 12
18.09396346957114
 22
-3.060879859630917
 13
0.0
 23
0.0
 14
10.0
 24
10.0
 15
10.0
 25
10.0
 16
0.0
 26
0.0
 36
1.0
 17
0.0
 27
0.0
 37
0.0
 40
158.0209879262229
 41
1.356542617046819
 42
50.0
 43
0.0
 44
0.0
 50
0.0
 51
0.0
 71
    16
 72
  2000
 73
     1
 74
     3
 75
     0
 76
     0
 77
     0
 78
     0
281
     0
 65
     1
110
0.0
120
0.0
130
0.0
111
1.0
121
0.0
131
0.0
112
0.0
122
1.0
132
0.0
 79
     0
146
0.0
  0
ENDTAB
  0
TABLE
  2
LTYPE
  5
5
330
0
100
AcDbSymbolTable
 70
     6
  0
LTYPE
  5
14
330
5
100
AcDbSymbolTableRecord
100
AcDbLinetypeTableRecord
  2
ByBlock
 70
     0
  3

 72
    65
 73
     0
 40
0.0
  0
LTYPE
  5
15
330
5
100
AcDbSymbolTableRecord
100
AcDbLinetypeTableRecord
  2
ByLayer
 70
     0
  3

 72
    65
 73
     0
 40
0.0
  0
LTYPE
  5
16
330
5
100
AcDbSymbolTableRecord
100
AcDbLinetypeTableRecord
  2
Continuous
 70
     0
  3
Solid line
 72
    65
 73
     0
 40
0.0
  0
LTYPE
  5
6A
330
5
100
AcDbSymbolTableRecord
100
AcDbLinetypeTableRecord
  2
HIDDEN
 70
     0
  3
Hidden __ __ __ __ __ __ __ __ __ __ __ __ __ __
 72
    65
 73
     2
 40
1.905
 49
1.27
 74
     0
 49
-0.635
 74
     0
  0
LTYPE
  5
6B
330
5
100
AcDbSymbolTableRecord
100
AcDbLinetypeTableRecord
  2
PHANTOM
 70
     0
  3
Phantom ______  __  __  ______  __  __  ______
 72
    65
 73
     6
 40
12.7
 49
6.35
 74
     0
 49
-1.27
 74
     0
 49
1.27
 74
     0
 49
-1.27
 74
     0
 49
1.27
 74
     0
 49
-1.27
 74
     0
  0
LTYPE
  5
6C
330
5
100
AcDbSymbolTableRecord
100
AcDbLinetypeTableRecord
  2
CENTER
 70
     0
  3
Center ____ _ ____ _ ____ _ ____ _ ____ _ ____
 72
    65
 73
     4
 40
10.16
 49
6.35
 74
     0
 49
-1.27
 74
     0
 49
1.27
 74
     0
 49
-1.27
 74
     0
  0
LTYPE
  5
6D
330
5
100
AcDbSymbolTableRecord
100
AcDbLinetypeTableRecord
  2
CENTERX2
 70
     0
  3
Center (2x) ________  __  ________  __  _____
 72
    65
 73
     4
 40
20.32
 49
12.7
 74
     0
 49
-2.54
 74
     0
 49
2.54
 74
     0
 49
-2.54
 74
     0
  0
LTYPE
  5
6E
330
5
100
AcDbSymbolTableRecord
100
AcDbLinetypeTableRecord
  2
DOT2
 70
     0
  3
Dot (.5x) ........................................
 72
    65
 73
     2
 40
0.635
 49
0.0
 74
     0
 49
-0.635
 74
     0
  0
ENDTAB
  0
TABLE
  2
LAYER
  5
2
102
{ACAD_XDICTIONARY
360
16D
102
}
330
0
100
AcDbSymbolTable
 70
    18
  0
LAYER
  5
10
330
2
100
AcDbSymbolTableRecord
100
AcDbLayerTableRecord
  2
0
 70
     0
 62
     7
  6
Continuous
370
    -3
390
F
  0
LAYER
  5
6F
330
2
100
AcDbSymbolTableRecord
100
AcDbLayerTableRecord
  2
FORMAT
 70
     0
 62
     2
  6
Continuous
370
    -3
390
F
  0
LAYER
  5
70
330
2
100
AcDbSymbolTableRecord
100
AcDbLayerTableRecord
  2
외형선
 70
     0
 62
     4
  6
Continuous
370
    30
390
F
  0
LAYER
  5
71
330
2
100
AcDbSymbolTableRecord
100
AcDbLayerTableRecord
  2
숨은선
 70
     0
 62
     2
  6
HIDDEN
370
    15
390
F
  0
LAYER
  5
72
330
2
100
AcDbSymbolTableRecord
100
AcDbLayerTableRecord
  2
중심선
 70
     0
 62
     1
  6
CENTERX2
370
    -3
390
F
  0
LAYER
  5
73
330
2
100
AcDbSymbolTableRecord
100
AcDbLayerTableRecord
  2
파단선
 70
     0
 62
     4
  6
Continuous
370
    -3
390
F
  0
LAYER
  5
74
330
2
100
AcDbSymbolTableRecord
100
AcDbLayerTableRecord
  2
해칭선
 70
     0
 62
   100
  6
Continuous
370
    -3
390
F
  0
LAYER
  5
75
330
2
100
AcDbSymbolTableRecord
100
AcDbLayerTableRecord
  2
가는실선
 70
     0
 62
     4
  6
Continuous
370
    -3
390
F
  0
LAYER
  5
76
330
2
100
AcDbSymbolTableRecord
100
AcDbLayerTableRecord
  2
치수_보조선
 70
     0
 62
     4
  6
Continuous
370
    -3
390
F
  0
LAYER
  5
77
330
2
100
AcDbSymbolTableRecord
100
AcDbLayerTableRecord
  2
치수문자_일반주서
 70
     0
 62
     7
  6
Continuous
370
    15
390
F
  0
LAYER
  5
78
330
2
100
AcDbSymbolTableRecord
100
AcDbLayerTableRecord
  2
개별주서
 70
     0
 62
   100
  6
Continuous
370
    30
390
F
  0
LAYER
  5
79
330
2
100
AcDbSymbolTableRecord
100
AcDbLayerTableRecord
  2
중간선
 70
     0
 62
     2
  6
Continuous
370
    15
390
F
  0
LAYER
  5
7A
330
2
100
AcDbSymbolTableRecord
100
AcDbLayerTableRecord
  2
윤곽선
 70
     0
 62
     3
  6
Continuous
370
    40
390
F
  0
LAYER
  5
7B
330
2
100
AcDbSymbolTableRecord
100
AcDbLayerTableRecord
  2
중심마크
 70
     0
 62
   100
  6
Continuous
370
    30
390
F
  0
LAYER
  5
7C
330
2
100
AcDbSymbolTableRecord
100
AcDbLayerTableRecord
  2
가상선
 70
     0
 62
     4
  6
PHANTOM
370
    -3
390
F
  0
LAYER
  5
7D
330
2
100
AcDbSymbolTableRecord
100
AcDbLayerTableRecord
  2
특수지정선
 70
     0
 62
     5
  6
CENTERX2
370
    60
390
F
  0
LAYER
  5
7E
330
2
100
AcDbSymbolTableRecord
100
AcDbLayerTableRecord
  2
참조1
 70
     0
 62
    -4
  6
Continuous
370
    -3
390
F
  0
LAYER
  5
174
330
2
100
AcDbSymbolTableRecord
100
AcDbLayerTableRecord
  2
Defpoints
 70
     0
 62
     7
  6
Continuous
290
     0
370
    -3
390
F
  0
ENDTAB
  0
TABLE
  2
STYLE
  5
3
330
0
100
AcDbSymbolTable
 70
     2
  0
STYLE
  5
11
330
3
100
AcDbSymbolTableRecord
100
AcDbTextStyleTableRecord
  2
Standard
 70
     0
 40
0.0
 41
1.0
 50
0.0
 71
     0
 42
3.5
  3
txt
  4

  0
STYLE
  5
94
330
3
100
AcDbSymbolTableRecord
100
AcDbTextStyleTableRecord
  2
SLDTEXTSTYLE0
 70
     0
 40
0.0
 41
0.75
 50
0.0
 71
     0
 42
3.5
  3
TXT
  4

  0
ENDTAB
  0
TABLE
  2
VIEW
  5
6
330
0
100
AcDbSymbolTable
 70
     0
  0
ENDTAB
  0
TABLE
  2
UCS
  5
7
330
0
100
AcDbSymbolTable
 70
     0
  0
ENDTAB
  0
TABLE
  2
APPID
  5
9
330
0
100
AcDbSymbolTable
 70
     1
  0
APPID
  5
12
330
9
100
AcDbSymbolTableRecord
100
AcDbRegAppTableRecord
  2
ACAD
 70
     0
  0
ENDTAB
  0
TABLE
  2
DIMSTYLE
  5
A
330
0
100
AcDbSymbolTable
 70
     4
100
AcDbDimStyleTable
  0
DIMSTYLE
105
27
330
A
100
AcDbSymbolTableRecord
100
AcDbDimStyleTableRecord
  2
ISO-25
 70
     0
 41
2.5
 42
0.625
 43
3.75
 44
1.25
 73
     0
 74
     0
 77
     1
 78
     8
140
2.5
141
2.5
143
0.03937007874016
147
0.625
171
     3
172
     1
178
     0
271
     2
272
     2
274
     3
278
    44
283
     0
284
     8
340
11
  0
DIMSTYLE
105
C5
330
A
100
AcDbSymbolTableRecord
100
AcDbDimStyleTableRecord
  2
SLDDIMSTYLE0
 70
     0
 41
3.302
 44
0.0
 45
0.000000001
 73
     0
 74
     0
 77
     1
 78
     4
 79
     1
140
3.5
143
0.0393700787401575
147
0.875
148
0.000000001
170
     1
173
     1
178
     0
271
     2
272
     2
276
     2
284
    12
340
94
  0
DIMSTYLE
105
EC
102
{ACAD_REACTORS
330
EB
330
C4
330
D8
330
100
102
}
330
A
100
AcDbSymbolTableRecord
100
AcDbDimStyleTableRecord
  2
SLDDIMSTYLE1
 70
     0
 41
3.302
 44
0.0
 45
0.000000001
 73
     0
 74
     0
 77
     1
 78
     4
 79
     1
140
3.5
143
0.0393700787401575
147
0.875
148
0.000000001
170
     1
172
     1
173
     1
178
     0
271
     2
272
     2
276
     2
284
    12
289
     0
340
94
  0
DIMSTYLE
105
101
330
A
100
AcDbSymbolTableRecord
100
AcDbDimStyleTableRecord
  2
SLDDIMSTYLE2
 70
     0
 41
3.302
 44
0.0
 45
0.000000001
 73
     0
 74
     0
 77
     1
 78
    12
 79
     3
140
3.5
143
0.0393700787401575
147
0.875
148
0.000000001
170
     1
172
     1
173
     1
178
     0
271
     2
272
     2
276
     2
284
    12
289
     0
340
94
  0
ENDTAB
  0
TABLE
  2
BLOCK_RECORD
  5
1
330
0
100
AcDbSymbolTable
 70
     7
  0
BLOCK_RECORD
  5
1F
330
1
100
AcDbSymbolTableRecord
100
AcDbBlockTableRecord
  2
*Model_Space
340
22
  0
BLOCK_RECORD
  5
1B
330
1
100
AcDbSymbolTableRecord
100
AcDbBlockTableRecord
  2
*Paper_Space
340
1E
  0
BLOCK_RECORD
  5
23
330
1
100
AcDbSymbolTableRecord
100
AcDbBlockTableRecord
  2
*Paper_Space0
340
26
  0
BLOCK_RECORD
  5
7F
330
1
100
AcDbSymbolTableRecord
100
AcDbBlockTableRecord
  2
블럭10
340
0
102
{BLKREFS
331
BD
102
}
  0
BLOCK_RECORD
  5
C6
330
1
100
AcDbSymbolTableRecord
100
AcDbBlockTableRecord
  2
_D
340
0
  0
BLOCK_RECORD
  5
D9
330
1
100
AcDbSymbolTableRecord
100
AcDbBlockTableRecord
  2
_D_1
340
0
  0
BLOCK_RECORD
  5
ED
330
1
100
AcDbSymbolTableRecord
100
AcDbBlockTableRecord
  2
_D_2
340
0
  0
BLOCK_RECORD
  5
102
330
1
100
AcDbSymbolTableRecord
100
AcDbBlockTableRecord
  2
_D_3
340
0
  0
BLOCK_RECORD
  5
11C
330
1
100
AcDbSymbolTableRecord
100
AcDbBlockTableRecord
  2
SW_DOWELSYMBOL_0
340
0
102
{BLKREFS
331
122
102
}
  0
ENDTAB
  0
ENDSEC
  0
SECTION
  2
BLOCKS
  0
BLOCK
  5
20
330
1F
100
AcDbEntity
  8
0
100
AcDbBlockBegin
  2
*Model_Space
 70
     0
 10
0.0
 20
0.0
 30
0.0
  3
*Model_Space
  1
*Model_Space
  0
ENDBLK
  5
21
330
1F
100
AcDbEntity
  8
0
100
AcDbBlockEnd
  0
BLOCK
  5
1C
330
1B
100
AcDbEntity
 67
     1
  8
0
100
AcDbBlockBegin
  2
*Paper_Space
 70
     0
 10
0.0
 20
0.0
 30
0.0
  3
*Paper_Space
  1
*Paper_Space
  0
ENDBLK
  5
1D
330
1B
100
AcDbEntity
 67
     1
  8
0
100
AcDbBlockEnd
  0
BLOCK
  5
24
330
23
100
AcDbEntity
  8
0
100
AcDbBlockBegin
  2
*Paper_Space0
 70
     0
 10
0.0
 20
0.0
 30
0.0
  3
*Paper_Space0
  1
*Paper_Space0
  0
ENDBLK
  5
25
330
23
100
AcDbEntity
  8
0
100
AcDbBlockEnd
  0
BLOCK
  5
80
330
7F
100
AcDbEntity
  8
0
100
AcDbBlockBegin
  2
블럭10
 70
     2
 10
0.0
 20
0.0
 30
0.0
  3
블럭10
  1
블럭10
  0
ELLIPSE
  5
82
330
7F
100
AcDbEntity
  8
중심선
100
AcDbEllipse
 10
20.54032771741204
 20
12.0471743016438
 30
0.0
 11
6.600054785286829
 21
-1.261213355974178E-13
 31
0.0
210
0.0
220
0.0
230
1.0
 40
0.636358354079598
 41
0.9219305317359503
 42
6.513795318482858
  0
ELLIPSE
  5
83
330
7F
100
AcDbEntity
  8
중심선
100
AcDbEllipse
 10
20.54032771746488
 20
12.04717430159265
 30
0.0
 11
3.960054785062283
 21
1.540847449632565E-10
 31
0.0
210
0.0
220
0.0
230
1.0
 40
0.3939339440162632
 41
1.131841032648279
 42
5.62031148352944
  0
LINE
  5
84
330
7F
100
AcDbEntity
  8
중심선
100
AcDbLine
 10
2.268634060543552
 20
16.24717430164393
 30
0.0
 11
5.714909304380834
 21
16.24717430164393
 31
0.0
  0
LINE
  5
85
330
7F
100
AcDbEntity
  8
중심선
100
AcDbLine
 10
5.245725140726316
 20
7.84717430164391
 30
0.0
 11
8.692000384563599
 21
7.84717430164391
 31
0.0
  0
LINE
  5
86
330
7F
100
AcDbEntity
  8
중심선
100
AcDbLine
 10
15.74043728645272
 20
16.24717430164393
 30
0.0
 11
8.692000384563599
 21
7.84717430164391
 31
0.0
  0
LINE
  5
87
330
7F
100
AcDbEntity
  8
중심선
100
AcDbLine
 10
0.1404042013395286
 20
13.71084872107135
 30
0.0
 11
3.58671253028996
 21
13.71088815037384
 31
0.0
  0
LINE
  5
88
330
7F
100
AcDbEntity
  8
중심선
100
AcDbLine
 10
2.750260043222114
 20
10.84717430164391
 30
0.0
 11
6.196535287059397
 21
10.84717430164391
 31
0.0
  0
LINE
  5
89
330
7F
100
AcDbEntity
  8
중심선
100
AcDbLine
 10
12.29416204261559
 20
16.24717430164393
 30
0.0
 11
5.245725140726316
 21
7.84717430164391
 31
0.0
  0
LINE
  5
8A
330
7F
100
AcDbEntity
  8
중심선
100
AcDbLine
 10
10.72767329541681
 20
16.24717430164393
 30
0.0
 11
6.196535287059397
 21
10.84717430164391
 31
0.0
  0
LINE
  5
8B
330
7F
100
AcDbEntity
  8
중심선
100
AcDbLine
 10
7.28139805157953
 20
16.24717430164393
 30
0.0
 11
2.750260043222114
 21
10.84717430164391
 31
0.0
  0
LINE
  5
8C
330
7F
100
AcDbEntity
  8
중심선
100
AcDbLine
 10
5.714909304380834
 20
16.24717430164393
 30
0.0
 11
3.58671253028996
 21
13.71088815037384
 31
0.0
  0
LINE
  5
8D
330
7F
100
AcDbEntity
  8
중심선
100
AcDbLine
 10
2.268634060543552
 20
16.24717430164393
 30
0.0
 11
0.1404042013395286
 21
13.71084872107135
 31
0.0
  0
LINE
  5
8E
330
7F
100
AcDbEntity
  8
중심선
100
AcDbLine
 10
7.28139805157953
 20
16.24717430164393
 30
0.0
 11
10.72767329541681
 21
16.24717430164393
 31
0.0
  0
LINE
  5
8F
330
7F
100
AcDbEntity
  8
중심선
100
AcDbLine
 10
12.29416204261559
 20
16.24717430164393
 30
0.0
 11
15.74043728645272
 21
16.24717430164393
 31
0.0
  0
LINE
  5
90
330
7F
100
AcDbEntity
  8
중심선
100
AcDbLine
 10
19.22036997980202
 20
11.08717430171403
 30
0.0
 11
23.66174974927406
 21
11.08717430171406
 31
0.0
  0
LINE
  5
91
330
7F
100
AcDbEntity
  8
중심선
100
AcDbLine
 10
19.22039502424796
 20
13.00717430171391
 30
0.0
 11
19.22036997980202
 21
11.08717430171403
 31
0.0
  0
LINE
  5
92
330
7F
100
AcDbEntity
  8
중심선
100
AcDbLine
 10
19.22039502424796
 20
13.00717430171391
 30
0.0
 11
26.96566020931264
 21
13.00717430171391
 31
0.0
  0
LINE
  5
93
330
7F
100
AcDbEntity
  8
중심선
100
AcDbLine
 10
22.22332737316547
 20
13.45928029700563
 30
0.0
 11
24.52862924686651
 21
15.39360700705356
 31
0.0
  0
ATTDEF
  5
95
330
7F
100
AcDbEntity
  8
FORMAT
 62
     2
100
AcDbText
 10
3.448148490846466
 20
2.075366912832191
 30
0.0
 40
4.233333333333333
  1
EM210906
 41
0.75
  7
SLDTEXTSTYLE0
 11
3.448148490846466
 21
-0.0412997538344756
 31
0.0
100
AcDbAttributeDefinition
  3

  2
AUTOATTR0
 70
     0
 74
     1
  0
ENDBLK
  5
81
330
7F
100
AcDbEntity
  8
0
100
AcDbBlockEnd
  0
BLOCK
  5
C7
330
C6
100
AcDbEntity
  8
0
100
AcDbBlockBegin
  2
_D
 70
     0
 10
0.0
 20
0.0
 30
0.0
  3
_D
  1
_D
  0
LINE
  5
C9
330
C6
100
AcDbEntity
  8
치수문자_일반주서
 62
     0
370
    -2
100
AcDbLine
 10
62.79999988351584
 20
6.412892333264814
 30
0.0
 11
62.79999988351584
 21
38.39742837025054
 31
0.0
  0
LINE
  5
CA
330
C6
100
AcDbEntity
  8
치수문자_일반주서
 62
     0
370
    -2
100
AcDbLine
 10
11.99999988351587
 20
6.412892333264802
 30
0.0
 11
11.99999988351587
 21
38.39742837025054
 31
0.0
  0
LINE
  5
CB
330
C6
100
AcDbEntity
  8
치수문자_일반주서
 62
     0
370
    -2
100
AcDbLine
 10
59.49799988351584
 20
38.39742837025054
 30
0.0
 11
15.30199988351587
 21
38.39742837025054
 31
0.0
  0
SOLID
  5
CC
330
C6
100
AcDbEntity
  8
치수문자_일반주서
 62
     0
100
AcDbTrace
 10
59.49799988351584
 20
37.8470950369172
 30
0.0
 11
59.49799988351584
 21
38.94776170358387
 31
0.0
 12
62.79999988351584
 22
38.39742837025054
 32
0.0
 13
62.79999988351584
 23
38.39742837025054
 33
0.0
  0
SOLID
  5
CD
330
C6
100
AcDbEntity
  8
치수문자_일반주서
 62
     0
100
AcDbTrace
 10
15.30199988351587
 20
38.94776170358387
 30
0.0
 11
15.30199988351587
 21
37.8470950369172
 31
0.0
 12
11.99999988351587
 22
38.39742837025054
 32
0.0
 13
11.99999988351587
 23
38.39742837025054
 33
0.0
  0
MTEXT
  5
CE
330
C6
100
AcDbEntity
  8
치수문자_일반주서
 62
     0
100
AcDbMText
 10
37.39999988351585
 20
42.77242837025054
 30
0.0
 40
3.5
 41
0.0
 71
     2
 72
     1
  1
\A1;50.80 [2]
  7
SLDTEXTSTYLE0
 73
     1
 44
1.0
  0
POINT
  5
CF
330
C6
100
AcDbEntity
  8
Defpoints
 62
     0
100
AcDbPoint
 10
62.79999988351584
 20
6.350392333264814
 30
0.0
  0
POINT
  5
D0
330
C6
100
AcDbEntity
  8
Defpoints
 62
     0
100
AcDbPoint
 10
11.99999988351587
 20
6.350392333264802
 30
0.0
  0
POINT
  5
D1
330
C6
100
AcDbEntity
  8
Defpoints
 62
     0
100
AcDbPoint
 10
11.99999988351587
 20
38.39742837025054
 30
0.0
  0
ENDBLK
  5
C8
330
C6
100
AcDbEntity
  8
0
100
AcDbBlockEnd
  0
BLOCK
  5
DA
330
D9
100
AcDbEntity
  8
0
100
AcDbBlockBegin
  2
_D_1
 70
     0
 10
0.0
 20
0.0
 30
0.0
  3
_D_1
  1
_D_1
  0
LINE
  5
DC
330
D9
100
AcDbEntity
  8
치수문자_일반주서
 62
     0
370
    -2
100
AcDbLine
 10
62.79999988351584
 20
6.412892333264814
 30
0.0
 11
62.79999988351584
 21
53.97568648438818
 31
0.0
  0
LINE
  5
DD
330
D9
100
AcDbEntity
  8
치수문자_일반주서
 62
     0
370
    -2
100
AcDbLine
 10
-38.80000011648414
 20
5.142892333264808
 30
0.0
 11
-38.80000011648414
 21
53.97568648438818
 31
0.0
  0
LINE
  5
DE
330
D9
100
AcDbEntity
  8
치수문자_일반주서
 62
     0
370
    -2
100
AcDbLine
 10
59.49799988351584
 20
53.97568648438818
 30
0.0
 11
-35.49800011648414
 21
53.97568648438818
 31
0.0
  0
SOLID
  5
DF
330
D9
100
AcDbEntity
  8
치수문자_일반주서
 62
     0
100
AcDbTrace
 10
59.49799988351584
 20
53.42535315105484
 30
0.0
 11
59.49799988351584
 21
54.52601981772151
 31
0.0
 12
62.79999988351584
 22
53.97568648438818
 32
0.0
 13
62.79999988351584
 23
53.97568648438818
 33
0.0
  0
SOLID
  5
E0
330
D9
100
AcDbEntity
  8
치수문자_일반주서
 62
     0
100
AcDbTrace
 10
-35.49800011648414
 20
54.52601981772151
 30
0.0
 11
-35.49800011648414
 21
53.42535315105484
 31
0.0
 12
-38.80000011648414
 22
53.97568648438818
 32
0.0
 13
-38.80000011648414
 23
53.97568648438818
 33
0.0
  0
MTEXT
  5
E1
330
D9
100
AcDbEntity
  8
치수문자_일반주서
 62
     0
100
AcDbMText
 10
5.470900853612306
 20
58.35068648438818
 30
0.0
 40
3.5
 41
0.0
 71
     2
 72
     1
  1
\A1;101.60 [4]
  7
SLDTEXTSTYLE0
 73
     1
 44
1.0
  0
POINT
  5
E2
330
D9
100
AcDbEntity
  8
Defpoints
 62
     0
100
AcDbPoint
 10
62.79999988351584
 20
6.350392333264814
 30
0.0
  0
POINT
  5
E3
330
D9
100
AcDbEntity
  8
Defpoints
 62
     0
100
AcDbPoint
 10
-38.80000011648414
 20
5.080392333264808
 30
0.0
  0
POINT
  5
E4
330
D9
100
AcDbEntity
  8
Defpoints
 62
     0
100
AcDbPoint
 10
-38.80000011648414
 20
53.97568648438818
 30
0.0
  0
ENDBLK
  5
DB
330
D9
100
AcDbEntity
  8
0
100
AcDbBlockEnd
  0
BLOCK
  5
EE
330
ED
100
AcDbEntity
  8
0
100
AcDbBlockBegin
  2
_D_2
 70
     0
 10
0.0
 20
0.0
 30
0.0
  3
_D_2
  1
_D_2
  0
LINE
  5
F0
330
ED
100
AcDbEntity
  8
치수문자_일반주서
 62
     0
370
    -2
100
AcDbLine
 10
-37.59250011648415
 20
5.556642333264809
 30
0.0
 11
-50.84750011648419
 21
5.556642333264758
 31
0.0
  0
LINE
  5
F1
330
ED
100
AcDbEntity
  8
치수문자_일반주서
 62
     0
370
    -2
100
AcDbLine
 10
-37.59250011648415
 20
-5.555857666735193
 30
0.0
 11
-50.84750011648416
 21
-5.555857666735244
 31
0.0
  0
LINE
  5
F2
330
ED
100
AcDbEntity
  8
치수문자_일반주서
 62
     0
370
    -2
100
AcDbLine
 10
-50.84750011648418
 20
2.254642333264758
 30
0.0
 11
-50.84750011648416
 21
-2.253857666735243
 31
0.0
  0
SOLID
  5
F3
330
ED
100
AcDbEntity
  8
치수문자_일반주서
 62
     0
100
AcDbTrace
 10
-50.29716678315085
 20
2.25464233326476
 30
0.0
 11
-51.39783344981752
 21
2.254642333264756
 31
0.0
 12
-50.84750011648419
 22
5.556642333264758
 32
0.0
 13
-50.84750011648419
 23
5.556642333264758
 33
0.0
  0
SOLID
  5
F4
330
ED
100
AcDbEntity
  8
치수문자_일반주서
 62
     0
100
AcDbTrace
 10
-51.3978334498175
 20
-2.253857666735245
 30
0.0
 11
-50.29716678315083
 21
-2.253857666735242
 31
0.0
 12
-50.84750011648416
 22
-5.555857666735244
 32
0.0
 13
-50.84750011648416
 23
-5.555857666735244
 33
0.0
  0
MTEXT
  5
F5
330
ED
100
AcDbEntity
  8
치수문자_일반주서
 62
     0
100
AcDbMText
 10
-55.22250011648418
 20
0.0003923332647867
 30
0.0
 40
3.5
 41
0.0
 71
     2
 72
     1
  1
\A1;%%c11.11 [7/16]
  7
SLDTEXTSTYLE0
 11
-3.197042680585377E-15
 21
1.0
 31
0.0
 73
     1
 44
1.0
  0
POINT
  5
F6
330
ED
100
AcDbEntity
  8
Defpoints
 62
     0
100
AcDbPoint
 10
-37.53000011648415
 20
5.556642333264809
 30
0.0
  0
POINT
  5
F7
330
ED
100
AcDbEntity
  8
Defpoints
 62
     0
100
AcDbPoint
 10
-37.53000011648415
 20
-5.555857666735193
 30
0.0
  0
POINT
  5
F8
330
ED
100
AcDbEntity
  8
Defpoints
 62
     0
100
AcDbPoint
 10
-50.84750011648416
 20
-5.555857666735243
 30
0.0
  0
ENDBLK
  5
EF
330
ED
100
AcDbEntity
  8
0
100
AcDbBlockEnd
  0
BLOCK
  5
103
330
102
100
AcDbEntity
  8
0
100
AcDbBlockBegin
  2
_D_3
 70
     0
 10
0.0
 20
0.0
 30
0.0
  3
_D_3
  1
_D_3
  0
LINE
  5
105
330
102
100
AcDbEntity
  8
치수문자_일반주서
 62
     0
370
    -2
100
AcDbLine
 10
62.86249988351585
 20
5.556642333264808
 30
0.0
 11
80.56044120991149
 21
5.556642333264872
 31
0.0
  0
LINE
  5
106
330
102
100
AcDbEntity
  8
치수문자_일반주서
 62
     0
370
    -2
100
AcDbLine
 10
62.86249988351585
 20
-5.555857666735193
 30
0.0
 11
80.56044120991153
 21
-5.555857666735125
 31
0.0
  0
LINE
  5
107
330
102
100
AcDbEntity
  8
치수문자_일반주서
 62
     0
370
    -2
100
AcDbLine
 10
80.56044120991149
 20
5.556642333264872
 30
0.0
 11
80.56044120991133
 21
44.62642837025047
 31
0.0
  0
LINE
  5
108
330
102
100
AcDbEntity
  8
치수문자_일반주서
 62
     0
370
    -2
100
AcDbLine
 10
80.56044120991149
 20
5.556642333264872
 30
0.0
 11
80.56044120991153
 21
-5.555857666735125
 31
0.0
  0
LINE
  5
109
330
102
100
AcDbEntity
  8
치수문자_일반주서
 62
     0
370
    -2
100
AcDbLine
 10
80.56044120991147
 20
8.858642333264871
 30
0.0
 11
80.56044120991146
 21
12.16064233326487
 31
0.0
  0
LINE
  5
10A
330
102
100
AcDbEntity
  8
치수문자_일반주서
 62
     0
370
    -2
100
AcDbLine
 10
80.56044120991155
 20
-8.857857666735125
 30
0.0
 11
80.56044120991156
 21
-12.15985766673512
 31
0.0
  0
SOLID
  5
10B
330
102
100
AcDbEntity
  8
치수문자_일반주서
 62
     0
100
AcDbTrace
 10
80.01010787657815
 20
8.85864233326487
 30
0.0
 11
81.1107745432448
 21
8.858642333264873
 31
0.0
 12
80.56044120991149
 22
5.556642333264872
 32
0.0
 13
80.56044120991149
 23
5.556642333264872
 33
0.0
  0
SOLID
  5
10C
330
102
100
AcDbEntity
  8
치수문자_일반주서
 62
     0
100
AcDbTrace
 10
81.11077454324487
 20
-8.857857666735123
 30
0.0
 11
80.01010787657822
 21
-8.857857666735127
 31
0.0
 12
80.56044120991153
 22
-5.555857666735125
 32
0.0
 13
80.56044120991153
 23
-5.555857666735125
 33
0.0
  0
MTEXT
  5
10D
330
102
100
AcDbEntity
  8
치수문자_일반주서
 62
     0
100
AcDbMText
 10
76.18544120991139
 20
31.06392837025045
 30
0.0
 40
3.5
 41
0.0
 71
     2
 72
     1
  1
\A1;%%c11.11 [7/16]
  7
SLDTEXTSTYLE0
 11
-3.836451216702453E-15
 21
1.0
 31
0.0
 73
     1
 44
1.0
  0
POINT
  5
10E
330
102
100
AcDbEntity
  8
Defpoints
 62
     0
100
AcDbPoint
 10
62.79999988351585
 20
5.556642333264808
 30
0.0
  0
POINT
  5
10F
330
102
100
AcDbEntity
  8
Defpoints
 62
     0
100
AcDbPoint
 10
62.79999988351585
 20
-5.555857666735193
 30
0.0
  0
POINT
  5
110
330
102
100
AcDbEntity
  8
Defpoints
 62
     0
100
AcDbPoint
 10
80.56044120991153
 20
-5.555857666735126
 30
0.0
  0
ENDBLK
  5
104
330
102
100
AcDbEntity
  8
0
100
AcDbBlockEnd
  0
BLOCK
  5
11D
330
11C
100
AcDbEntity
  8
0
100
AcDbBlockBegin
  2
SW_DOWELSYMBOL_0
 70
     0
 10
0.0
 20
0.0
 30
0.0
  3
SW_DOWELSYMBOL_0
  1
SW_DOWELSYMBOL_0
  0
CIRCLE
  5
11F
330
11C
100
AcDbEntity
  8
해칭선
 62
     0
100
AcDbCircle
 10
0.0
 20
0.0
 30
0.0
 40
3.000000000000001
  0
HATCH
  5
120
330
11C
100
AcDbEntity
  8
0
  6
Continuous
 62
     0
370
     0
100
AcDbHatch
 10
0.0
 20
0.0
 30
0.0
210
0.0
220
0.0
230
1.0
  2
SOLID
 70
     1
 71
     0
 91
        1
 92
        0
 93
        3
 72
     2
 10
0.0
 20
0.0
 40
3.000000000000001
 50
0.0
 51
90.0
 73
     1
 72
     1
 10
0.0
 20
3.000000000000001
 11
0.0
 21
0.0
 72
     1
 10
0.0
 20
0.0
 11
3.000000000000001
 21
0.0
 97
        0
 75
     0
 76
     1
 98
        1
 10
0.0
 20
0.0
  0
HATCH
  5
121
330
11C
100
AcDbEntity
  8
0
  6
Continuous
 62
     0
370
     0
100
AcDbHatch
 10
0.0
 20
0.0
 30
0.0
210
0.0
220
0.0
230
1.0
  2
SOLID
 70
     1
 71
     0
 91
        1
 92
        0
 93
        3
 72
     2
 10
0.0
 20
0.0
 40
3.000000000000001
 50
180.0
 51
270.0000000000007
 73
     1
 72
     1
 10
0.0
 20
-3.000000000000001
 11
0.0
 21
0.0
 72
     1
 10
0.0
 20
0.0
 11
-3.000000000000001
 21
0.0
 97
        0
 75
     0
 76
     1
 98
        1
 10
0.0
 20
0.0
  0
ENDBLK
  5
11E
330
11C
100
AcDbEntity
  8
0
100
AcDbBlockEnd
  0
ENDSEC
  0
SECTION
  2
ENTITIES
  0
LINE
  5
96
330
1F
100
AcDbEntity
  8
0
  6
Continuous
 62
     1
370
    15
100
AcDbLine
 10
34.2921597746414
 20
-5.555857666735199
 30
0.0
 11
37.67944496828721
 21
-5.555857666735199
 31
0.0
  0
LINE
  5
97
330
1F
100
AcDbEntity
  8
0
  6
Continuous
 62
     1
370
    15
100
AcDbLine
 10
49.4103671761199
 20
-5.555857666735199
 30
0.0
 11
52.79738567200224
 21
-5.555857666735199
 31
0.0
  0
LINE
  5
98
330
1F
100
AcDbEntity
  8
0
  6
Continuous
 62
     1
370
    15
100
AcDbLine
 10
22.56354558611098
 20
5.556642333264814
 30
0.0
 11
19.17563575002343
 21
5.556642333264814
 31
0.0
  0
LINE
  5
99
330
1F
100
AcDbEntity
  8
0
  6
Continuous
 62
     1
370
    15
100
AcDbLine
 10
37.67944496828721
 20
5.556642333264814
 30
0.0
 11
34.29215977464134
 21
5.556642333264814
 31
0.0
  0
ARC
  5
9A
330
1F
100
AcDbEntity
  8
0
  6
Continuous
 62
     1
370
    15
100
AcDbCircle
 10
57.24374988351583
 20
0.0003923332648046
 30
0.0
 40
5.556250000000021
100
AcDbArc
 50
333.0201212710234
 51
0.0
  0
ARC
  5
9B
330
1F
100
AcDbEntity
  8
0
  6
Continuous
 62
     1
370
    15
100
AcDbCircle
 10
57.24374988351583
 20
0.0003923332648046
 30
0.0
 40
5.556250000000021
100
AcDbArc
 50
0.0
 51
26.97655706957631
  0
LINE
  5
9C
330
1F
100
AcDbEntity
  8
0
  6
Continuous
 62
     1
370
    15
100
AcDbLine
 10
19.17563575002343
 20
-5.555857666735199
 30
0.0
 11
22.56354558611108
 21
-5.555857666735199
 31
0.0
  0
LINE
  5
9D
330
1F
100
AcDbEntity
  8
0
  6
Continuous
 62
     1
370
    15
100
AcDbLine
 10
52.79738567200231
 20
5.556642333264814
 30
0.0
 11
49.41036717611985
 21
5.556642333264814
 31
0.0
  0
LINE
  5
9E
330
1F
100
AcDbEntity
  8
외형선
  6
Continuous
370
    15
100
AcDbLine
 10
-37.53000011648415
 20
-5.555857666735193
 30
0.0
 11
11.99999988351585
 21
-5.555857666735193
 31
0.0
  0
LINE
  5
9F
330
1F
100
AcDbEntity
  8
외형선
  6
Continuous
370
    15
100
AcDbLine
 10
11.99999988351585
 20
5.556642333264808
 30
0.0
 11
-37.53000011648415
 21
5.556642333264808
 31
0.0
  0
LINE
  5
A0
330
1F
100
AcDbEntity
  8
외형선
  6
Continuous
370
    15
100
AcDbLine
 10
-37.53000011648415
 20
5.556642333264809
 30
0.0
 11
-38.80000011648416
 21
4.286642333264812
 31
0.0
  0
LINE
  5
A1
330
1F
100
AcDbEntity
  8
외형선
  6
Continuous
370
    15
100
AcDbLine
 10
-38.80000011648416
 20
-4.285857666735196
 30
0.0
 11
-37.53000011648415
 21
-5.555857666735193
 31
0.0
  0
SPLINE
  5
A2
330
1F
100
AcDbEntity
  8
0
  6
Continuous
 62
     1
370
    15
100
AcDbSpline
210
0.0
220
0.0
230
1.0
 70
     8
 71
     3
 72
    23
 73
    19
 74
     0
 42
0.000000001
 43
0.00000001
 40
0.0
 40
0.0
 40
0.0
 40
0.0
 40
0.035892435383179
 40
0.1001541426379318
 40
0.1644175670477152
 40
0.2286847615419381
 40
0.2929577738666325
 40
0.3572386437787279
 40
0.4215294002636636
 40
0.4858264026100408
 40
0.5501135503313996
 40
0.614391504017515
 40
0.6786622966490062
 40
0.7429279710295252
 40
0.8071905769944706
 40
0.871458665967912
 40
0.9357277913078709
 40
1.0
 40
1.0
 40
1.0
 40
1.0
 10
28.42846326687638
 20
4.535732748307738
 30
0.0
 10
28.773202808685
 20
4.652719168407275
 30
0.0
 10
29.73516297869386
 20
4.979157719602405
 30
0.0
 10
31.31435535082861
 20
5.320537442235878
 30
0.0
 10
33.16609203785247
 20
5.554166588534594
 30
0.0
 10
35.0179586200663
 20
5.574778437422883
 30
0.0
 10
36.87002654119453
 20
5.391704166442548
 30
0.0
 10
38.72236550889369
 20
5.00896622178556
 30
0.0
 10
40.57499372788086
 20
4.441403797111894
 30
0.0
 10
42.42774360625449
 20
3.709850066373571
 30
0.0
 10
44.28028176249239
 20
2.841261091065354
 30
0.0
 10
46.13252172132358
 20
1.8678288781092
 30
0.0
 10
47.98451240664231
 20
0.8254321244258779
 30
0.0
 10
49.83632670834087
 20
-0.2471861020277122
 30
0.0
 10
51.68809695851343
 20
-1.311448221496671
 30
0.0
 10
53.53989551979608
 20
-2.324433117182012
 30
0.0
 10
55.39179005363739
 20
-3.26232437739907
 30
0.0
 10
56.62642006843311
 20
-3.780600949172037
 30
0.0
 10
57.24374988351583
 20
-4.039745451071464
 30
0.0
  0
SPLINE
  5
A3
330
1F
100
AcDbEntity
  8
0
  6
Continuous
 62
     1
370
    15
100
AcDbSpline
210
0.0
220
0.0
230
1.0
 70
     8
 71
     3
 72
    16
 73
    12
 74
     0
 42
0.000000001
 43
0.00000001
 40
0.0
 40
0.0
 40
0.0
 40
0.0
 40
0.1279982539963761
 40
0.2597411090603644
 40
0.3864763218640063
 40
0.5171264364287427
 40
0.6408266443639684
 40
0.7675944589748791
 40
0.8702945446784234
 40
0.9753099666306065
 40
1.0
 40
1.0
 40
1.0
 40
1.0
 10
57.24374988351583
 20
-4.039745451071476
 30
0.0
 10
57.49991635192737
 20
-4.128964286894746
 30
0.0
 10
58.01974346309386
 20
-4.310012064050103
 30
0.0
 10
58.80107514886893
 20
-4.406178447681935
 30
0.0
 10
59.57285070255008
 20
-4.357743369296633
 30
0.0
 10
60.29193986641707
 20
-4.160589777320957
 30
0.0
 10
60.9461154514959
 20
-3.836579359603533
 30
0.0
 10
61.47414351721166
 20
-3.440912272444363
 30
0.0
 10
61.87686094941282
 20
-3.017870125415869
 30
0.0
 10
62.10243672474602
 20
-2.707174722961462
 30
0.0
 10
62.17731270294968
 20
-2.54873190634631
 30
0.0
 10
62.19156569173747
 20
-2.518571583330829
 30
0.0
  0
SPLINE
  5
A4
330
1F
100
AcDbEntity
  8
0
  6
Continuous
 62
     1
370
    15
100
AcDbSpline
210
0.0
220
0.0
230
1.0
 70
     8
 71
     3
 72
    10
 73
     6
 74
     0
 42
0.000000001
 43
0.00000001
 40
0.0
 40
0.0
 40
0.0
 40
0.0
 40
0.1594058414660592
 40
0.5763142632417173
 40
1.0
 40
1.0
 40
1.0
 40
1.0
 10
58.66282188042074
 20
-4.363428609412316
 30
0.0
 10
58.58977207431546
 20
-4.408857065421382
 30
0.0
 10
58.32566854587305
 20
-4.573098644740472
 30
0.0
 10
57.85274321447913
 20
-4.787459165257338
 30
0.0
 10
57.44783585298421
 20
-4.91087379050866
 30
0.0
 10
57.24374988351584
 20
-4.973078620146723
 30
0.0
  0
SPLINE
  5
A5
330
1F
100
AcDbEntity
  8
0
  6
Continuous
 62
     1
370
    15
100
AcDbSpline
210
0.0
220
0.0
230
1.0
 70
     8
 71
     3
 72
    26
 73
    22
 74
     0
 42
0.000000001
 43
0.00000001
 40
0.0
 40
0.0
 40
0.0
 40
0.0
 40
0.0534027438994904
 40
0.1068029258912812
 40
0.1602022467828112
 40
0.2135970119308166
 40
0.2669943265759435
 40
0.3203958938934379
 40
0.3738034112159803
 40
0.4272185677144503
 40
0.4806419122622627
 40
0.5340600672243139
 40
0.5874700075920943
 40
0.6408734192169506
 40
0.6942719969000923
 40
0.7476674420807429
 40
0.8010614605049124
 40
0.8544557598815717
 40
0.9078520475330853
 40
0.9612520280467718
 40
1.0
 40
1.0
 40
1.0
 40
1.0
 10
57.24374988351583
 20
-4.973078620146727
 30
0.0
 10
56.62642006843311
 20
-5.114216459865957
 30
0.0
 10
55.39179005363741
 20
-5.396485368451607
 30
0.0
 10
53.53989551979611
 20
-5.571404168994072
 30
0.0
 10
51.6880969585133
 20
-5.553760608108063
 30
0.0
 10
49.8363267083414
 20
-5.327515206979569
 30
0.0
 10
47.98451240664044
 20
-4.905513014603827
 30
0.0
 10
46.13252172133053
 20
-4.302106181800843
 30
0.0
 10
44.28028176246642
 20
-3.539872522094145
 30
0.0
 10
42.42774360635158
 20
-2.646832453998133
 30
0.0
 10
40.57499372751852
 20
-1.656112541018722
 30
0.0
 10
38.72236551024567
 20
-0.6041540362827494
 30
0.0
 10
36.8700265361502
 20
0.4700964101388678
 30
0.0
 10
35.01795863888903
 20
1.526958873098276
 30
0.0
 10
33.16609196761355
 20
2.527382713445563
 30
0.0
 10
31.31435561294453
 20
3.434624054694307
 30
0.0
 10
29.46267851511522
 20
4.214555772366287
 30
0.0
 10
27.61099014633484
 20
4.840819238808404
 30
0.0
 10
25.75921748710568
 20
5.281251187126829
 30
0.0
 10
24.07673564537683
 20
5.528452657013845
 30
0.0
 10
23.01148196179323
 20
5.533891108977902
 30
0.0
 10
22.56354558611098
 20
5.536177963742775
 30
0.0
  0
SPLINE
  5
A6
330
1F
100
AcDbEntity
  8
0
  6
Continuous
 62
     1
370
    15
100
AcDbSpline
210
0.0
220
0.0
230
1.0
 70
     8
 71
     3
 72
    16
 73
    12
 74
     0
 42
0.000000001
 43
0.00000001
 40
0.0
 40
0.0
 40
0.0
 40
0.0
 40
0.1162112857110918
 40
0.2324035001330792
 40
0.348580303132063
 40
0.4647453756863455
 40
0.5809024148743591
 40
0.6970551288156136
 40
0.8132072315793702
 40
0.9293624380759112
 40
1.0
 40
1.0
 40
1.0
 40
1.0
 10
18.34999988351584
 20
0.4764593300671108
 30
0.0
 10
18.96760143496084
 20
0.1195976114340914
 30
0.0
 10
20.20270318403085
 20
-0.594067261700549
 30
0.0
 10
22.05514316576788
 20
-1.647394717937185
 30
0.0
 10
23.90729364461658
 20
-2.638503448632767
 30
0.0
 10
25.75921838703275
 20
-3.532647934900297
 30
0.0
 10
27.61098995637081
 20
-4.295598390409805
 30
0.0
 10
29.46267837511438
 20
-4.902334587295536
 30
0.0
 10
31.31435636291364
 20
-5.319191794556992
 30
0.0
 10
32.92417647991604
 20
-5.539635340981706
 30
0.0
 10
33.91679217688055
 20
-5.533630604208282
 30
0.0
 10
34.29215977464142
 20
-5.531359852673
 30
0.0
  0
LWPOLYLINE
  5
A7
330
1F
100
AcDbEntity
  8
0
  6
Continuous
 62
     1
370
    15
100
AcDbPolyline
 90
       25
 70
   128
 43
0.0
 10
58.66282188042079
 20
4.364213275941915
 10
58.80862487876644
 20
4.383143002600308
 10
59.55907063968804
 20
4.3344983467832
 10
60.29361270929815
 20
4.13544404032265
 10
60.92732742180254
 20
3.823466040633859
 10
61.4897399466814
 20
3.404618509853184
 10
61.86222250206848
 20
3.017921851058864
 10
62.14695810180336
 20
2.610379154504919
 10
62.26239670472818
 20
2.374823793593523
 10
62.32671004740637
 20
2.160833473138673
 10
62.33423249893688
 20
2.024534107685
 10
62.29946069205558
 20
1.923247873120972
 10
62.2223142853122
 20
1.871237565781085
 10
62.09814920950942
 20
1.87254362010958
 10
61.79985272621697
 20
2.002554802289058
 10
61.41613857445951
 20
2.267552773135379
 10
61.1082068996985
 20
2.512990977529877
 10
60.77394482438002
 20
2.792661958452769
 10
60.30654013507335
 20
3.186168900346093
 10
59.81010510888254
 20
3.587087881536612
 10
59.14548092610638
 20
4.07177655287006
 10
58.44302598845056
 20
4.497384695740194
 10
57.85413569278568
 20
4.772825103696769
 10
57.24374988351584
 20
4.973863286676354
 10
57.24374988351584
 20
4.973863286676354
  0
SPLINE
  5
A8
330
1F
100
AcDbEntity
  8
0
  6
Continuous
 62
     1
370
    15
100
AcDbSpline
210
0.0
220
0.0
230
1.0
 70
     8
 71
     3
 72
    10
 73
     6
 74
     0
 42
0.000000001
 43
0.00000001
 40
0.0
 40
0.0
 40
0.0
 40
0.0
 40
0.4165141899676769
 40
0.8330083983607691
 40
1.0
 40
1.0
 40
1.0
 40
1.0
 10
57.24374988351583
 20
4.973863286676361
 30
0.0
 10
56.62642006650844
 20
5.112609880692903
 30
0.0
 10
55.39179004786344
 20
5.390096412589214
 30
0.0
 10
53.90967672609191
 20
5.558792536610683
 30
0.0
 10
53.04488581220998
 20
5.537921416943129
 30
0.0
 10
52.79738567200231
 20
5.531948175364048
 30
0.0
  0
SPLINE
  5
A9
330
1F
100
AcDbEntity
  8
0
  6
Continuous
 62
     1
370
    15
100
AcDbSpline
210
0.0
220
0.0
230
1.0
 70
     8
 71
     3
 72
    13
 73
     9
 74
     0
 42
0.000000001
 43
0.00000001
 40
0.0
 40
0.0
 40
0.0
 40
0.0
 40
0.0811124240429397
 40
0.2648528552010858
 40
0.4486059937611446
 40
0.6323776878644763
 40
0.8161737601848069
 40
1.0
 40
1.0
 40
1.0
 40
1.0
 10
28.42846326687645
 20
-4.534948081778124
 30
0.0
 10
28.15597925688784
 20
-4.629725143397863
 30
0.0
 10
27.26624912129333
 20
-4.939196542801101
 30
0.0
 10
25.75921810372706
 20
-5.27870141221845
 30
0.0
 10
23.90729372051241
 20
-5.538121552113609
 30
0.0
 10
22.05514314552524
 20
-5.579779161657439
 30
0.0
 10
20.20270318909274
 20
-5.431296709587583
 30
0.0
 10
18.96760143664824
 20
-5.164972630503969
 30
0.0
 10
18.34999988351584
 20
-5.031799663537434
 30
0.0
  0
SPLINE
  5
AA
330
1F
100
AcDbEntity
  8
0
  6
Continuous
 62
     1
370
    15
100
AcDbSpline
210
0.0
220
0.0
230
1.0
 70
     8
 71
     3
 72
    24
 73
    20
 74
     0
 42
0.000000001
 43
0.00000001
 40
0.0
 40
0.0
 40
0.0
 40
0.0
 40
0.0596478256692161
 40
0.1192858626081825
 40
0.1789159893182327
 40
0.2385400951369702
 40
0.2981600776657208
 40
0.3577778401728695
 40
0.4173952889806333
 40
0.4770143308429005
 40
0.5366368703217993
 40
0.5962648071706891
 40
0.6559000337312071
 40
0.7155444323519672
 40
0.775194625439458
 40
0.8348356761056275
 40
0.8944681971987606
 40
0.9540940747739155
 40
1.0
 40
1.0
 40
1.0
 40
1.0
 10
18.34999988351584
 20
5.53620973244406
 30
0.0
 10
18.9676014348729
 20
5.54695963160813
 30
0.0
 10
20.20270318376696
 20
5.56845766578373
 30
0.0
 10
22.0551431668231
 20
5.340307196191733
 30
0.0
 10
23.90729364066031
 20
4.929660590170482
 30
0.0
 10
25.75921840180074
 20
4.333098634714752
 30
0.0
 10
27.61098990125955
 20
3.577641444771123
 30
0.0
 10
29.46267858078433
 20
2.689844899917469
 30
0.0
 10
31.31435559533753
 20
1.702835101906599
 30
0.0
 10
33.16609197237115
 20
0.6529409844215942
 30
0.0
 10
35.01795863746678
 20
-0.4210627730740046
 30
0.0
 10
36.87002653708106
 20
-1.479554508327831
 30
0.0
 10
38.72236550794403
 20
-2.48341648669047
 30
0.0
 10
40.57499373579558
 20
-3.39570643129597
 30
0.0
 10
42.42774357554418
 20
-4.182062623306262
 30
0.0
 10
44.28028187739153
 20
-4.815778460661908
 30
0.0
 10
46.13252129251657
 20
-5.265058083324253
 30
0.0
 10
47.84251643900183
 20
-5.52291851106262
 30
0.0
 10
48.93509830064641
 20
-5.533192034697471
 30
0.0
 10
49.41036717611988
 20
-5.537660977663206
 30
0.0
  0
SPLINE
  5
AB
330
1F
100
AcDbEntity
  8
0
  6
Continuous
 62
     1
370
    15
100
AcDbSpline
210
0.0
220
0.0
230
1.0
 70
     8
 71
     3
 72
    21
 73
    17
 74
     0
 42
0.000000001
 43
0.00000001
 40
0.0
 40
0.0
 40
0.0
 40
0.0
 40
0.0443303819474666
 40
0.1178678851420554
 40
0.191398244845672
 40
0.2649172971188469
 40
0.338427362544461
 40
0.4119307740249266
 40
0.485429873599915
 40
0.5589270092374121
 40
0.632424531607428
 40
0.7059247908478083
 40
0.7794301333315935
 40
0.8529428984454024
 40
0.9264654153882342
 40
1.0
 40
1.0
 40
1.0
 40
1.0
 10
43.54475484317248
 20
-4.535547204843317
 30
0.0
 10
43.17244698312135
 20
-4.660614661878008
 30
0.0
 10
42.18253581705038
 20
-4.993150408541398
 30
0.0
 10
40.57499195010467
 20
-5.334594358838184
 30
0.0
 10
38.72236598631899
 20
-5.558724681088107
 30
0.0
 10
36.87002640892629
 20
-5.570165203127501
 30
0.0
 10
35.01795867180059
 20
-5.377894633642765
 30
0.0
 10
33.16609196317239
 20
-4.986525353115558
 30
0.0
 10
31.31435559780218
 20
-4.411189174939611
 30
0.0
 10
29.46267858012392
 20
-3.672959516981336
 30
0.0
 10
27.61098990143652
 20
-2.799090878460174
 30
0.0
 10
25.75921840175332
 20
-1.821970884404806
 30
0.0
 10
23.90729364067302
 20
-0.7770914573825094
 30
0.0
 10
22.05514316681968
 20
0.2948637046159748
 30
0.0
 10
20.20270318376782
 20
1.362254408228892
 30
0.0
 10
18.96760143487317
 20
2.024743294365464
 30
0.0
 10
18.34999988351584
 20
2.35601491972031
 30
0.0
  0
SPLINE
  5
AD
330
1F
100
AcDbEntity
  8
0
  6
Continuous
 62
     1
370
    15
100
AcDbSpline
210
0.0
220
0.0
230
1.0
 70
     8
 71
     3
 72
    15
 73
    11
 74
     0
 42
0.000000001
 43
0.00000001
 40
0.0
 40
0.0
 40
0.0
 40
0.0
 40
0.0536946899402127
 40
0.1888989596792872
 40
0.3240881666308041
 40
0.459266607692224
 40
0.5944385945518051
 40
0.7296221145439327
 40
0.8648078144619933
 40
1.0
 40
1.0
 40
1.0
 40
1.0
 10
43.54475484317248
 20
4.536331871372931
 30
0.0
 10
43.78995824903922
 20
4.622344944822999
 30
0.0
 10
44.65258858231082
 20
4.924940603939889
 30
0.0
 10
46.13251916335942
 20
5.263414530402986
 30
0.0
 10
47.98451309195342
 20
5.5316053949646
 30
0.0
 10
49.83632652473334
 20
5.584962989484779
 30
0.0
 10
51.68809700769766
 20
5.435651134076236
 30
0.0
 10
53.53989550667958
 20
5.082193119759407
 30
0.0
 10
55.39179005691675
 20
4.551376942736862
 30
0.0
 10
56.62642006952625
 20
4.060285434005047
 30
0.0
 10
57.24374988351583
 20
3.814733789673549
 30
0.0
  0
SPLINE
  5
AE
330
1F
100
AcDbEntity
  8
0
  6
Continuous
 62
     1
370
    15
100
AcDbSpline
210
0.0
220
0.0
230
1.0
 70
     8
 71
     3
 72
    48
 73
    44
 74
     0
 42
0.000000001
 43
0.00000001
 40
0.0
 40
0.0
 40
0.0
 40
0.0
 40
0.0625000000000015
 40
0.0625000000000015
 40
0.0937500000000022
 40
0.0937500000000022
 40
0.1250000000000029
 40
0.1250000000000029
 40
0.1875000000000023
 40
0.1875000000000023
 40
0.2500000000000017
 40
0.2500000000000017
 40
0.3125000000000011
 40
0.3125000000000011
 40
0.3750000000000004
 40
0.3750000000000004
 40
0.4374999999999998
 40
0.4374999999999998
 40
0.4687499999999996
 40
0.4687499999999996
 40
0.4999999999999993
 40
0.4999999999999993
 40
0.5312499999999991
 40
0.5312499999999991
 40
0.5624999999999988
 40
0.5624999999999988
 40
0.5937499999999986
 40
0.5937499999999986
 40
0.6249999999999983
 40
0.6249999999999983
 40
0.6874999999999964
 40
0.6874999999999964
 40
0.7499999999999946
 40
0.7499999999999946
 40
0.7812499999999946
 40
0.7812499999999946
 40
0.8124999999999946
 40
0.8124999999999946
 40
0.8749999999999963
 40
0.8749999999999963
 40
0.9374999999999982
 40
0.9374999999999982
 40
1.0
 40
1.0
 40
1.0
 40
1.0
 10
57.24374988351583
 20
3.81473378967355
 30
0.0
 10
57.5260768074459
 20
3.696319164431049
 30
0.0
 10
57.80725984554559
 20
3.564121299089382
 30
0.0
 10
58.23019778067515
 20
3.350008177518094
 30
0.0
 10
58.37135310732882
 20
3.275957560428371
 30
0.0
 10
58.65429607674053
 20
3.122797749836567
 30
0.0
 10
58.79687487071635
 20
3.043222499869849
 30
0.0
 10
59.21960807661105
 20
2.80159877742069
 30
0.0
 10
59.49414146092725
 20
2.636965911618833
 30
0.0
 10
60.02791090751739
 20
2.298434389179735
 30
0.0
 10
60.28955093046168
 20
2.122750561227539
 30
0.0
 10
60.77857804944976
 20
1.764472745924446
 30
0.0
 10
61.00627143857167
 20
1.582353899045109
 30
0.0
 10
61.42371743318943
 20
1.199613765771507
 30
0.0
 10
61.61408353352606
 20
0.9974914342918472
 30
0.0
 10
61.93562644866986
 20
0.5683731291288964
 30
0.0
 10
62.06943361362838
 20
0.3392020621096189
 30
0.0
 10
62.21634343800754
 20
-0.0424557396002621
 30
0.0
 10
62.2555307844629
 20
-0.1741251669636149
 30
0.0
 10
62.31236662927285
 20
-0.4496064578254664
 30
0.0
 10
62.33005814667047
 20
-0.5950394455486137
 30
0.0
 10
62.33956758144422
 20
-0.893484782536727
 30
0.0
 10
62.33171307736762
 20
-1.046034289792356
 30
0.0
 10
62.28772349012526
 20
-1.359889102636158
 30
0.0
 10
62.25175947533501
 20
-1.517740967226811
 30
0.0
 10
62.15391356083121
 20
-1.82487391364856
 30
0.0
 10
62.0904333942887
 20
-1.978100786260865
 30
0.0
 10
61.94277670460022
 20
-2.262566468961267
 30
0.0
 10
61.85799040255836
 20
-2.395875518290523
 30
0.0
 10
61.57793154967822
 20
-2.760576240404393
 30
0.0
 10
61.36127301607778
 20
-2.950598038483052
 30
0.0
 10
60.90734449748381
 20
-3.222603225559691
 30
0.0
 10
60.66473252173647
 20
-3.307859392392231
 30
0.0
 10
60.29697546924815
 20
-3.371989517311381
 30
0.0
 10
60.17301512370882
 20
-3.383146793234961
 30
0.0
 10
59.92121247285289
 20
-3.387507541755542
 30
0.0
 10
59.79264350315403
 20
-3.380570480153613
 30
0.0
 10
59.40667318810556
 20
-3.336140430774313
 30
0.0
 10
59.1481222158534
 20
-3.275801553033346
 30
0.0
 10
58.62013535095145
 20
-3.108958532341358
 30
0.0
 10
58.34866360279239
 20
-3.001266042204024
 30
0.0
 10
57.8021145057912
 20
-2.758282732241642
 30
0.0
 10
57.52594973203811
 20
-2.622508401533205
 30
0.0
 10
57.24374988351584
 20
-2.476803811183992
 30
0.0
  0
SPLINE
  5
AF
330
1F
100
AcDbEntity
  8
0
  6
Continuous
 62
     1
370
    15
100
AcDbSpline
210
0.0
220
0.0
230
1.0
 70
     8
 71
     3
 72
    18
 73
    14
 74
     0
 42
0.000000001
 43
0.00000001
 40
0.0
 40
0.0
 40
0.0
 40
0.0
 40
0.0946640248455471
 40
0.1893235083421595
 40
0.2839814654150241
 40
0.3786313467789136
 40
0.4732857474922078
 40
0.5679476866773718
 40
0.6626201731000853
 40
0.7573062010580645
 40
0.8520067435081801
 40
0.9466980866730238
 40
1.0
 40
1.0
 40
1.0
 40
1.0
 10
57.24374988351583
 20
-2.476803811183981
 30
0.0
 10
56.62642006844546
 20
-2.1488858443562
 30
0.0
 10
55.39179005367448
 20
-1.493065642018973
 30
0.0
 10
53.53989551964791
 20
-0.4296488990702034
 30
0.0
 10
51.68809695906898
 20
0.6430306621581754
 30
0.0
 10
49.83632670626708
 20
1.693725919274725
 30
0.0
 10
47.98451241438271
 20
2.681366755245692
 30
0.0
 10
46.13252169243212
 20
3.570363424026088
 30
0.0
 10
44.28028187033651
 20
4.326853548321602
 30
0.0
 10
42.42774320368606
 20
4.926198040436419
 30
0.0
 10
40.5749952304739
 20
5.333985984350209
 30
0.0
 10
38.99219797843394
 20
5.544791625102775
 30
0.0
 10
38.02705513314888
 20
5.53490570131581
 30
0.0
 10
37.67944496828721
 20
5.531345142778612
 30
0.0
  0
LINE
  5
B2
330
1F
100
AcDbEntity
  8
외형선
  6
Continuous
370
    15
100
AcDbLine
 10
-37.53000011648415
 20
0.0003923332648068
 30
0.0
 11
-37.53000011648415
 21
5.556642333264809
 31
0.0
  0
LINE
  5
B3
330
1F
100
AcDbEntity
  8
외형선
  6
Continuous
370
    15
100
AcDbLine
 10
-37.53000011648415
 20
-5.555857666735193
 30
0.0
 11
-37.53000011648415
 21
0.0003923332648066
 31
0.0
  0
LINE
  5
B6
330
1F
100
AcDbEntity
  8
외형선
  6
Continuous
370
    15
100
AcDbLine
 10
-38.80000011648416
 20
0.0003923332648068
 30
0.0
 11
-38.80000011648416
 21
4.286642333264813
 31
0.0
  0
LINE
  5
B7
330
1F
100
AcDbEntity
  8
외형선
  6
Continuous
370
    15
100
AcDbLine
 10
-38.80000011648416
 20
-4.285857666735196
 30
0.0
 11
-38.80000011648416
 21
0.0003923332648066
 31
0.0
  0
LINE
  5
B8
330
1F
100
AcDbEntity
  8
중심선
 48
0.8
100
AcDbLine
 10
-41.80000011648414
 20
0.0003923332648068
 30
0.0
 11
65.79999988351581
 21
0.0003923332648128
 31
0.0
  0
LINE
  5
B9
330
1F
100
AcDbEntity
  8
참조1
100
AcDbLine
 10
-0.9375000000000147
 20
0.0010749287238892
 30
0.0
 11
-0.9375000000000078
 21
-39.99892507127611
 31
0.0
  0
LINE
  5
BA
330
1F
100
AcDbEntity
  8
참조1
100
AcDbLine
 10
46.51249999999997
 20
0.0010749287238909
 30
0.0
 11
46.51249999999997
 21
10.39811096570963
 31
0.0
  0
LINE
  5
BB
330
1F
100
AcDbEntity
  8
참조1
100
AcDbLine
 10
-0.9375000000000078
 20
-39.99892507127611
 30
0.0
 11
12.3036431856913
 21
-39.9989250712761
 31
0.0
  0
CIRCLE
  5
BC
330
1F
100
AcDbEntity
  8
해칭선
100
AcDbCircle
 10
0.0
 20
0.0
 30
0.0
 40
3.000000000000001
  0
INSERT
  5
BD
330
1F
100
AcDbEntity
  8
0
  6
Continuous
 62
     7
100
AcDbBlockReference
 66
     1
  2
블럭10
 10
-14.87777293212522
 20
-52.04609937292004
 30
0.0
  0
ATTRIB
  5
BE
330
BD
100
AcDbEntity
  8
FORMAT
 62
     2
100
AcDbText
 10
-25.01940894426185
 20
-49.97073246008785
 30
0.0
 40
4.233333333333333
  1
E5060028 [ 4 FLUTE ]
 41
0.75
  7
SLDTEXTSTYLE0
 11
-25.01940894426185
 21
-52.08739912675452
 31
0.0
100
AcDbAttribute
  2
AUTOATTR0
 70
     0
 74
     1
  0
SEQEND
  5
BF
330
BD
100
AcDbEntity
  8
0
  6
Continuous
 62
     7
  0
HATCH
  5
C0
330
1F
100
AcDbEntity
  8
중심선
100
AcDbHatch
 10
0.0
 20
0.0
 30
0.0
210
0.0
220
0.0
230
1.0
  2
SOLID
 70
     1
 71
     0
 91
        1
 92
        0
 93
        4
 72
     1
 10
-9.162863627744377
 20
-35.7989250712761
 11
-12.60913887158166
 21
-35.7989250712761
 72
     1
 10
-12.60913887158166
 20
-35.7989250712761
 11
-14.73736873078571
 21
-38.3352506518487
 72
     1
 10
-14.73736873078571
 20
-38.3352506518487
 11
-11.29106040183525
 21
-38.33521122254621
 72
     1
 10
-11.29106040183525
 20
-38.33521122254621
 11
-9.162863627744377
 21
-35.7989250712761
 97
        0
 75
     0
 76
     1
 98
        1
 10
0.0
 20
0.0
  0
HATCH
  5
C1
330
1F
100
AcDbEntity
  8
중심선
100
AcDbHatch
 10
0.0
 20
0.0
 30
0.0
210
0.0
220
0.0
230
1.0
  2
SOLID
 70
     1
 71
     0
 91
        1
 92
        0
 93
        4
 72
     1
 10
-4.150099636708399
 20
-35.7989250712761
 11
-7.596374880545653
 21
-35.7989250712761
 72
     1
 10
-7.596374880545653
 20
-35.7989250712761
 11
-12.1275128889031
 21
-41.19892507127612
 72
     1
 10
-12.1275128889031
 20
-41.19892507127612
 11
-8.681237645065815
 21
-41.19892507127612
 72
     1
 10
-8.681237645065815
 20
-41.19892507127612
 11
-4.150099636708399
 21
-35.7989250712761
 97
        0
 75
     0
 76
     1
 98
        1
 10
0.0
 20
0.0
  0
HATCH
  5
C2
330
1F
100
AcDbEntity
  8
중심선
100
AcDbHatch
 10
0.0
 20
0.0
 30
0.0
210
0.0
220
0.0
230
1.0
  2
SOLID
 70
     1
 71
     0
 91
        1
 92
        0
 93
        4
 72
     1
 10
0.8626643543274415
 20
-35.7989250712761
 11
-2.583610889509591
 21
-35.7989250712761
 72
     1
 10
-2.583610889509591
 20
-35.7989250712761
 11
-9.632047791398895
 21
-44.19892507127612
 72
     1
 10
-9.632047791398895
 20
-44.19892507127612
 11
-6.185772547561613
 21
-44.19892507127612
 72
     1
 10
-6.185772547561613
 20
-44.19892507127612
 11
0.8626643543274417
 21
-35.7989250712761
 97
        0
 75
     0
 76
     1
 98
        1
 10
0.0
 20
0.0
  0
HATCH
  5
C3
330
1F
100
AcDbEntity
  8
중심선
100
AcDbHatch
 10
0.0
 20
0.0
 30
0.0
210
0.0
220
0.0
230
1.0
  2
SOLID
 70
     1
 71
     0
 91
        1
 92
        0
 93
        6
 72
     3
 10
5.662554785339669
 20
-39.99892507132738
 11
3.960054785062284
 21
1.540850780301639E-10
 40
0.3939339440162633
 50
17.09539180608434
 51
320.0019657685086
 73
     0
 72
     1
 10
7.345554441040264
 20
-38.58681907591443
 11
9.650856314741302
 21
-36.65249236586649
 72
     3
 10
5.662554785286822
 20
-39.99892507127625
 11
6.600054785286829
 21
-1.249000902703301E-13
 40
0.6363583540795982
 50
39.99873849337408
 51
368.4976242363724
 73
     1
 72
     1
 10
12.08788727718743
 20
-39.03892507120613
 11
4.342622092122745
 21
-39.03892507120613
 72
     1
 10
4.342622092122745
 20
-39.03892507120613
 11
4.342597047676811
 21
-40.95892507120602
 72
     1
 10
4.342597047676811
 20
-40.95892507120602
 11
8.783976817148847
 21
-40.95892507120599
 97
        0
 75
     0
 76
     1
 98
        1
 10
0.0
 20
0.0
  0
DIMENSION
  5
C4
330
1F
100
AcDbEntity
  8
치수문자_일반주서
100
AcDbDimension
  2
_D
 10
11.99999988351587
 20
38.39742837025054
 30
0.0
 11
37.39999988351585
 21
38.39742837025054
 31
0.0
 70
   160
  1
<>
 71
     2
 42
50.79999999999997
  3
SLDDIMSTYLE1
100
AcDbAlignedDimension
 13
62.79999988351584
 23
6.350392333264814
 33
0.0
 14
11.99999988351587
 24
6.350392333264802
 34
0.0
100
AcDbRotatedDimension
1001
ACAD
1000
DSTYLE
1002
{
1070
   171
1070
     6
1070
   273
1070
     7
1002
}
  0
DIMENSION
  5
D8
330
1F
100
AcDbEntity
  8
치수문자_일반주서
100
AcDbDimension
  2
_D_1
 10
-38.80000011648414
 20
53.97568648438818
 30
0.0
 11
5.470900853612306
 21
53.97568648438818
 31
0.0
 70
   160
  1
<>
 71
     2
 42
101.6
  3
SLDDIMSTYLE1
100
AcDbAlignedDimension
 13
62.79999988351584
 23
6.350392333264814
 33
0.0
 14
-38.80000011648414
 24
5.080392333264808
 34
0.0
100
AcDbRotatedDimension
1001
ACAD
1000
DSTYLE
1002
{
1070
   171
1070
     6
1070
   273
1070
     7
1002
}
  0
DIMENSION
  5
EB
330
1F
100
AcDbEntity
  8
치수문자_일반주서
100
AcDbDimension
  2
_D_2
 10
-50.84750011648416
 20
-5.555857666735244
 30
0.0
 11
-50.84750011648418
 21
0.0003923332648008
 31
0.0
 70
   160
  1
%%c<>
 71
     2
 42
11.1125
 52
-270.0
  3
SLDDIMSTYLE1
100
AcDbAlignedDimension
 13
-37.53000011648415
 23
5.556642333264809
 33
0.0
 14
-37.53000011648415
 24
-5.555857666735193
 34
0.0
 50
90.0000000000002
100
AcDbRotatedDimension
1001
ACAD
1000
DSTYLE
1002
{
1070
   171
1070
     6
1070
   273
1070
     7
1002
}
  0
DIMENSION
  5
100
330
1F
100
AcDbEntity
  8
치수문자_일반주서
100
AcDbDimension
  2
_D_3
 10
80.56044120991153
 20
-5.555857666735125
 30
0.0
 11
80.56044120991139
 21
31.06392837025047
 31
0.0
 70
   160
  1
%%c<>
 71
     2
 42
11.1125
 52
-270.0
  3
SLDDIMSTYLE1
100
AcDbAlignedDimension
 13
62.79999988351585
 23
5.556642333264808
 33
0.0
 14
62.79999988351585
 24
-5.555857666735193
 34
0.0
 50
90.0000000000002
100
AcDbRotatedDimension
1001
ACAD
1000
DSTYLE
1002
{
1070
   171
1070
     6
1070
   273
1070
     7
1002
}
  0
LINE
  5
115
330
1F
100
AcDbEntity
  8
참조1
100
AcDbLine
 10
110.2759838153456
 20
7.441074928723896
 30
0.0
 11
110.2759838153456
 21
-7.438925071276109
 31
0.0
  0
LINE
  5
116
330
1F
100
AcDbEntity
  8
참조1
100
AcDbLine
 10
122.9759838153456
 20
5.441074928723896
 30
0.0
 11
110.2759838153456
 21
5.441074928723896
 31
0.0
  0
SOLID
  5
117
330
1F
100
AcDbEntity
  8
참조1
100
AcDbTrace
 10
110.2759838153456
 20
5.441074928723896
 30
0.0
 11
116.6259838153456
 21
4.425074928723896
 31
0.0
 12
116.6259838153456
 22
6.457074928723896
 32
0.0
 13
116.6259838153456
 23
6.457074928723896
 33
0.0
  0
LINE
  5
118
330
1F
100
AcDbEntity
  8
참조1
100
AcDbLine
 10
122.9759838153456
 20
-5.438925071276109
 30
0.0
 11
110.2759838153456
 21
-5.438925071276109
 31
0.0
  0
SOLID
  5
119
330
1F
100
AcDbEntity
  8
참조1
100
AcDbTrace
 10
110.2759838153456
 20
-5.438925071276109
 30
0.0
 11
116.6259838153456
 21
-6.454925071276109
 31
0.0
 12
116.6259838153456
 22
-4.422925071276109
 32
0.0
 13
116.6259838153456
 23
-4.422925071276109
 33
0.0
  0
MTEXT
  5
11A
330
1F
100
AcDbEntity
  8
참조1
100
AcDbMText
 10
119.6734739078158
 20
10.98929157337383
 30
0.0
 40
3.5
 41
0.0
 71
     1
 72
     1
  1
A
  7
SLDTEXTSTYLE0
 73
     1
 44
1.0
  0
MTEXT
  5
11B
330
1F
100
AcDbEntity
  8
참조1
100
AcDbMText
 10
119.6734739078158
 20
0.1092915733738251
 30
0.0
 40
3.5
 41
0.0
 71
     1
 72
     1
  1
A
  7
SLDTEXTSTYLE0
 73
     1
 44
1.0
  0
INSERT
  5
122
330
1F
100
AcDbEntity
  8
해칭선
100
AcDbBlockReference
  2
SW_DOWELSYMBOL_0
 10
0.0
 20
0.0
 30
0.0
  0
LINE
  5
1C2
330
1F
100
AcDbEntity
  8
외형선
  6
Continuous
370
    15
100
AcDbLine
 10
11.99999988351585
 20
5.556642333264808
 30
0.0
 11
11.99999988351585
 21
-5.555857666735193
 31
0.0
  0
LINE
  5
1C3
330
1F
100
AcDbEntity
  8
0
  6
Continuous
 62
     1
370
    15
100
AcDbLine
 10
18.34999988351584
 20
5.53620973244406
 30
0.0
 11
11.99999988351585
 21
5.556642333264808
 31
0.0
  0
SPLINE
  5
1C4
330
1F
100
AcDbEntity
  8
0
  6
Continuous
 62
     1
370
    15
100
AcDbSpline
210
0.0
220
0.0
230
1.0
 70
    24
 71
     3
 72
     8
 73
     4
 74
     2
 42
0.000000001
 43
0.0000000001
 44
0.0
 40
0.0
 40
0.0
 40
0.0
 40
0.0
 40
7.111013699911735
 40
7.111013699911735
 40
7.111013699911735
 40
7.111013699911735
 10
18.34999988351584
 20
2.35601491972031
 30
0.0
 10
16.23333321684917
 20
3.422890724235142
 30
0.0
 10
14.11666655018251
 20
4.489766528749975
 30
0.0
 10
11.99999988351585
 20
5.556642333264808
 30
0.0
 11
18.34999988351584
 21
2.35601491972031
 31
0.0
 11
11.99999988351585
 21
5.556642333264808
 31
0.0
  0
SPLINE
  5
1C5
330
1F
100
AcDbEntity
  8
0
  6
Continuous
 62
     1
370
    15
100
AcDbSpline
210
0.0
220
0.0
230
1.0
 70
    24
 71
     3
 72
     8
 73
     4
 74
     0
 42
0.000000001
 43
0.0000000001
 40
0.0
 40
0.0
 40
0.0
 40
0.0
 40
7.158414640059176
 40
7.158414640059176
 40
7.158414640059176
 40
7.158414640059176
 10
18.34999988351584
 20
0.4764593300671107
 30
0.0
 10
16.23333321684917
 20
1.577993621610477
 30
0.0
 10
14.1166665501825
 20
2.679527913153843
 30
0.0
 10
11.99999988351583
 20
3.781062204697209
 30
0.0
  0
SPLINE
  5
1C6
330
1F
100
AcDbEntity
  8
0
  6
Continuous
 62
     1
370
    15
100
AcDbSpline
210
0.0
220
0.0
230
1.0
 70
    24
 71
     3
 72
     8
 73
     4
 74
     2
 42
0.000000001
 43
0.0000000001
 44
0.0
 40
0.0
 40
0.0
 40
0.0
 40
0.0
 40
7.175635866507584
 40
7.175635866507584
 40
7.175635866507584
 40
7.175635866507584
 10
19.17563575002343
 20
-5.555857666735199
 30
0.0
 10
16.78375712785424
 20
-5.555857666735196
 30
0.0
 10
14.39187850568504
 20
-5.555857666735195
 30
0.0
 10
11.99999988351585
 20
-5.555857666735193
 30
0.0
 11
19.17563575002343
 21
-5.555857666735199
 31
0.0
 11
11.99999988351585
 21
-5.555857666735193
 31
0.0
  0
SPLINE
  5
1C7
330
1F
100
AcDbEntity
  8
0
  6
Continuous
 62
     1
370
    15
100
AcDbSpline
210
0.0
220
0.0
230
1.0
 70
    24
 71
     3
 72
     8
 73
     4
 74
     0
 42
0.000000001
 43
0.0000000001
 40
0.0
 40
0.0
 40
0.0
 40
0.0
 40
6.499468448893789
 40
6.499468448893789
 40
6.499468448893789
 40
6.499468448893789
 10
18.34999988351584
 20
-5.031799663537434
 30
0.0
 10
16.23333321684918
 20
-4.56984847345513
 30
0.0
 10
14.11666655018252
 20
-4.107897283372827
 30
0.0
 10
11.99999988351586
 20
-3.645946093290522
 30
0.0
  0
ENDSEC
  0
SECTION
  2
OBJECTS
  0
DICTIONARY
  5
C
330
0
100
AcDbDictionary
281
     1
  3
ACAD_GROUP
350
D
  3
ACAD_IMAGE_VARS
350
146
  3
ACAD_LAYOUT
350
1A
  3
ACAD_MLINESTYLE
350
17
  3
ACAD_PLOTSETTINGS
350
19
  3
ACAD_PLOTSTYLENAME
350
E
  3
ACAD_SCALELIST
350
47
  3
APPDATA
350
144
  3
DWGPROPS
350
1C9
  0
DICTIONARY
  5
16D
330
2
100
AcDbDictionary
280
     1
281
     1
  3
ACAD_LAYERSTATES
360
16E
  0
DICTIONARY
  5
D
102
{ACAD_REACTORS
330
C
102
}
330
C
100
AcDbDictionary
281
     1
  0
RASTERVARIABLES
  5
146
102
{ACAD_REACTORS
330
C
102
}
330
C
100
AcDbRasterVariables
 90
        0
 70
     1
 71
     1
 72
     1
  0
DICTIONARY
  5
1A
102
{ACAD_REACTORS
330
C
102
}
330
C
100
AcDbDictionary
281
     1
  3
Layout1
350
1E
  3
Layout2
350
26
  3
Model
350
22
  0
DICTIONARY
  5
17
102
{ACAD_REACTORS
330
C
102
}
330
C
100
AcDbDictionary
281
     1
  3
Standard
350
18
  0
DICTIONARY
  5
19
102
{ACAD_REACTORS
330
C
102
}
330
C
100
AcDbDictionary
281
     1
  0
ACDBDICTIONARYWDFLT
  5
E
102
{ACAD_REACTORS
330
C
102
}
330
C
100
AcDbDictionary
281
     1
  3
Normal
350
F
100
AcDbDictionaryWithDefault
340
F
  0
DICTIONARY
  5
47
102
{ACAD_REACTORS
330
C
102
}
330
C
100
AcDbDictionary
281
     1
  3
A0
350
48
  3
A1
350
49
  3
A2
350
4A
  3
A3
350
4B
  3
A4
350
4C
  3
A5
350
4D
  3
A6
350
4E
  3
A7
350
4F
  3
A8
350
50
  3
A9
350
51
  3
B0
350
52
  3
B1
350
53
  3
B2
350
54
  3
B3
350
55
  3
B4
350
56
  3
B5
350
57
  3
B6
350
58
  3
B7
350
59
  3
B8
350
5A
  3
B9
350
5B
  3
C0
350
5C
  3
C1
350
5D
  3
C2
350
5E
  3
C3
350
5F
  3
C4
350
60
  3
C5
350
61
  3
C6
350
62
  3
C7
350
63
  3
C8
350
64
  3
C9
350
65
  3
D0
350
66
  3
D1
350
67
  3
D2
350
68
  0
DICTIONARY
  5
144
102
{ACAD_REACTORS
330
C
102
}
330
C
100
AcDbDictionary
281
     1
  0
XRECORD
  5
1C9
102
{ACAD_REACTORS
330
C
102
}
330
C
100
AcDbXrecord
280
     1
  1
DWGPROPS COOKIE
  2

  3

  4

  6

  7

  8
12016016
  9

300
=
301
=
302
=
303
=
304
=
305
=
306
=
307
=
308
=
309
=
 40
0.0
 41
2458289.137660822
 42
2458310.035448854
  1

 90
        0
  0
DICTIONARY
  5
16E
102
{ACAD_REACTORS
330
16D
102
}
330
16D
100
AcDbDictionary
281
     1
  0
LAYOUT
  5
1E
102
{ACAD_REACTORS
330
1A
102
}
330
1A
100
AcDbPlotSettings
  1

  2
none_device
  4

  6

 40
0.0
 41
0.0
 42
0.0
 43
0.0
 44
0.0
 45
0.0
 46
0.0
 47
0.0
 48
0.0
 49
0.0
140
0.0
141
0.0
142
1.0
143
1.0
 70
   688
 72
     1
 73
     0
 74
     5
  7

 75
    16
147
1.0
148
0.0
149
0.0
100
AcDbLayout
  1
Layout1
 70
     1
 71
     1
 10
0.0
 20
0.0
 11
420.0
 21
297.0
 12
0.0
 22
0.0
 32
0.0
 14
1.000000000000000E+20
 24
1.000000000000000E+20
 34
1.000000000000000E+20
 15
-1.000000000000000E+20
 25
-1.000000000000000E+20
 35
-1.000000000000000E+20
146
0.0
 13
0.0
 23
0.0
 33
0.0
 16
1.0
 26
0.0
 36
0.0
 17
0.0
 27
1.0
 37
0.0
 76
     0
330
1B
  0
LAYOUT
  5
26
102
{ACAD_REACTORS
330
1A
102
}
330
1A
100
AcDbPlotSettings
  1

  2
none_device
  4

  6

 40
0.0
 41
0.0
 42
0.0
 43
0.0
 44
0.0
 45
0.0
 46
0.0
 47
0.0
 48
0.0
 49
0.0
140
0.0
141
0.0
142
1.0
143
1.0
 70
   688
 72
     1
 73
     0
 74
     5
  7

 75
    16
147
1.0
148
0.0
149
0.0
100
AcDbLayout
  1
Layout2
 70
     1
 71
     2
 10
0.0
 20
0.0
 11
0.0
 21
0.0
 12
0.0
 22
0.0
 32
0.0
 14
0.0
 24
0.0
 34
0.0
 15
0.0
 25
0.0
 35
0.0
146
0.0
 13
0.0
 23
0.0
 33
0.0
 16
1.0
 26
0.0
 36
0.0
 17
0.0
 27
1.0
 37
0.0
 76
     0
330
23
  0
LAYOUT
  5
22
102
{ACAD_REACTORS
330
1A
102
}
330
1A
100
AcDbPlotSettings
  1

  2
none_device
  4
ANSI_A_(11.00_x_8.50_Inches)
  6

 40
6.35
 41
19.05
 42
6.35000508
 43
19.05000254
 44
279.4
 45
215.9
 46
90.91337830720236
 47
78.5719069957361
 48
0.0
 49
0.0
140
0.0
141
0.0
142
0.0578627860232965
143
1.0
 70
  1696
 72
     0
 73
     0
 74
     0
  7

 75
     0
147
0.0235690232323232
148
0.0
149
0.0
100
AcDbLayout
  1
Model
 70
     1
 71
     0
 10
0.0
 20
0.0
 11
420.0
 21
297.0
 12
0.0
 22
0.0
 32
0.0
 14
-55.22250011648422
 24
-49.97073246008785
 34
0.0
 15
122.9759838153456
 25
58.35068648438818
 35
0.0
146
0.0
 13
0.0
 23
0.0
 33
0.0
 16
1.0
 26
0.0
 36
0.0
 17
0.0
 27
1.0
 37
0.0
 76
     0
330
1F
331
29
  0
MLINESTYLE
  5
18
102
{ACAD_REACTORS
330
17
102
}
330
17
100
AcDbMlineStyle
  2
Standard
 70
     0
  3

 62
   256
 51
90.0
 52
90.0
 71
     2
 49
0.5
 62
   256
  6
BYLAYER
 49
-0.5
 62
   256
  6
BYLAYER
  0
ACDBPLACEHOLDER
  5
F
102
{ACAD_REACTORS
330
E
102
}
330
E
  0
SCALE
  5
48
102
{ACAD_REACTORS
330
47
102
}
330
47
100
AcDbScale
 70
     0
300
1:1
140
1.0
141
1.0
290
     1
  0
SCALE
  5
49
102
{ACAD_REACTORS
330
47
102
}
330
47
100
AcDbScale
 70
     0
300
1:2
140
1.0
141
2.0
290
     0
  0
SCALE
  5
4A
102
{ACAD_REACTORS
330
47
102
}
330
47
100
AcDbScale
 70
     0
300
1:4
140
1.0
141
4.0
290
     0
  0
SCALE
  5
4B
102
{ACAD_REACTORS
330
47
102
}
330
47
100
AcDbScale
 70
     0
300
1:5
140
1.0
141
5.0
290
     0
  0
SCALE
  5
4C
102
{ACAD_REACTORS
330
47
102
}
330
47
100
AcDbScale
 70
     0
300
1:8
140
1.0
141
8.0
290
     0
  0
SCALE
  5
4D
102
{ACAD_REACTORS
330
47
102
}
330
47
100
AcDbScale
 70
     0
300
1:10
140
1.0
141
10.0
290
     0
  0
SCALE
  5
4E
102
{ACAD_REACTORS
330
47
102
}
330
47
100
AcDbScale
 70
     0
300
1:16
140
1.0
141
16.0
290
     0
  0
SCALE
  5
4F
102
{ACAD_REACTORS
330
47
102
}
330
47
100
AcDbScale
 70
     0
300
1:20
140
1.0
141
20.0
290
     0
  0
SCALE
  5
50
102
{ACAD_REACTORS
330
47
102
}
330
47
100
AcDbScale
 70
     0
300
1:30
140
1.0
141
30.0
290
     0
  0
SCALE
  5
51
102
{ACAD_REACTORS
330
47
102
}
330
47
100
AcDbScale
 70
     0
300
1:40
140
1.0
141
40.0
290
     0
  0
SCALE
  5
52
102
{ACAD_REACTORS
330
47
102
}
330
47
100
AcDbScale
 70
     0
300
1:50
140
1.0
141
50.0
290
     0
  0
SCALE
  5
53
102
{ACAD_REACTORS
330
47
102
}
330
47
100
AcDbScale
 70
     0
300
1:100
140
1.0
141
100.0
290
     0
  0
SCALE
  5
54
102
{ACAD_REACTORS
330
47
102
}
330
47
100
AcDbScale
 70
     0
300
2:1
140
2.0
141
1.0
290
     0
  0
SCALE
  5
55
102
{ACAD_REACTORS
330
47
102
}
330
47
100
AcDbScale
 70
     0
300
4:1
140
4.0
141
1.0
290
     0
  0
SCALE
  5
56
102
{ACAD_REACTORS
330
47
102
}
330
47
100
AcDbScale
 70
     0
300
8:1
140
8.0
141
1.0
290
     0
  0
SCALE
  5
57
102
{ACAD_REACTORS
330
47
102
}
330
47
100
AcDbScale
 70
     0
300
10:1
140
10.0
141
1.0
290
     0
  0
SCALE
  5
58
102
{ACAD_REACTORS
330
47
102
}
330
47
100
AcDbScale
 70
     0
300
100:1
140
100.0
141
1.0
290
     0
  0
SCALE
  5
59
102
{ACAD_REACTORS
330
47
102
}
330
47
100
AcDbScale
 70
     0
300
1/128" = 1'-0"
140
0.0078125
141
12.0
290
     0
  0
SCALE
  5
5A
102
{ACAD_REACTORS
330
47
102
}
330
47
100
AcDbScale
 70
     0
300
1/64" = 1'-0"
140
0.015625
141
12.0
290
     0
  0
SCALE
  5
5B
102
{ACAD_REACTORS
330
47
102
}
330
47
100
AcDbScale
 70
     0
300
1/32" = 1'-0"
140
0.03125
141
12.0
290
     0
  0
SCALE
  5
5C
102
{ACAD_REACTORS
330
47
102
}
330
47
100
AcDbScale
 70
     0
300
1/16" = 1'-0"
140
0.0625
141
12.0
290
     0
  0
SCALE
  5
5D
102
{ACAD_REACTORS
330
47
102
}
330
47
100
AcDbScale
 70
     0
300
3/32" = 1'-0"
140
0.09375
141
12.0
290
     0
  0
SCALE
  5
5E
102
{ACAD_REACTORS
330
47
102
}
330
47
100
AcDbScale
 70
     0
300
1/8" = 1'-0"
140
0.125
141
12.0
290
     0
  0
SCALE
  5
5F
102
{ACAD_REACTORS
330
47
102
}
330
47
100
AcDbScale
 70
     0
300
3/16" = 1'-0"
140
0.1875
141
12.0
290
     0
  0
SCALE
  5
60
102
{ACAD_REACTORS
330
47
102
}
330
47
100
AcDbScale
 70
     0
300
1/4" = 1'-0"
140
0.25
141
12.0
290
     0
  0
SCALE
  5
61
102
{ACAD_REACTORS
330
47
102
}
330
47
100
AcDbScale
 70
     0
300
3/8" = 1'-0"
140
0.375
141
12.0
290
     0
  0
SCALE
  5
62
102
{ACAD_REACTORS
330
47
102
}
330
47
100
AcDbScale
 70
     0
300
1/2" = 1'-0"
140
0.5
141
12.0
290
     0
  0
SCALE
  5
63
102
{ACAD_REACTORS
330
47
102
}
330
47
100
AcDbScale
 70
     0
300
3/4" = 1'-0"
140
0.75
141
12.0
290
     0
  0
SCALE
  5
64
102
{ACAD_REACTORS
330
47
102
}
330
47
100
AcDbScale
 70
     0
300
1" = 1'-0"
140
1.0
141
12.0
290
     0
  0
SCALE
  5
65
102
{ACAD_REACTORS
330
47
102
}
330
47
100
AcDbScale
 70
     0
300
1-1/2" = 1'-0"
140
1.5
141
12.0
290
     0
  0
SCALE
  5
66
102
{ACAD_REACTORS
330
47
102
}
330
47
100
AcDbScale
 70
     0
300
3" = 1'-0"
140
3.0
141
12.0
290
     0
  0
SCALE
  5
67
102
{ACAD_REACTORS
330
47
102
}
330
47
100
AcDbScale
 70
     0
300
6" = 1'-0"
140
6.0
141
12.0
290
     0
  0
SCALE
  5
68
102
{ACAD_REACTORS
330
47
102
}
330
47
100
AcDbScale
 70
     0
300
1'-0" = 1'-0"
140
12.0
141
12.0
290
     0
  0
ENDSEC
  0
EOF
