  0
SECTION
  2
HEADER
  9
$ACADVER
  1
AC1015
  9
$ACADMAINTVER
 70
     6
  9
$DWGCODEPAGE
  3
ANSI_949
  9
$INSBASE
 10
0.0
 20
0.0
 30
0.0
  9
$EXTMIN
 10
-54.68250000000008
 20
-49.97073246008785
 30
0.0
  9
$EXTMAX
 10
122.9759838153456
 20
58.35136907984727
 30
0.0
  9
$LIMMIN
 10
0.0
 20
0.0
  9
$LIMMAX
 10
420.0
 20
297.0
  9
$ORTHOMODE
 70
     1
  9
$REGENMODE
 70
     1
  9
$FILLMODE
 70
     1
  9
$QTEXTMODE
 70
     0
  9
$MIRRTEXT
 70
     1
  9
$LTSCALE
 40
1.0
  9
$ATTMODE
 70
     1
  9
$TEXTSIZE
 40
3.5
  9
$TRACEWID
 40
1.0
  9
$TEXTSTYLE
  7
Standard
  9
$CLAYER
  8
0
  9
$CELTYPE
  6
ByLayer
  9
$CECOLOR
 62
   256
  9
$CELTSCALE
 40
1.0
  9
$DISPSILH
 70
     0
  9
$DIMSCALE
 40
1.0
  9
$DIMASZ
 40
3.302
  9
$DIMEXO
 40
1.0
  9
$DIMDLI
 40
3.75
  9
$DIMRND
 40
0.0
  9
$DIMDLE
 40
0.0
  9
$DIMEXE
 40
1.0
  9
$DIMTP
 40
0.0
  9
$DIMTM
 40
0.0
  9
$DIMTXT
 40
3.5
  9
$DIMCEN
 40
2.5
  9
$DIMTSZ
 40
0.0
  9
$DIMTOL
 70
     0
  9
$DIMLIM
 70
     0
  9
$DIMTIH
 70
     1
  9
$DIMTOH
 70
     1
  9
$DIMSE1
 70
     0
  9
$DIMSE2
 70
     0
  9
$DIMTAD
 70
     1
  9
$DIMZIN
 70
     0
  9
$DIMBLK
  1

  9
$DIMASO
 70
     1
  9
$DIMSHO
 70
     1
  9
$DIMPOST
  1

  9
$DIMAPOST
  1

  9
$DIMALT
 70
     0
  9
$DIMALTD
 70
     3
  9
$DIMALTF
 40
0.0393700787401575
  9
$DIMLFAC
 40
1.0
  9
$DIMTOFL
 70
     1
  9
$DIMTVP
 40
0.0
  9
$DIMTIX
 70
     0
  9
$DIMSOXD
 70
     0
  9
$DIMSAH
 70
     0
  9
$DIMBLK1
  1

  9
$DIMBLK2
  1

  9
$DIMSTYLE
  2
ISO-25
  9
$DIMCLRD
 70
     0
  9
$DIMCLRE
 70
     0
  9
$DIMCLRT
 70
     0
  9
$DIMTFAC
 40
1.0
  9
$DIMGAP
 40
1.524
  9
$DIMJUST
 70
     0
  9
$DIMSD1
 70
     0
  9
$DIMSD2
 70
     0
  9
$DIMTOLJ
 70
     0
  9
$DIMTZIN
 70
     0
  9
$DIMALTZ
 70
     0
  9
$DIMALTTZ
 70
     0
  9
$DIMUPT
 70
     0
  9
$DIMDEC
 70
     2
  9
$DIMTDEC
 70
     2
  9
$DIMALTU
 70
     2
  9
$DIMALTTD
 70
     3
  9
$DIMTXSTY
  7
Standard
  9
$DIMAUNIT
 70
     0
  9
$DIMADEC
 70
     2
  9
$DIMALTRND
 40
0.0
  9
$DIMAZIN
 70
     0
  9
$DIMDSEP
 70
    44
  9
$DIMATFIT
 70
     3
  9
$DIMFRAC
 70
     0
  9
$DIMLDRBLK
  1

  9
$DIMLUNIT
 70
     2
  9
$DIMLWD
 70
    -2
  9
$DIMLWE
 70
    -2
  9
$DIMTMOVE
 70
     0
  9
$LUNITS
 70
     2
  9
$LUPREC
 70
     2
  9
$SKETCHINC
 40
1.0
  9
$FILLETRAD
 40
10.0
  9
$AUNITS
 70
     0
  9
$AUPREC
 70
     2
  9
$MENU
  1
.
  9
$ELEVATION
 40
0.0
  9
$PELEVATION
 40
0.0
  9
$THICKNESS
 40
0.0
  9
$LIMCHECK
 70
     0
  9
$CHAMFERA
 40
0.0
  9
$CHAMFERB
 40
0.0
  9
$CHAMFERC
 40
0.0
  9
$CHAMFERD
 40
0.0
  9
$SKPOLY
 70
     0
  9
$TDCREATE
 40
2458289.512093507
  9
$TDUCREATE
 40
2458289.137093507
  9
$TDUPDATE
 40
2458310.407544294
  9
$TDUUPDATE
 40
2458310.032544294
  9
$TDINDWG
 40
0.0012847222
  9
$TDUSRTIMER
 40
2458310.032472963
  9
$USRTIMER
 70
     1
  9
$ANGBASE
 50
0.0
  9
$ANGDIR
 70
     0
  9
$PDMODE
 70
     0
  9
$PDSIZE
 40
-1.0
  9
$PLINEWID
 40
0.0
  9
$SPLFRAME
 70
     0
  9
$SPLINETYPE
 70
     6
  9
$SPLINESEGS
 70
     8
  9
$HANDSEED
  5
1A1
  9
$SURFTAB1
 70
     6
  9
$SURFTAB2
 70
     6
  9
$SURFTYPE
 70
     6
  9
$SURFU
 70
     6
  9
$SURFV
 70
     6
  9
$UCSBASE
  2

  9
$UCSNAME
  2

  9
$UCSORG
 10
0.0
 20
0.0
 30
0.0
  9
$UCSXDIR
 10
1.0
 20
0.0
 30
0.0
  9
$UCSYDIR
 10
0.0
 20
1.0
 30
0.0
  9
$UCSORTHOREF
  2

  9
$UCSORTHOVIEW
 70
     0
  9
$UCSORGTOP
 10
0.0
 20
0.0
 30
0.0
  9
$UCSORGBOTTOM
 10
0.0
 20
0.0
 30
0.0
  9
$UCSORGLEFT
 10
0.0
 20
0.0
 30
0.0
  9
$UCSORGRIGHT
 10
0.0
 20
0.0
 30
0.0
  9
$UCSORGFRONT
 10
0.0
 20
0.0
 30
0.0
  9
$UCSORGBACK
 10
0.0
 20
0.0
 30
0.0
  9
$PUCSBASE
  2

  9
$PUCSNAME
  2

  9
$PUCSORG
 10
0.0
 20
0.0
 30
0.0
  9
$PUCSXDIR
 10
1.0
 20
0.0
 30
0.0
  9
$PUCSYDIR
 10
0.0
 20
1.0
 30
0.0
  9
$PUCSORTHOREF
  2

  9
$PUCSORTHOVIEW
 70
     0
  9
$PUCSORGTOP
 10
0.0
 20
0.0
 30
0.0
  9
$PUCSORGBOTTOM
 10
0.0
 20
0.0
 30
0.0
  9
$PUCSORGLEFT
 10
0.0
 20
0.0
 30
0.0
  9
$PUCSORGRIGHT
 10
0.0
 20
0.0
 30
0.0
  9
$PUCSORGFRONT
 10
0.0
 20
0.0
 30
0.0
  9
$PUCSORGBACK
 10
0.0
 20
0.0
 30
0.0
  9
$USERI1
 70
     0
  9
$USERI2
 70
     0
  9
$USERI3
 70
     0
  9
$USERI4
 70
     0
  9
$USERI5
 70
     0
  9
$USERR1
 40
0.0
  9
$USERR2
 40
0.0
  9
$USERR3
 40
0.0
  9
$USERR4
 40
0.0
  9
$USERR5
 40
0.0
  9
$WORLDVIEW
 70
     1
  9
$SHADEDGE
 70
     3
  9
$SHADEDIF
 70
    70
  9
$TILEMODE
 70
     1
  9
$MAXACTVP
 70
    64
  9
$PINSBASE
 10
0.0
 20
0.0
 30
0.0
  9
$PLIMCHECK
 70
     0
  9
$PEXTMIN
 10
1.000000000000000E+20
 20
1.000000000000000E+20
 30
1.000000000000000E+20
  9
$PEXTMAX
 10
-1.000000000000000E+20
 20
-1.000000000000000E+20
 30
-1.000000000000000E+20
  9
$PLIMMIN
 10
0.0
 20
0.0
  9
$PLIMMAX
 10
0.0
 20
0.0
  9
$UNITMODE
 70
     0
  9
$VISRETAIN
 70
     1
  9
$PLINEGEN
 70
     0
  9
$PSLTSCALE
 70
     1
  9
$TREEDEPTH
 70
  3020
  9
$CMLSTYLE
  2
Standard
  9
$CMLJUST
 70
     0
  9
$CMLSCALE
 40
20.0
  9
$PROXYGRAPHICS
 70
     1
  9
$MEASUREMENT
 70
     1
  9
$CELWEIGHT
370
    -1
  9
$ENDCAPS
280
     0
  9
$JOINSTYLE
280
     0
  9
$LWDISPLAY
290
     1
  9
$INSUNITS
 70
     4
  9
$HYPERLINKBASE
  1

  9
$STYLESHEET
  1

  9
$XEDIT
290
     1
  9
$CEPSNTYPE
380
     0
  9
$PSTYLEMODE
290
     1
  9
$FINGERPRINTGUID
  2
{753A4A3B-355D-45FD-B39E-F1F0C793D0A1}
  9
$VERSIONGUID
  2
{FAEB1C32-E019-11D5-929B-00C0DF256EC4}
  9
$EXTNAMES
290
     1
  9
$PSVPSCALE
 40
0.0
  9
$OLESTARTUP
290
     0
  0
ENDSEC
  0
SECTION
  2
CLASSES
  0
CLASS
  1
ACDBDICTIONARYWDFLT
  2
AcDbDictionaryWithDefault
  3
ObjectDBX Classes
 90
        0
280
     0
281
     0
  0
CLASS
  1
VISUALSTYLE
  2
AcDbVisualStyle
  3
ObjectDBX Classes
 90
     4095
280
     0
281
     0
  0
CLASS
  1
MATERIAL
  2
AcDbMaterial
  3
ObjectDBX Classes
 90
     1153
280
     0
281
     0
  0
CLASS
  1
SCALE
  2
AcDbScale
  3
ObjectDBX Classes
 90
     1153
280
     0
281
     0
  0
CLASS
  1
SUN
  2
AcDbSun
  3
SCENEOE
 90
     1153
280
     0
281
     0
  0
CLASS
  1
ACDBPLACEHOLDER
  2
AcDbPlaceHolder
  3
ObjectDBX Classes
 90
        0
280
     0
281
     0
  0
CLASS
  1
LAYOUT
  2
AcDbLayout
  3
ObjectDBX Classes
 90
        0
280
     0
281
     0
  0
CLASS
  1
TABLESTYLE
  2
AcDbTableStyle
  3
ObjectDBX Classes
 90
     4095
280
     0
281
     0
  0
CLASS
  1
MLEADERSTYLE
  2
AcDbMLeaderStyle
  3
ACDB_MLEADERSTYLE_CLASS
 90
     4095
280
     0
281
     0
  0
CLASS
  1
RASTERVARIABLES
  2
AcDbRasterVariables
  3
ISM
 90
        0
280
     0
281
     0
  0
ENDSEC
  0
SECTION
  2
TABLES
  0
TABLE
  2
VPORT
  5
8
330
0
100
AcDbSymbolTable
 70
     1
  0
VPORT
  5
29
330
8
100
AcDbSymbolTableRecord
100
AcDbViewportTableRecord
  2
*Active
 70
     0
 10
0.0
 20
0.0
 11
1.0
 21
1.0
 12
-1.072161422705381
 22
2.343295701802138
 13
0.0
 23
0.0
 14
10.0
 24
10.0
 15
10.0
 25
10.0
 16
0.0
 26
0.0
 36
1.0
 17
0.0
 27
0.0
 37
0.0
 40
95.35502633687787
 41
1.798434442270059
 42
50.0
 43
0.0
 44
0.0
 50
0.0
 51
0.0
 71
    16
 72
  2000
 73
     1
 74
     3
 75
     0
 76
     0
 77
     0
 78
     0
281
     0
 65
     1
110
0.0
120
0.0
130
0.0
111
1.0
121
0.0
131
0.0
112
0.0
122
1.0
132
0.0
 79
     0
146
0.0
  0
ENDTAB
  0
TABLE
  2
LTYPE
  5
5
330
0
100
AcDbSymbolTable
 70
     6
  0
LTYPE
  5
14
330
5
100
AcDbSymbolTableRecord
100
AcDbLinetypeTableRecord
  2
ByBlock
 70
     0
  3

 72
    65
 73
     0
 40
0.0
  0
LTYPE
  5
15
330
5
100
AcDbSymbolTableRecord
100
AcDbLinetypeTableRecord
  2
ByLayer
 70
     0
  3

 72
    65
 73
     0
 40
0.0
  0
LTYPE
  5
16
330
5
100
AcDbSymbolTableRecord
100
AcDbLinetypeTableRecord
  2
Continuous
 70
     0
  3
Solid line
 72
    65
 73
     0
 40
0.0
  0
LTYPE
  5
6A
330
5
100
AcDbSymbolTableRecord
100
AcDbLinetypeTableRecord
  2
HIDDEN
 70
     0
  3
Hidden __ __ __ __ __ __ __ __ __ __ __ __ __ __
 72
    65
 73
     2
 40
1.905
 49
1.27
 74
     0
 49
-0.635
 74
     0
  0
LTYPE
  5
6B
330
5
100
AcDbSymbolTableRecord
100
AcDbLinetypeTableRecord
  2
PHANTOM
 70
     0
  3
Phantom ______  __  __  ______  __  __  ______
 72
    65
 73
     6
 40
12.7
 49
6.35
 74
     0
 49
-1.27
 74
     0
 49
1.27
 74
     0
 49
-1.27
 74
     0
 49
1.27
 74
     0
 49
-1.27
 74
     0
  0
LTYPE
  5
6C
330
5
100
AcDbSymbolTableRecord
100
AcDbLinetypeTableRecord
  2
CENTER
 70
     0
  3
Center ____ _ ____ _ ____ _ ____ _ ____ _ ____
 72
    65
 73
     4
 40
10.16
 49
6.35
 74
     0
 49
-1.27
 74
     0
 49
1.27
 74
     0
 49
-1.27
 74
     0
  0
LTYPE
  5
6D
330
5
100
AcDbSymbolTableRecord
100
AcDbLinetypeTableRecord
  2
CENTERX2
 70
     0
  3
Center (2x) ________  __  ________  __  _____
 72
    65
 73
     4
 40
20.32
 49
12.7
 74
     0
 49
-2.54
 74
     0
 49
2.54
 74
     0
 49
-2.54
 74
     0
  0
LTYPE
  5
6E
330
5
100
AcDbSymbolTableRecord
100
AcDbLinetypeTableRecord
  2
DOT2
 70
     0
  3
Dot (.5x) ........................................
 72
    65
 73
     2
 40
0.635
 49
0.0
 74
     0
 49
-0.635
 74
     0
  0
ENDTAB
  0
TABLE
  2
LAYER
  5
2
102
{ACAD_XDICTIONARY
360
16F
102
}
330
0
100
AcDbSymbolTable
 70
    18
  0
LAYER
  5
10
330
2
100
AcDbSymbolTableRecord
100
AcDbLayerTableRecord
  2
0
 70
     0
 62
     7
  6
Continuous
370
    -3
390
F
  0
LAYER
  5
6F
330
2
100
AcDbSymbolTableRecord
100
AcDbLayerTableRecord
  2
FORMAT
 70
     0
 62
     2
  6
Continuous
370
    -3
390
F
  0
LAYER
  5
70
330
2
100
AcDbSymbolTableRecord
100
AcDbLayerTableRecord
  2
외형선
 70
     0
 62
     4
  6
Continuous
370
    30
390
F
  0
LAYER
  5
71
330
2
100
AcDbSymbolTableRecord
100
AcDbLayerTableRecord
  2
숨은선
 70
     0
 62
     2
  6
HIDDEN
370
    15
390
F
  0
LAYER
  5
72
330
2
100
AcDbSymbolTableRecord
100
AcDbLayerTableRecord
  2
중심선
 70
     0
 62
     1
  6
CENTERX2
370
    -3
390
F
  0
LAYER
  5
73
330
2
100
AcDbSymbolTableRecord
100
AcDbLayerTableRecord
  2
파단선
 70
     0
 62
     4
  6
Continuous
370
    -3
390
F
  0
LAYER
  5
74
330
2
100
AcDbSymbolTableRecord
100
AcDbLayerTableRecord
  2
해칭선
 70
     0
 62
   100
  6
Continuous
370
    -3
390
F
  0
LAYER
  5
75
330
2
100
AcDbSymbolTableRecord
100
AcDbLayerTableRecord
  2
가는실선
 70
     0
 62
     4
  6
Continuous
370
    -3
390
F
  0
LAYER
  5
76
330
2
100
AcDbSymbolTableRecord
100
AcDbLayerTableRecord
  2
치수_보조선
 70
     0
 62
     4
  6
Continuous
370
    -3
390
F
  0
LAYER
  5
77
330
2
100
AcDbSymbolTableRecord
100
AcDbLayerTableRecord
  2
치수문자_일반주서
 70
     0
 62
     7
  6
Continuous
370
    15
390
F
  0
LAYER
  5
78
330
2
100
AcDbSymbolTableRecord
100
AcDbLayerTableRecord
  2
개별주서
 70
     0
 62
   100
  6
Continuous
370
    30
390
F
  0
LAYER
  5
79
330
2
100
AcDbSymbolTableRecord
100
AcDbLayerTableRecord
  2
중간선
 70
     0
 62
     2
  6
Continuous
370
    15
390
F
  0
LAYER
  5
7A
330
2
100
AcDbSymbolTableRecord
100
AcDbLayerTableRecord
  2
윤곽선
 70
     0
 62
     3
  6
Continuous
370
    40
390
F
  0
LAYER
  5
7B
330
2
100
AcDbSymbolTableRecord
100
AcDbLayerTableRecord
  2
중심마크
 70
     0
 62
   100
  6
Continuous
370
    30
390
F
  0
LAYER
  5
7C
330
2
100
AcDbSymbolTableRecord
100
AcDbLayerTableRecord
  2
가상선
 70
     0
 62
     4
  6
PHANTOM
370
    -3
390
F
  0
LAYER
  5
7D
330
2
100
AcDbSymbolTableRecord
100
AcDbLayerTableRecord
  2
특수지정선
 70
     0
 62
     5
  6
CENTERX2
370
    60
390
F
  0
LAYER
  5
7E
330
2
100
AcDbSymbolTableRecord
100
AcDbLayerTableRecord
  2
참조1
 70
     0
 62
    -4
  6
Continuous
370
    -3
390
F
  0
LAYER
  5
176
330
2
100
AcDbSymbolTableRecord
100
AcDbLayerTableRecord
  2
Defpoints
 70
     0
 62
     7
  6
Continuous
290
     0
370
    -3
390
F
  0
ENDTAB
  0
TABLE
  2
STYLE
  5
3
330
0
100
AcDbSymbolTable
 70
     2
  0
STYLE
  5
11
330
3
100
AcDbSymbolTableRecord
100
AcDbTextStyleTableRecord
  2
Standard
 70
     0
 40
0.0
 41
1.0
 50
0.0
 71
     0
 42
3.5
  3
txt
  4

  0
STYLE
  5
94
330
3
100
AcDbSymbolTableRecord
100
AcDbTextStyleTableRecord
  2
SLDTEXTSTYLE0
 70
     0
 40
0.0
 41
0.75
 50
0.0
 71
     0
 42
3.5
  3
TXT
  4

  0
ENDTAB
  0
TABLE
  2
VIEW
  5
6
330
0
100
AcDbSymbolTable
 70
     0
  0
ENDTAB
  0
TABLE
  2
UCS
  5
7
330
0
100
AcDbSymbolTable
 70
     0
  0
ENDTAB
  0
TABLE
  2
APPID
  5
9
330
0
100
AcDbSymbolTable
 70
     1
  0
APPID
  5
12
330
9
100
AcDbSymbolTableRecord
100
AcDbRegAppTableRecord
  2
ACAD
 70
     0
  0
ENDTAB
  0
TABLE
  2
DIMSTYLE
  5
A
330
0
100
AcDbSymbolTable
 70
     3
100
AcDbDimStyleTable
  0
DIMSTYLE
105
27
330
A
100
AcDbSymbolTableRecord
100
AcDbDimStyleTableRecord
  2
ISO-25
 70
     0
 41
2.5
 42
0.625
 43
3.75
 44
1.25
 73
     0
 74
     0
 77
     1
 78
     8
140
2.5
141
2.5
143
0.03937007874016
147
0.625
171
     3
172
     1
178
     0
271
     2
272
     2
274
     3
278
    44
283
     0
284
     8
340
11
  0
DIMSTYLE
105
C6
102
{ACAD_REACTORS
330
C5
330
EF
330
103
330
DB
102
}
330
A
100
AcDbSymbolTableRecord
100
AcDbDimStyleTableRecord
  2
SLDDIMSTYLE0
 70
     0
 41
3.302
 44
0.0
 45
0.000000001
 73
     0
 74
     0
 77
     1
 78
    12
 79
     3
140
3.5
143
0.0393700787401575
147
0.875
148
0.000000001
170
     1
172
     1
173
     1
178
     0
271
     2
272
     2
276
     2
284
    12
289
     0
340
94
  0
DIMSTYLE
105
DC
330
A
100
AcDbSymbolTableRecord
100
AcDbDimStyleTableRecord
  2
SLDDIMSTYLE1
 70
     0
 41
3.302
 44
0.0
 45
0.000000001
 73
     0
 74
     0
 77
     1
 78
    12
 79
     3
140
3.5
143
0.0393700787401575
147
0.875
148
0.000000001
170
     1
173
     1
178
     0
271
     2
272
     2
276
     2
284
    12
340
94
  0
ENDTAB
  0
TABLE
  2
BLOCK_RECORD
  5
1
330
0
100
AcDbSymbolTable
 70
     7
  0
BLOCK_RECORD
  5
1F
330
1
100
AcDbSymbolTableRecord
100
AcDbBlockTableRecord
  2
*Model_Space
340
22
  0
BLOCK_RECORD
  5
1B
330
1
100
AcDbSymbolTableRecord
100
AcDbBlockTableRecord
  2
*Paper_Space
340
1E
  0
BLOCK_RECORD
  5
23
330
1
100
AcDbSymbolTableRecord
100
AcDbBlockTableRecord
  2
*Paper_Space0
340
26
  0
BLOCK_RECORD
  5
7F
330
1
100
AcDbSymbolTableRecord
100
AcDbBlockTableRecord
  2
블럭10
340
0
102
{BLKREFS
331
BE
102
}
  0
BLOCK_RECORD
  5
C7
330
1
100
AcDbSymbolTableRecord
100
AcDbBlockTableRecord
  2
_D
340
0
  0
BLOCK_RECORD
  5
DD
330
1
100
AcDbSymbolTableRecord
100
AcDbBlockTableRecord
  2
_D_1
340
0
  0
BLOCK_RECORD
  5
F0
330
1
100
AcDbSymbolTableRecord
100
AcDbBlockTableRecord
  2
_D_2
340
0
  0
BLOCK_RECORD
  5
104
330
1
100
AcDbSymbolTableRecord
100
AcDbBlockTableRecord
  2
_D_3
340
0
  0
BLOCK_RECORD
  5
11E
330
1
100
AcDbSymbolTableRecord
100
AcDbBlockTableRecord
  2
SW_DOWELSYMBOL_0
340
0
102
{BLKREFS
331
124
102
}
  0
ENDTAB
  0
ENDSEC
  0
SECTION
  2
BLOCKS
  0
BLOCK
  5
20
330
1F
100
AcDbEntity
  8
0
100
AcDbBlockBegin
  2
*Model_Space
 70
     0
 10
0.0
 20
0.0
 30
0.0
  3
*Model_Space
  1
*Model_Space
  0
ENDBLK
  5
21
330
1F
100
AcDbEntity
  8
0
100
AcDbBlockEnd
  0
BLOCK
  5
1C
330
1B
100
AcDbEntity
 67
     1
  8
0
100
AcDbBlockBegin
  2
*Paper_Space
 70
     0
 10
0.0
 20
0.0
 30
0.0
  3
*Paper_Space
  1
*Paper_Space
  0
ENDBLK
  5
1D
330
1B
100
AcDbEntity
 67
     1
  8
0
100
AcDbBlockEnd
  0
BLOCK
  5
24
330
23
100
AcDbEntity
  8
0
100
AcDbBlockBegin
  2
*Paper_Space0
 70
     0
 10
0.0
 20
0.0
 30
0.0
  3
*Paper_Space0
  1
*Paper_Space0
  0
ENDBLK
  5
25
330
23
100
AcDbEntity
  8
0
100
AcDbBlockEnd
  0
BLOCK
  5
80
330
7F
100
AcDbEntity
  8
0
100
AcDbBlockBegin
  2
블럭10
 70
     2
 10
0.0
 20
0.0
 30
0.0
  3
블럭10
  1
블럭10
  0
ELLIPSE
  5
82
330
7F
100
AcDbEntity
  8
중심선
100
AcDbEllipse
 10
20.54032771741204
 20
12.0471743016438
 30
0.0
 11
6.600054785286829
 21
-1.261213355974178E-13
 31
0.0
210
0.0
220
0.0
230
1.0
 40
0.636358354079598
 41
0.9219305317359503
 42
6.513795318482858
  0
ELLIPSE
  5
83
330
7F
100
AcDbEntity
  8
중심선
100
AcDbEllipse
 10
20.54032771746488
 20
12.04717430159265
 30
0.0
 11
3.960054785062283
 21
1.540847449632565E-10
 31
0.0
210
0.0
220
0.0
230
1.0
 40
0.3939339440162632
 41
1.131841032648279
 42
5.62031148352944
  0
LINE
  5
84
330
7F
100
AcDbEntity
  8
중심선
100
AcDbLine
 10
2.268634060543552
 20
16.24717430164393
 30
0.0
 11
5.714909304380834
 21
16.24717430164393
 31
0.0
  0
LINE
  5
85
330
7F
100
AcDbEntity
  8
중심선
100
AcDbLine
 10
5.245725140726316
 20
7.84717430164391
 30
0.0
 11
8.692000384563599
 21
7.84717430164391
 31
0.0
  0
LINE
  5
86
330
7F
100
AcDbEntity
  8
중심선
100
AcDbLine
 10
15.74043728645272
 20
16.24717430164393
 30
0.0
 11
8.692000384563599
 21
7.84717430164391
 31
0.0
  0
LINE
  5
87
330
7F
100
AcDbEntity
  8
중심선
100
AcDbLine
 10
0.1404042013395286
 20
13.71084872107135
 30
0.0
 11
3.58671253028996
 21
13.71088815037384
 31
0.0
  0
LINE
  5
88
330
7F
100
AcDbEntity
  8
중심선
100
AcDbLine
 10
2.750260043222114
 20
10.84717430164391
 30
0.0
 11
6.196535287059397
 21
10.84717430164391
 31
0.0
  0
LINE
  5
89
330
7F
100
AcDbEntity
  8
중심선
100
AcDbLine
 10
12.29416204261559
 20
16.24717430164393
 30
0.0
 11
5.245725140726316
 21
7.84717430164391
 31
0.0
  0
LINE
  5
8A
330
7F
100
AcDbEntity
  8
중심선
100
AcDbLine
 10
10.72767329541681
 20
16.24717430164393
 30
0.0
 11
6.196535287059397
 21
10.84717430164391
 31
0.0
  0
LINE
  5
8B
330
7F
100
AcDbEntity
  8
중심선
100
AcDbLine
 10
7.28139805157953
 20
16.24717430164393
 30
0.0
 11
2.750260043222114
 21
10.84717430164391
 31
0.0
  0
LINE
  5
8C
330
7F
100
AcDbEntity
  8
중심선
100
AcDbLine
 10
5.714909304380834
 20
16.24717430164393
 30
0.0
 11
3.58671253028996
 21
13.71088815037384
 31
0.0
  0
LINE
  5
8D
330
7F
100
AcDbEntity
  8
중심선
100
AcDbLine
 10
2.268634060543552
 20
16.24717430164393
 30
0.0
 11
0.1404042013395286
 21
13.71084872107135
 31
0.0
  0
LINE
  5
8E
330
7F
100
AcDbEntity
  8
중심선
100
AcDbLine
 10
7.28139805157953
 20
16.24717430164393
 30
0.0
 11
10.72767329541681
 21
16.24717430164393
 31
0.0
  0
LINE
  5
8F
330
7F
100
AcDbEntity
  8
중심선
100
AcDbLine
 10
12.29416204261559
 20
16.24717430164393
 30
0.0
 11
15.74043728645272
 21
16.24717430164393
 31
0.0
  0
LINE
  5
90
330
7F
100
AcDbEntity
  8
중심선
100
AcDbLine
 10
19.22036997980202
 20
11.08717430171403
 30
0.0
 11
23.66174974927406
 21
11.08717430171406
 31
0.0
  0
LINE
  5
91
330
7F
100
AcDbEntity
  8
중심선
100
AcDbLine
 10
19.22039502424796
 20
13.00717430171391
 30
0.0
 11
19.22036997980202
 21
11.08717430171403
 31
0.0
  0
LINE
  5
92
330
7F
100
AcDbEntity
  8
중심선
100
AcDbLine
 10
19.22039502424796
 20
13.00717430171391
 30
0.0
 11
26.96566020931264
 21
13.00717430171391
 31
0.0
  0
LINE
  5
93
330
7F
100
AcDbEntity
  8
중심선
100
AcDbLine
 10
22.22332737316547
 20
13.45928029700563
 30
0.0
 11
24.52862924686651
 21
15.39360700705356
 31
0.0
  0
ATTDEF
  5
95
330
7F
100
AcDbEntity
  8
FORMAT
 62
     2
100
AcDbText
 10
3.448148490846466
 20
2.075366912832191
 30
0.0
 40
4.233333333333333
  1
EM210903
 41
0.75
  7
SLDTEXTSTYLE0
 11
3.448148490846466
 21
-0.0412997538344756
 31
0.0
100
AcDbAttributeDefinition
  3

  2
AUTOATTR0
 70
     0
 74
     1
  0
ENDBLK
  5
81
330
7F
100
AcDbEntity
  8
0
100
AcDbBlockEnd
  0
BLOCK
  5
C8
330
C7
100
AcDbEntity
  8
0
100
AcDbBlockBegin
  2
_D
 70
     0
 10
0.0
 20
0.0
 30
0.0
  3
_D
  1
_D
  0
LINE
  5
CA
330
C7
100
AcDbEntity
  8
치수문자_일반주서
 62
     0
370
    -2
100
AcDbLine
 10
38.57500000000002
 20
3.238574928723896
 30
0.0
 11
38.57500000000002
 21
38.39811096570963
 31
0.0
  0
LINE
  5
CB
330
C7
100
AcDbEntity
  8
치수문자_일반주서
 62
     0
370
    -2
100
AcDbLine
 10
10.0
 20
3.238574928723904
 30
0.0
 11
10.0
 21
38.39811096570963
 31
0.0
  0
LINE
  5
CC
330
C7
100
AcDbEntity
  8
치수문자_일반주서
 62
     0
370
    -2
100
AcDbLine
 10
35.27300000000002
 20
38.39811096570963
 30
0.0
 11
13.302
 21
38.39811096570963
 31
0.0
  0
SOLID
  5
CD
330
C7
100
AcDbEntity
  8
치수문자_일반주서
 62
     0
100
AcDbTrace
 10
35.27300000000002
 20
37.8477776323763
 30
0.0
 11
35.27300000000002
 21
38.94844429904297
 31
0.0
 12
38.57500000000002
 22
38.39811096570963
 32
0.0
 13
38.57500000000002
 23
38.39811096570963
 33
0.0
  0
SOLID
  5
CE
330
C7
100
AcDbEntity
  8
치수문자_일반주서
 62
     0
100
AcDbTrace
 10
13.302
 20
38.94844429904297
 30
0.0
 11
13.302
 21
37.8477776323763
 31
0.0
 12
10.0
 22
38.39811096570963
 32
0.0
 13
10.0
 23
38.39811096570963
 33
0.0
  0
MTEXT
  5
CF
330
C7
100
AcDbEntity
  8
치수문자_일반주서
 62
     0
100
AcDbMText
 10
21.11249999999999
 20
42.77311096570963
 30
0.0
 40
3.5
 41
0.0
 71
     2
 72
     1
  1
\A1;28.58 [1 1/8]
  7
SLDTEXTSTYLE0
 73
     1
 44
1.0
  0
POINT
  5
D0
330
C7
100
AcDbEntity
  8
Defpoints
 62
     0
100
AcDbPoint
 10
38.57500000000002
 20
3.176074928723896
 30
0.0
  0
POINT
  5
D1
330
C7
100
AcDbEntity
  8
Defpoints
 62
     0
100
AcDbPoint
 10
10.0
 20
3.176074928723904
 30
0.0
  0
POINT
  5
D2
330
C7
100
AcDbEntity
  8
Defpoints
 62
     0
100
AcDbPoint
 10
10.0
 20
38.39811096570963
 30
0.0
  0
ENDBLK
  5
C9
330
C7
100
AcDbEntity
  8
0
100
AcDbBlockEnd
  0
BLOCK
  5
DE
330
DD
100
AcDbEntity
  8
0
100
AcDbBlockBegin
  2
_D_1
 70
     0
 10
0.0
 20
0.0
 30
0.0
  3
_D_1
  1
_D_1
  0
LINE
  5
E0
330
DD
100
AcDbEntity
  8
치수문자_일반주서
 62
     0
370
    -2
100
AcDbLine
 10
38.57500000000002
 20
3.238574928723896
 30
0.0
 11
38.57500000000002
 21
53.97636907984727
 31
0.0
  0
LINE
  5
E1
330
DD
100
AcDbEntity
  8
치수문자_일반주서
 62
     0
370
    -2
100
AcDbLine
 10
-37.625
 20
2.603574928723908
 30
0.0
 11
-37.62500000000001
 21
53.97636907984727
 31
0.0
  0
LINE
  5
E2
330
DD
100
AcDbEntity
  8
치수문자_일반주서
 62
     0
370
    -2
100
AcDbLine
 10
35.27300000000002
 20
53.97636907984727
 30
0.0
 11
-34.32300000000001
 21
53.97636907984727
 31
0.0
  0
SOLID
  5
E3
330
DD
100
AcDbEntity
  8
치수문자_일반주서
 62
     0
100
AcDbTrace
 10
35.27300000000002
 20
53.42603574651393
 30
0.0
 11
35.27300000000002
 21
54.5267024131806
 31
0.0
 12
38.57500000000002
 22
53.97636907984727
 32
0.0
 13
38.57500000000002
 23
53.97636907984727
 33
0.0
  0
SOLID
  5
E4
330
DD
100
AcDbEntity
  8
치수문자_일반주서
 62
     0
100
AcDbTrace
 10
-34.32300000000001
 20
54.5267024131806
 30
0.0
 11
-34.32300000000001
 21
53.42603574651393
 31
0.0
 12
-37.62500000000001
 22
53.97636907984727
 32
0.0
 13
-37.62500000000001
 23
53.97636907984727
 33
0.0
  0
MTEXT
  5
E5
330
DD
100
AcDbEntity
  8
치수문자_일반주서
 62
     0
100
AcDbMText
 10
-2.840720666352797
 20
58.35136907984727
 30
0.0
 40
3.5
 41
0.0
 71
     2
 72
     1
  1
\A1;76.2 [3]
  7
SLDTEXTSTYLE0
 73
     1
 44
1.0
  0
POINT
  5
E6
330
DD
100
AcDbEntity
  8
Defpoints
 62
     0
100
AcDbPoint
 10
38.57500000000002
 20
3.176074928723896
 30
0.0
  0
POINT
  5
E7
330
DD
100
AcDbEntity
  8
Defpoints
 62
     0
100
AcDbPoint
 10
-37.625
 20
2.541074928723908
 30
0.0
  0
POINT
  5
E8
330
DD
100
AcDbEntity
  8
Defpoints
 62
     0
100
AcDbPoint
 10
-37.625
 20
53.97636907984727
 30
0.0
  0
ENDBLK
  5
DF
330
DD
100
AcDbEntity
  8
0
100
AcDbBlockEnd
  0
BLOCK
  5
F1
330
F0
100
AcDbEntity
  8
0
100
AcDbBlockBegin
  2
_D_2
 70
     0
 10
0.0
 20
0.0
 30
0.0
  3
_D_2
  1
_D_2
  0
LINE
  5
F3
330
F0
100
AcDbEntity
  8
치수문자_일반주서
 62
     0
370
    -2
100
AcDbLine
 10
-37.05250000000002
 20
3.176074928723904
 30
0.0
 11
-50.30750000000004
 21
3.176074928723855
 31
0.0
  0
LINE
  5
F4
330
F0
100
AcDbEntity
  8
치수문자_일반주서
 62
     0
370
    -2
100
AcDbLine
 10
-37.05250000000002
 20
-3.173925071276118
 30
0.0
 11
-50.30750000000002
 21
-3.173925071276167
 31
0.0
  0
LINE
  5
F5
330
F0
100
AcDbEntity
  8
치수문자_일반주서
 62
     0
370
    -2
100
AcDbLine
 10
-50.30750000000003
 20
-0.1259250712761446
 30
0.0
 11
-50.30750000000003
 21
0.1280749287238323
 31
0.0
  0
SOLID
  5
F6
330
F0
100
AcDbEntity
  8
치수문자_일반주서
 62
     0
100
AcDbTrace
 10
-49.75716666666669
 20
-0.1259250712761427
 30
0.0
 11
-50.85783333333336
 21
-0.1259250712761465
 31
0.0
 12
-50.30750000000004
 22
3.176074928723855
 32
0.0
 13
-50.30750000000004
 23
3.176074928723855
 33
0.0
  0
SOLID
  5
F7
330
F0
100
AcDbEntity
  8
치수문자_일반주서
 62
     0
100
AcDbTrace
 10
-50.85783333333337
 20
0.1280749287238304
 30
0.0
 11
-49.7571666666667
 21
0.1280749287238342
 31
0.0
 12
-50.30750000000002
 22
-3.173925071276167
 32
0.0
 13
-50.30750000000002
 23
-3.173925071276167
 33
0.0
  0
MTEXT
  5
F8
330
F0
100
AcDbEntity
  8
치수문자_일반주서
 62
     0
100
AcDbMText
 10
-54.68250000000003
 20
0.0010749287238882
 30
0.0
 40
3.5
 41
0.0
 71
     2
 72
     1
  1
\A1;%%c6.35 [1/4]
  7
SLDTEXTSTYLE0
 11
-3.356894814614635E-15
 21
1.0
 31
0.0
 73
     1
 44
1.0
  0
POINT
  5
F9
330
F0
100
AcDbEntity
  8
Defpoints
 62
     0
100
AcDbPoint
 10
-36.99000000000002
 20
3.176074928723904
 30
0.0
  0
POINT
  5
FA
330
F0
100
AcDbEntity
  8
Defpoints
 62
     0
100
AcDbPoint
 10
-36.99000000000002
 20
-3.173925071276118
 30
0.0
  0
POINT
  5
FB
330
F0
100
AcDbEntity
  8
Defpoints
 62
     0
100
AcDbPoint
 10
-50.30750000000002
 20
-3.173925071276168
 30
0.0
  0
ENDBLK
  5
F2
330
F0
100
AcDbEntity
  8
0
100
AcDbBlockEnd
  0
BLOCK
  5
105
330
104
100
AcDbEntity
  8
0
100
AcDbBlockBegin
  2
_D_3
 70
     0
 10
0.0
 20
0.0
 30
0.0
  3
_D_3
  1
_D_3
  0
LINE
  5
107
330
104
100
AcDbEntity
  8
치수문자_일반주서
 62
     0
370
    -2
100
AcDbLine
 10
38.63750000000002
 20
3.176074928723896
 30
0.0
 11
46.56911321280617
 21
3.176074928723924
 31
0.0
  0
LINE
  5
108
330
104
100
AcDbEntity
  8
치수문자_일반주서
 62
     0
370
    -2
100
AcDbLine
 10
38.63750000000002
 20
-3.173925071276102
 30
0.0
 11
46.56911321280619
 21
-3.173925071276074
 31
0.0
  0
LINE
  5
109
330
104
100
AcDbEntity
  8
치수문자_일반주서
 62
     0
370
    -2
100
AcDbLine
 10
46.56911321280617
 20
3.176074928723924
 30
0.0
 11
46.56911321280607
 21
35.81132492872392
 31
0.0
  0
LINE
  5
10A
330
104
100
AcDbEntity
  8
치수문자_일반주서
 62
     0
370
    -2
100
AcDbLine
 10
46.56911321280617
 20
3.176074928723924
 30
0.0
 11
46.56911321280619
 21
-3.173925071276074
 31
0.0
  0
LINE
  5
10B
330
104
100
AcDbEntity
  8
치수문자_일반주서
 62
     0
370
    -2
100
AcDbLine
 10
46.56911321280616
 20
6.478074928723924
 30
0.0
 11
46.56911321280614
 21
9.780074928723923
 31
0.0
  0
LINE
  5
10C
330
104
100
AcDbEntity
  8
치수문자_일반주서
 62
     0
370
    -2
100
AcDbLine
 10
46.56911321280621
 20
-6.475925071276073
 30
0.0
 11
46.56911321280622
 21
-9.777925071276073
 31
0.0
  0
SOLID
  5
10D
330
104
100
AcDbEntity
  8
치수문자_일반주서
 62
     0
100
AcDbTrace
 10
46.01877987947282
 20
6.478074928723922
 30
0.0
 11
47.11944654613949
 21
6.478074928723926
 31
0.0
 12
46.56911321280617
 22
3.176074928723924
 32
0.0
 13
46.56911321280617
 23
3.176074928723924
 33
0.0
  0
SOLID
  5
10E
330
104
100
AcDbEntity
  8
치수문자_일반주서
 62
     0
100
AcDbTrace
 10
47.11944654613954
 20
-6.475925071276071
 30
0.0
 11
46.01877987947287
 21
-6.475925071276075
 31
0.0
 12
46.56911321280619
 22
-3.173925071276074
 32
0.0
 13
46.56911321280619
 23
-3.173925071276074
 33
0.0
  0
MTEXT
  5
10F
330
104
100
AcDbEntity
  8
치수문자_일반주서
 62
     0
100
AcDbMText
 10
42.19411321280611
 20
23.12382492872391
 30
0.0
 40
3.5
 41
0.0
 71
     2
 72
     1
  1
\A1;%%c6.35 [1/4]
  7
SLDTEXTSTYLE0
 11
-3.356894814614648E-15
 21
1.0
 31
0.0
 73
     1
 44
1.0
  0
POINT
  5
110
330
104
100
AcDbEntity
  8
Defpoints
 62
     0
100
AcDbPoint
 10
38.57500000000002
 20
3.176074928723896
 30
0.0
  0
POINT
  5
111
330
104
100
AcDbEntity
  8
Defpoints
 62
     0
100
AcDbPoint
 10
38.57500000000002
 20
-3.173925071276102
 30
0.0
  0
POINT
  5
112
330
104
100
AcDbEntity
  8
Defpoints
 62
     0
100
AcDbPoint
 10
46.56911321280619
 20
-3.173925071276072
 30
0.0
  0
ENDBLK
  5
106
330
104
100
AcDbEntity
  8
0
100
AcDbBlockEnd
  0
BLOCK
  5
11F
330
11E
100
AcDbEntity
  8
0
100
AcDbBlockBegin
  2
SW_DOWELSYMBOL_0
 70
     0
 10
0.0
 20
0.0
 30
0.0
  3
SW_DOWELSYMBOL_0
  1
SW_DOWELSYMBOL_0
  0
CIRCLE
  5
121
330
11E
100
AcDbEntity
  8
해칭선
 62
     0
100
AcDbCircle
 10
0.0
 20
0.0
 30
0.0
 40
3.000000000000001
  0
HATCH
  5
122
330
11E
100
AcDbEntity
  8
0
  6
Continuous
 62
     0
370
     0
100
AcDbHatch
 10
0.0
 20
0.0
 30
0.0
210
0.0
220
0.0
230
1.0
  2
SOLID
 70
     1
 71
     0
 91
        1
 92
        0
 93
        3
 72
     2
 10
0.0
 20
0.0
 40
3.000000000000001
 50
0.0
 51
90.0
 73
     1
 72
     1
 10
0.0
 20
3.000000000000001
 11
0.0
 21
0.0
 72
     1
 10
0.0
 20
0.0
 11
3.000000000000001
 21
0.0
 97
        0
 75
     0
 76
     1
 98
        1
 10
0.0
 20
0.0
  0
HATCH
  5
123
330
11E
100
AcDbEntity
  8
0
  6
Continuous
 62
     0
370
     0
100
AcDbHatch
 10
0.0
 20
0.0
 30
0.0
210
0.0
220
0.0
230
1.0
  2
SOLID
 70
     1
 71
     0
 91
        1
 92
        0
 93
        3
 72
     2
 10
0.0
 20
0.0
 40
3.000000000000001
 50
180.0
 51
270.0000000000007
 73
     1
 72
     1
 10
0.0
 20
-3.000000000000001
 11
0.0
 21
0.0
 72
     1
 10
0.0
 20
0.0
 11
-3.000000000000001
 21
0.0
 97
        0
 75
     0
 76
     1
 98
        1
 10
0.0
 20
0.0
  0
ENDBLK
  5
120
330
11E
100
AcDbEntity
  8
0
100
AcDbBlockEnd
  0
ENDSEC
  0
SECTION
  2
ENTITIES
  0
LINE
  5
96
330
1F
100
AcDbEntity
  8
0
  6
Continuous
 62
     1
370
    15
100
AcDbLine
 10
34.76793081959525
 20
0.9226670612711096
 30
0.0
 11
34.70967114123653
 21
0.9537991513468388
 31
0.0
  0
LINE
  5
97
330
1F
100
AcDbEntity
  8
0
  6
Continuous
 62
     1
370
    15
100
AcDbLine
 10
21.04507248162193
 20
3.176074928723878
 30
0.0
 11
19.11087260750762
 21
3.176074928723878
 31
0.0
  0
LINE
  5
98
330
1F
100
AcDbEntity
  8
0
  6
Continuous
 62
     1
370
    15
100
AcDbLine
 10
19.11087260750764
 20
-3.173925071276092
 30
0.0
 11
21.04507248162191
 21
-3.173925071276092
 31
0.0
  0
LINE
  5
99
330
1F
100
AcDbEntity
  8
0
  6
Continuous
 62
     1
370
    15
100
AcDbLine
 10
27.74820459825567
 20
-3.173925071276092
 30
0.0
 11
29.68358003506129
 21
-3.173925071276092
 31
0.0
  0
LINE
  5
9A
330
1F
100
AcDbEntity
  8
0
  6
Continuous
 62
     1
370
    15
100
AcDbLine
 10
12.40810853907606
 20
3.176074928723878
 30
0.0
 11
10.47183591654177
 21
3.176074928723878
 31
0.0
  0
ARC
  5
9B
330
1F
100
AcDbEntity
  8
0
  6
Continuous
 62
     1
370
    15
100
AcDbCircle
 10
35.40000000000005
 20
0.0010749287238891
 30
0.0
 40
3.174999999999974
100
AcDbArc
 50
290.0771379978986
 51
0.0
  0
ARC
  5
9C
330
1F
100
AcDbEntity
  8
0
  6
Continuous
 62
     1
370
    15
100
AcDbCircle
 10
35.40000000000005
 20
0.0010749287238891
 30
0.0
 40
3.174999999999976
100
AcDbArc
 50
0.0
 51
70.0435242670209
  0
LINE
  5
9D
330
1F
100
AcDbEntity
  8
0
  6
Continuous
 62
     1
370
    15
100
AcDbLine
 10
10.47183591654179
 20
-3.173925071276092
 30
0.0
 11
12.40810853907609
 21
-3.173925071276092
 31
0.0
  0
LINE
  5
9E
330
1F
100
AcDbEntity
  8
0
  6
Continuous
 62
     1
370
    15
100
AcDbLine
 10
29.68358003506134
 20
3.176074928723878
 30
0.0
 11
27.74820459825567
 21
3.176074928723878
 31
0.0
  0
LINE
  5
9F
330
1F
100
AcDbEntity
  8
외형선
  6
Continuous
370
    15
100
AcDbLine
 10
-36.99000000000002
 20
3.176074928723894
 30
0.0
 11
-37.62500000000001
 21
2.541074928723897
 31
0.0
  0
LINE
  5
A0
330
1F
100
AcDbEntity
  8
외형선
  6
Continuous
370
    15
100
AcDbLine
 10
-37.62500000000001
 20
-2.53892507127611
 30
0.0
 11
-36.99000000000002
 21
-3.173925071276108
 31
0.0
  0
LINE
  5
A1
330
1F
100
AcDbEntity
  8
외형선
  6
Continuous
370
    15
100
AcDbLine
 10
-36.99000000000002
 20
-3.173925071276107
 30
0.0
 11
9.999999999999988
 21
-3.173925071276107
 31
0.0
  0
LINE
  5
A2
330
1F
100
AcDbEntity
  8
외형선
  6
Continuous
370
    15
100
AcDbLine
 10
9.999999999999988
 20
3.176074928723893
 30
0.0
 11
-36.99000000000002
 21
3.176074928723893
 31
0.0
  0
SPLINE
  5
A3
330
1F
100
AcDbEntity
  8
0
  6
Continuous
 62
     1
370
    15
100
AcDbSpline
210
0.0
220
0.0
230
1.0
 70
     8
 71
     3
 72
    15
 73
    11
 74
     0
 42
0.000000001
 43
0.00000001
 40
0.0
 40
0.0
 40
0.0
 40
0.0
 40
0.1307851235964493
 40
0.2614376580463443
 40
0.3920274910528806
 40
0.522625115284327
 40
0.6533009481337252
 40
0.7841148364817773
 40
0.9148647265611642
 40
1.0
 40
1.0
 40
1.0
 40
1.0
 10
9.999999999999988
 20
0.2731132126109282
 30
0.0
 10
10.39726564051773
 20
0.0435548207627086
 30
0.0
 10
11.19139417611254
 20
-0.4153292380608813
 30
0.0
 10
12.38185622323548
 20
-1.087939768255672
 30
0.0
 10
13.57165794840019
 20
-1.708736950700939
 30
0.0
 10
14.76154680522034
 20
-2.249556003866484
 30
0.0
 10
15.95222680258511
 20
-2.686920923104129
 30
0.0
 10
17.14376572531879
 20
-2.992665077590789
 30
0.0
 10
18.19679349301309
 20
-3.159040562977957
 30
0.0
 10
18.85235070732078
 20
-3.15762111354642
 30
0.0
 10
19.11087260750765
 20
-3.157061347356299
 30
0.0
  0
SPLINE
  5
A4
330
1F
100
AcDbEntity
  8
0
  6
Continuous
 62
     1
370
    15
100
AcDbSpline
210
0.0
220
0.0
230
1.0
 70
     8
 71
     3
 72
     9
 73
     5
 74
     0
 42
0.000000001
 43
0.00000001
 40
0.0
 40
0.0
 40
0.0
 40
0.0
 40
0.4402232559571772
 40
1.0
 40
1.0
 40
1.0
 40
1.0
 10
33.03726077880879
 20
2.591948739462015
 30
0.0
 10
33.38397913253662
 20
2.704302309642201
 30
0.0
 10
34.17157576455458
 20
2.959521834416955
 30
0.0
 10
34.95913990803675
 20
3.06566326923206
 30
0.0
 10
35.40000000000009
 20
3.125078776020893
 30
0.0
  0
SPLINE
  5
A5
330
1F
100
AcDbEntity
  8
0
  6
Continuous
 62
     1
370
    15
100
AcDbSpline
210
0.0
220
0.0
230
1.0
 70
     8
 71
     3
 72
    42
 73
    38
 74
     0
 42
0.000000001
 43
0.00000001
 40
0.0
 40
0.0
 40
0.0
 40
0.0
 40
0.0624999999999999
 40
0.0624999999999999
 40
0.1249999999999997
 40
0.1249999999999997
 40
0.1874999999999996
 40
0.1874999999999996
 40
0.2499999999999994
 40
0.2499999999999994
 40
0.3124999999999993
 40
0.3124999999999993
 40
0.3749999999999992
 40
0.3749999999999992
 40
0.437499999999999
 40
0.437499999999999
 40
0.4687499999999997
 40
0.4687499999999997
 40
0.5000000000000003
 40
0.5000000000000003
 40
0.5625000000000017
 40
0.5625000000000017
 40
0.5937500000000016
 40
0.5937500000000016
 40
0.6250000000000014
 40
0.6250000000000014
 40
0.6875000000000012
 40
0.6875000000000012
 40
0.750000000000001
 40
0.750000000000001
 40
0.8125000000000008
 40
0.8125000000000008
 40
0.8750000000000004
 40
0.8750000000000004
 40
0.9375000000000002
 40
0.9375000000000002
 40
1.0
 40
1.0
 40
1.0
 40
1.0
 10
35.40000000000005
 20
3.12507877602092
 30
0.0
 10
35.56135754929655
 20
3.141672712446534
 30
0.0
 10
35.72192955218478
 20
3.141515526441195
 30
0.0
 10
36.04368656642046
 20
3.10837869941277
 30
0.0
 10
36.20645952974891
 20
3.074892457182629
 30
0.0
 10
36.52879310056312
 20
2.974320687371453
 30
0.0
 10
36.68574404674911
 20
2.908335180635791
 30
0.0
 10
36.99082251417796
 20
2.746079600458766
 30
0.0
 10
37.14032156975428
 20
2.648607262560856
 30
0.0
 10
37.41974233598099
 20
2.428523199053639
 30
0.0
 10
37.54984207375612
 20
2.306312309600421
 30
0.0
 10
37.78838749453265
 20
2.038447516747949
 30
0.0
 10
37.89719943770985
 20
1.891701684183083
 30
0.0
 10
38.08100235158705
 20
1.585715539596261
 30
0.0
 10
38.15747590434862
 20
1.424792513909616
 30
0.0
 10
38.24146150678979
 20
1.177121324620018
 30
0.0
 10
38.26386166049328
 20
1.094827541463959
 30
0.0
 10
38.29634802392459
 20
0.9319423097817632
 30
0.0
 10
38.30645984878459
 20
0.8505055189576943
 30
0.0
 10
38.31461517612065
 20
0.6181649671407959
 30
0.0
 10
38.28967326488112
 20
0.4765664572836666
 30
0.0
 10
38.20580943420682
 20
0.3219921074165902
 30
0.0
 10
38.16954111612645
 20
0.2789255084546822
 30
0.0
 10
38.08516525320573
 20
0.2157833391310647
 30
0.0
 10
38.03672699984855
 20
0.194980078004031
 30
0.0
 10
37.87667519219701
 20
0.1634787504260187
 30
0.0
 10
37.75286132444858
 20
0.1842775245508033
 30
0.0
 10
37.49346152508807
 20
0.2775538723106625
 30
0.0
 10
37.35484733367458
 20
0.3510652870316449
 30
0.0
 10
37.07468311724632
 20
0.5213890322022312
 30
0.0
 10
36.93008289666184
 20
0.6198280152446539
 30
0.0
 10
36.63593488319239
 20
0.8252948872786083
 30
0.0
 10
36.48812523576611
 20
0.9310880157393837
 30
0.0
 10
36.18621695751837
 20
1.140720892900604
 30
0.0
 10
36.03102267567375
 20
1.245427290309999
 30
0.0
 10
35.71907552332515
 20
1.440038176517729
 30
0.0
 10
35.56133288430047
 20
1.530119787540815
 30
0.0
 10
35.40000000000005
 20
1.610242241965581
 30
0.0
  0
SPLINE
  5
A6
330
1F
100
AcDbEntity
  8
0
  6
Continuous
 62
     1
370
    15
100
AcDbSpline
210
0.0
220
0.0
230
1.0
 70
     8
 71
     3
 72
    12
 73
     8
 74
     0
 42
0.000000001
 43
0.00000001
 40
0.0
 40
0.0
 40
0.0
 40
0.0
 40
0.2313787922495739
 40
0.4627894099597381
 40
0.6942433264411744
 40
0.9027726911606355
 40
0.9999999999999999
 40
0.9999999999999999
 40
0.9999999999999999
 40
0.9999999999999999
 10
35.40000000000005
 20
1.610242241965587
 30
0.0
 10
34.9591396984942
 20
1.820558501423243
 30
0.0
 10
34.07735845646707
 20
2.241219948710778
 30
0.0
 10
32.75451645139247
 20
2.720732927135896
 30
0.0
 10
31.47522341781169
 20
3.030248409838788
 30
0.0
 10
30.4513986293821
 20
3.173920232300163
 30
0.0
 10
29.86883041439
 20
3.161513363322853
 30
0.0
 10
29.68358003506135
 20
3.157568113435922
 30
0.0
  0
SPLINE
  5
A7
330
1F
100
AcDbEntity
  8
0
  6
Continuous
 62
     1
370
    15
100
AcDbSpline
210
0.0
220
0.0
230
1.0
 70
     8
 71
     3
 72
    12
 73
     8
 74
     0
 42
0.000000001
 43
0.00000001
 40
0.0
 40
0.0
 40
0.0
 40
0.0
 40
0.1729827392946978
 40
0.3796442377336922
 40
0.5862934071106249
 40
0.7930417970845209
 40
1.0
 40
1.0
 40
1.0
 40
1.0
 10
15.75725889673196
 20
-2.59410090890422
 30
0.0
 10
15.42527260975256
 20
-2.698980168096242
 30
0.0
 10
14.6966641868994
 20
-2.929158083952903
 30
0.0
 10
13.57166361083754
 20
-3.12568243352185
 30
0.0
 10
12.38185471253168
 20
-3.197743421033317
 30
0.0
 10
11.19139455431129
 20
-3.126653416987607
 30
0.0
 10
10.39726576662659
 20
-2.958555126343157
 30
0.0
 10
9.999999999999988
 20
-2.874463355163087
 30
0.0
  0
SPLINE
  5
A8
330
1F
100
AcDbEntity
  8
0
  6
Continuous
 62
     1
370
    15
100
AcDbSpline
210
0.0
220
0.0
230
1.0
 70
     8
 71
     3
 72
    22
 73
    18
 74
     0
 42
0.000000001
 43
0.00000001
 40
0.0
 40
0.0
 40
0.0
 40
0.0
 40
0.0671359554567788
 40
0.1342038488986102
 40
0.2012395557951171
 40
0.2682792621627727
 40
0.3353591153770021
 40
0.4025098366498709
 40
0.4696277056778034
 40
0.5366853897583846
 40
0.6037188627596186
 40
0.6707643322873583
 40
0.7378578900623712
 40
0.8050150100711092
 40
0.8721165196293866
 40
0.9391657495648793
 40
1.0
 40
1.0
 40
1.0
 40
1.0
 10
9.999999999999995
 20
3.164399156826305
 30
0.0
 10
10.39726563893671
 20
3.169713251152904
 30
0.0
 10
11.19139417137109
 20
3.180336052410257
 30
0.0
 10
12.38185624217514
 20
3.008234417113559
 30
0.0
 10
13.57165787741034
 20
2.706350143104001
 30
0.0
 10
14.76154707033868
 20
2.275348481263678
 30
0.0
 10
15.95222581202452
 20
1.738745863428151
 30
0.0
 10
17.14376942565659
 20
1.121168745812329
 30
0.0
 10
18.33496870030394
 20
0.4511030331898508
 30
0.0
 10
19.52522720381528
 20
-0.2400289667522535
 30
0.0
 10
20.71497837466308
 20
-0.9197676994874935
 30
0.0
 10
21.90498860638765
 20
-1.556634403421845
 30
0.0
 10
23.09587791646373
 20
-2.120630562659471
 30
0.0
 10
24.28748605572413
 20
-2.586190750581036
 30
0.0
 10
25.47848511849149
 20
-2.927700538109411
 30
0.0
 10
26.63190095001803
 20
-3.138884474414889
 30
0.0
 10
27.38835767020822
 20
-3.158412722781573
 30
0.0
 10
27.74820459825567
 20
-3.16770232256612
 30
0.0
  0
SPLINE
  5
A9
330
1F
100
AcDbEntity
  8
0
  6
Continuous
 62
     1
370
    15
100
AcDbSpline
210
0.0
220
0.0
230
1.0
 70
     8
 71
     3
 72
    20
 73
    16
 74
     0
 42
0.000000001
 43
0.00000001
 40
0.0
 40
0.0
 40
0.0
 40
0.0
 40
0.0076693544691917
 40
0.0904529888319511
 40
0.1731582709259548
 40
0.2558042753159859
 40
0.3384354917570442
 40
0.4210965528540369
 40
0.5038318030865241
 40
0.586607549817853
 40
0.6692959384931254
 40
0.7519348387170297
 40
0.8345688088492755
 40
0.917242454881844
 40
0.9999999999999999
 40
0.9999999999999999
 40
0.9999999999999999
 40
0.9999999999999999
 10
24.3981876352625
 20
-2.597306046919209
 30
0.0
 10
24.36137789016167
 20
-2.611071124961183
 30
0.0
 10
23.92724077003153
 20
-2.773417572162611
 30
0.0
 10
23.09585905600058
 20
-2.971199775494215
 30
0.0
 10
21.9049936540051
 20
-3.161839315456648
 30
0.0
 10
20.71497702285654
 20
-3.192484504902161
 30
0.0
 10
19.52522756613781
 20
-3.077331954584548
 30
0.0
 10
18.33496860310938
 20
-2.817539484460934
 30
0.0
 10
17.1437694517248
 20
-2.426365369171177
 30
0.0
 10
15.95222580504618
 20
-1.921997873294154
 30
0.0
 10
14.76154707220639
 20
-1.327619678314229
 30
0.0
 10
13.57165787691023
 20
-0.6710387768216464
 30
0.0
 10
12.38185624230854
 20
0.0156934759554622
 30
0.0
 10
11.19139417133767
 20
0.7064199739084263
 30
0.0
 10
10.39726563892555
 20
1.133497778652566
 30
0.0
 10
9.999999999999988
 20
1.347144978127026
 30
0.0
  0
LINE
  5
AA
330
1F
100
AcDbEntity
  8
0
  6
Continuous
 62
     1
370
    15
100
AcDbLine
 10
9.999999999999988
 20
-3.162249299378519
 30
0.0
 11
10.47183591654179
 21
-3.156136953898299
 31
0.0
  0
SPLINE
  5
AB
330
1F
100
AcDbEntity
  8
0
  6
Continuous
 62
     1
370
    15
100
AcDbSpline
210
0.0
220
0.0
230
1.0
 70
     8
 71
     3
 72
    16
 73
    12
 74
     0
 42
0.000000001
 43
0.00000001
 40
0.0
 40
0.0
 40
0.0
 40
0.0
 40
0.0982163494605729
 40
0.2063856504451288
 40
0.3145287772244121
 40
0.4227041501555408
 40
0.530969878207978
 40
0.6393100554078854
 40
0.7595605455915903
 40
0.8797885401591098
 40
1.0
 40
1.0
 40
1.0
 40
1.0
 10
24.3981876352625
 20
2.599455904366996
 30
0.0
 10
24.75839283815537
 20
2.710892969553664
 30
0.0
 10
25.51530536342294
 20
2.945059799298026
 30
0.0
 10
26.66856690574352
 20
3.137627843160137
 30
0.0
 10
27.85831447275815
 20
3.200811063923056
 30
0.0
 10
29.04847351388046
 20
3.111701017169764
 30
0.0
 10
30.2395800434389
 20
2.878027346185198
 30
0.0
 10
31.47521450845484
 20
2.496613977659113
 30
0.0
 10
32.75451893040844
 20
1.967651364876256
 30
0.0
 10
34.07735783686088
 20
1.309810552275031
 30
0.0
 10
34.95913949196829
 20
0.8151535405856811
 30
0.0
 10
35.40000000000009
 20
0.5678420432192604
 30
0.0
  0
SPLINE
  5
AC
330
1F
100
AcDbEntity
  8
0
  6
Continuous
 62
     1
370
    15
100
AcDbSpline
210
0.0
220
0.0
230
1.0
 70
     8
 71
     3
 72
    42
 73
    38
 74
     0
 42
0.000000001
 43
0.00000001
 40
0.0
 40
0.0
 40
0.0
 40
0.0
 40
0.0624999999999998
 40
0.0624999999999998
 40
0.1249999999999997
 40
0.1249999999999997
 40
0.1874999999999996
 40
0.1874999999999996
 40
0.2499999999999994
 40
0.2499999999999994
 40
0.3124999999999992
 40
0.3124999999999992
 40
0.3749999999999991
 40
0.3749999999999991
 40
0.4374999999999989
 40
0.4374999999999989
 40
0.4687499999999996
 40
0.4687499999999996
 40
0.5000000000000002
 40
0.5000000000000002
 40
0.5625000000000016
 40
0.5625000000000016
 40
0.5937500000000014
 40
0.5937500000000014
 40
0.6250000000000013
 40
0.6250000000000013
 40
0.6875000000000012
 40
0.6875000000000012
 40
0.750000000000001
 40
0.750000000000001
 40
0.8125000000000008
 40
0.8125000000000008
 40
0.8750000000000006
 40
0.8750000000000006
 40
0.9375000000000002
 40
0.9375000000000002
 40
1.0
 40
1.0
 40
1.0
 40
1.0
 10
35.40000000000005
 20
0.5678420432191866
 30
0.0
 10
35.56135754929659
 20
0.4763767483747952
 30
0.0
 10
35.72192955218476
 20
0.3862070963675164
 30
0.0
 10
36.04368656642039
 20
0.2124122226105955
 30
0.0
 10
36.2064595297489
 20
0.1288087722520153
 30
0.0
 10
36.52879310056308
 20
-0.0250574452773623
 30
0.0
 10
36.68574404674911
 20
-0.0942734779304515
 30
0.0
 10
36.99082251417798
 20
-0.2194343120969506
 30
0.0
 10
37.14032156975426
 20
-0.2758129535159523
 30
0.0
 10
37.41974233598101
 20
-0.3770114573236804
 30
0.0
 10
37.54984207375613
 20
-0.4216788931022415
 30
0.0
 10
37.78838749453264
 20
-0.5082179454450728
 30
0.0
 10
37.8971994377098
 20
-0.5504495636306469
 30
0.0
 10
38.08100235158702
 20
-0.6437462487990769
 30
0.0
 10
38.15747590434863
 20
-0.695150725212849
 30
0.0
 10
38.24146150678978
 20
-0.7941130690408371
 30
0.0
 10
38.26386166049325
 20
-0.830306439887451
 30
0.0
 10
38.29634802392459
 20
-0.912077529293757
 30
0.0
 10
38.30645984878459
 20
-0.9582083599250196
 30
0.0
 10
38.31461517612065
 20
-1.112211059701224
 30
0.0
 10
38.28967326488112
 20
-1.239218874311102
 30
0.0
 10
38.20580943420682
 20
-1.452738145805665
 30
0.0
 10
38.16954111612645
 20
-1.529182427154671
 30
0.0
 10
38.08516525320573
 20
-1.682087088216024
 30
0.0
 10
38.03672699984855
 20
-1.759448562230354
 30
0.0
 10
37.87667519219703
 20
-1.987722636250712
 30
0.0
 10
37.75286132444855
 20
-2.130886357237898
 30
0.0
 10
37.49346152508804
 20
-2.37710857234842
 30
0.0
 10
37.35484733367458
 20
-2.483019785096834
 30
0.0
 10
37.0746831172463
 20
-2.652103841477382
 30
0.0
 10
36.93008289666184
 20
-2.717561953920764
 30
0.0
 10
36.63593488319241
 20
-2.81106339945987
 30
0.0
 10
36.48812523576613
 20
-2.838923612371397
 30
0.0
 10
36.18621695751835
 20
-2.862070641483949
 30
0.0
 10
36.03102267567374
 20
-2.856933884397282
 30
0.0
 10
35.71907552332513
 20
-2.817150111046896
 30
0.0
 10
35.56133288430048
 20
-2.783038114423151
 30
0.0
 10
35.40000000000005
 20
-2.73593174974703
 30
0.0
  0
SPLINE
  5
AD
330
1F
100
AcDbEntity
  8
0
  6
Continuous
 62
     1
370
    15
100
AcDbSpline
210
0.0
220
0.0
230
1.0
 70
     8
 71
     3
 72
    19
 73
    15
 74
     0
 42
0.000000001
 43
0.00000001
 40
0.0
 40
0.0
 40
0.0
 40
0.0
 40
0.0921322386237621
 40
0.184277149761288
 40
0.2764393019462242
 40
0.3594731746862627
 40
0.4424499882521643
 40
0.525357552017689
 40
0.6082404017487908
 40
0.6911433118645589
 40
0.7741108630339671
 40
0.8571471736534138
 40
0.9401048928534786
 40
1.0
 40
1.0
 40
1.0
 40
1.0
 10
35.40000000000005
 20
-2.735931749747046
 30
0.0
 10
34.95913949260468
 20
-2.591593434178537
 30
0.0
 10
34.0773578387702
 20
-2.30289694973807
 30
0.0
 10
32.75451892276909
 20
-1.694992040152009
 30
0.0
 10
31.47521453590988
 20
-1.023452386745957
 30
0.0
 10
30.23957995220224
 20
-0.3218324423081699
 30
0.0
 10
29.0484738551929
 20
0.3695371202952311
 30
0.0
 10
27.85831319995807
 20
1.043796893982789
 30
0.0
 10
26.66857165503308
 20
1.669344240219716
 30
0.0
 10
25.47848455883122
 20
2.216710023455339
 30
0.0
 10
24.28748575526697
 20
2.662057676413824
 30
0.0
 10
23.0958796796137
 20
2.977771644566237
 30
0.0
 10
22.01504716618317
 20
3.155917714034166
 30
0.0
 10
21.33161911447914
 20
3.159629943414167
 30
0.0
 10
21.04507248162193
 20
3.161186401078701
 30
0.0
  0
SPLINE
  5
AE
330
1F
100
AcDbEntity
  8
0
  6
Continuous
 62
     1
370
    15
100
AcDbSpline
210
0.0
220
0.0
230
1.0
 70
     8
 71
     3
 72
    24
 73
    20
 74
     0
 42
0.000000001
 43
0.00000001
 40
0.0
 40
0.0
 40
0.0
 40
0.0
 40
0.0099081529374363
 40
0.0705848303939425
 40
0.1312318229113753
 40
0.1918244329505719
 40
0.2523951661160047
 40
0.3129767392151806
 40
0.3736017643430753
 40
0.4342842236292492
 40
0.4949164339039183
 40
0.5555014048675398
 40
0.6160717158171649
 40
0.6766600876413215
 40
0.7372990668221963
 40
0.7979797445200874
 40
0.8653313164525085
 40
0.932670288726422
 40
0.9999999999999999
 40
0.9999999999999999
 40
0.9999999999999999
 40
0.9999999999999999
 10
15.75725889673193
 20
2.596250766352005
 30
0.0
 10
15.82212929671861
 20
2.620239543294823
 30
0.0
 10
16.28426045371213
 20
2.791133529546211
 30
0.0
 10
17.14378639669233
 20
2.991676759153387
 30
0.0
 10
18.33496415811844
 20
3.171012223261525
 30
0.0
 10
19.52522842081354
 20
3.191383913908233
 30
0.0
 10
20.71497804526695
 20
3.06573409370232
 30
0.0
 10
21.90498870702976
 20
2.796228009225725
 30
0.0
 10
23.09587784347701
 20
2.396298808650218
 30
0.0
 10
24.28748624701455
 20
1.884818879881659
 30
0.0
 10
25.4784844272273
 20
1.285075398836343
 30
0.0
 10
26.66857169027466
 20
0.6254559550689863
 30
0.0
 10
27.8583131905134
 20
-0.0632294521636443
 30
0.0
 10
29.04847385772555
 20
-0.7490576492025501
 30
0.0
 10
30.23957995152526
 20
-1.399692730369052
 30
0.0
 10
31.47521453611363
 20
-2.007065093227857
 30
0.0
 10
32.75451892271238
 20
-2.528169418343716
 30
0.0
 10
34.07735783878441
 20
-2.934148395708679
 30
0.0
 10
34.95913949260945
 20
-3.060004962618925
 30
0.0
 10
35.40000000000009
 20
-3.122928918573111
 30
0.0
  0
SPLINE
  5
AF
330
1F
100
AcDbEntity
  8
0
  6
Continuous
 62
     1
370
    15
100
AcDbSpline
210
0.0
220
0.0
230
1.0
 70
     8
 71
     3
 72
    10
 73
     6
 74
     0
 42
0.000000001
 43
0.00000001
 40
0.0
 40
0.0
 40
0.0
 40
0.0
 40
0.4050979912234851
 40
0.8220832337792736
 40
1.0
 40
1.0
 40
1.0
 40
1.0
 10
35.40000000000005
 20
-3.122928918573138
 30
0.0
 10
35.54649697134208
 20
-3.129210985415693
 30
0.0
 10
35.84378974136048
 20
-3.141959460936756
 30
0.0
 10
36.21148707081493
 20
-3.082233187769634
 30
0.0
 10
36.42335818633909
 20
-2.997281684386517
 30
0.0
 10
36.48672227516973
 20
-2.971875320742532
 30
0.0
  0
SPLINE
  5
B0
330
1F
100
AcDbEntity
  8
0
  6
Continuous
 62
     1
370
    15
100
AcDbSpline
210
0.0
220
0.0
230
1.0
 70
     8
 71
     3
 72
    25
 73
    21
 74
     0
 42
0.000000001
 43
0.00000001
 40
0.0
 40
0.0
 40
0.0
 40
0.0
 40
0.0137006959956051
 40
0.0778300118857881
 40
0.1356075846560727
 40
0.1933454538634966
 40
0.2510351368879979
 40
0.3087076231122636
 40
0.3663940679813162
 40
0.4241254921227716
 40
0.4819047612460054
 40
0.5396293439948403
 40
0.5973125535611955
 40
0.6549854418014811
 40
0.7126791602749449
 40
0.7704246594422471
 40
0.8281984233520089
 40
0.8859112152511812
 40
0.9435894664277569
 40
0.9999999999999999
 40
0.9999999999999999
 40
0.9999999999999999
 40
0.9999999999999999
 10
33.03726077880876
 20
-2.589798882014231
 30
0.0
 10
32.94304086316601
 20
-2.624699331172921
 30
0.0
 10
32.40780256894314
 20
-2.822959505233534
 30
0.0
 10
31.47521343172843
 20
-3.026625846216145
 30
0.0
 10
30.23958023410416
 20
-3.184250459524006
 30
0.0
 10
29.04847378207021
 20
-3.177070643729972
 30
0.0
 10
27.85831321088356
 20
-3.024284813024801
 30
0.0
 10
26.66857168439622
 20
-2.729530085981805
 30
0.0
 10
25.47848443037099
 20
-2.307469803916702
 30
0.0
 10
24.28748624031551
 20
-1.777451602787764
 30
0.0
 10
23.09587786713713
 20
-1.164799944846036
 30
0.0
 10
21.90498861921304
 20
-0.4972891156546538
 30
0.0
 10
20.71497837262997
 20
0.1933426659125189
 30
0.0
 10
19.52522719912921
 20
0.8749380332889677
 30
0.0
 10
18.33496872109874
 20
1.515901009799473
 30
0.0
 10
17.14376934707308
 20
2.085875137829631
 30
0.0
 10
15.95222610555875
 20
2.559138588743606
 30
0.0
 10
14.76154597637466
 20
2.910219739492902
 30
0.0
 10
13.58035427036057
 20
3.134921995209293
 30
0.0
 10
12.79595177405616
 20
3.161396233764517
 30
0.0
 10
12.40810853907607
 20
3.174486266462359
 30
0.0
  0
LINE
  5
B1
330
1F
100
AcDbEntity
  8
외형선
  6
Continuous
370
    15
100
AcDbLine
 10
9.999999999999988
 20
0.2731132126109281
 30
0.0
 11
9.999999999999988
 21
1.347144978127026
 31
0.0
  0
LINE
  5
B2
330
1F
100
AcDbEntity
  8
외형선
  6
Continuous
370
    15
100
AcDbLine
 10
9.999999999999988
 20
-3.162249299378519
 30
0.0
 11
9.999999999999988
 21
-2.874463355163087
 31
0.0
  0
LINE
  5
B3
330
1F
100
AcDbEntity
  8
외형선
  6
Continuous
370
    15
100
AcDbLine
 10
-36.99000000000002
 20
0.0010749287238931
 30
0.0
 11
-36.99000000000002
 21
3.176074928723894
 31
0.0
  0
LINE
  5
B4
330
1F
100
AcDbEntity
  8
외형선
  6
Continuous
370
    15
100
AcDbLine
 10
-36.99000000000002
 20
-3.17392507127611
 30
0.0
 11
-36.99000000000002
 21
0.0010749287238931
 31
0.0
  0
LINE
  5
B5
330
1F
100
AcDbEntity
  8
외형선
  6
Continuous
370
    15
100
AcDbLine
 10
-37.62500000000001
 20
0.0010749287238931
 30
0.0
 11
-37.62500000000001
 21
2.541074928723897
 31
0.0
  0
LINE
  5
B6
330
1F
100
AcDbEntity
  8
외형선
  6
Continuous
370
    15
100
AcDbLine
 10
-37.62500000000001
 20
-2.53892507127611
 30
0.0
 11
-37.62500000000001
 21
0.0010749287238931
 31
0.0
  0
LINE
  5
B7
330
1F
100
AcDbEntity
  8
외형선
  6
Continuous
370
    15
100
AcDbLine
 10
9.999999999999988
 20
0.0010749287238931
 30
0.0
 11
9.999999999999988
 21
3.176074928723892
 31
0.0
  0
LINE
  5
B8
330
1F
100
AcDbEntity
  8
외형선
  6
Continuous
370
    15
100
AcDbLine
 10
9.999999999999988
 20
-3.173925071276108
 30
0.0
 11
9.999999999999988
 21
0.0010749287238931
 31
0.0
  0
LINE
  5
B9
330
1F
100
AcDbEntity
  8
중심선
 48
0.8
100
AcDbLine
 10
-40.625
 20
0.0010749287238931
 30
0.0
 11
41.57500000000002
 21
0.0010749287239005
 31
0.0
  0
LINE
  5
BA
330
1F
100
AcDbEntity
  8
참조1
100
AcDbLine
 10
-10.46250000000001
 20
0.0010749287238931
 30
0.0
 11
-10.46250000000001
 21
-39.9989250712761
 31
0.0
  0
LINE
  5
BB
330
1F
100
AcDbEntity
  8
참조1
100
AcDbLine
 10
27.46249999999997
 20
0.0010749287238891
 30
0.0
 11
27.46249999999997
 21
10.39811096570963
 31
0.0
  0
LINE
  5
BC
330
1F
100
AcDbEntity
  8
참조1
100
AcDbLine
 10
-10.46250000000001
 20
-39.9989250712761
 30
0.0
 11
12.3036431856913
 21
-39.9989250712761
 31
0.0
  0
CIRCLE
  5
BD
330
1F
100
AcDbEntity
  8
해칭선
100
AcDbCircle
 10
0.0
 20
0.0
 30
0.0
 40
3.000000000000001
  0
INSERT
  5
BE
330
1F
100
AcDbEntity
  8
0
  6
Continuous
 62
     7
100
AcDbBlockReference
 66
     1
  2
블럭10
 10
-24.40277293212521
 20
-52.04609937292003
 30
0.0
  0
ATTRIB
  5
BF
330
BE
100
AcDbEntity
  8
FORMAT
 62
     2
100
AcDbText
 10
-34.54440894426184
 20
-49.97073246008785
 30
0.0
 40
4.233333333333333
  1
E5060016 [ 4 FLUTE ]
 41
0.75
  7
SLDTEXTSTYLE0
 11
-34.54440894426184
 21
-52.08739912675451
 31
0.0
100
AcDbAttribute
  2
AUTOATTR0
 70
     0
 74
     1
  0
SEQEND
  5
C0
330
BE
100
AcDbEntity
  8
0
  6
Continuous
 62
     7
  0
HATCH
  5
C1
330
1F
100
AcDbEntity
  8
중심선
100
AcDbHatch
 10
0.0
 20
0.0
 30
0.0
210
0.0
220
0.0
230
1.0
  2
SOLID
 70
     1
 71
     0
 91
        1
 92
        0
 93
        4
 72
     1
 10
-18.68786362774436
 20
-35.7989250712761
 11
-22.13413887158164
 21
-35.7989250712761
 72
     1
 10
-22.13413887158164
 20
-35.7989250712761
 11
-24.26236873078566
 21
-38.3352506518487
 72
     1
 10
-24.26236873078566
 20
-38.3352506518487
 11
-20.81606040183523
 21
-38.33521122254621
 72
     1
 10
-20.81606040183523
 20
-38.33521122254621
 11
-18.68786362774436
 21
-35.7989250712761
 97
        0
 75
     0
 76
     1
 98
        1
 10
0.0
 20
0.0
  0
HATCH
  5
C2
330
1F
100
AcDbEntity
  8
중심선
100
AcDbHatch
 10
0.0
 20
0.0
 30
0.0
210
0.0
220
0.0
230
1.0
  2
SOLID
 70
     1
 71
     0
 91
        1
 92
        0
 93
        4
 72
     1
 10
-13.67509963670835
 20
-35.79892507127608
 11
-17.12137488054566
 21
-35.79892507127613
 72
     1
 10
-17.12137488054566
 20
-35.79892507127613
 11
-21.65251288890308
 21
-41.19892507127612
 72
     1
 10
-21.65251288890308
 20
-41.19892507127612
 11
-18.20623764506579
 21
-41.19892507127612
 72
     1
 10
-18.20623764506579
 20
-41.19892507127612
 11
-13.67509963670835
 21
-35.79892507127608
 97
        0
 75
     0
 76
     1
 98
        1
 10
0.0
 20
0.0
  0
HATCH
  5
C3
330
1F
100
AcDbEntity
  8
중심선
100
AcDbHatch
 10
0.0
 20
0.0
 30
0.0
210
0.0
220
0.0
230
1.0
  2
SOLID
 70
     1
 71
     0
 91
        1
 92
        0
 93
        4
 72
     1
 10
-8.662335645672508
 20
-35.7989250712761
 11
-12.1086108895096
 21
-35.7989250712761
 72
     1
 10
-12.1086108895096
 20
-35.7989250712761
 11
-19.15704779139887
 21
-44.19892507127612
 72
     1
 10
-19.15704779139887
 20
-44.19892507127612
 11
-15.71077254756159
 21
-44.19892507127612
 72
     1
 10
-15.71077254756159
 20
-44.19892507127612
 11
-8.662335645672508
 21
-35.7989250712761
 97
        0
 75
     0
 76
     1
 98
        1
 10
0.0
 20
0.0
  0
HATCH
  5
C4
330
1F
100
AcDbEntity
  8
중심선
100
AcDbHatch
 10
0.0
 20
0.0
 30
0.0
210
0.0
220
0.0
230
1.0
  2
SOLID
 70
     1
 71
     0
 91
        1
 92
        0
 93
        6
 72
     3
 10
-3.862445214660309
 20
-39.99892507132738
 11
3.960054785062284
 21
1.540850780301639E-10
 40
0.3939339440162633
 50
17.09539180608434
 51
320.0019657685081
 73
     0
 72
     1
 10
-2.179445558959714
 20
-38.58681907591441
 11
0.1258563147413514
 21
-36.65249236586646
 72
     3
 10
-3.862445214713156
 20
-39.99892507127625
 11
6.600054785286829
 21
-1.249000902703301E-13
 40
0.6363583540795982
 50
39.99873849337412
 51
368.4976242363724
 73
     1
 72
     1
 10
2.562887277187453
 20
-39.03892507120613
 11
-5.182377907877205
 21
-39.03892507120613
 72
     1
 10
-5.182377907877206
 20
-39.03892507120613
 11
-5.182402952323168
 21
-40.95892507120602
 72
     1
 10
-5.182402952323168
 20
-40.95892507120602
 11
-0.74102318285113
 21
-40.95892507120599
 97
        0
 75
     0
 76
     1
 98
        1
 10
0.0
 20
0.0
  0
DIMENSION
  5
C5
330
1F
100
AcDbEntity
  8
치수문자_일반주서
100
AcDbDimension
  2
_D
 10
10.0
 20
38.39811096570963
 30
0.0
 11
21.11249999999999
 21
38.39811096570963
 31
0.0
 70
   160
  1
<>
 71
     2
 42
28.57500000000002
  3
SLDDIMSTYLE0
100
AcDbAlignedDimension
 13
38.57500000000002
 23
3.176074928723896
 33
0.0
 14
10.0
 24
3.176074928723904
 34
0.0
100
AcDbRotatedDimension
1001
ACAD
1000
DSTYLE
1002
{
1070
   171
1070
     6
1070
   273
1070
     7
1002
}
  0
DIMENSION
  5
DB
330
1F
100
AcDbEntity
  8
치수문자_일반주서
100
AcDbDimension
  2
_D_1
 10
-37.62500000000001
 20
53.97636907984727
 30
0.0
 11
-2.840720666352797
 21
53.97636907984727
 31
0.0
 70
   160
  1
<>
 71
     2
 42
76.20000000000002
  3
SLDDIMSTYLE0
100
AcDbAlignedDimension
 13
38.57500000000002
 23
3.176074928723896
 33
0.0
 14
-37.625
 24
2.541074928723908
 34
0.0
100
AcDbRotatedDimension
1001
ACAD
1000
DSTYLE
1002
{
1070
   171
1070
     6
1070
   273
1070
     7
1002
}
  0
DIMENSION
  5
EF
330
1F
100
AcDbEntity
  8
치수문자_일반주서
100
AcDbDimension
  2
_D_2
 10
-50.30750000000002
 20
-3.173925071276167
 30
0.0
 11
-50.30750000000003
 21
0.0010749287239027
 31
0.0
 70
   160
  1
%%c<>
 71
     2
 42
6.350000000000023
 52
-270.0
  3
SLDDIMSTYLE0
100
AcDbAlignedDimension
 13
-36.99000000000002
 23
3.176074928723904
 33
0.0
 14
-36.99000000000002
 24
-3.173925071276118
 34
0.0
 50
90.0000000000002
100
AcDbRotatedDimension
1001
ACAD
1000
DSTYLE
1002
{
1070
   171
1070
     6
1070
   273
1070
     7
1002
}
  0
DIMENSION
  5
103
330
1F
100
AcDbEntity
  8
치수문자_일반주서
100
AcDbDimension
  2
_D_3
 10
46.56911321280619
 20
-3.173925071276074
 30
0.0
 11
46.56911321280611
 21
23.12382492872392
 31
0.0
 70
   160
  1
%%c<>
 71
     2
 42
6.349999999999998
 52
-270.0
  3
SLDDIMSTYLE0
100
AcDbAlignedDimension
 13
38.57500000000002
 23
3.176074928723896
 33
0.0
 14
38.57500000000002
 24
-3.173925071276102
 34
0.0
 50
90.0000000000002
100
AcDbRotatedDimension
1001
ACAD
1000
DSTYLE
1002
{
1070
   171
1070
     6
1070
   273
1070
     7
1002
}
  0
LINE
  5
117
330
1F
100
AcDbEntity
  8
참조1
100
AcDbLine
 10
110.2759838153456
 20
7.441074928723896
 30
0.0
 11
110.2759838153456
 21
-7.438925071276109
 31
0.0
  0
LINE
  5
118
330
1F
100
AcDbEntity
  8
참조1
100
AcDbLine
 10
122.9759838153456
 20
5.441074928723896
 30
0.0
 11
110.2759838153456
 21
5.441074928723896
 31
0.0
  0
SOLID
  5
119
330
1F
100
AcDbEntity
  8
참조1
100
AcDbTrace
 10
110.2759838153456
 20
5.441074928723896
 30
0.0
 11
116.6259838153456
 21
4.425074928723896
 31
0.0
 12
116.6259838153456
 22
6.457074928723896
 32
0.0
 13
116.6259838153456
 23
6.457074928723896
 33
0.0
  0
LINE
  5
11A
330
1F
100
AcDbEntity
  8
참조1
100
AcDbLine
 10
122.9759838153456
 20
-5.438925071276109
 30
0.0
 11
110.2759838153456
 21
-5.438925071276109
 31
0.0
  0
SOLID
  5
11B
330
1F
100
AcDbEntity
  8
참조1
100
AcDbTrace
 10
110.2759838153456
 20
-5.438925071276109
 30
0.0
 11
116.6259838153456
 21
-6.454925071276109
 31
0.0
 12
116.6259838153456
 22
-4.422925071276109
 32
0.0
 13
116.6259838153456
 23
-4.422925071276109
 33
0.0
  0
MTEXT
  5
11C
330
1F
100
AcDbEntity
  8
참조1
100
AcDbMText
 10
119.6734739078158
 20
10.98929157337383
 30
0.0
 40
3.5
 41
0.0
 71
     1
 72
     1
  1
A
  7
SLDTEXTSTYLE0
 73
     1
 44
1.0
  0
MTEXT
  5
11D
330
1F
100
AcDbEntity
  8
참조1
100
AcDbMText
 10
119.6734739078158
 20
0.1092915733738251
 30
0.0
 40
3.5
 41
0.0
 71
     1
 72
     1
  1
A
  7
SLDTEXTSTYLE0
 73
     1
 44
1.0
  0
INSERT
  5
124
330
1F
100
AcDbEntity
  8
해칭선
100
AcDbBlockReference
  2
SW_DOWELSYMBOL_0
 10
0.0
 20
0.0
 30
0.0
  0
ENDSEC
  0
SECTION
  2
OBJECTS
  0
DICTIONARY
  5
C
330
0
100
AcDbDictionary
281
     1
  3
ACAD_GROUP
350
D
  3
ACAD_IMAGE_VARS
350
148
  3
ACAD_LAYOUT
350
1A
  3
ACAD_MLINESTYLE
350
17
  3
ACAD_PLOTSETTINGS
350
19
  3
ACAD_PLOTSTYLENAME
350
E
  3
ACAD_SCALELIST
350
47
  3
APPDATA
350
146
  3
DWGPROPS
350
1A0
  0
DICTIONARY
  5
16F
330
2
100
AcDbDictionary
280
     1
281
     1
  3
ACAD_LAYERSTATES
360
170
  0
DICTIONARY
  5
D
102
{ACAD_REACTORS
330
C
102
}
330
C
100
AcDbDictionary
281
     1
  0
RASTERVARIABLES
  5
148
102
{ACAD_REACTORS
330
C
102
}
330
C
100
AcDbRasterVariables
 90
        0
 70
     1
 71
     1
 72
     1
  0
DICTIONARY
  5
1A
102
{ACAD_REACTORS
330
C
102
}
330
C
100
AcDbDictionary
281
     1
  3
Layout1
350
1E
  3
Layout2
350
26
  3
Model
350
22
  0
DICTIONARY
  5
17
102
{ACAD_REACTORS
330
C
102
}
330
C
100
AcDbDictionary
281
     1
  3
Standard
350
18
  0
DICTIONARY
  5
19
102
{ACAD_REACTORS
330
C
102
}
330
C
100
AcDbDictionary
281
     1
  0
ACDBDICTIONARYWDFLT
  5
E
102
{ACAD_REACTORS
330
C
102
}
330
C
100
AcDbDictionary
281
     1
  3
Normal
350
F
100
AcDbDictionaryWithDefault
340
F
  0
DICTIONARY
  5
47
102
{ACAD_REACTORS
330
C
102
}
330
C
100
AcDbDictionary
281
     1
  3
A0
350
48
  3
A1
350
49
  3
A2
350
4A
  3
A3
350
4B
  3
A4
350
4C
  3
A5
350
4D
  3
A6
350
4E
  3
A7
350
4F
  3
A8
350
50
  3
A9
350
51
  3
B0
350
52
  3
B1
350
53
  3
B2
350
54
  3
B3
350
55
  3
B4
350
56
  3
B5
350
57
  3
B6
350
58
  3
B7
350
59
  3
B8
350
5A
  3
B9
350
5B
  3
C0
350
5C
  3
C1
350
5D
  3
C2
350
5E
  3
C3
350
5F
  3
C4
350
60
  3
C5
350
61
  3
C6
350
62
  3
C7
350
63
  3
C8
350
64
  3
C9
350
65
  3
D0
350
66
  3
D1
350
67
  3
D2
350
68
  0
DICTIONARY
  5
146
102
{ACAD_REACTORS
330
C
102
}
330
C
100
AcDbDictionary
281
     1
  0
XRECORD
  5
1A0
102
{ACAD_REACTORS
330
C
102
}
330
C
100
AcDbXrecord
280
     1
  1
DWGPROPS COOKIE
  2

  3

  4

  6

  7

  8
12016016
  9

300
=
301
=
302
=
303
=
304
=
305
=
306
=
307
=
308
=
309
=
 40
0.0
 41
2458289.137093507
 42
2458310.032544294
  1

 90
        0
  0
DICTIONARY
  5
170
102
{ACAD_REACTORS
330
16F
102
}
330
16F
100
AcDbDictionary
281
     1
  0
LAYOUT
  5
1E
102
{ACAD_REACTORS
330
1A
102
}
330
1A
100
AcDbPlotSettings
  1

  2
none_device
  4

  6

 40
0.0
 41
0.0
 42
0.0
 43
0.0
 44
0.0
 45
0.0
 46
0.0
 47
0.0
 48
0.0
 49
0.0
140
0.0
141
0.0
142
1.0
143
1.0
 70
   688
 72
     1
 73
     0
 74
     5
  7

 75
    16
147
1.0
148
0.0
149
0.0
100
AcDbLayout
  1
Layout1
 70
     1
 71
     1
 10
0.0
 20
0.0
 11
420.0
 21
297.0
 12
0.0
 22
0.0
 32
0.0
 14
1.000000000000000E+20
 24
1.000000000000000E+20
 34
1.000000000000000E+20
 15
-1.000000000000000E+20
 25
-1.000000000000000E+20
 35
-1.000000000000000E+20
146
0.0
 13
0.0
 23
0.0
 33
0.0
 16
1.0
 26
0.0
 36
0.0
 17
0.0
 27
1.0
 37
0.0
 76
     0
330
1B
  0
LAYOUT
  5
26
102
{ACAD_REACTORS
330
1A
102
}
330
1A
100
AcDbPlotSettings
  1

  2
none_device
  4

  6

 40
0.0
 41
0.0
 42
0.0
 43
0.0
 44
0.0
 45
0.0
 46
0.0
 47
0.0
 48
0.0
 49
0.0
140
0.0
141
0.0
142
1.0
143
1.0
 70
   688
 72
     1
 73
     0
 74
     5
  7

 75
    16
147
1.0
148
0.0
149
0.0
100
AcDbLayout
  1
Layout2
 70
     1
 71
     2
 10
0.0
 20
0.0
 11
0.0
 21
0.0
 12
0.0
 22
0.0
 32
0.0
 14
0.0
 24
0.0
 34
0.0
 15
0.0
 25
0.0
 35
0.0
146
0.0
 13
0.0
 23
0.0
 33
0.0
 16
1.0
 26
0.0
 36
0.0
 17
0.0
 27
1.0
 37
0.0
 76
     0
330
23
  0
LAYOUT
  5
22
102
{ACAD_REACTORS
330
1A
102
}
330
1A
100
AcDbPlotSettings
  1

  2
none_device
  4
ANSI_A_(11.00_x_8.50_Inches)
  6

 40
6.35
 41
19.05
 42
6.35000508
 43
19.05000254
 44
279.4
 45
215.9
 46
91.52114333395717
 47
78.60663680748753
 48
0.0
 49
0.0
140
0.0
141
0.0
142
0.0576682134228872
143
1.0
 70
  1696
 72
     0
 73
     0
 74
     0
  7

 75
     0
147
0.0235690232323232
148
0.0
149
0.0
100
AcDbLayout
  1
Model
 70
     1
 71
     0
 10
0.0
 20
0.0
 11
420.0
 21
297.0
 12
0.0
 22
0.0
 32
0.0
 14
-54.68250000000008
 24
-49.97073246008785
 34
0.0
 15
122.9759838153456
 25
58.35136907984727
 35
0.0
146
0.0
 13
0.0
 23
0.0
 33
0.0
 16
1.0
 26
0.0
 36
0.0
 17
0.0
 27
1.0
 37
0.0
 76
     0
330
1F
331
29
  0
MLINESTYLE
  5
18
102
{ACAD_REACTORS
330
17
102
}
330
17
100
AcDbMlineStyle
  2
Standard
 70
     0
  3

 62
   256
 51
90.0
 52
90.0
 71
     2
 49
0.5
 62
   256
  6
BYLAYER
 49
-0.5
 62
   256
  6
BYLAYER
  0
ACDBPLACEHOLDER
  5
F
102
{ACAD_REACTORS
330
E
102
}
330
E
  0
SCALE
  5
48
102
{ACAD_REACTORS
330
47
102
}
330
47
100
AcDbScale
 70
     0
300
1:1
140
1.0
141
1.0
290
     1
  0
SCALE
  5
49
102
{ACAD_REACTORS
330
47
102
}
330
47
100
AcDbScale
 70
     0
300
1:2
140
1.0
141
2.0
290
     0
  0
SCALE
  5
4A
102
{ACAD_REACTORS
330
47
102
}
330
47
100
AcDbScale
 70
     0
300
1:4
140
1.0
141
4.0
290
     0
  0
SCALE
  5
4B
102
{ACAD_REACTORS
330
47
102
}
330
47
100
AcDbScale
 70
     0
300
1:5
140
1.0
141
5.0
290
     0
  0
SCALE
  5
4C
102
{ACAD_REACTORS
330
47
102
}
330
47
100
AcDbScale
 70
     0
300
1:8
140
1.0
141
8.0
290
     0
  0
SCALE
  5
4D
102
{ACAD_REACTORS
330
47
102
}
330
47
100
AcDbScale
 70
     0
300
1:10
140
1.0
141
10.0
290
     0
  0
SCALE
  5
4E
102
{ACAD_REACTORS
330
47
102
}
330
47
100
AcDbScale
 70
     0
300
1:16
140
1.0
141
16.0
290
     0
  0
SCALE
  5
4F
102
{ACAD_REACTORS
330
47
102
}
330
47
100
AcDbScale
 70
     0
300
1:20
140
1.0
141
20.0
290
     0
  0
SCALE
  5
50
102
{ACAD_REACTORS
330
47
102
}
330
47
100
AcDbScale
 70
     0
300
1:30
140
1.0
141
30.0
290
     0
  0
SCALE
  5
51
102
{ACAD_REACTORS
330
47
102
}
330
47
100
AcDbScale
 70
     0
300
1:40
140
1.0
141
40.0
290
     0
  0
SCALE
  5
52
102
{ACAD_REACTORS
330
47
102
}
330
47
100
AcDbScale
 70
     0
300
1:50
140
1.0
141
50.0
290
     0
  0
SCALE
  5
53
102
{ACAD_REACTORS
330
47
102
}
330
47
100
AcDbScale
 70
     0
300
1:100
140
1.0
141
100.0
290
     0
  0
SCALE
  5
54
102
{ACAD_REACTORS
330
47
102
}
330
47
100
AcDbScale
 70
     0
300
2:1
140
2.0
141
1.0
290
     0
  0
SCALE
  5
55
102
{ACAD_REACTORS
330
47
102
}
330
47
100
AcDbScale
 70
     0
300
4:1
140
4.0
141
1.0
290
     0
  0
SCALE
  5
56
102
{ACAD_REACTORS
330
47
102
}
330
47
100
AcDbScale
 70
     0
300
8:1
140
8.0
141
1.0
290
     0
  0
SCALE
  5
57
102
{ACAD_REACTORS
330
47
102
}
330
47
100
AcDbScale
 70
     0
300
10:1
140
10.0
141
1.0
290
     0
  0
SCALE
  5
58
102
{ACAD_REACTORS
330
47
102
}
330
47
100
AcDbScale
 70
     0
300
100:1
140
100.0
141
1.0
290
     0
  0
SCALE
  5
59
102
{ACAD_REACTORS
330
47
102
}
330
47
100
AcDbScale
 70
     0
300
1/128" = 1'-0"
140
0.0078125
141
12.0
290
     0
  0
SCALE
  5
5A
102
{ACAD_REACTORS
330
47
102
}
330
47
100
AcDbScale
 70
     0
300
1/64" = 1'-0"
140
0.015625
141
12.0
290
     0
  0
SCALE
  5
5B
102
{ACAD_REACTORS
330
47
102
}
330
47
100
AcDbScale
 70
     0
300
1/32" = 1'-0"
140
0.03125
141
12.0
290
     0
  0
SCALE
  5
5C
102
{ACAD_REACTORS
330
47
102
}
330
47
100
AcDbScale
 70
     0
300
1/16" = 1'-0"
140
0.0625
141
12.0
290
     0
  0
SCALE
  5
5D
102
{ACAD_REACTORS
330
47
102
}
330
47
100
AcDbScale
 70
     0
300
3/32" = 1'-0"
140
0.09375
141
12.0
290
     0
  0
SCALE
  5
5E
102
{ACAD_REACTORS
330
47
102
}
330
47
100
AcDbScale
 70
     0
300
1/8" = 1'-0"
140
0.125
141
12.0
290
     0
  0
SCALE
  5
5F
102
{ACAD_REACTORS
330
47
102
}
330
47
100
AcDbScale
 70
     0
300
3/16" = 1'-0"
140
0.1875
141
12.0
290
     0
  0
SCALE
  5
60
102
{ACAD_REACTORS
330
47
102
}
330
47
100
AcDbScale
 70
     0
300
1/4" = 1'-0"
140
0.25
141
12.0
290
     0
  0
SCALE
  5
61
102
{ACAD_REACTORS
330
47
102
}
330
47
100
AcDbScale
 70
     0
300
3/8" = 1'-0"
140
0.375
141
12.0
290
     0
  0
SCALE
  5
62
102
{ACAD_REACTORS
330
47
102
}
330
47
100
AcDbScale
 70
     0
300
1/2" = 1'-0"
140
0.5
141
12.0
290
     0
  0
SCALE
  5
63
102
{ACAD_REACTORS
330
47
102
}
330
47
100
AcDbScale
 70
     0
300
3/4" = 1'-0"
140
0.75
141
12.0
290
     0
  0
SCALE
  5
64
102
{ACAD_REACTORS
330
47
102
}
330
47
100
AcDbScale
 70
     0
300
1" = 1'-0"
140
1.0
141
12.0
290
     0
  0
SCALE
  5
65
102
{ACAD_REACTORS
330
47
102
}
330
47
100
AcDbScale
 70
     0
300
1-1/2" = 1'-0"
140
1.5
141
12.0
290
     0
  0
SCALE
  5
66
102
{ACAD_REACTORS
330
47
102
}
330
47
100
AcDbScale
 70
     0
300
3" = 1'-0"
140
3.0
141
12.0
290
     0
  0
SCALE
  5
67
102
{ACAD_REACTORS
330
47
102
}
330
47
100
AcDbScale
 70
     0
300
6" = 1'-0"
140
6.0
141
12.0
290
     0
  0
SCALE
  5
68
102
{ACAD_REACTORS
330
47
102
}
330
47
100
AcDbScale
 70
     0
300
1'-0" = 1'-0"
140
12.0
141
12.0
290
     0
  0
ENDSEC
  0
EOF
