  0
SECTION
  2
HEADER
  9
$ACADVER
  1
AC1015
  9
$ACADMAINTVER
 70
     6
  9
$DWGCODEPAGE
  3
ANSI_949
  9
$INSBASE
 10
0.0
 20
0.0
 30
0.0
  9
$EXTMIN
 10
1.000000000000000E+20
 20
1.000000000000000E+20
 30
1.000000000000000E+20
  9
$EXTMAX
 10
-1.000000000000000E+20
 20
-1.000000000000000E+20
 30
-1.000000000000000E+20
  9
$LIMMIN
 10
0.0
 20
0.0
  9
$LIMMAX
 10
420.0
 20
297.0
  9
$ORTHOMODE
 70
     1
  9
$REGENMODE
 70
     1
  9
$FILLMODE
 70
     1
  9
$QTEXTMODE
 70
     0
  9
$MIRRTEXT
 70
     1
  9
$LTSCALE
 40
1.0
  9
$ATTMODE
 70
     1
  9
$TEXTSIZE
 40
3.5
  9
$TRACEWID
 40
1.0
  9
$TEXTSTYLE
  7
Standard
  9
$CLAYER
  8
0
  9
$CELTYPE
  6
ByLayer
  9
$CECOLOR
 62
   256
  9
$CELTSCALE
 40
1.0
  9
$DISPSILH
 70
     0
  9
$DIMSCALE
 40
1.0
  9
$DIMASZ
 40
3.302
  9
$DIMEXO
 40
1.0
  9
$DIMDLI
 40
3.75
  9
$DIMRND
 40
0.0
  9
$DIMDLE
 40
0.0
  9
$DIMEXE
 40
1.0
  9
$DIMTP
 40
0.0
  9
$DIMTM
 40
0.0
  9
$DIMTXT
 40
3.5
  9
$DIMCEN
 40
2.5
  9
$DIMTSZ
 40
0.0
  9
$DIMTOL
 70
     0
  9
$DIMLIM
 70
     0
  9
$DIMTIH
 70
     1
  9
$DIMTOH
 70
     1
  9
$DIMSE1
 70
     0
  9
$DIMSE2
 70
     0
  9
$DIMTAD
 70
     1
  9
$DIMZIN
 70
     0
  9
$DIMBLK
  1

  9
$DIMASO
 70
     1
  9
$DIMSHO
 70
     1
  9
$DIMPOST
  1

  9
$DIMAPOST
  1

  9
$DIMALT
 70
     0
  9
$DIMALTD
 70
     3
  9
$DIMALTF
 40
0.0393700787401575
  9
$DIMLFAC
 40
1.0
  9
$DIMTOFL
 70
     1
  9
$DIMTVP
 40
0.0
  9
$DIMTIX
 70
     0
  9
$DIMSOXD
 70
     0
  9
$DIMSAH
 70
     0
  9
$DIMBLK1
  1

  9
$DIMBLK2
  1

  9
$DIMSTYLE
  2
ISO-25
  9
$DIMCLRD
 70
     0
  9
$DIMCLRE
 70
     0
  9
$DIMCLRT
 70
     0
  9
$DIMTFAC
 40
1.0
  9
$DIMGAP
 40
1.524
  9
$DIMJUST
 70
     0
  9
$DIMSD1
 70
     0
  9
$DIMSD2
 70
     0
  9
$DIMTOLJ
 70
     0
  9
$DIMTZIN
 70
     0
  9
$DIMALTZ
 70
     0
  9
$DIMALTTZ
 70
     0
  9
$DIMUPT
 70
     0
  9
$DIMDEC
 70
     2
  9
$DIMTDEC
 70
     2
  9
$DIMALTU
 70
     2
  9
$DIMALTTD
 70
     3
  9
$DIMTXSTY
  7
Standard
  9
$DIMAUNIT
 70
     0
  9
$DIMADEC
 70
     2
  9
$DIMALTRND
 40
0.0
  9
$DIMAZIN
 70
     0
  9
$DIMDSEP
 70
    44
  9
$DIMATFIT
 70
     3
  9
$DIMFRAC
 70
     0
  9
$DIMLDRBLK
  1

  9
$DIMLUNIT
 70
     2
  9
$DIMLWD
 70
    -2
  9
$DIMLWE
 70
    -2
  9
$DIMTMOVE
 70
     0
  9
$LUNITS
 70
     2
  9
$LUPREC
 70
     2
  9
$SKETCHINC
 40
1.0
  9
$FILLETRAD
 40
10.0
  9
$AUNITS
 70
     0
  9
$AUPREC
 70
     2
  9
$MENU
  1
.
  9
$ELEVATION
 40
0.0
  9
$PELEVATION
 40
0.0
  9
$THICKNESS
 40
0.0
  9
$LIMCHECK
 70
     0
  9
$CHAMFERA
 40
0.0
  9
$CHAMFERB
 40
0.0
  9
$CHAMFERC
 40
0.0
  9
$CHAMFERD
 40
0.0
  9
$SKPOLY
 70
     0
  9
$TDCREATE
 40
2458311.649097245
  9
$TDUCREATE
 40
2458311.274097245
  9
$TDUPDATE
 40
2458323.412868924
  9
$TDUUPDATE
 40
2458323.037868924
  9
$TDINDWG
 40
0.0009647917
  9
$TDUSRTIMER
 40
2458323.037780498
  9
$USRTIMER
 70
     1
  9
$ANGBASE
 50
0.0
  9
$ANGDIR
 70
     0
  9
$PDMODE
 70
     0
  9
$PDSIZE
 40
-1.0
  9
$PLINEWID
 40
0.0
  9
$SPLFRAME
 70
     0
  9
$SPLINETYPE
 70
     6
  9
$SPLINESEGS
 70
     8
  9
$HANDSEED
  5
414
  9
$SURFTAB1
 70
     6
  9
$SURFTAB2
 70
     6
  9
$SURFTYPE
 70
     6
  9
$SURFU
 70
     6
  9
$SURFV
 70
     6
  9
$UCSBASE
  2

  9
$UCSNAME
  2

  9
$UCSORG
 10
0.0
 20
0.0
 30
0.0
  9
$UCSXDIR
 10
1.0
 20
0.0
 30
0.0
  9
$UCSYDIR
 10
0.0
 20
1.0
 30
0.0
  9
$UCSORTHOREF
  2

  9
$UCSORTHOVIEW
 70
     0
  9
$UCSORGTOP
 10
0.0
 20
0.0
 30
0.0
  9
$UCSORGBOTTOM
 10
0.0
 20
0.0
 30
0.0
  9
$UCSORGLEFT
 10
0.0
 20
0.0
 30
0.0
  9
$UCSORGRIGHT
 10
0.0
 20
0.0
 30
0.0
  9
$UCSORGFRONT
 10
0.0
 20
0.0
 30
0.0
  9
$UCSORGBACK
 10
0.0
 20
0.0
 30
0.0
  9
$PUCSBASE
  2

  9
$PUCSNAME
  2

  9
$PUCSORG
 10
0.0
 20
0.0
 30
0.0
  9
$PUCSXDIR
 10
1.0
 20
0.0
 30
0.0
  9
$PUCSYDIR
 10
0.0
 20
1.0
 30
0.0
  9
$PUCSORTHOREF
  2

  9
$PUCSORTHOVIEW
 70
     0
  9
$PUCSORGTOP
 10
0.0
 20
0.0
 30
0.0
  9
$PUCSORGBOTTOM
 10
0.0
 20
0.0
 30
0.0
  9
$PUCSORGLEFT
 10
0.0
 20
0.0
 30
0.0
  9
$PUCSORGRIGHT
 10
0.0
 20
0.0
 30
0.0
  9
$PUCSORGFRONT
 10
0.0
 20
0.0
 30
0.0
  9
$PUCSORGBACK
 10
0.0
 20
0.0
 30
0.0
  9
$USERI1
 70
     0
  9
$USERI2
 70
     0
  9
$USERI3
 70
     0
  9
$USERI4
 70
     0
  9
$USERI5
 70
     0
  9
$USERR1
 40
0.0
  9
$USERR2
 40
0.0
  9
$USERR3
 40
0.0
  9
$USERR4
 40
0.0
  9
$USERR5
 40
0.0
  9
$WORLDVIEW
 70
     1
  9
$SHADEDGE
 70
     3
  9
$SHADEDIF
 70
    70
  9
$TILEMODE
 70
     1
  9
$MAXACTVP
 70
    64
  9
$PINSBASE
 10
0.0
 20
0.0
 30
0.0
  9
$PLIMCHECK
 70
     0
  9
$PEXTMIN
 10
1.000000000000000E+20
 20
1.000000000000000E+20
 30
1.000000000000000E+20
  9
$PEXTMAX
 10
-1.000000000000000E+20
 20
-1.000000000000000E+20
 30
-1.000000000000000E+20
  9
$PLIMMIN
 10
0.0
 20
0.0
  9
$PLIMMAX
 10
0.0
 20
0.0
  9
$UNITMODE
 70
     0
  9
$VISRETAIN
 70
     1
  9
$PLINEGEN
 70
     0
  9
$PSLTSCALE
 70
     1
  9
$TREEDEPTH
 70
  3020
  9
$CMLSTYLE
  2
Standard
  9
$CMLJUST
 70
     0
  9
$CMLSCALE
 40
20.0
  9
$PROXYGRAPHICS
 70
     1
  9
$MEASUREMENT
 70
     1
  9
$CELWEIGHT
370
    -1
  9
$ENDCAPS
280
     0
  9
$JOINSTYLE
280
     0
  9
$LWDISPLAY
290
     1
  9
$INSUNITS
 70
     4
  9
$HYPERLINKBASE
  1

  9
$STYLESHEET
  1

  9
$XEDIT
290
     1
  9
$CEPSNTYPE
380
     0
  9
$PSTYLEMODE
290
     1
  9
$FINGERPRINTGUID
  2
{69B5BEBA-92B5-4018-B15A-8C3655FEB61D}
  9
$VERSIONGUID
  2
{FAEB1C32-E019-11D5-929B-00C0DF256EC4}
  9
$EXTNAMES
290
     1
  9
$PSVPSCALE
 40
0.0
  9
$OLESTARTUP
290
     0
  0
ENDSEC
  0
SECTION
  2
CLASSES
  0
CLASS
  1
ACDBDICTIONARYWDFLT
  2
AcDbDictionaryWithDefault
  3
ObjectDBX Classes
 90
        0
280
     0
281
     0
  0
CLASS
  1
VISUALSTYLE
  2
AcDbVisualStyle
  3
ObjectDBX Classes
 90
     4095
280
     0
281
     0
  0
CLASS
  1
MATERIAL
  2
AcDbMaterial
  3
ObjectDBX Classes
 90
     1153
280
     0
281
     0
  0
CLASS
  1
SCALE
  2
AcDbScale
  3
ObjectDBX Classes
 90
     1153
280
     0
281
     0
  0
CLASS
  1
SUN
  2
AcDbSun
  3
SCENEOE
 90
     1153
280
     0
281
     0
  0
CLASS
  1
ACDBPLACEHOLDER
  2
AcDbPlaceHolder
  3
ObjectDBX Classes
 90
        0
280
     0
281
     0
  0
CLASS
  1
LAYOUT
  2
AcDbLayout
  3
ObjectDBX Classes
 90
        0
280
     0
281
     0
  0
CLASS
  1
TABLESTYLE
  2
AcDbTableStyle
  3
ObjectDBX Classes
 90
     4095
280
     0
281
     0
  0
CLASS
  1
MLEADERSTYLE
  2
AcDbMLeaderStyle
  3
ACDB_MLEADERSTYLE_CLASS
 90
     4095
280
     0
281
     0
  0
CLASS
  1
RASTERVARIABLES
  2
AcDbRasterVariables
  3
ISM
 90
        0
280
     0
281
     0
  0
ENDSEC
  0
SECTION
  2
TABLES
  0
TABLE
  2
VPORT
  5
8
330
0
100
AcDbSymbolTable
 70
     1
  0
VPORT
  5
29
330
8
100
AcDbSymbolTableRecord
100
AcDbViewportTableRecord
  2
*Active
 70
     0
 10
0.0
 20
0.0
 11
1.0
 21
1.0
 12
36.95705233248525
 22
-2.364026730598155
 13
0.0
 23
0.0
 14
10.0
 24
10.0
 15
10.0
 25
10.0
 16
0.0
 26
0.0
 36
1.0
 17
0.0
 27
0.0
 37
0.0
 40
193.7561687688592
 41
1.970186335403727
 42
50.0
 43
0.0
 44
0.0
 50
0.0
 51
0.0
 71
    16
 72
  2000
 73
     1
 74
     3
 75
     0
 76
     0
 77
     0
 78
     0
281
     0
 65
     1
110
0.0
120
0.0
130
0.0
111
1.0
121
0.0
131
0.0
112
0.0
122
1.0
132
0.0
 79
     0
146
0.0
  0
ENDTAB
  0
TABLE
  2
LTYPE
  5
5
330
0
100
AcDbSymbolTable
 70
     6
  0
LTYPE
  5
14
330
5
100
AcDbSymbolTableRecord
100
AcDbLinetypeTableRecord
  2
ByBlock
 70
     0
  3

 72
    65
 73
     0
 40
0.0
  0
LTYPE
  5
15
330
5
100
AcDbSymbolTableRecord
100
AcDbLinetypeTableRecord
  2
ByLayer
 70
     0
  3

 72
    65
 73
     0
 40
0.0
  0
LTYPE
  5
16
330
5
100
AcDbSymbolTableRecord
100
AcDbLinetypeTableRecord
  2
Continuous
 70
     0
  3
Solid line
 72
    65
 73
     0
 40
0.0
  0
LTYPE
  5
6A
330
5
100
AcDbSymbolTableRecord
100
AcDbLinetypeTableRecord
  2
HIDDEN
 70
     0
  3
Hidden __ __ __ __ __ __ __ __ __ __ __ __ __ __
 72
    65
 73
     2
 40
1.905
 49
1.27
 74
     0
 49
-0.635
 74
     0
  0
LTYPE
  5
6B
330
5
100
AcDbSymbolTableRecord
100
AcDbLinetypeTableRecord
  2
PHANTOM
 70
     0
  3
Phantom ______  __  __  ______  __  __  ______
 72
    65
 73
     6
 40
12.7
 49
6.35
 74
     0
 49
-1.27
 74
     0
 49
1.27
 74
     0
 49
-1.27
 74
     0
 49
1.27
 74
     0
 49
-1.27
 74
     0
  0
LTYPE
  5
6C
330
5
100
AcDbSymbolTableRecord
100
AcDbLinetypeTableRecord
  2
CENTER
 70
     0
  3
Center ____ _ ____ _ ____ _ ____ _ ____ _ ____
 72
    65
 73
     4
 40
10.16
 49
6.35
 74
     0
 49
-1.27
 74
     0
 49
1.27
 74
     0
 49
-1.27
 74
     0
  0
LTYPE
  5
6D
330
5
100
AcDbSymbolTableRecord
100
AcDbLinetypeTableRecord
  2
CENTERX2
 70
     0
  3
Center (2x) ________  __  ________  __  _____
 72
    65
 73
     4
 40
20.32
 49
12.7
 74
     0
 49
-2.54
 74
     0
 49
2.54
 74
     0
 49
-2.54
 74
     0
  0
LTYPE
  5
6E
330
5
100
AcDbSymbolTableRecord
100
AcDbLinetypeTableRecord
  2
DOT2
 70
     0
  3
Dot (.5x) ........................................
 72
    65
 73
     2
 40
0.635
 49
0.0
 74
     0
 49
-0.635
 74
     0
  0
ENDTAB
  0
TABLE
  2
LAYER
  5
2
102
{ACAD_XDICTIONARY
360
202
102
}
330
0
100
AcDbSymbolTable
 70
    18
  0
LAYER
  5
10
330
2
100
AcDbSymbolTableRecord
100
AcDbLayerTableRecord
  2
0
 70
     0
 62
     7
  6
Continuous
370
    -3
390
F
  0
LAYER
  5
6F
330
2
100
AcDbSymbolTableRecord
100
AcDbLayerTableRecord
  2
FORMAT
 70
     0
 62
     2
  6
Continuous
370
    -3
390
F
  0
LAYER
  5
70
330
2
100
AcDbSymbolTableRecord
100
AcDbLayerTableRecord
  2
외형선
 70
     0
 62
     4
  6
Continuous
370
    30
390
F
  0
LAYER
  5
71
330
2
100
AcDbSymbolTableRecord
100
AcDbLayerTableRecord
  2
숨은선
 70
     0
 62
     2
  6
HIDDEN
370
    15
390
F
  0
LAYER
  5
72
330
2
100
AcDbSymbolTableRecord
100
AcDbLayerTableRecord
  2
중심선
 70
     0
 62
     1
  6
CENTERX2
370
    -3
390
F
  0
LAYER
  5
73
330
2
100
AcDbSymbolTableRecord
100
AcDbLayerTableRecord
  2
파단선
 70
     0
 62
     4
  6
Continuous
370
    -3
390
F
  0
LAYER
  5
74
330
2
100
AcDbSymbolTableRecord
100
AcDbLayerTableRecord
  2
해칭선
 70
     0
 62
   100
  6
Continuous
370
    -3
390
F
  0
LAYER
  5
75
330
2
100
AcDbSymbolTableRecord
100
AcDbLayerTableRecord
  2
가는실선
 70
     0
 62
     4
  6
Continuous
370
    -3
390
F
  0
LAYER
  5
76
330
2
100
AcDbSymbolTableRecord
100
AcDbLayerTableRecord
  2
치수_보조선
 70
     0
 62
     4
  6
Continuous
370
    -3
390
F
  0
LAYER
  5
77
330
2
100
AcDbSymbolTableRecord
100
AcDbLayerTableRecord
  2
치수문자_일반주서
 70
     0
 62
     7
  6
Continuous
370
    15
390
F
  0
LAYER
  5
78
330
2
100
AcDbSymbolTableRecord
100
AcDbLayerTableRecord
  2
개별주서
 70
     0
 62
   100
  6
Continuous
370
    30
390
F
  0
LAYER
  5
79
330
2
100
AcDbSymbolTableRecord
100
AcDbLayerTableRecord
  2
중간선
 70
     0
 62
     2
  6
Continuous
370
    15
390
F
  0
LAYER
  5
7A
330
2
100
AcDbSymbolTableRecord
100
AcDbLayerTableRecord
  2
윤곽선
 70
     0
 62
     3
  6
Continuous
370
    40
390
F
  0
LAYER
  5
7B
330
2
100
AcDbSymbolTableRecord
100
AcDbLayerTableRecord
  2
중심마크
 70
     0
 62
   100
  6
Continuous
370
    30
390
F
  0
LAYER
  5
7C
330
2
100
AcDbSymbolTableRecord
100
AcDbLayerTableRecord
  2
가상선
 70
     0
 62
     4
  6
PHANTOM
370
    -3
390
F
  0
LAYER
  5
7D
330
2
100
AcDbSymbolTableRecord
100
AcDbLayerTableRecord
  2
특수지정선
 70
     0
 62
     5
  6
CENTERX2
370
    60
390
F
  0
LAYER
  5
7E
330
2
100
AcDbSymbolTableRecord
100
AcDbLayerTableRecord
  2
참조1
 70
     0
 62
    -4
  6
Continuous
370
    -3
390
F
  0
LAYER
  5
14A
330
2
100
AcDbSymbolTableRecord
100
AcDbLayerTableRecord
  2
Defpoints
 70
     0
 62
     7
  6
Continuous
290
     0
370
    -3
390
F
  0
ENDTAB
  0
TABLE
  2
STYLE
  5
3
330
0
100
AcDbSymbolTable
 70
     2
  0
STYLE
  5
11
330
3
100
AcDbSymbolTableRecord
100
AcDbTextStyleTableRecord
  2
Standard
 70
     0
 40
0.0
 41
1.0
 50
0.0
 71
     0
 42
3.5
  3
txt
  4

  0
STYLE
  5
94
330
3
100
AcDbSymbolTableRecord
100
AcDbTextStyleTableRecord
  2
SLDTEXTSTYLE0
 70
     0
 40
0.0
 41
0.75
 50
0.0
 71
     0
 42
3.5
  3
TXT
  4

  0
ENDTAB
  0
TABLE
  2
VIEW
  5
6
330
0
100
AcDbSymbolTable
 70
     0
  0
ENDTAB
  0
TABLE
  2
UCS
  5
7
330
0
100
AcDbSymbolTable
 70
     0
  0
ENDTAB
  0
TABLE
  2
APPID
  5
9
330
0
100
AcDbSymbolTable
 70
     3
  0
APPID
  5
12
330
9
100
AcDbSymbolTableRecord
100
AcDbRegAppTableRecord
  2
ACAD
 70
     0
  0
APPID
  5
156
330
9
100
AcDbSymbolTableRecord
100
AcDbRegAppTableRecord
  2
PE_URL
 70
     0
  0
APPID
  5
157
330
9
100
AcDbSymbolTableRecord
100
AcDbRegAppTableRecord
  2
ACAD_DSTYLE_DIMRADIAL_EXTENSION
 70
     0
  0
ENDTAB
  0
TABLE
  2
DIMSTYLE
  5
A
330
0
100
AcDbSymbolTable
 70
     4
100
AcDbDimStyleTable
  0
DIMSTYLE
105
27
330
A
100
AcDbSymbolTableRecord
100
AcDbDimStyleTableRecord
  2
ISO-25
 70
     0
 41
2.5
 42
0.625
 43
3.75
 44
1.25
 73
     0
 74
     0
 77
     1
 78
     8
140
2.5
141
2.5
143
0.03937007874016
147
0.625
171
     3
172
     1
178
     0
271
     2
272
     2
274
     3
278
    44
283
     0
284
     8
340
11
  0
DIMSTYLE
105
C7
102
{ACAD_REACTORS
330
1B6
330
1C3
330
3D8
330
3D9
330
3DA
330
3DB
102
}
330
A
100
AcDbSymbolTableRecord
100
AcDbDimStyleTableRecord
  2
SLDDIMSTYLE0
 70
     0
 41
3.302
 44
0.0
 45
0.000000001
 73
     0
 74
     0
 77
     1
 78
     4
 79
     1
140
3.5
143
0.0393700787401575
147
0.875
148
0.000000001
170
     1
173
     1
178
     0
271
     2
272
     2
276
     2
284
    12
340
94
  0
DIMSTYLE
105
DB
102
{ACAD_REACTORS
330
1F9
102
}
330
A
100
AcDbSymbolTableRecord
100
AcDbDimStyleTableRecord
  2
SLDDIMSTYLE1
 70
     0
 41
3.302
 44
0.0
 45
0.000000001
 73
     0
 74
     0
 77
     1
 78
     4
 79
     1
140
3.5
143
0.0393700787401575
147
0.875
148
0.000000001
170
     1
172
     1
173
     1
178
     0
271
     2
272
     2
276
     2
284
    12
289
     0
340
94
  0
DIMSTYLE
105
155
102
{ACAD_REACTORS
330
1D0
330
1DF
330
32C
330
339
330
349
330
356
102
}
330
A
100
AcDbSymbolTableRecord
100
AcDbDimStyleTableRecord
  2
SLDDIMSTYLE2
 70
     0
 41
3.302
 44
0.0
 45
0.000000001
 73
     0
 74
     0
 77
     1
 78
    12
 79
     3
140
3.5
147
0.875
172
     1
173
     1
178
     0
271
     2
272
     2
276
     2
284
    12
289
     0
340
94
  0
ENDTAB
  0
TABLE
  2
BLOCK_RECORD
  5
1
330
0
100
AcDbSymbolTable
 70
    27
  0
BLOCK_RECORD
  5
1F
330
1
100
AcDbSymbolTableRecord
100
AcDbBlockTableRecord
  2
*Model_Space
340
22
  0
BLOCK_RECORD
  5
1B
330
1
100
AcDbSymbolTableRecord
100
AcDbBlockTableRecord
  2
*Paper_Space
340
1E
  0
BLOCK_RECORD
  5
23
330
1
100
AcDbSymbolTableRecord
100
AcDbBlockTableRecord
  2
*Paper_Space0
340
26
  0
BLOCK_RECORD
  5
7F
330
1
100
AcDbSymbolTableRecord
100
AcDbBlockTableRecord
  2
블럭10
340
0
102
{BLKREFS
331
0
331
30F
331
3D1
102
}
  0
BLOCK_RECORD
  5
C8
330
1
100
AcDbSymbolTableRecord
100
AcDbBlockTableRecord
  2
_D
340
0
  0
BLOCK_RECORD
  5
DC
330
1
100
AcDbSymbolTableRecord
100
AcDbBlockTableRecord
  2
_D_1
340
0
  0
BLOCK_RECORD
  5
F0
330
1
100
AcDbSymbolTableRecord
100
AcDbBlockTableRecord
  2
_D_2
340
0
  0
BLOCK_RECORD
  5
105
330
1
100
AcDbSymbolTableRecord
100
AcDbBlockTableRecord
  2
_D_3
340
0
  0
BLOCK_RECORD
  5
11E
330
1
100
AcDbSymbolTableRecord
100
AcDbBlockTableRecord
  2
SW_DOWELSYMBOL_0
340
0
102
{BLKREFS
331
0
331
1EE
331
0
331
366
331
3DC
102
}
  0
BLOCK_RECORD
  5
1E0
330
1
100
AcDbSymbolTableRecord
100
AcDbBlockTableRecord
  2
_D_4
340
0
  0
BLOCK_RECORD
  5
1FA
330
1
100
AcDbSymbolTableRecord
100
AcDbBlockTableRecord
  2
*D9
340
0
  0
BLOCK_RECORD
  5
206
330
1
100
AcDbSymbolTableRecord
100
AcDbBlockTableRecord
  2
*D10
340
0
  0
BLOCK_RECORD
  5
212
330
1
100
AcDbSymbolTableRecord
100
AcDbBlockTableRecord
  2
*D11
340
0
  0
BLOCK_RECORD
  5
21E
330
1
100
AcDbSymbolTableRecord
100
AcDbBlockTableRecord
  2
*D12
340
0
  0
BLOCK_RECORD
  5
278
330
1
100
AcDbSymbolTableRecord
100
AcDbBlockTableRecord
  2
*D13
340
0
  0
BLOCK_RECORD
  5
284
330
1
100
AcDbSymbolTableRecord
100
AcDbBlockTableRecord
  2
*D14
340
0
  0
BLOCK_RECORD
  5
290
330
1
100
AcDbSymbolTableRecord
100
AcDbBlockTableRecord
  2
*D15
340
0
  0
BLOCK_RECORD
  5
29E
330
1
100
AcDbSymbolTableRecord
100
AcDbBlockTableRecord
  2
*D16
340
0
  0
BLOCK_RECORD
  5
2AC
330
1
100
AcDbSymbolTableRecord
100
AcDbBlockTableRecord
  2
*D17
340
0
  0
BLOCK_RECORD
  5
36F
330
1
100
AcDbSymbolTableRecord
100
AcDbBlockTableRecord
  2
*D19
340
0
  0
BLOCK_RECORD
  5
37B
330
1
100
AcDbSymbolTableRecord
100
AcDbBlockTableRecord
  2
*D20
340
0
  0
BLOCK_RECORD
  5
38A
330
1
100
AcDbSymbolTableRecord
100
AcDbBlockTableRecord
  2
*D21
340
0
  0
BLOCK_RECORD
  5
396
330
1
100
AcDbSymbolTableRecord
100
AcDbBlockTableRecord
  2
*D22
340
0
  0
BLOCK_RECORD
  5
3DD
330
1
100
AcDbSymbolTableRecord
100
AcDbBlockTableRecord
  2
*D23
340
0
  0
BLOCK_RECORD
  5
3E9
330
1
100
AcDbSymbolTableRecord
100
AcDbBlockTableRecord
  2
*D24
340
0
  0
BLOCK_RECORD
  5
3F8
330
1
100
AcDbSymbolTableRecord
100
AcDbBlockTableRecord
  2
*D25
340
0
  0
BLOCK_RECORD
  5
404
330
1
100
AcDbSymbolTableRecord
100
AcDbBlockTableRecord
  2
*D26
340
0
  0
ENDTAB
  0
ENDSEC
  0
SECTION
  2
BLOCKS
  0
BLOCK
  5
20
330
1F
100
AcDbEntity
  8
0
100
AcDbBlockBegin
  2
*Model_Space
 70
     0
 10
0.0
 20
0.0
 30
0.0
  3
*Model_Space
  1
*Model_Space
  0
ENDBLK
  5
21
330
1F
100
AcDbEntity
  8
0
100
AcDbBlockEnd
  0
BLOCK
  5
1C
330
1B
100
AcDbEntity
 67
     1
  8
0
100
AcDbBlockBegin
  2
*Paper_Space
 70
     0
 10
0.0
 20
0.0
 30
0.0
  3
*Paper_Space
  1
*Paper_Space
  0
ENDBLK
  5
1D
330
1B
100
AcDbEntity
 67
     1
  8
0
100
AcDbBlockEnd
  0
BLOCK
  5
24
330
23
100
AcDbEntity
  8
0
100
AcDbBlockBegin
  2
*Paper_Space0
 70
     0
 10
0.0
 20
0.0
 30
0.0
  3
*Paper_Space0
  1
*Paper_Space0
  0
ENDBLK
  5
25
330
23
100
AcDbEntity
  8
0
100
AcDbBlockEnd
  0
BLOCK
  5
80
330
7F
100
AcDbEntity
  8
0
100
AcDbBlockBegin
  2
블럭10
 70
     2
 10
0.0
 20
0.0
 30
0.0
  3
블럭10
  1
블럭10
  0
ELLIPSE
  5
82
330
7F
100
AcDbEntity
  8
중심선
100
AcDbEllipse
 10
20.54032771741204
 20
12.0471743016438
 30
0.0
 11
6.600054785286829
 21
-1.261213355974178E-13
 31
0.0
210
0.0
220
0.0
230
1.0
 40
0.636358354079598
 41
0.9219305317359503
 42
6.513795318482858
  0
ELLIPSE
  5
83
330
7F
100
AcDbEntity
  8
중심선
100
AcDbEllipse
 10
20.54032771746488
 20
12.04717430159265
 30
0.0
 11
3.960054785062283
 21
1.540847449632565E-10
 31
0.0
210
0.0
220
0.0
230
1.0
 40
0.3939339440162632
 41
1.131841032648279
 42
5.62031148352944
  0
LINE
  5
84
330
7F
100
AcDbEntity
  8
중심선
100
AcDbLine
 10
2.268634060543552
 20
16.24717430164393
 30
0.0
 11
5.714909304380834
 21
16.24717430164393
 31
0.0
  0
LINE
  5
85
330
7F
100
AcDbEntity
  8
중심선
100
AcDbLine
 10
5.245725140726316
 20
7.84717430164391
 30
0.0
 11
8.692000384563599
 21
7.84717430164391
 31
0.0
  0
LINE
  5
86
330
7F
100
AcDbEntity
  8
중심선
100
AcDbLine
 10
15.74043728645272
 20
16.24717430164393
 30
0.0
 11
8.692000384563599
 21
7.84717430164391
 31
0.0
  0
LINE
  5
87
330
7F
100
AcDbEntity
  8
중심선
100
AcDbLine
 10
0.1404042013395286
 20
13.71084872107135
 30
0.0
 11
3.58671253028996
 21
13.71088815037384
 31
0.0
  0
LINE
  5
88
330
7F
100
AcDbEntity
  8
중심선
100
AcDbLine
 10
2.750260043222114
 20
10.84717430164391
 30
0.0
 11
6.196535287059397
 21
10.84717430164391
 31
0.0
  0
LINE
  5
89
330
7F
100
AcDbEntity
  8
중심선
100
AcDbLine
 10
12.29416204261559
 20
16.24717430164393
 30
0.0
 11
5.245725140726316
 21
7.84717430164391
 31
0.0
  0
LINE
  5
8A
330
7F
100
AcDbEntity
  8
중심선
100
AcDbLine
 10
10.72767329541681
 20
16.24717430164393
 30
0.0
 11
6.196535287059397
 21
10.84717430164391
 31
0.0
  0
LINE
  5
8B
330
7F
100
AcDbEntity
  8
중심선
100
AcDbLine
 10
7.28139805157953
 20
16.24717430164393
 30
0.0
 11
2.750260043222114
 21
10.84717430164391
 31
0.0
  0
LINE
  5
8C
330
7F
100
AcDbEntity
  8
중심선
100
AcDbLine
 10
5.714909304380834
 20
16.24717430164393
 30
0.0
 11
3.58671253028996
 21
13.71088815037384
 31
0.0
  0
LINE
  5
8D
330
7F
100
AcDbEntity
  8
중심선
100
AcDbLine
 10
2.268634060543552
 20
16.24717430164393
 30
0.0
 11
0.1404042013395286
 21
13.71084872107135
 31
0.0
  0
LINE
  5
8E
330
7F
100
AcDbEntity
  8
중심선
100
AcDbLine
 10
7.28139805157953
 20
16.24717430164393
 30
0.0
 11
10.72767329541681
 21
16.24717430164393
 31
0.0
  0
LINE
  5
8F
330
7F
100
AcDbEntity
  8
중심선
100
AcDbLine
 10
12.29416204261559
 20
16.24717430164393
 30
0.0
 11
15.74043728645272
 21
16.24717430164393
 31
0.0
  0
LINE
  5
90
330
7F
100
AcDbEntity
  8
중심선
100
AcDbLine
 10
19.22036997980202
 20
11.08717430171403
 30
0.0
 11
23.66174974927406
 21
11.08717430171406
 31
0.0
  0
LINE
  5
91
330
7F
100
AcDbEntity
  8
중심선
100
AcDbLine
 10
19.22039502424796
 20
13.00717430171391
 30
0.0
 11
19.22036997980202
 21
11.08717430171403
 31
0.0
  0
LINE
  5
92
330
7F
100
AcDbEntity
  8
중심선
100
AcDbLine
 10
19.22039502424796
 20
13.00717430171391
 30
0.0
 11
26.96566020931264
 21
13.00717430171391
 31
0.0
  0
LINE
  5
93
330
7F
100
AcDbEntity
  8
중심선
100
AcDbLine
 10
22.22332737316547
 20
13.45928029700563
 30
0.0
 11
24.52862924686651
 21
15.39360700705356
 31
0.0
  0
ATTDEF
  5
95
330
7F
100
AcDbEntity
  8
FORMAT
 62
     2
100
AcDbText
 10
4.408487351596664
 20
2.075366912832191
 30
0.0
 40
4.233333333333333
  1
E5059905
 41
0.75
  7
SLDTEXTSTYLE0
 11
4.408487351596664
 21
-0.0412997538344756
 31
0.0
100
AcDbAttributeDefinition
  3

  2
AUTOATTR0
 70
     0
 74
     1
  0
ENDBLK
  5
81
330
7F
100
AcDbEntity
  8
0
100
AcDbBlockEnd
  0
BLOCK
  5
C9
330
C8
100
AcDbEntity
  8
0
100
AcDbBlockBegin
  2
_D
 70
     0
 10
0.0
 20
0.0
 30
0.0
  3
_D
  1
_D
  0
LINE
  5
CB
330
C8
100
AcDbEntity
  8
치수문자_일반주서
 62
     0
370
    -2
100
AcDbLine
 10
-40.80000000000069
 20
5.912499999999992
 30
0.0
 11
-40.80000000000069
 21
29.54105032795722
 31
0.0
  0
LINE
  5
CC
330
C8
100
AcDbEntity
  8
치수문자_일반주서
 62
     0
370
    -2
100
AcDbLine
 10
35.3999999999993
 20
6.412500000000001
 30
0.0
 11
35.39999999999931
 21
29.54105032795722
 31
0.0
  0
LINE
  5
CD
330
C8
100
AcDbEntity
  8
치수문자_일반주서
 62
     0
370
    -2
100
AcDbLine
 10
-37.49800000000069
 20
29.54105032795722
 30
0.0
 11
32.09799999999931
 21
29.54105032795722
 31
0.0
  0
SOLID
  5
CE
330
C8
100
AcDbEntity
  8
치수문자_일반주서
 62
     0
100
AcDbTrace
 10
-37.49800000000069
 20
30.09138366129055
 30
0.0
 11
-37.49800000000069
 21
28.99071699462388
 31
0.0
 12
-40.80000000000069
 22
29.54105032795722
 32
0.0
 13
-40.80000000000069
 23
29.54105032795722
 33
0.0
  0
SOLID
  5
CF
330
C8
100
AcDbEntity
  8
치수문자_일반주서
 62
     0
100
AcDbTrace
 10
32.09799999999931
 20
28.99071699462388
 30
0.0
 11
32.09799999999931
 21
30.09138366129055
 31
0.0
 12
35.39999999999931
 22
29.54105032795722
 32
0.0
 13
35.39999999999931
 23
29.54105032795722
 33
0.0
  0
MTEXT
  5
D0
330
C8
100
AcDbEntity
  8
치수문자_일반주서
 62
     0
100
AcDbMText
 10
-2.700000000000699
 20
33.91605032795722
 30
0.0
 40
3.5
 41
0.0
 71
     2
 72
     1
  1
\A1;76.20 [3]
  7
SLDTEXTSTYLE0
 73
     1
 44
1.0
  0
POINT
  5
D1
330
C8
100
AcDbEntity
  8
Defpoints
 62
     0
100
AcDbPoint
 10
-40.80000000000069
 20
5.849999999999992
 30
0.0
  0
POINT
  5
D2
330
C8
100
AcDbEntity
  8
Defpoints
 62
     0
100
AcDbPoint
 10
35.3999999999993
 20
6.350000000000001
 30
0.0
  0
POINT
  5
D3
330
C8
100
AcDbEntity
  8
Defpoints
 62
     0
100
AcDbPoint
 10
35.3999999999993
 20
29.54105032795722
 30
0.0
  0
ENDBLK
  5
CA
330
C8
100
AcDbEntity
  8
0
100
AcDbBlockEnd
  0
BLOCK
  5
DD
330
DC
100
AcDbEntity
  8
0
100
AcDbBlockBegin
  2
_D_1
 70
     0
 10
0.0
 20
0.0
 30
0.0
  3
_D_1
  1
_D_1
  0
LINE
  5
DF
330
DC
100
AcDbEntity
  8
치수문자_일반주서
 62
     0
370
    -2
100
AcDbLine
 10
-40.36250000000068
 20
6.349999999999993
 30
0.0
 11
-53.05893065682619
 21
6.349999999999945
 31
0.0
  0
LINE
  5
E0
330
DC
100
AcDbEntity
  8
치수문자_일반주서
 62
     0
370
    -2
100
AcDbLine
 10
-40.36250000000068
 20
-6.349999999999995
 30
0.0
 11
-53.05893065682615
 21
-6.350000000000044
 31
0.0
  0
LINE
  5
E1
330
DC
100
AcDbEntity
  8
치수문자_일반주서
 62
     0
370
    -2
100
AcDbLine
 10
-53.05893065682619
 20
6.349999999999945
 30
0.0
 11
-53.05893065682629
 21
36.77699999999994
 31
0.0
  0
LINE
  5
E2
330
DC
100
AcDbEntity
  8
치수문자_일반주서
 62
     0
370
    -2
100
AcDbLine
 10
-53.05893065682618
 20
3.047999999999945
 30
0.0
 11
-53.05893065682616
 21
-3.048000000000044
 31
0.0
  0
SOLID
  5
E3
330
DC
100
AcDbEntity
  8
치수문자_일반주서
 62
     0
100
AcDbTrace
 10
-52.50859732349284
 20
3.047999999999947
 30
0.0
 11
-53.60926399015951
 21
3.047999999999943
 31
0.0
 12
-53.05893065682619
 22
6.349999999999945
 32
0.0
 13
-53.05893065682619
 23
6.349999999999945
 33
0.0
  0
SOLID
  5
E4
330
DC
100
AcDbEntity
  8
치수문자_일반주서
 62
     0
100
AcDbTrace
 10
-53.6092639901595
 20
-3.048000000000046
 30
0.0
 11
-52.50859732349283
 21
-3.048000000000043
 31
0.0
 12
-53.05893065682615
 22
-6.350000000000044
 32
0.0
 13
-53.05893065682615
 23
-6.350000000000044
 33
0.0
  0
MTEXT
  5
E5
330
DC
100
AcDbEntity
  8
치수문자_일반주서
 62
     0
100
AcDbMText
 10
-57.43393065682625
 20
23.43324999999993
 30
0.0
 40
3.5
 41
0.0
 71
     2
 72
     1
  1
\A1;%%c12.70 [1/2]
  7
SLDTEXTSTYLE0
 11
-3.356894814614650E-15
 21
1.0
 31
0.0
 73
     1
 44
1.0
  0
POINT
  5
E6
330
DC
100
AcDbEntity
  8
Defpoints
 62
     0
100
AcDbPoint
 10
-40.30000000000068
 20
6.349999999999993
 30
0.0
  0
POINT
  5
E7
330
DC
100
AcDbEntity
  8
Defpoints
 62
     0
100
AcDbPoint
 10
-40.30000000000068
 20
-6.349999999999995
 30
0.0
  0
POINT
  5
2B5
330
DC
100
AcDbEntity
  8
Defpoints
 62
     0
100
AcDbPoint
 10
-53.05893065682615
 20
-6.350000000000043
 30
0.0
  0
ENDBLK
  5
DE
330
DC
100
AcDbEntity
  8
0
100
AcDbBlockEnd
  0
BLOCK
  5
F1
330
F0
100
AcDbEntity
  8
0
100
AcDbBlockBegin
  2
_D_2
 70
     0
 10
0.0
 20
0.0
 30
0.0
  3
_D_2
  1
_D_2
  0
LINE
  5
F3
330
F0
100
AcDbEntity
  8
치수문자_일반주서
 62
     0
370
    -2
100
AcDbLine
 10
35.3999999999993
 20
6.412500000000001
 30
0.0
 11
35.3999999999993
 21
15.58628572457922
 31
0.0
  0
LINE
  5
F4
330
F0
100
AcDbEntity
  8
치수문자_일반주서
 62
     0
370
    -2
100
AcDbLine
 10
9.999999999999298
 20
6.338938528531337
 30
0.0
 11
9.999999999999298
 21
15.58628572457922
 31
0.0
  0
LINE
  5
F5
330
F0
100
AcDbEntity
  8
치수문자_일반주서
 62
     0
370
    -2
100
AcDbLine
 10
32.0979999999993
 20
15.58628572457922
 30
0.0
 11
13.3019999999993
 21
15.58628572457922
 31
0.0
  0
SOLID
  5
F6
330
F0
100
AcDbEntity
  8
치수문자_일반주서
 62
     0
100
AcDbTrace
 10
32.0979999999993
 20
15.03595239124589
 30
0.0
 11
32.0979999999993
 21
16.13661905791255
 31
0.0
 12
35.3999999999993
 22
15.58628572457922
 32
0.0
 13
35.3999999999993
 23
15.58628572457922
 33
0.0
  0
SOLID
  5
F7
330
F0
100
AcDbEntity
  8
치수문자_일반주서
 62
     0
100
AcDbTrace
 10
13.3019999999993
 20
16.13661905791255
 30
0.0
 11
13.3019999999993
 21
15.03595239124589
 31
0.0
 12
9.999999999999298
 22
15.58628572457922
 32
0.0
 13
9.999999999999298
 23
15.58628572457922
 33
0.0
  0
MTEXT
  5
F8
330
F0
100
AcDbEntity
  8
치수문자_일반주서
 62
     0
100
AcDbMText
 10
23.51203485968458
 20
19.96128572457922
 30
0.0
 40
3.5
 41
0.0
 71
     2
 72
     1
  1
\A1;25.40 [1]
  7
SLDTEXTSTYLE0
 73
     1
 44
1.0
  0
POINT
  5
F9
330
F0
100
AcDbEntity
  8
Defpoints
 62
     0
100
AcDbPoint
 10
35.3999999999993
 20
6.350000000000001
 30
0.0
  0
POINT
  5
FA
330
F0
100
AcDbEntity
  8
Defpoints
 62
     0
100
AcDbPoint
 10
9.999999999999298
 20
6.276438528531337
 30
0.0
  0
POINT
  5
FB
330
F0
100
AcDbEntity
  8
Defpoints
 62
     0
100
AcDbPoint
 10
9.999999999999298
 20
15.58628572457922
 30
0.0
  0
ENDBLK
  5
F2
330
F0
100
AcDbEntity
  8
0
100
AcDbBlockEnd
  0
BLOCK
  5
106
330
105
100
AcDbEntity
  8
0
100
AcDbBlockBegin
  2
_D_3
 70
     0
 10
0.0
 20
0.0
 30
0.0
  3
_D_3
  1
_D_3
  0
LINE
  5
108
330
105
100
AcDbEntity
  8
치수문자_일반주서
 62
     0
370
    -2
100
AcDbLine
 10
35.4624999999993
 20
6.350000000000001
 30
0.0
 11
48.67747257907482
 21
6.350000000000051
 31
0.0
  0
LINE
  5
109
330
105
100
AcDbEntity
  8
치수문자_일반주서
 62
     0
370
    -2
100
AcDbLine
 10
35.4624999999993
 20
-6.349999999999986
 30
0.0
 11
48.67747257907486
 21
-6.349999999999937
 31
0.0
  0
LINE
  5
10A
330
105
100
AcDbEntity
  8
치수문자_일반주서
 62
     0
370
    -2
100
AcDbLine
 10
48.67747257907482
 20
6.350000000000051
 30
0.0
 11
48.67747257907472
 21
36.77700000000004
 31
0.0
  0
LINE
  5
10B
330
105
100
AcDbEntity
  8
치수문자_일반주서
 62
     0
370
    -2
100
AcDbLine
 10
48.67747257907483
 20
3.048000000000052
 30
0.0
 11
48.67747257907484
 21
-3.047999999999938
 31
0.0
  0
SOLID
  5
10C
330
105
100
AcDbEntity
  8
치수문자_일반주서
 62
     0
100
AcDbTrace
 10
49.22780591240817
 20
3.048000000000053
 30
0.0
 11
48.1271392457415
 21
3.04800000000005
 31
0.0
 12
48.67747257907482
 22
6.350000000000051
 32
0.0
 13
48.67747257907482
 23
6.350000000000051
 33
0.0
  0
SOLID
  5
10D
330
105
100
AcDbEntity
  8
치수문자_일반주서
 62
     0
100
AcDbTrace
 10
48.12713924574151
 20
-3.04799999999994
 30
0.0
 11
49.22780591240818
 21
-3.047999999999936
 31
0.0
 12
48.67747257907486
 22
-6.349999999999937
 32
0.0
 13
48.67747257907486
 23
-6.349999999999937
 33
0.0
  0
MTEXT
  5
10E
330
105
100
AcDbEntity
  8
치수문자_일반주서
 62
     0
100
AcDbMText
 10
44.30247257907476
 20
23.43325000000003
 30
0.0
 40
3.5
 41
0.0
 71
     2
 72
     1
  1
\A1;%%c12.70 [1/2]
  7
SLDTEXTSTYLE0
 11
-3.356894814614650E-15
 21
1.0
 31
0.0
 73
     1
 44
1.0
  0
POINT
  5
10F
330
105
100
AcDbEntity
  8
Defpoints
 62
     0
100
AcDbPoint
 10
35.3999999999993
 20
6.350000000000001
 30
0.0
  0
POINT
  5
110
330
105
100
AcDbEntity
  8
Defpoints
 62
     0
100
AcDbPoint
 10
35.3999999999993
 20
-6.349999999999986
 30
0.0
  0
POINT
  5
111
330
105
100
AcDbEntity
  8
Defpoints
 62
     0
100
AcDbPoint
 10
48.67747257907486
 20
-6.349999999999937
 30
0.0
  0
ENDBLK
  5
107
330
105
100
AcDbEntity
  8
0
100
AcDbBlockEnd
  0
BLOCK
  5
11F
330
11E
100
AcDbEntity
  8
0
100
AcDbBlockBegin
  2
SW_DOWELSYMBOL_0
 70
     0
 10
0.0
 20
0.0
 30
0.0
  3
SW_DOWELSYMBOL_0
  1
SW_DOWELSYMBOL_0
  0
CIRCLE
  5
121
330
11E
100
AcDbEntity
  8
해칭선
 62
     0
100
AcDbCircle
 10
0.0
 20
0.0
 30
0.0
 40
3.000000000000003
  0
HATCH
  5
122
330
11E
100
AcDbEntity
  8
0
  6
Continuous
 62
     0
370
     0
100
AcDbHatch
 10
0.0
 20
0.0
 30
0.0
210
0.0
220
0.0
230
1.0
  2
SOLID
 70
     1
 71
     0
 91
        1
 92
        0
 93
        3
 72
     2
 10
0.0
 20
0.0
 40
3.000000000000003
 50
0.0
 51
90.0
 73
     1
 72
     1
 10
0.0
 20
3.000000000000003
 11
0.0
 21
0.0
 72
     1
 10
0.0
 20
0.0
 11
3.000000000000003
 21
0.0
 97
        0
 75
     0
 76
     1
 98
        1
 10
0.0
 20
0.0
  0
HATCH
  5
123
330
11E
100
AcDbEntity
  8
0
  6
Continuous
 62
     0
370
     0
100
AcDbHatch
 10
0.0
 20
0.0
 30
0.0
210
0.0
220
0.0
230
1.0
  2
SOLID
 70
     1
 71
     0
 91
        1
 92
        0
 93
        3
 72
     2
 10
0.0
 20
0.0
 40
3.000000000000003
 50
180.0
 51
270.0000000000008
 73
     1
 72
     1
 10
0.0
 20
-3.000000000000003
 11
0.0
 21
0.0
 72
     1
 10
0.0
 20
0.0
 11
-3.000000000000003
 21
0.0
 97
        0
 75
     0
 76
     1
 98
        1
 10
0.0
 20
0.0
  0
ENDBLK
  5
120
330
11E
100
AcDbEntity
  8
0
100
AcDbBlockEnd
  0
BLOCK
  5
1E1
330
1E0
100
AcDbEntity
  8
0
100
AcDbBlockBegin
  2
_D_4
 70
     0
 10
0.0
 20
0.0
 30
0.0
  3
_D_4
  1
_D_4
  0
LINE
  5
1E2
330
1E0
100
AcDbEntity
  8
치수문자_일반주서
 62
     0
370
    -2
100
AcDbLine
 10
102.4375000000001
 20
36.22143424691529
 30
0.0
 11
117.3750000000001
 21
36.22143424691535
 31
0.0
  0
LINE
  5
1E3
330
1E0
100
AcDbEntity
  8
치수문자_일반주서
 62
     0
370
    -2
100
AcDbLine
 10
102.4375000000001
 20
22.22143424691529
 30
0.0
 11
117.3750000000001
 21
22.22143424691535
 31
0.0
  0
LINE
  5
1E4
330
1E0
100
AcDbEntity
  8
치수문자_일반주서
 62
     0
370
    -2
100
AcDbLine
 10
117.3750000000001
 20
36.22143424691535
 30
0.0
 11
117.3750000000001
 21
22.22143424691535
 31
0.0
  0
LINE
  5
1E5
330
1E0
100
AcDbEntity
  8
치수문자_일반주서
 62
     0
370
    -2
100
AcDbLine
 10
117.3750000000001
 20
39.52343424691535
 30
0.0
 11
117.375
 21
42.82543424691535
 31
0.0
  0
LINE
  5
1E6
330
1E0
100
AcDbEntity
  8
치수문자_일반주서
 62
     0
370
    -2
100
AcDbLine
 10
117.3750000000001
 20
18.91943424691535
 30
0.0
 11
117.3750000000001
 21
15.61743424691535
 31
0.0
  0
SOLID
  5
1E7
330
1E0
100
AcDbEntity
  8
치수문자_일반주서
 62
     0
100
AcDbTrace
 10
116.8246666666667
 20
39.52343424691535
 30
0.0
 11
117.9253333333334
 21
39.52343424691535
 31
0.0
 12
117.3750000000001
 22
36.22143424691535
 32
0.0
 13
117.3750000000001
 23
36.22143424691535
 33
0.0
  0
SOLID
  5
1E8
330
1E0
100
AcDbEntity
  8
치수문자_일반주서
 62
     0
100
AcDbTrace
 10
117.9253333333335
 20
18.91943424691535
 30
0.0
 11
116.8246666666668
 21
18.91943424691535
 31
0.0
 12
117.3750000000001
 22
22.22143424691535
 32
0.0
 13
117.3750000000001
 23
22.22143424691535
 33
0.0
  0
MTEXT
  5
1E9
330
1E0
100
AcDbEntity
  8
치수문자_일반주서
 62
     0
100
AcDbMText
 10
113.0000000000001
 20
29.28713862862833
 30
0.0
 40
3.5
 41
0.0
 71
     2
 72
     1
  1
\A1;%%c14
  7
SLDTEXTSTYLE0
 11
-3.045183153257572E-15
 21
1.0
 31
0.0
 73
     1
 44
1.0
  0
POINT
  5
1EA
330
1E0
100
AcDbEntity
  8
Defpoints
 62
     0
100
AcDbPoint
 10
102.3750000000001
 20
36.22143424691529
 30
0.0
  0
POINT
  5
1EB
330
1E0
100
AcDbEntity
  8
Defpoints
 62
     0
100
AcDbPoint
 10
102.3750000000001
 20
22.22143424691529
 30
0.0
  0
POINT
  5
1EC
330
1E0
100
AcDbEntity
  8
Defpoints
 62
     0
100
AcDbPoint
 10
117.3750000000001
 20
22.22143424691535
 30
0.0
  0
ENDBLK
  5
1ED
330
1E0
100
AcDbEntity
  8
0
100
AcDbBlockEnd
  0
BLOCK
  5
1FB
330
1FA
100
AcDbEntity
  8
0
100
AcDbBlockBegin
  2
*D9
 70
     1
 10
0.0
 20
0.0
 30
0.0
  3
*D9
  1
*D8
  0
LINE
  5
1FC
330
1FA
100
AcDbEntity
  8
치수문자_일반주서
 62
     0
370
    -2
100
AcDbLine
 10
103.8657751816695
 20
19.48229575403651
 30
0.0
 11
120.1921280501954
 21
-7.081888143622854
 31
0.0
  0
MTEXT
  5
1FD
330
1FA
100
AcDbEntity
  8
치수문자_일반주서
 62
     0
100
AcDbMText
 10
115.6706384014277
 20
5.288158154535728
 30
0.0
 40
3.5
 41
0.0
 71
     5
 72
     1
  1
\A1;R.50 [R0.02]
  7
SLDTEXTSTYLE0
 11
0.5236126201129557
 21
-0.8519564684057781
 31
0.0
 73
     1
 44
1.0
  0
LINE
  5
1FE
330
1FA
100
AcDbEntity
  8
치수문자_일반주서
 62
     0
370
    -2
100
AcDbLine
 10
101.875
 20
22.72143424691529
 30
0.0
 11
102.1368063100565
 21
22.29545601271239
 31
0.0
  0
SOLID
  5
1FF
330
1FA
100
AcDbEntity
  8
치수문자_일반주서
 62
     0
100
AcDbTrace
 10
104.3346352247821
 20
19.77045723263868
 30
0.0
 11
103.3969151385569
 21
19.19413427543435
 31
0.0
 12
102.1368063100565
 22
22.29545601271239
 32
0.0
 13
102.1368063100565
 23
22.29545601271239
 33
0.0
  0
POINT
  5
200
330
1FA
100
AcDbEntity
  8
Defpoints
 62
     0
100
AcDbPoint
 10
102.1368063100565
 20
22.29545601271239
 30
0.0
  0
POINT
  5
22C
330
1FA
100
AcDbEntity
  8
Defpoints
 62
     0
100
AcDbPoint
 10
101.875
 20
22.72143424691529
 30
0.0
  0
ENDBLK
  5
201
330
1FA
100
AcDbEntity
  8
0
100
AcDbBlockEnd
  0
BLOCK
  5
207
330
206
100
AcDbEntity
  8
0
100
AcDbBlockBegin
  2
*D10
 70
     1
 10
0.0
 20
0.0
 30
0.0
  3
*D10
  1
*D10
  0
LINE
  5
209
330
206
100
AcDbEntity
  8
치수문자_일반주서
 62
     0
370
    -2
100
AcDbLine
 10
19.37500000000004
 20
35.78393424691529
 30
0.0
 11
19.37500000000004
 21
70.88391841499404
 31
0.0
  0
LINE
  5
20A
330
206
100
AcDbEntity
  8
치수문자_일반주서
 62
     0
370
    -2
100
AcDbLine
 10
102.3750000000001
 20
36.34643424691529
 30
0.0
 11
102.3750000000001
 21
70.88391841499404
 31
0.0
  0
LINE
  5
20B
330
206
100
AcDbEntity
  8
치수문자_일반주서
 62
     0
370
    -2
100
AcDbLine
 10
22.67700000000004
 20
70.88391841499404
 30
0.0
 11
99.07300000000006
 21
70.88391841499404
 31
0.0
  0
SOLID
  5
20C
330
206
100
AcDbEntity
  8
치수문자_일반주서
 62
     0
100
AcDbTrace
 10
22.67700000000004
 20
71.43425174832737
 30
0.0
 11
22.67700000000004
 21
70.33358508166071
 31
0.0
 12
19.37500000000004
 22
70.88391841499404
 32
0.0
 13
19.37500000000004
 23
70.88391841499404
 33
0.0
  0
SOLID
  5
20D
330
206
100
AcDbEntity
  8
치수문자_일반주서
 62
     0
100
AcDbTrace
 10
99.07300000000006
 20
70.33358508166071
 30
0.0
 11
99.07300000000006
 21
71.43425174832737
 31
0.0
 12
102.3750000000001
 22
70.88391841499404
 32
0.0
 13
102.3750000000001
 23
70.88391841499404
 33
0.0
  0
MTEXT
  5
20E
330
206
100
AcDbEntity
  8
치수문자_일반주서
 62
     0
100
AcDbMText
 10
60.87500000000005
 20
75.25891841499404
 30
0.0
 40
3.5
 41
0.0
 71
     2
 72
     1
  1
\A1;83.00 [3.27]
  7
SLDTEXTSTYLE0
 73
     1
 44
1.0
  0
POINT
  5
20F
330
206
100
AcDbEntity
  8
Defpoints
 62
     0
100
AcDbPoint
 10
19.37500000000004
 20
35.72143424691529
 30
0.0
  0
POINT
  5
210
330
206
100
AcDbEntity
  8
Defpoints
 62
     0
100
AcDbPoint
 10
102.3750000000001
 20
36.28393424691529
 30
0.0
  0
POINT
  5
211
330
206
100
AcDbEntity
  8
Defpoints
 62
     0
100
AcDbPoint
 10
102.3750000000001
 20
70.88391841499404
 30
0.0
  0
ENDBLK
  5
208
330
206
100
AcDbEntity
  8
0
100
AcDbBlockEnd
  0
BLOCK
  5
213
330
212
100
AcDbEntity
  8
0
100
AcDbBlockBegin
  2
*D11
 70
     1
 10
0.0
 20
0.0
 30
0.0
  3
*D11
  1
*D11
  0
LINE
  5
215
330
212
100
AcDbEntity
  8
치수문자_일반주서
 62
     0
370
    -2
100
AcDbLine
 10
76.37504186422882
 20
28.62038676313042
 30
0.0
 11
76.37504186422882
 21
61.90091383617725
 31
0.0
  0
LINE
  5
216
330
212
100
AcDbEntity
  8
치수문자_일반주서
 62
     0
370
    -2
100
AcDbLine
 10
102.3750000000001
 20
36.28393424691529
 30
0.0
 11
102.3750000000001
 21
61.90091383617725
 31
0.0
  0
LINE
  5
217
330
212
100
AcDbEntity
  8
치수문자_일반주서
 62
     0
370
    -2
100
AcDbLine
 10
79.67704186422881
 20
61.90091383617725
 30
0.0
 11
99.07300000000006
 21
61.90091383617725
 31
0.0
  0
SOLID
  5
218
330
212
100
AcDbEntity
  8
치수문자_일반주서
 62
     0
100
AcDbTrace
 10
79.67704186422881
 20
62.45124716951059
 30
0.0
 11
79.67704186422881
 21
61.35058050284392
 31
0.0
 12
76.37504186422882
 22
61.90091383617725
 32
0.0
 13
76.37504186422882
 23
61.90091383617725
 33
0.0
  0
SOLID
  5
219
330
212
100
AcDbEntity
  8
치수문자_일반주서
 62
     0
100
AcDbTrace
 10
99.07300000000006
 20
61.35058050284392
 30
0.0
 11
99.07300000000006
 21
62.45124716951059
 31
0.0
 12
102.3750000000001
 22
61.90091383617725
 32
0.0
 13
102.3750000000001
 23
61.90091383617725
 33
0.0
  0
MTEXT
  5
21A
330
212
100
AcDbEntity
  8
치수문자_일반주서
 62
     0
100
AcDbMText
 10
89.42159572693208
 20
66.27591383617725
 30
0.0
 40
3.5
 41
0.0
 71
     2
 72
     1
  1
\A1;26.00 [1.02]
  7
SLDTEXTSTYLE0
 73
     1
 44
1.0
  0
POINT
  5
21B
330
212
100
AcDbEntity
  8
Defpoints
 62
     0
100
AcDbPoint
 10
76.37504186422882
 20
28.55788676313042
 30
0.0
  0
POINT
  5
21C
330
212
100
AcDbEntity
  8
Defpoints
 62
     0
100
AcDbPoint
 10
102.3750000000001
 20
36.22143424691529
 30
0.0
  0
POINT
  5
21D
330
212
100
AcDbEntity
  8
Defpoints
 62
     0
100
AcDbPoint
 10
102.3750000000001
 20
61.90091383617725
 30
0.0
  0
ENDBLK
  5
214
330
212
100
AcDbEntity
  8
0
100
AcDbBlockEnd
  0
BLOCK
  5
21F
330
21E
100
AcDbEntity
  8
0
100
AcDbBlockBegin
  2
*D12
 70
     1
 10
0.0
 20
0.0
 30
0.0
  3
*D12
  1
*D12
  0
LINE
  5
221
330
21E
100
AcDbEntity
  8
치수문자_일반주서
 62
     0
370
    -2
100
AcDbLine
 10
19.81250000000005
 20
36.22143424691529
 30
0.0
 11
4.374999999999983
 21
36.22143424691524
 31
0.0
  0
LINE
  5
222
330
21E
100
AcDbEntity
  8
치수문자_일반주서
 62
     0
370
    -2
100
AcDbLine
 10
19.81250000000005
 20
22.22143424691529
 30
0.0
 11
4.375000000000032
 21
22.22143424691524
 31
0.0
  0
LINE
  5
223
330
21E
100
AcDbEntity
  8
치수문자_일반주서
 62
     0
370
    -2
100
AcDbLine
 10
4.374999999999983
 20
36.22143424691524
 30
0.0
 11
4.375000000000032
 21
22.22143424691524
 31
0.0
  0
LINE
  5
224
330
21E
100
AcDbEntity
  8
치수문자_일반주서
 62
     0
370
    -2
100
AcDbLine
 10
4.374999999999972
 20
39.52343424691524
 30
0.0
 11
4.37499999999996
 21
42.82543424691524
 31
0.0
  0
LINE
  5
225
330
21E
100
AcDbEntity
  8
치수문자_일반주서
 62
     0
370
    -2
100
AcDbLine
 10
4.375000000000044
 20
18.91943424691524
 30
0.0
 11
4.375000000000055
 21
15.61743424691524
 31
0.0
  0
SOLID
  5
226
330
21E
100
AcDbEntity
  8
치수문자_일반주서
 62
     0
100
AcDbTrace
 10
3.824666666666638
 20
39.52343424691524
 30
0.0
 11
4.925333333333305
 21
39.52343424691524
 31
0.0
 12
4.374999999999983
 22
36.22143424691524
 32
0.0
 13
4.374999999999983
 23
36.22143424691524
 33
0.0
  0
SOLID
  5
227
330
21E
100
AcDbEntity
  8
치수문자_일반주서
 62
     0
100
AcDbTrace
 10
4.925333333333377
 20
18.91943424691524
 30
0.0
 11
3.82466666666671
 21
18.91943424691523
 31
0.0
 12
4.375000000000032
 22
22.22143424691524
 32
0.0
 13
4.375000000000032
 23
22.22143424691524
 33
0.0
  0
MTEXT
  5
228
330
21E
100
AcDbEntity
  8
치수문자_일반주서
 62
     0
100
AcDbMText
 10
0.0000000000000071
 20
29.22143424691528
 30
0.0
 40
3.5
 41
0.0
 71
     2
 72
     1
  1
\A1;%%c14
  7
SLDTEXTSTYLE0
 11
-3.489272363107635E-15
 21
1.0
 31
0.0
 73
     1
 44
1.0
  0
POINT
  5
229
330
21E
100
AcDbEntity
  8
Defpoints
 62
     0
100
AcDbPoint
 10
19.87500000000005
 20
36.22143424691529
 30
0.0
  0
POINT
  5
22A
330
21E
100
AcDbEntity
  8
Defpoints
 62
     0
100
AcDbPoint
 10
19.87500000000005
 20
22.22143424691529
 30
0.0
  0
POINT
  5
22B
330
21E
100
AcDbEntity
  8
Defpoints
 62
     0
100
AcDbPoint
 10
4.375000000000043
 20
22.22143424691524
 30
0.0
  0
ENDBLK
  5
220
330
21E
100
AcDbEntity
  8
0
100
AcDbBlockEnd
  0
BLOCK
  5
279
330
278
100
AcDbEntity
  8
0
100
AcDbBlockBegin
  2
*D13
 70
     1
 10
0.0
 20
0.0
 30
0.0
  3
*D13
  1
*D13
  0
LINE
  5
27B
330
278
100
AcDbEntity
  8
치수문자_일반주서
 62
     0
370
    -2
100
AcDbLine
 10
-42.4901687708833
 20
92.1609020348608
 30
0.0
 11
-42.4901687708833
 21
127.2608862029396
 31
0.0
  0
LINE
  5
27C
330
278
100
AcDbEntity
  8
치수문자_일반주서
 62
     0
370
    -2
100
AcDbLine
 10
40.50983122911671
 20
92.72340203486081
 30
0.0
 11
40.50983122911671
 21
127.2608862029396
 31
0.0
  0
LINE
  5
27D
330
278
100
AcDbEntity
  8
치수문자_일반주서
 62
     0
370
    -2
100
AcDbLine
 10
-39.1881687708833
 20
127.2608862029396
 30
0.0
 11
37.20783122911671
 21
127.2608862029396
 31
0.0
  0
SOLID
  5
27E
330
278
100
AcDbEntity
  8
치수문자_일반주서
 62
     0
100
AcDbTrace
 10
-39.1881687708833
 20
127.8112195362729
 30
0.0
 11
-39.1881687708833
 21
126.7105528696062
 31
0.0
 12
-42.4901687708833
 22
127.2608862029396
 32
0.0
 13
-42.4901687708833
 23
127.2608862029396
 33
0.0
  0
SOLID
  5
27F
330
278
100
AcDbEntity
  8
치수문자_일반주서
 62
     0
100
AcDbTrace
 10
37.20783122911671
 20
126.7105528696062
 30
0.0
 11
37.20783122911671
 21
127.8112195362729
 31
0.0
 12
40.50983122911671
 22
127.2608862029396
 32
0.0
 13
40.50983122911671
 23
127.2608862029396
 33
0.0
  0
MTEXT
  5
280
330
278
100
AcDbEntity
  8
치수문자_일반주서
 62
     0
100
AcDbMText
 10
-0.9901687708832938
 20
131.6358862029396
 30
0.0
 40
3.5
 41
0.0
 71
     2
 72
     1
  1
\A1;83.00 [3.27]
  7
SLDTEXTSTYLE0
 73
     1
 44
1.0
  0
POINT
  5
281
330
278
100
AcDbEntity
  8
Defpoints
 62
     0
100
AcDbPoint
 10
-42.4901687708833
 20
92.0984020348608
 30
0.0
  0
POINT
  5
282
330
278
100
AcDbEntity
  8
Defpoints
 62
     0
100
AcDbPoint
 10
40.50983122911671
 20
92.66090203486081
 30
0.0
  0
POINT
  5
283
330
278
100
AcDbEntity
  8
Defpoints
 62
     0
100
AcDbPoint
 10
40.50983122911671
 20
127.2608862029396
 30
0.0
  0
ENDBLK
  5
27A
330
278
100
AcDbEntity
  8
0
100
AcDbBlockEnd
  0
BLOCK
  5
285
330
284
100
AcDbEntity
  8
0
100
AcDbBlockBegin
  2
*D14
 70
     1
 10
0.0
 20
0.0
 30
0.0
  3
*D14
  1
*D14
  0
LINE
  5
287
330
284
100
AcDbEntity
  8
치수문자_일반주서
 62
     0
370
    -2
100
AcDbLine
 10
14.50987309334548
 20
84.99735455107593
 30
0.0
 11
14.50987309334548
 21
118.2778816241228
 31
0.0
  0
LINE
  5
288
330
284
100
AcDbEntity
  8
치수문자_일반주서
 62
     0
370
    -2
100
AcDbLine
 10
40.50983122911671
 20
92.66090203486081
 30
0.0
 11
40.50983122911671
 21
118.2778816241228
 31
0.0
  0
LINE
  5
289
330
284
100
AcDbEntity
  8
치수문자_일반주서
 62
     0
370
    -2
100
AcDbLine
 10
17.81187309334548
 20
118.2778816241228
 30
0.0
 11
37.20783122911671
 21
118.2778816241228
 31
0.0
  0
SOLID
  5
28A
330
284
100
AcDbEntity
  8
치수문자_일반주서
 62
     0
100
AcDbTrace
 10
17.81187309334548
 20
118.8282149574561
 30
0.0
 11
17.81187309334548
 21
117.7275482907894
 31
0.0
 12
14.50987309334548
 22
118.2778816241228
 32
0.0
 13
14.50987309334548
 23
118.2778816241228
 33
0.0
  0
SOLID
  5
28B
330
284
100
AcDbEntity
  8
치수문자_일반주서
 62
     0
100
AcDbTrace
 10
37.20783122911671
 20
117.7275482907894
 30
0.0
 11
37.20783122911671
 21
118.8282149574561
 31
0.0
 12
40.50983122911671
 22
118.2778816241228
 32
0.0
 13
40.50983122911671
 23
118.2778816241228
 33
0.0
  0
MTEXT
  5
28C
330
284
100
AcDbEntity
  8
치수문자_일반주서
 62
     0
100
AcDbMText
 10
27.55642695604874
 20
122.6528816241228
 30
0.0
 40
3.5
 41
0.0
 71
     2
 72
     1
  1
\A1;26.00 [1.02]
  7
SLDTEXTSTYLE0
 73
     1
 44
1.0
  0
POINT
  5
28D
330
284
100
AcDbEntity
  8
Defpoints
 62
     0
100
AcDbPoint
 10
14.50987309334548
 20
84.93485455107593
 30
0.0
  0
POINT
  5
28E
330
284
100
AcDbEntity
  8
Defpoints
 62
     0
100
AcDbPoint
 10
40.50983122911671
 20
92.59840203486081
 30
0.0
  0
POINT
  5
28F
330
284
100
AcDbEntity
  8
Defpoints
 62
     0
100
AcDbPoint
 10
40.50983122911671
 20
118.2778816241228
 30
0.0
  0
ENDBLK
  5
286
330
284
100
AcDbEntity
  8
0
100
AcDbBlockEnd
  0
BLOCK
  5
291
330
290
100
AcDbEntity
  8
0
100
AcDbBlockBegin
  2
*D15
 70
     1
 10
0.0
 20
0.0
 30
0.0
  3
*D15
  1
*D15
  0
LINE
  5
293
330
290
100
AcDbEntity
  8
치수문자_일반주서
 62
     0
370
    -2
100
AcDbLine
 10
-42.05266877088329
 20
92.59840203486081
 30
0.0
 11
-57.49016877088336
 21
92.59840203486075
 31
0.0
  0
LINE
  5
294
330
290
100
AcDbEntity
  8
치수문자_일반주서
 62
     0
370
    -2
100
AcDbLine
 10
-42.05266877088329
 20
78.59840203486081
 30
0.0
 11
-57.49016877088331
 21
78.59840203486075
 31
0.0
  0
LINE
  5
295
330
290
100
AcDbEntity
  8
치수문자_일반주서
 62
     0
370
    -2
100
AcDbLine
 10
-57.49016877088336
 20
92.59840203486075
 30
0.0
 11
-57.49016877088331
 21
78.59840203486075
 31
0.0
  0
LINE
  5
296
330
290
100
AcDbEntity
  8
치수문자_일반주서
 62
     0
370
    -2
100
AcDbLine
 10
-57.49016877088337
 20
95.90040203486076
 30
0.0
 11
-57.49016877088339
 21
99.20240203486077
 31
0.0
  0
LINE
  5
297
330
290
100
AcDbEntity
  8
치수문자_일반주서
 62
     0
370
    -2
100
AcDbLine
 10
-57.49016877088329
 20
75.29640203486075
 30
0.0
 11
-57.49016877088328
 21
71.99440203486074
 31
0.0
  0
SOLID
  5
298
330
290
100
AcDbEntity
  8
치수문자_일반주서
 62
     0
100
AcDbTrace
 10
-58.04050210421671
 20
95.90040203486076
 30
0.0
 11
-56.93983543755004
 21
95.90040203486076
 31
0.0
 12
-57.49016877088336
 22
92.59840203486075
 32
0.0
 13
-57.49016877088336
 23
92.59840203486075
 33
0.0
  0
SOLID
  5
299
330
290
100
AcDbEntity
  8
치수문자_일반주서
 62
     0
100
AcDbTrace
 10
-56.93983543754996
 20
75.29640203486075
 30
0.0
 11
-58.04050210421663
 21
75.29640203486075
 31
0.0
 12
-57.49016877088331
 22
78.59840203486075
 32
0.0
 13
-57.49016877088331
 23
78.59840203486075
 33
0.0
  0
MTEXT
  5
29A
330
290
100
AcDbEntity
  8
치수문자_일반주서
 62
     0
100
AcDbMText
 10
-61.86516877088334
 20
85.5984020348608
 30
0.0
 40
3.5
 41
0.0
 71
     2
 72
     1
  1
\A1;%%c14
  7
SLDTEXTSTYLE0
 11
-3.552713678800501E-15
 21
1.0
 31
0.0
 73
     1
 44
1.0
  0
POINT
  5
29B
330
290
100
AcDbEntity
  8
Defpoints
 62
     0
100
AcDbPoint
 10
-41.99016877088329
 20
92.59840203486081
 30
0.0
  0
POINT
  5
29C
330
290
100
AcDbEntity
  8
Defpoints
 62
     0
100
AcDbPoint
 10
-41.99016877088329
 20
78.59840203486081
 30
0.0
  0
POINT
  5
29D
330
290
100
AcDbEntity
  8
Defpoints
 62
     0
100
AcDbPoint
 10
-57.49016877088332
 20
78.59840203486075
 30
0.0
  0
ENDBLK
  5
292
330
290
100
AcDbEntity
  8
0
100
AcDbBlockEnd
  0
BLOCK
  5
29F
330
29E
100
AcDbEntity
  8
0
100
AcDbBlockBegin
  2
*D16
 70
     1
 10
0.0
 20
0.0
 30
0.0
  3
*D16
  1
*D16
  0
LINE
  5
2A1
330
29E
100
AcDbEntity
  8
치수문자_일반주서
 62
     0
370
    -2
100
AcDbLine
 10
40.57233122911673
 20
92.59840203486081
 30
0.0
 11
55.50983122911672
 21
92.59840203486087
 31
0.0
  0
LINE
  5
2A2
330
29E
100
AcDbEntity
  8
치수문자_일반주서
 62
     0
370
    -2
100
AcDbLine
 10
40.57233122911671
 20
78.59840203486081
 30
0.0
 11
55.50983122911677
 21
78.59840203486087
 31
0.0
  0
LINE
  5
2A3
330
29E
100
AcDbEntity
  8
치수문자_일반주서
 62
     0
370
    -2
100
AcDbLine
 10
55.50983122911672
 20
92.59840203486087
 30
0.0
 11
55.50983122911677
 21
78.59840203486087
 31
0.0
  0
LINE
  5
2A4
330
29E
100
AcDbEntity
  8
치수문자_일반주서
 62
     0
370
    -2
100
AcDbLine
 10
55.50983122911671
 20
95.90040203486087
 30
0.0
 11
55.50983122911669
 21
99.20240203486088
 31
0.0
  0
LINE
  5
2A5
330
29E
100
AcDbEntity
  8
치수문자_일반주서
 62
     0
370
    -2
100
AcDbLine
 10
55.50983122911678
 20
75.29640203486086
 30
0.0
 11
55.5098312291168
 21
71.99440203486085
 31
0.0
  0
SOLID
  5
2A6
330
29E
100
AcDbEntity
  8
치수문자_일반주서
 62
     0
100
AcDbTrace
 10
54.95949789578337
 20
95.90040203486087
 30
0.0
 11
56.06016456245004
 21
95.90040203486087
 31
0.0
 12
55.50983122911672
 22
92.59840203486087
 32
0.0
 13
55.50983122911672
 23
92.59840203486087
 33
0.0
  0
SOLID
  5
2A7
330
29E
100
AcDbEntity
  8
치수문자_일반주서
 62
     0
100
AcDbTrace
 10
56.06016456245012
 20
75.29640203486086
 30
0.0
 11
54.95949789578345
 21
75.29640203486086
 31
0.0
 12
55.50983122911677
 22
78.59840203486087
 32
0.0
 13
55.50983122911677
 23
78.59840203486087
 33
0.0
  0
MTEXT
  5
2A8
330
29E
100
AcDbEntity
  8
치수문자_일반주서
 62
     0
100
AcDbMText
 10
51.13483122911674
 20
85.66410641657384
 30
0.0
 40
3.5
 41
0.0
 71
     2
 72
     1
  1
\A1;%%c14
  7
SLDTEXTSTYLE0
 11
-3.552713678800501E-15
 21
1.0
 31
0.0
 73
     1
 44
1.0
  0
POINT
  5
2A9
330
29E
100
AcDbEntity
  8
Defpoints
 62
     0
100
AcDbPoint
 10
40.50983122911673
 20
92.59840203486081
 30
0.0
  0
POINT
  5
2AA
330
29E
100
AcDbEntity
  8
Defpoints
 62
     0
100
AcDbPoint
 10
40.50983122911671
 20
78.59840203486081
 30
0.0
  0
POINT
  5
2AB
330
29E
100
AcDbEntity
  8
Defpoints
 62
     0
100
AcDbPoint
 10
55.50983122911677
 20
78.59840203486087
 30
0.0
  0
ENDBLK
  5
2A0
330
29E
100
AcDbEntity
  8
0
100
AcDbBlockEnd
  0
BLOCK
  5
2AD
330
2AC
100
AcDbEntity
  8
0
100
AcDbBlockBegin
  2
*D17
 70
     1
 10
0.0
 20
0.0
 30
0.0
  3
*D17
  1
*D17
  0
LINE
  5
2AF
330
2AC
100
AcDbEntity
  8
치수문자_일반주서
 62
     0
370
    -2
100
AcDbLine
 10
42.00060641078612
 20
75.85926354198199
 30
0.0
 11
58.32695927931155
 21
49.29507964432239
 31
0.0
  0
MTEXT
  5
2B0
330
2AC
100
AcDbEntity
  8
치수문자_일반주서
 62
     0
100
AcDbMText
 10
53.80546963054407
 20
61.66512594248103
 30
0.0
 40
3.5
 41
0.0
 71
     5
 72
     1
  1
\A1;R.50 [R0.02]
  7
SLDTEXTSTYLE0
 11
0.5236126201129431
 21
-0.8519564684057859
 31
0.0
 73
     1
 44
1.0
  0
LINE
  5
2B1
330
2AC
100
AcDbEntity
  8
치수문자_일반주서
 62
     0
370
    -2
100
AcDbLine
 10
40.0098312291167
 20
79.09840203486081
 30
0.0
 11
40.27163753917318
 21
78.6724238006579
 31
0.0
  0
SOLID
  5
2B2
330
2AC
100
AcDbEntity
  8
치수문자_일반주서
 62
     0
100
AcDbTrace
 10
42.46946645389877
 20
76.14742502058415
 30
0.0
 11
41.53174636767347
 21
75.57110206337983
 31
0.0
 12
40.27163753917318
 22
78.6724238006579
 32
0.0
 13
40.27163753917318
 23
78.6724238006579
 33
0.0
  0
POINT
  5
2B3
330
2AC
100
AcDbEntity
  8
Defpoints
 62
     0
100
AcDbPoint
 10
40.27163753917318
 20
78.6724238006579
 30
0.0
  0
POINT
  5
2B4
330
2AC
100
AcDbEntity
  8
Defpoints
 62
     0
100
AcDbPoint
 10
40.0098312291167
 20
79.09840203486081
 30
0.0
  0
ENDBLK
  5
2AE
330
2AC
100
AcDbEntity
  8
0
100
AcDbBlockEnd
  0
BLOCK
  5
370
330
36F
100
AcDbEntity
  8
0
100
AcDbBlockBegin
  2
*D19
 70
     1
 10
0.0
 20
0.0
 30
0.0
  3
*D19
  1
*D19
  0
LINE
  5
372
330
36F
100
AcDbEntity
  8
치수문자_일반주서
 62
     0
370
    -2
100
AcDbLine
 10
19.45128998116621
 20
59.05930738881174
 30
0.0
 11
19.45128998116621
 21
82.68785771676896
 31
0.0
  0
LINE
  5
373
330
36F
100
AcDbEntity
  8
치수문자_일반주서
 62
     0
370
    -2
100
AcDbLine
 10
171.8512899811662
 20
59.55930738881175
 30
0.0
 11
171.8512899811662
 21
82.68785771676896
 31
0.0
  0
LINE
  5
374
330
36F
100
AcDbEntity
  8
치수문자_일반주서
 62
     0
370
    -2
100
AcDbLine
 10
23.45128998116621
 20
82.68785771676896
 30
0.0
 11
167.8512899811662
 21
82.68785771676896
 31
0.0
  0
SOLID
  5
375
330
36F
100
AcDbEntity
  8
치수문자_일반주서
 62
     0
100
AcDbTrace
 10
23.45128998116621
 20
83.35452438343563
 30
0.0
 11
23.45128998116621
 21
82.02119105010229
 31
0.0
 12
19.45128998116621
 22
82.68785771676896
 32
0.0
 13
19.45128998116621
 23
82.68785771676896
 33
0.0
  0
SOLID
  5
376
330
36F
100
AcDbEntity
  8
치수문자_일반주서
 62
     0
100
AcDbTrace
 10
167.8512899811662
 20
82.02119105010229
 30
0.0
 11
167.8512899811662
 21
83.35452438343563
 31
0.0
 12
171.8512899811662
 22
82.68785771676896
 32
0.0
 13
171.8512899811662
 23
82.68785771676896
 33
0.0
  0
MTEXT
  5
377
330
36F
100
AcDbEntity
  8
치수문자_일반주서
 62
     0
100
AcDbMText
 10
95.65128998116623
 20
87.56285771676896
 30
0.0
 40
4.0
 41
0.0
 71
     2
 72
     1
  1
\A1;152.4
  7
SLDTEXTSTYLE0
 73
     1
 44
1.0
  0
POINT
  5
378
330
36F
100
AcDbEntity
  8
Defpoints
 62
     0
100
AcDbPoint
 10
19.45128998116621
 20
58.99680738881174
 30
0.0
  0
POINT
  5
379
330
36F
100
AcDbEntity
  8
Defpoints
 62
     0
100
AcDbPoint
 10
171.8512899811662
 20
59.49680738881175
 30
0.0
  0
POINT
  5
37A
330
36F
100
AcDbEntity
  8
Defpoints
 62
     0
100
AcDbPoint
 10
171.8512899811662
 20
82.68785771676896
 30
0.0
  0
ENDBLK
  5
371
330
36F
100
AcDbEntity
  8
0
100
AcDbBlockEnd
  0
BLOCK
  5
37C
330
37B
100
AcDbEntity
  8
0
100
AcDbBlockBegin
  2
*D20
 70
     1
 10
0.0
 20
0.0
 30
0.0
  3
*D20
  1
*D20
  0
LINE
  5
37E
330
37B
100
AcDbEntity
  8
치수문자_일반주서
 62
     0
370
    -2
100
AcDbLine
 10
19.88878998116621
 20
59.49680738881175
 30
0.0
 11
4.875000000000083
 21
59.4968073888117
 31
0.0
  0
LINE
  5
37F
330
37B
100
AcDbEntity
  8
치수문자_일반주서
 62
     0
370
    -2
100
AcDbLine
 10
19.88878998116621
 20
40.44680738881174
 30
0.0
 11
4.87500000000015
 21
40.44680738881168
 31
0.0
  0
LINE
  5
380
330
37B
100
AcDbEntity
  8
치수문자_일반주서
 62
     0
370
    -2
100
AcDbLine
 10
4.875000000000083
 20
59.4968073888117
 30
0.0
 11
4.875000000000002
 21
82.7468073888117
 31
0.0
  0
LINE
  5
381
330
37B
100
AcDbEntity
  8
치수문자_일반주서
 62
     0
370
    -2
100
AcDbLine
 10
4.875000000000083
 20
59.4968073888117
 30
0.0
 11
4.87500000000015
 21
40.44680738881168
 31
0.0
  0
LINE
  5
382
330
37B
100
AcDbEntity
  8
치수문자_일반주서
 62
     0
370
    -2
100
AcDbLine
 10
4.875000000000069
 20
63.4968073888117
 30
0.0
 11
4.875000000000055
 21
67.4968073888117
 31
0.0
  0
LINE
  5
383
330
37B
100
AcDbEntity
  8
치수문자_일반주서
 62
     0
370
    -2
100
AcDbLine
 10
4.875000000000164
 20
36.44680738881168
 30
0.0
 11
4.875000000000179
 21
32.44680738881168
 31
0.0
  0
SOLID
  5
384
330
37B
100
AcDbEntity
  8
치수문자_일반주서
 62
     0
100
AcDbTrace
 10
4.208333333333402
 20
63.4968073888117
 30
0.0
 11
5.541666666666736
 21
63.4968073888117
 31
0.0
 12
4.875000000000083
 22
59.4968073888117
 32
0.0
 13
4.875000000000083
 23
59.4968073888117
 33
0.0
  0
SOLID
  5
385
330
37B
100
AcDbEntity
  8
치수문자_일반주서
 62
     0
100
AcDbTrace
 10
5.541666666666831
 20
36.44680738881168
 30
0.0
 11
4.208333333333497
 21
36.44680738881168
 31
0.0
 12
4.87500000000015
 22
40.44680738881168
 32
0.0
 13
4.87500000000015
 23
40.44680738881168
 33
0.0
  0
MTEXT
  5
386
330
37B
100
AcDbEntity
  8
치수문자_일반주서
 62
     0
100
AcDbMText
 10
0.0000000000000284
 20
75.12180738881169
 30
0.0
 40
4.0
 41
0.0
 71
     2
 72
     1
  1
\A1;%%c19.05
  7
SLDTEXTSTYLE0
 11
-3.496765431890255E-15
 21
1.0
 31
0.0
 73
     1
 44
1.0
  0
POINT
  5
387
330
37B
100
AcDbEntity
  8
Defpoints
 62
     0
100
AcDbPoint
 10
19.95128998116621
 20
59.49680738881175
 30
0.0
  0
POINT
  5
388
330
37B
100
AcDbEntity
  8
Defpoints
 62
     0
100
AcDbPoint
 10
19.95128998116621
 20
40.44680738881174
 30
0.0
  0
POINT
  5
389
330
37B
100
AcDbEntity
  8
Defpoints
 62
     0
100
AcDbPoint
 10
4.875000000000156
 20
40.44680738881168
 30
0.0
  0
ENDBLK
  5
37D
330
37B
100
AcDbEntity
  8
0
100
AcDbBlockEnd
  0
BLOCK
  5
38B
330
38A
100
AcDbEntity
  8
0
100
AcDbBlockBegin
  2
*D21
 70
     1
 10
0.0
 20
0.0
 30
0.0
  3
*D21
  1
*D21
  0
LINE
  5
38D
330
38A
100
AcDbEntity
  8
치수문자_일반주서
 62
     0
370
    -2
100
AcDbLine
 10
171.8512899811662
 20
59.55930738881175
 30
0.0
 11
171.8512899811662
 21
67.61391820098548
 31
0.0
  0
LINE
  5
38E
330
38A
100
AcDbEntity
  8
치수문자_일반주서
 62
     0
370
    -2
100
AcDbLine
 10
95.65128998116622
 20
58.92383988969288
 30
0.0
 11
95.65128998116622
 21
67.61391820098548
 31
0.0
  0
LINE
  5
38F
330
38A
100
AcDbEntity
  8
치수문자_일반주서
 62
     0
370
    -2
100
AcDbLine
 10
167.8512899811662
 20
67.61391820098548
 30
0.0
 11
99.65128998116622
 21
67.61391820098548
 31
0.0
  0
SOLID
  5
390
330
38A
100
AcDbEntity
  8
치수문자_일반주서
 62
     0
100
AcDbTrace
 10
167.8512899811662
 20
66.94725153431881
 30
0.0
 11
167.8512899811662
 21
68.28058486765215
 31
0.0
 12
171.8512899811662
 22
67.61391820098548
 32
0.0
 13
171.8512899811662
 23
67.61391820098548
 33
0.0
  0
SOLID
  5
391
330
38A
100
AcDbEntity
  8
치수문자_일반주서
 62
     0
100
AcDbTrace
 10
99.65128998116622
 20
68.28058486765215
 30
0.0
 11
99.65128998116622
 21
66.94725153431881
 31
0.0
 12
95.65128998116622
 22
67.61391820098548
 32
0.0
 13
95.65128998116622
 23
67.61391820098548
 33
0.0
  0
MTEXT
  5
392
330
38A
100
AcDbEntity
  8
치수문자_일반주서
 62
     0
100
AcDbMText
 10
136.1873945602221
 20
72.48891820098548
 30
0.0
 40
4.0
 41
0.0
 71
     2
 72
     1
  1
\A1;76.2
  7
SLDTEXTSTYLE0
 73
     1
 44
1.0
  0
POINT
  5
393
330
38A
100
AcDbEntity
  8
Defpoints
 62
     0
100
AcDbPoint
 10
171.8512899811662
 20
59.49680738881175
 30
0.0
  0
POINT
  5
394
330
38A
100
AcDbEntity
  8
Defpoints
 62
     0
100
AcDbPoint
 10
95.65128998116622
 20
58.86133988969288
 30
0.0
  0
POINT
  5
395
330
38A
100
AcDbEntity
  8
Defpoints
 62
     0
100
AcDbPoint
 10
95.65128998116622
 20
67.61391820098548
 30
0.0
  0
ENDBLK
  5
38C
330
38A
100
AcDbEntity
  8
0
100
AcDbBlockEnd
  0
BLOCK
  5
397
330
396
100
AcDbEntity
  8
0
100
AcDbBlockBegin
  2
*D22
 70
     1
 10
0.0
 20
0.0
 30
0.0
  3
*D22
  1
*D22
  0
LINE
  5
399
330
396
100
AcDbEntity
  8
치수문자_일반주서
 62
     0
370
    -2
100
AcDbLine
 10
171.9137899811662
 20
59.49680738881175
 30
0.0
 11
191.5660462035248
 21
59.49680738881183
 31
0.0
  0
LINE
  5
39A
330
396
100
AcDbEntity
  8
치수문자_일반주서
 62
     0
370
    -2
100
AcDbLine
 10
171.9137899811662
 20
40.44680738881175
 30
0.0
 11
191.5660462035249
 21
40.44680738881183
 31
0.0
  0
LINE
  5
39B
330
396
100
AcDbEntity
  8
치수문자_일반주서
 62
     0
370
    -2
100
AcDbLine
 10
191.5660462035248
 20
59.49680738881183
 30
0.0
 11
191.5660462035247
 21
82.74680738881183
 31
0.0
  0
LINE
  5
39C
330
396
100
AcDbEntity
  8
치수문자_일반주서
 62
     0
370
    -2
100
AcDbLine
 10
191.5660462035248
 20
59.49680738881183
 30
0.0
 11
191.5660462035249
 21
40.44680738881183
 31
0.0
  0
LINE
  5
39D
330
396
100
AcDbEntity
  8
치수문자_일반주서
 62
     0
370
    -2
100
AcDbLine
 10
191.5660462035248
 20
63.49680738881183
 30
0.0
 11
191.5660462035248
 21
67.49680738881183
 31
0.0
  0
LINE
  5
39E
330
396
100
AcDbEntity
  8
치수문자_일반주서
 62
     0
370
    -2
100
AcDbLine
 10
191.5660462035249
 20
36.44680738881183
 30
0.0
 11
191.5660462035249
 21
32.44680738881183
 31
0.0
  0
SOLID
  5
39F
330
396
100
AcDbEntity
  8
치수문자_일반주서
 62
     0
100
AcDbTrace
 10
190.8993795368582
 20
63.49680738881183
 30
0.0
 11
192.2327128701915
 21
63.49680738881183
 31
0.0
 12
191.5660462035248
 22
59.49680738881183
 32
0.0
 13
191.5660462035248
 23
59.49680738881183
 33
0.0
  0
SOLID
  5
3A0
330
396
100
AcDbEntity
  8
치수문자_일반주서
 62
     0
100
AcDbTrace
 10
192.2327128701915
 20
36.44680738881183
 30
0.0
 11
190.8993795368582
 21
36.44680738881183
 31
0.0
 12
191.5660462035249
 22
40.44680738881183
 32
0.0
 13
191.5660462035249
 23
40.44680738881183
 33
0.0
  0
MTEXT
  5
3A1
330
396
100
AcDbEntity
  8
치수문자_일반주서
 62
     0
100
AcDbMText
 10
186.6910462035248
 20
75.12180738881182
 30
0.0
 40
4.0
 41
0.0
 71
     2
 72
     1
  1
\A1;%%c19.05
  7
SLDTEXTSTYLE0
 11
-2.983906501879684E-15
 21
1.0
 31
0.0
 73
     1
 44
1.0
  0
POINT
  5
3A2
330
396
100
AcDbEntity
  8
Defpoints
 62
     0
100
AcDbPoint
 10
171.8512899811662
 20
59.49680738881175
 30
0.0
  0
POINT
  5
3A3
330
396
100
AcDbEntity
  8
Defpoints
 62
     0
100
AcDbPoint
 10
171.8512899811662
 20
40.44680738881175
 30
0.0
  0
POINT
  5
3A4
330
396
100
AcDbEntity
  8
Defpoints
 62
     0
100
AcDbPoint
 10
191.5660462035249
 20
40.44680738881182
 30
0.0
  0
ENDBLK
  5
398
330
396
100
AcDbEntity
  8
0
100
AcDbBlockEnd
  0
BLOCK
  5
3DE
330
3DD
100
AcDbEntity
  8
0
100
AcDbBlockBegin
  2
*D23
 70
     1
 10
0.0
 20
0.0
 30
0.0
  3
*D23
  1
*D23
  0
LINE
  5
3E0
330
3DD
100
AcDbEntity
  8
치수문자_일반주서
 62
     0
370
    -2
100
AcDbLine
 10
-64.2
 20
9.087499999999977
 30
0.0
 11
-64.2
 21
32.71605032795719
 31
0.0
  0
LINE
  5
3E1
330
3DD
100
AcDbEntity
  8
치수문자_일반주서
 62
     0
370
    -2
100
AcDbLine
 10
88.2
 20
9.587500000000006
 30
0.0
 11
88.2
 21
32.71605032795719
 31
0.0
  0
LINE
  5
3E2
330
3DD
100
AcDbEntity
  8
치수문자_일반주서
 62
     0
370
    -2
100
AcDbLine
 10
-60.898
 20
32.71605032795719
 30
0.0
 11
84.898
 21
32.71605032795719
 31
0.0
  0
SOLID
  5
3E3
330
3DD
100
AcDbEntity
  8
치수문자_일반주서
 62
     0
100
AcDbTrace
 10
-60.898
 20
33.26638366129053
 30
0.0
 11
-60.898
 21
32.16571699462386
 31
0.0
 12
-64.2
 22
32.71605032795719
 32
0.0
 13
-64.2
 23
32.71605032795719
 33
0.0
  0
SOLID
  5
3E4
330
3DD
100
AcDbEntity
  8
치수문자_일반주서
 62
     0
100
AcDbTrace
 10
84.898
 20
32.16571699462386
 30
0.0
 11
84.898
 21
33.26638366129053
 31
0.0
 12
88.2
 22
32.71605032795719
 32
0.0
 13
88.2
 23
32.71605032795719
 33
0.0
  0
MTEXT
  5
3E5
330
3DD
100
AcDbEntity
  8
치수문자_일반주서
 62
     0
100
AcDbMText
 10
12.00000000000001
 20
37.09105032795719
 30
0.0
 40
3.5
 41
0.0
 71
     2
 72
     1
  1
\A1;152.40 [6]
  7
SLDTEXTSTYLE0
 73
     1
 44
1.0
  0
POINT
  5
3E6
330
3DD
100
AcDbEntity
  8
Defpoints
 62
     0
100
AcDbPoint
 10
-64.2
 20
9.024999999999977
 30
0.0
  0
POINT
  5
3E7
330
3DD
100
AcDbEntity
  8
Defpoints
 62
     0
100
AcDbPoint
 10
88.2
 20
9.525000000000006
 30
0.0
  0
POINT
  5
3E8
330
3DD
100
AcDbEntity
  8
Defpoints
 62
     0
100
AcDbPoint
 10
88.2
 20
32.71605032795719
 30
0.0
  0
ENDBLK
  5
3DF
330
3DD
100
AcDbEntity
  8
0
100
AcDbBlockEnd
  0
BLOCK
  5
3EA
330
3E9
100
AcDbEntity
  8
0
100
AcDbBlockBegin
  2
*D24
 70
     1
 10
0.0
 20
0.0
 30
0.0
  3
*D24
  1
*D24
  0
LINE
  5
3EC
330
3E9
100
AcDbEntity
  8
치수문자_일반주서
 62
     0
370
    -2
100
AcDbLine
 10
-63.7625
 20
9.525000000000006
 30
0.0
 11
-78.77628998116613
 21
9.524999999999949
 31
0.0
  0
LINE
  5
3ED
330
3E9
100
AcDbEntity
  8
치수문자_일반주서
 62
     0
370
    -2
100
AcDbLine
 10
-63.7625
 20
-9.525000000000006
 30
0.0
 11
-78.77628998116606
 21
-9.525000000000063
 31
0.0
  0
LINE
  5
3EE
330
3E9
100
AcDbEntity
  8
치수문자_일반주서
 62
     0
370
    -2
100
AcDbLine
 10
-78.77628998116613
 20
9.524999999999949
 30
0.0
 11
-78.77628998116624
 21
40.38949999999995
 31
0.0
  0
LINE
  5
3EF
330
3E9
100
AcDbEntity
  8
치수문자_일반주서
 62
     0
370
    -2
100
AcDbLine
 10
-78.77628998116612
 20
6.222999999999949
 30
0.0
 11
-78.77628998116607
 21
-6.223000000000063
 31
0.0
  0
SOLID
  5
3F0
330
3E9
100
AcDbEntity
  8
치수문자_일반주서
 62
     0
100
AcDbTrace
 10
-78.22595664783279
 20
6.222999999999951
 30
0.0
 11
-79.32662331449944
 21
6.222999999999947
 31
0.0
 12
-78.77628998116613
 22
9.524999999999949
 32
0.0
 13
-78.77628998116613
 23
9.524999999999949
 33
0.0
  0
SOLID
  5
3F1
330
3E9
100
AcDbEntity
  8
치수문자_일반주서
 62
     0
100
AcDbTrace
 10
-79.3266233144994
 20
-6.223000000000065
 30
0.0
 11
-78.22595664783275
 21
-6.223000000000061
 31
0.0
 12
-78.77628998116606
 22
-9.525000000000063
 32
0.0
 13
-78.77628998116606
 23
-9.525000000000063
 33
0.0
  0
MTEXT
  5
3F2
330
3E9
100
AcDbEntity
  8
치수문자_일반주서
 62
     0
100
AcDbMText
 10
-83.15128998116619
 20
26.60824999999993
 30
0.0
 40
3.5
 41
0.0
 71
     2
 72
     1
  1
\A1;%%c19.05 [3/4]
  7
SLDTEXTSTYLE0
 11
-3.729883127349605E-15
 21
1.0
 31
0.0
 73
     1
 44
1.0
  0
POINT
  5
3F3
330
3E9
100
AcDbEntity
  8
Defpoints
 62
     0
100
AcDbPoint
 10
-63.7
 20
9.525000000000006
 30
0.0
  0
POINT
  5
3F4
330
3E9
100
AcDbEntity
  8
Defpoints
 62
     0
100
AcDbPoint
 10
-63.7
 20
-9.525000000000006
 30
0.0
  0
POINT
  5
3F5
330
3E9
100
AcDbEntity
  8
Defpoints
 62
     0
100
AcDbPoint
 10
-78.77628998116606
 20
-9.525000000000063
 30
0.0
  0
ENDBLK
  5
3EB
330
3E9
100
AcDbEntity
  8
0
100
AcDbBlockEnd
  0
BLOCK
  5
3F9
330
3F8
100
AcDbEntity
  8
0
100
AcDbBlockBegin
  2
*D25
 70
     1
 10
0.0
 20
0.0
 30
0.0
  3
*D25
  1
*D25
  0
LINE
  5
3FB
330
3F8
100
AcDbEntity
  8
치수문자_일반주서
 62
     0
370
    -2
100
AcDbLine
 10
88.2
 20
9.587500000000006
 30
0.0
 11
88.2
 21
17.64211081217371
 31
0.0
  0
LINE
  5
3FC
330
3F8
100
AcDbEntity
  8
치수문자_일반주서
 62
     0
370
    -2
100
AcDbLine
 10
12.0
 20
8.952032500881131
 30
0.0
 11
12.0
 21
17.64211081217371
 31
0.0
  0
LINE
  5
3FD
330
3F8
100
AcDbEntity
  8
치수문자_일반주서
 62
     0
370
    -2
100
AcDbLine
 10
84.898
 20
17.64211081217371
 30
0.0
 11
15.302
 21
17.64211081217371
 31
0.0
  0
SOLID
  5
3FE
330
3F8
100
AcDbEntity
  8
치수문자_일반주서
 62
     0
100
AcDbTrace
 10
84.898
 20
17.09177747884038
 30
0.0
 11
84.898
 21
18.19244414550705
 31
0.0
 12
88.2
 22
17.64211081217371
 32
0.0
 13
88.2
 23
17.64211081217371
 33
0.0
  0
SOLID
  5
3FF
330
3F8
100
AcDbEntity
  8
치수문자_일반주서
 62
     0
100
AcDbTrace
 10
15.302
 20
18.19244414550705
 30
0.0
 11
15.302
 21
17.09177747884038
 31
0.0
 12
12.0
 22
17.64211081217371
 32
0.0
 13
12.0
 23
17.64211081217371
 33
0.0
  0
MTEXT
  5
400
330
3F8
100
AcDbEntity
  8
치수문자_일반주서
 62
     0
100
AcDbMText
 10
52.53610457905584
 20
22.01711081217371
 30
0.0
 40
3.5
 41
0.0
 71
     2
 72
     1
  1
\A1;76.20 [3]
  7
SLDTEXTSTYLE0
 73
     1
 44
1.0
  0
POINT
  5
401
330
3F8
100
AcDbEntity
  8
Defpoints
 62
     0
100
AcDbPoint
 10
88.2
 20
9.525000000000006
 30
0.0
  0
POINT
  5
402
330
3F8
100
AcDbEntity
  8
Defpoints
 62
     0
100
AcDbPoint
 10
12.0
 20
8.889532500881131
 30
0.0
  0
POINT
  5
403
330
3F8
100
AcDbEntity
  8
Defpoints
 62
     0
100
AcDbPoint
 10
12.0
 20
17.64211081217371
 30
0.0
  0
ENDBLK
  5
3FA
330
3F8
100
AcDbEntity
  8
0
100
AcDbBlockEnd
  0
BLOCK
  5
405
330
404
100
AcDbEntity
  8
0
100
AcDbBlockBegin
  2
*D26
 70
     1
 10
0.0
 20
0.0
 30
0.0
  3
*D26
  1
*D26
  0
LINE
  5
407
330
404
100
AcDbEntity
  8
치수문자_일반주서
 62
     0
370
    -2
100
AcDbLine
 10
88.2625
 20
9.525000000000006
 30
0.0
 11
107.9147562223586
 21
9.52500000000008
 31
0.0
  0
LINE
  5
408
330
404
100
AcDbEntity
  8
치수문자_일반주서
 62
     0
370
    -2
100
AcDbLine
 10
88.2625
 20
-9.525000000000006
 30
0.0
 11
107.9147562223587
 21
-9.524999999999928
 31
0.0
  0
LINE
  5
409
330
404
100
AcDbEntity
  8
치수문자_일반주서
 62
     0
370
    -2
100
AcDbLine
 10
107.9147562223586
 20
9.52500000000008
 30
0.0
 11
107.9147562223585
 21
40.38950000000008
 31
0.0
  0
LINE
  5
40A
330
404
100
AcDbEntity
  8
치수문자_일반주서
 62
     0
370
    -2
100
AcDbLine
 10
107.9147562223586
 20
6.223000000000081
 30
0.0
 11
107.9147562223587
 21
-6.222999999999928
 31
0.0
  0
SOLID
  5
40B
330
404
100
AcDbEntity
  8
치수문자_일반주서
 62
     0
100
AcDbTrace
 10
108.4650895556919
 20
6.223000000000082
 30
0.0
 11
107.3644228890253
 21
6.223000000000079
 31
0.0
 12
107.9147562223586
 22
9.52500000000008
 32
0.0
 13
107.9147562223586
 23
9.52500000000008
 33
0.0
  0
SOLID
  5
40C
330
404
100
AcDbEntity
  8
치수문자_일반주서
 62
     0
100
AcDbTrace
 10
107.3644228890253
 20
-6.22299999999993
 30
0.0
 11
108.465089555692
 21
-6.222999999999926
 31
0.0
 12
107.9147562223587
 22
-9.524999999999928
 32
0.0
 13
107.9147562223587
 23
-9.524999999999928
 33
0.0
  0
MTEXT
  5
40D
330
404
100
AcDbEntity
  8
치수문자_일반주서
 62
     0
100
AcDbMText
 10
103.5397562223585
 20
26.60825000000007
 30
0.0
 40
3.5
 41
0.0
 71
     2
 72
     1
  1
\A1;%%c19.05 [3/4]
  7
SLDTEXTSTYLE0
 11
-3.729883127349604E-15
 21
1.0
 31
0.0
 73
     1
 44
1.0
  0
POINT
  5
40E
330
404
100
AcDbEntity
  8
Defpoints
 62
     0
100
AcDbPoint
 10
88.2
 20
9.525000000000006
 30
0.0
  0
POINT
  5
40F
330
404
100
AcDbEntity
  8
Defpoints
 62
     0
100
AcDbPoint
 10
88.2
 20
-9.525000000000006
 30
0.0
  0
POINT
  5
410
330
404
100
AcDbEntity
  8
Defpoints
 62
     0
100
AcDbPoint
 10
107.9147562223587
 20
-9.524999999999933
 30
0.0
  0
ENDBLK
  5
406
330
404
100
AcDbEntity
  8
0
100
AcDbBlockEnd
  0
ENDSEC
  0
SECTION
  2
ENTITIES
  0
LINE
  5
BC
330
1F
100
AcDbEntity
  8
참조1
100
AcDbLine
 10
-3.775369342984433
 20
0.0010749287238892
 30
0.0
 11
-3.775369342984428
 21
-39.99892507127611
 31
0.0
  0
LINE
  5
BD
330
1F
100
AcDbEntity
  8
참조1
100
AcDbLine
 10
-3.775369342984428
 20
-39.99892507127611
 30
0.0
 11
-21.31545115729311
 21
-39.9989250712761
 31
0.0
  0
LINE
  5
117
330
1F
100
AcDbEntity
  8
참조1
100
AcDbLine
 10
76.65688947236116
 20
7.441074928723896
 30
0.0
 11
76.65688947236116
 21
-7.438925071276109
 31
0.0
  0
LINE
  5
118
330
1F
100
AcDbEntity
  8
참조1
100
AcDbLine
 10
89.35688947236116
 20
5.441074928723896
 30
0.0
 11
76.65688947236116
 21
5.441074928723896
 31
0.0
  0
SOLID
  5
119
330
1F
100
AcDbEntity
  8
참조1
100
AcDbTrace
 10
76.65688947236116
 20
5.441074928723896
 30
0.0
 11
83.00688947236115
 21
4.425074928723896
 31
0.0
 12
83.00688947236115
 22
6.457074928723896
 32
0.0
 13
83.00688947236115
 23
6.457074928723896
 33
0.0
  0
LINE
  5
11A
330
1F
100
AcDbEntity
  8
참조1
100
AcDbLine
 10
89.35688947236116
 20
-5.438925071276109
 30
0.0
 11
76.65688947236116
 21
-5.438925071276109
 31
0.0
  0
SOLID
  5
11B
330
1F
100
AcDbEntity
  8
참조1
100
AcDbTrace
 10
76.65688947236116
 20
-5.438925071276109
 30
0.0
 11
83.00688947236115
 21
-6.454925071276109
 31
0.0
 12
83.00688947236115
 22
-4.422925071276109
 32
0.0
 13
83.00688947236115
 23
-4.422925071276109
 33
0.0
  0
MTEXT
  5
11C
330
1F
100
AcDbEntity
  8
참조1
100
AcDbMText
 10
86.04123960498715
 20
11.01136670591222
 30
0.0
 40
3.5
 41
0.0
 71
     1
 72
     1
  1
A
  7
SLDTEXTSTYLE0
 73
     1
 44
1.0
  0
MTEXT
  5
11D
330
1F
100
AcDbEntity
  8
참조1
100
AcDbMText
 10
86.04123960498715
 20
0.1313667059122201
 30
0.0
 40
3.5
 41
0.0
 71
     1
 72
     1
  1
A
  7
SLDTEXTSTYLE0
 73
     1
 44
1.0
  0
LINE
  5
3A6
330
1F
100
AcDbEntity
  8
외형선
  6
Continuous
370
    15
100
AcDbLine
 10
8.949985903392928
 20
9.524999999999977
 30
0.0
 11
-63.7
 21
9.524999999999977
 31
0.0
  0
LINE
  5
3A7
330
1F
100
AcDbEntity
  8
외형선
  6
Continuous
370
    15
100
AcDbLine
 10
-63.7
 20
-9.525000000000006
 30
0.0
 11
11.49059210677797
 21
-9.525000000000006
 31
0.0
  0
LINE
  5
3A8
330
1F
100
AcDbEntity
  8
외형선
  6
Continuous
370
    15
100
AcDbLine
 10
-63.7
 20
9.524999999999977
 30
0.0
 11
-64.2
 21
9.024999999999977
 31
0.0
  0
LINE
  5
3A9
330
1F
100
AcDbEntity
  8
외형선
  6
Continuous
370
    15
100
AcDbLine
 10
-64.2
 20
-9.025000000000006
 30
0.0
 11
-63.7
 21
-9.525000000000006
 31
0.0
  0
LINE
  5
3AA
330
1F
100
AcDbEntity
  8
0
  6
Continuous
 62
     1
370
    15
100
AcDbLine
 10
69.88966445993104
 20
-9.52500000000002
 30
0.0
 11
80.59732118117056
 21
-9.52500000000002
 31
0.0
  0
LINE
  5
3AB
330
1F
100
AcDbEntity
  8
0
  6
Continuous
 62
     1
370
    15
100
AcDbLine
 10
28.76628713420777
 20
9.525000000000006
 30
0.0
 11
18.06073284387664
 21
9.525000000000006
 31
0.0
  0
LINE
  5
3AC
330
1F
100
AcDbEntity
  8
0
  6
Continuous
 62
     1
370
    15
100
AcDbLine
 10
35.33761801345712
 20
-9.52500000000002
 30
0.0
 11
46.0420713042693
 21
-9.52500000000002
 31
0.0
  0
LINE
  5
3AD
330
1F
100
AcDbEntity
  8
0
  6
Continuous
 62
     1
370
    15
100
AcDbLine
 10
88.2
 20
9.525000000000006
 30
0.0
 11
87.16724362722213
 21
9.525000000000006
 31
0.0
  0
LINE
  5
3AE
330
1F
100
AcDbEntity
  8
0
  6
Continuous
 62
     1
370
    15
100
AcDbLine
 10
63.31846446899608
 20
9.525000000000006
 30
0.0
 11
52.61162812883647
 21
9.525000000000006
 31
0.0
  0
SPLINE
  5
3AF
330
1F
100
AcDbEntity
  8
외형선
  6
Continuous
370
    15
100
AcDbSpline
210
0.0
220
0.0
230
1.0
 70
     8
 71
     3
 72
     8
 73
     4
 74
     0
 42
0.000000001
 43
0.00000001
 40
0.0
 40
0.0
 40
0.0
 40
0.0
 40
1.0
 40
1.0
 40
1.0
 40
1.0
 10
12.0
 20
-9.520445355373596
 30
0.0
 10
10.98749758213596
 20
-9.538570609643585
 30
0.0
 10
9.962477932910446
 20
-9.502235360187939
 30
0.0
 10
8.949985903392928
 20
-9.412351355634087
 30
0.0
  0
SPLINE
  5
3B0
330
1F
100
AcDbEntity
  8
외형선
  6
Continuous
370
    15
100
AcDbSpline
210
0.0
220
0.0
230
1.0
 70
     8
 71
     3
 72
     8
 73
     4
 74
     0
 42
0.000000001
 43
0.00000001
 40
0.0
 40
0.0
 40
0.0
 40
0.0
 40
1.0
 40
1.0
 40
1.0
 40
1.0
 10
12.0
 20
-1.482271071211358
 30
0.0
 10
10.98749758213596
 20
-0.9032387057527131
 30
0.0
 10
9.962477932910446
 20
-0.3133603605310498
 30
0.0
 10
8.949985903392928
 20
0.2725712111937071
 30
0.0
  0
SPLINE
  5
3B1
330
1F
100
AcDbEntity
  8
외형선
  6
Continuous
370
    15
100
AcDbSpline
210
0.0
220
0.0
230
1.0
 70
    24
 71
     3
 72
    15
 73
    11
 74
     0
 42
0.000000001
 43
0.00000001
 40
0.0
 40
0.0
 40
0.0
 40
0.0
 40
0.0942203179182862
 40
0.2229103135122137
 40
0.3516003091061413
 40
0.4802903047000687
 40
0.608980300293996
 40
0.7376702958879232
 40
0.8663602914818506
 40
1.0
 40
1.0
 40
1.0
 40
1.0
 10
12.0
 20
-1.532602629639342
 30
0.0
 10
12.0
 20
-1.585857285024588
 30
0.0
 10
12.0
 20
-1.71184934480732
 30
0.0
 10
12.0
 20
-2.177659476676467
 30
0.0
 10
12.0
 20
-2.916222670697465
 30
0.0
 10
12.0
 20
-3.894012551173518
 30
0.0
 10
12.0
 20
-5.067916994994064
 30
0.0
 10
12.0
 20
-6.414908095783119
 30
0.0
 10
12.0
 20
-7.905256585258812
 30
0.0
 10
12.0
 20
-8.97531901593672
 30
0.0
 10
12.0
 20
-9.520445355388247
 30
0.0
  0
LINE
  5
3B2
330
1F
100
AcDbEntity
  8
외형선
  6
Continuous
370
    15
100
AcDbLine
 10
8.949985903392928
 20
0.2725760833432105
 30
0.0
 11
8.949985903392928
 21
-9.412352803218894
 31
0.0
  0
SPLINE
  5
3B3
330
1F
100
AcDbEntity
  8
외형선
  6
Continuous
370
    15
100
AcDbSpline
210
0.0
220
0.0
230
1.0
 70
     8
 71
     3
 72
     8
 73
     4
 74
     0
 42
0.000000001
 43
0.00000001
 40
0.0
 40
0.0
 40
0.0
 40
0.0
 40
1.0
 40
1.0
 40
1.0
 40
1.0
 10
12.0
 20
8.889532500873628
 30
0.0
 10
10.98749758213596
 20
8.679014947715814
 30
0.0
 10
9.962477932910446
 20
8.416720773190434
 30
0.0
 10
8.949985903392928
 20
8.109228171671475
 30
0.0
  0
LINE
  5
3B4
330
1F
100
AcDbEntity
  8
외형선
  6
Continuous
370
    15
100
AcDbLine
 10
8.949985903392928
 20
9.524999999999977
 30
0.0
 11
8.949985903392928
 21
5.971059708797526
 31
0.0
  0
SPLINE
  5
3B5
330
1F
100
AcDbEntity
  8
외형선
  6
Continuous
370
    15
100
AcDbSpline
210
0.0
220
0.0
230
1.0
 70
     8
 71
     3
 72
     8
 73
     4
 74
     0
 42
0.000000001
 43
0.00000001
 40
0.0
 40
0.0
 40
0.0
 40
0.0
 40
1.0
 40
1.0
 40
1.0
 40
1.0
 10
12.0
 20
4.505156163794709
 30
0.0
 10
10.98749758213596
 20
5.021617302978058
 30
0.0
 10
9.962477932910446
 20
5.514373209472211
 30
0.0
 10
8.949985903392928
 20
5.971067063893202
 30
0.0
  0
LINE
  5
3B6
330
1F
100
AcDbEntity
  8
외형선
  6
Continuous
370
    15
100
AcDbLine
 10
-63.7
 20
9.524999999999977
 30
0.0
 11
-63.7
 21
-9.525000000000006
 31
0.0
  0
LINE
  5
3B7
330
1F
100
AcDbEntity
  8
외형선
  6
Continuous
370
    15
100
AcDbLine
 10
12.0
 20
4.505156163794709
 30
0.0
 11
12.0
 21
-1.482271071211358
 31
0.0
  0
LINE
  5
3B8
330
1F
100
AcDbEntity
  8
외형선
  6
Continuous
370
    15
100
AcDbLine
 10
-64.2
 20
9.024999999999977
 30
0.0
 11
-64.2
 21
-9.025000000000006
 31
0.0
  0
SPLINE
  5
3B9
330
1F
100
AcDbEntity
  8
외형선
  6
Continuous
370
    15
100
AcDbSpline
210
0.0
220
0.0
230
1.0
 70
    24
 71
     3
 72
    12
 73
     8
 74
     0
 42
0.000000001
 43
0.00000001
 40
0.0
 40
0.0
 40
0.0
 40
0.0
 40
0.1858398547064667
 40
0.3748112423000001
 40
0.616077859978513
 40
0.8643412259142643
 40
1.0
 40
1.0
 40
1.0
 40
1.0
 10
12.0
 20
8.889532500873628
 30
0.0
 10
12.0
 20
8.538667872533836
 30
0.0
 10
12.0
 20
7.831026298906465
 30
0.0
 10
12.0
 20
6.788861810621142
 30
0.0
 10
12.0
 20
5.794831347712176
 30
0.0
 10
12.0
 20
5.02686716068277
 30
0.0
 10
12.0
 20
4.719948244012699
 30
0.0
 10
12.0
 20
4.611498536014977
 30
0.0
  0
SPLINE
  5
3BA
330
1F
100
AcDbEntity
  8
0
  6
Continuous
 62
     1
370
    15
100
AcDbSpline
210
0.0
220
0.0
230
1.0
 70
     8
 71
     3
 72
    21
 73
    17
 74
     0
 42
0.000000001
 43
0.00000001
 40
0.0
 40
0.0
 40
0.0
 40
0.0
 40
0.0606012278400553
 40
0.1324361762815549
 40
0.2042630449452067
 40
0.2760892759815346
 40
0.3479236907736769
 40
0.4197646919733519
 40
0.4916106618509645
 40
0.5634599770180604
 40
0.635311010271918
 40
0.7082597664690382
 40
0.7812058423430138
 40
0.8541464341361178
 40
0.9270787470880567
 40
1.0
 40
1.0
 40
1.0
 40
1.0
 10
57.96341913799198
 20
-7.124902747581217
 30
0.0
 10
57.0349372358957
 20
-7.467691137803627
 30
0.0
 10
55.00585965375832
 20
-8.216811003734136
 30
0.0
 10
51.87637325439287
 20
-8.990456507390775
 30
0.0
 10
48.57500040706522
 20
-9.477399541346472
 30
0.0
 10
45.27364749613953
 20
-9.578012570276556
 30
0.0
 10
41.97197584327374
 20
-9.298363033219587
 30
0.0
 10
38.66994800314193
 20
-8.646889236721506
 30
0.0
 10
35.36764621095394
 20
-7.650288108195127
 30
0.0
 10
32.06515325734455
 20
-6.348168667514727
 30
0.0
 10
28.7457750938235
 20
-4.784570336411178
 30
0.0
 10
25.4094895886529
 20
-3.018512981535764
 30
0.0
 10
22.05656171040916
 20
-1.118393964410529
 30
0.0
 10
18.70393116738948
 20
0.8241272028389517
 30
0.0
 10
15.35174987681776
 20
2.745945878312568
 30
0.0
 10
13.11719347698589
 20
3.918782380601471
 30
0.0
 10
12.00000000000081
 20
4.505156163794311
 30
0.0
  0
SPLINE
  5
3BB
330
1F
100
AcDbEntity
  8
외형선
  6
Continuous
370
    15
100
AcDbSpline
210
0.0
220
0.0
230
1.0
 70
    24
 71
     3
 72
    12
 73
     8
 74
     0
 42
0.000000001
 43
0.00000001
 40
0.0
 40
0.0
 40
0.0
 40
0.0
 40
0.185839854706857
 40
0.3748112423008105
 40
0.6160778599790099
 40
0.8643412259144393
 40
1.0
 40
1.0
 40
1.0
 40
1.0
 10
12.0
 20
8.889532500881131
 30
0.0
 10
12.0
 20
8.538667872539975
 30
0.0
 10
12.0
 20
7.831026298909848
 30
0.0
 10
12.0
 20
6.788861810622137
 30
0.0
 10
12.0
 20
5.794831347712176
 30
0.0
 10
12.0
 20
5.02686716068277
 30
0.0
 10
12.0
 20
4.719948244012699
 30
0.0
 10
12.0
 20
4.611498536014977
 30
0.0
  0
SPLINE
  5
3BC
330
1F
100
AcDbEntity
  8
0
  6
Continuous
 62
     1
370
    15
100
AcDbSpline
210
0.0
220
0.0
230
1.0
 70
     8
 71
     3
 72
    25
 73
    21
 74
     0
 42
0.000000001
 43
0.00000001
 40
0.0
 40
0.0
 40
0.0
 40
0.0
 40
0.0578984847272322
 40
0.1158057509760533
 40
0.1737195905123539
 40
0.2316377843344066
 40
0.2895581062966439
 40
0.3466068511462077
 40
0.4036542318582103
 40
0.4606989564557834
 40
0.5177397359905362
 40
0.574775286007135
 40
0.6318043382327313
 40
0.6888338967257656
 40
0.7458698704527081
 40
0.8029109804234092
 40
0.8599559418064319
 40
0.917003465383516
 40
0.9740522590148217
 40
1.0
 40
1.0
 40
1.0
 40
1.0
 10
11.99999999999955
 20
8.889532500873543
 30
0.0
 10
13.11719347698485
 20
9.085784266108448
 30
0.0
 10
15.35174987681718
 20
9.478317562281518
 30
0.0
 10
18.70393116738714
 20
9.579053280882135
 30
0.0
 10
22.05656171041467
 20
9.311879288839918
 30
0.0
 10
25.40948958863028
 20
8.654434805827151
 30
0.0
 10
28.74577509390642
 20
7.647762474881063
 30
0.0
 10
32.06515325704002
 20
6.336623960086001
 30
0.0
 10
35.36764621209089
 20
4.779252847248756
 30
0.0
 10
38.66994799889889
 20
3.031043246741064
 30
0.0
 10
41.97197585910713
 20
1.161865710873371
 30
0.0
 10
45.27364743705728
 20
-0.7536122386528348
 30
0.0
 10
48.57500062753668
 20
-2.639081885738875
 30
0.0
 10
51.87637243153155
 20
-4.419062051724296
 30
0.0
 10
55.17807214410438
 20
-6.023003448935754
 30
0.0
 10
58.48012283864431
 20
-7.384993611137475
 30
0.0
 10
61.78244260006271
 20
-8.457906504588522
 30
0.0
 10
65.08493945918097
 20
-9.171614826373201
 30
0.0
 10
67.78736964545833
 20
-9.521608959748534
 30
0.0
 10
69.38895158613239
 20
-9.488178360847897
 30
0.0
 10
69.88966445993104
 20
-9.47772673747275
 30
0.0
  0
SPLINE
  5
3BD
330
1F
100
AcDbEntity
  8
0
  6
Continuous
 62
     1
370
    15
100
AcDbSpline
210
0.0
220
0.0
230
1.0
 70
     8
 71
     3
 72
    25
 73
    21
 74
     0
 42
0.000000001
 43
0.00000001
 40
0.0
 40
0.0
 40
0.0
 40
0.0
 40
0.0555474539598672
 40
0.1111012016561107
 40
0.166659997565335
 40
0.2222225904233403
 40
0.2777877246413475
 40
0.3333541417328473
 40
0.3889205817475822
 40
0.4444857847091342
 40
0.5000484920525752
 40
0.5556074480586414
 40
0.6111614012809053
 40
0.6667091059624473
 40
0.7222563175313845
 40
0.7778098580529773
 40
0.8333684922091298
 40
0.8889309689197452
 40
0.9444960327284164
 40
1.0
 40
1.0
 40
1.0
 40
1.0
 10
88.2
 20
-8.53094315550959
 30
0.0
 10
87.09958746927411
 20
-8.78058310630584
 30
0.0
 10
84.89863772692557
 20
-9.279891293047825
 30
0.0
 10
81.59695205091732
 20
-9.567074142374437
 30
0.0
 10
78.29491291236506
 20
-9.496754502747834
 30
0.0
 10
74.99260135830501
 20
-9.040686078688452
 30
0.0
 10
71.6901090769811
 20
-8.225370288166303
 30
0.0
 10
68.38752521554015
 20
-7.081128610109715
 30
0.0
 10
65.08493972382028
 20
-5.654254755724295
 30
0.0
 10
61.78244252912687
 20
-4.001581654179347
 30
0.0
 10
58.48012285776166
 20
-2.189166640766814
 30
0.0
 10
55.17807213856499
 20
-0.2893910296079554
 30
0.0
 10
51.87637243457361
 20
1.62186940530907
 30
0.0
 10
48.57500062090772
 20
3.468370084076909
 30
0.0
 10
45.27364746053244
 20
5.176548049295263
 30
0.0
 10
41.97197577182122
 20
6.677488466624908
 30
0.0
 10
38.6699483246049
 20
7.913856210950513
 30
0.0
 10
35.36764499645047
 20
8.826930882603904
 30
0.0
 10
32.06639454292348
 20
9.414726404312546
 30
0.0
 10
29.86591946008555
 20
9.488113316134331
 30
0.0
 10
28.76628713420777
 20
9.524786587813253
 30
0.0
  0
SPLINE
  5
3BE
330
1F
100
AcDbEntity
  8
0
  6
Continuous
 62
     1
370
    15
100
AcDbSpline
210
0.0
220
0.0
230
1.0
 70
     8
 71
     3
 72
    22
 73
    18
 74
     0
 42
0.000000001
 43
0.00000001
 40
0.0
 40
0.0
 40
0.0
 40
0.0
 40
0.0269968988382383
 40
0.0964917331456018
 40
0.1659786502345122
 40
0.2354661841838141
 40
0.3049615347600684
 40
0.3744631435806786
 40
0.4439694451457443
 40
0.513478868610252
 40
0.5829898395693957
 40
0.6525007818526631
 40
0.7220101193222688
 40
0.7915162776715059
 40
0.8610176862185884
 40
0.9305127796915764
 40
0.9999999999999999
 40
0.9999999999999999
 40
0.9999999999999999
 40
0.9999999999999999
 10
40.68942610794133
 20
7.109790356202438
 30
0.0
 10
41.11697416014771
 20
7.281552876696594
 30
0.0
 10
42.64510718044805
 20
7.895462770245672
 30
0.0
 10
45.27364545260643
 20
8.64409120765373
 30
0.0
 10
48.57500115890711
 20
9.305970372760612
 30
0.0
 10
51.87637229039895
 20
9.57845186660586
 30
0.0
 10
55.17807217720211
 20
9.47330656490999
 30
0.0
 10
58.48012284740771
 20
8.988643938183117
 30
0.0
 10
61.78244253190142
 20
8.145408821906017
 30
0.0
 10
65.0849397230768
 20
6.976813371939755
 30
0.0
 10
68.38752521573939
 20
5.529661390759856
 30
0.0
 10
71.69010907692773
 20
3.86161909612315
 30
0.0
 10
74.99260135831928
 20
2.039687690814759
 30
0.0
 10
78.2949129123612
 20
0.1352617667275524
 30
0.0
 10
81.59695205091838
 20
-1.770465886152408
 30
0.0
 10
84.89863772692529
 20
-3.620536618281591
 30
0.0
 10
87.099587469274
 20
-4.720014359144955
 30
0.0
 10
88.2
 20
-5.269722087595497
 30
0.0
  0
SPLINE
  5
3BF
330
1F
100
AcDbEntity
  8
0
  6
Continuous
 62
     1
370
    15
100
AcDbSpline
210
0.0
220
0.0
230
1.0
 70
     8
 71
     3
 72
     9
 73
     5
 74
     0
 42
0.000000001
 43
0.00000001
 40
0.0
 40
0.0
 40
0.0
 40
0.0
 40
0.256563771932717
 40
0.9999999999999999
 40
0.9999999999999999
 40
0.9999999999999999
 40
0.9999999999999999
 10
86.35746114891622
 20
-4.330618694867269
 30
0.0
 10
86.25841410145573
 20
-4.356426317853547
 30
0.0
 10
85.8723617499707
 20
-4.457015823503042
 30
0.0
 10
85.43896061587587
 20
-4.65455484272205
 30
0.0
 10
85.11675451150437
 20
-4.801412506066356
 30
0.0
  0
SPLINE
  5
3C0
330
1F
100
AcDbEntity
  8
0
  6
Continuous
 62
     1
370
    15
100
AcDbSpline
210
0.0
220
0.0
230
1.0
 70
     8
 71
     3
 72
     8
 73
     4
 74
     0
 42
0.000000001
 43
0.00000001
 40
0.0
 40
0.0
 40
0.0
 40
0.0
 40
1.0
 40
1.0
 40
1.0
 40
1.0
 10
88.2
 20
-5.568392862373742
 30
0.0
 10
87.14650446030929
 20
-5.406753698297564
 30
0.0
 10
86.11954768106584
 20
-5.1482024522128
 30
0.0
 10
85.11675451150437
 20
-4.801412506066356
 30
0.0
  0
LINE
  5
3C1
330
1F
100
AcDbEntity
  8
0
  6
Continuous
 62
     1
370
    15
100
AcDbLine
 10
88.2
 20
-8.530943155509604
 30
0.0
 11
88.2
 21
-5.568392862373742
 31
0.0
  0
SPLINE
  5
3C2
330
1F
100
AcDbEntity
  8
0
  6
Continuous
 62
     1
370
    15
100
AcDbSpline
210
0.0
220
0.0
230
1.0
 70
     8
 71
     3
 72
    14
 73
    10
 74
     0
 42
0.000000001
 43
0.00000001
 40
0.0
 40
0.0
 40
0.0
 40
0.0
 40
0.143620674964492
 40
0.2872631330216461
 40
0.4309218965138907
 40
0.5745914610739292
 40
0.7182663046137401
 40
0.8597791486850762
 40
1.0
 40
1.0
 40
1.0
 40
1.0
 10
11.99999999999955
 20
-1.482271071211102
 30
0.0
 10
13.11719347625414
 20
-2.113631133081043
 30
0.0
 10
15.35174987462493
 20
-3.37644701583848
 30
0.0
 10
18.70393117615806
 20
-5.115421585539281
 30
0.0
 10
22.05656167751867
 20
-6.647819162046801
 30
0.0
 10
25.4094897114537
 20
-7.907552533273702
 30
0.0
 10
28.74577463840986
 20
-8.829871391146469
 30
0.0
 10
32.05513052804251
 20
-9.416536808259536
 30
0.0
 10
34.24680576073035
 20
-9.48781047083449
 30
0.0
 10
35.33761801345712
 20
-9.523283876416642
 30
0.0
  0
SPLINE
  5
3C3
330
1F
100
AcDbEntity
  8
0
  6
Continuous
 62
     1
370
    15
100
AcDbSpline
210
0.0
220
0.0
230
1.0
 70
     8
 71
     3
 72
    11
 73
     7
 74
     0
 42
0.000000001
 43
0.00000001
 40
0.0
 40
0.0
 40
0.0
 40
0.0
 40
0.2354436688261672
 40
0.4903208426251146
 40
0.7451748576382016
 40
1.0
 40
1.0
 40
1.0
 40
1.0
 10
75.2446467529736
 20
7.133689859383878
 30
0.0
 10
76.26142732020604
 20
7.502987734377172
 30
0.0
 10
78.37891345595916
 20
8.272065306728791
 30
0.0
 10
81.59695159316651
 20
9.038759174816391
 30
0.0
 10
84.89863784134376
 20
9.51642016172707
 30
0.0
 10
87.0995875074121
 20
9.509676522722373
 30
0.0
 10
88.2
 20
9.506304894229118
 30
0.0
  0
LINE
  5
3C4
330
1F
100
AcDbEntity
  8
0
  6
Continuous
 62
     1
370
    15
100
AcDbLine
 10
88.2
 20
9.506304894229118
 30
0.0
 11
88.2
 21
9.525000000000006
 31
0.0
  0
SPLINE
  5
3C5
330
1F
100
AcDbEntity
  8
0
  6
Continuous
 62
     1
370
    15
100
AcDbSpline
210
0.0
220
0.0
230
1.0
 70
     8
 71
     3
 72
    15
 73
    11
 74
     0
 42
0.000000001
 43
0.00000001
 40
0.0
 40
0.0
 40
0.0
 40
0.0
 40
0.1326850719665184
 40
0.2653851776529378
 40
0.3980973419028898
 40
0.5308185758470644
 40
0.663545880286117
 40
0.7962762490989536
 40
0.9290066726680551
 40
1.0
 40
1.0
 40
1.0
 40
1.0
 10
88.20000000000003
 20
0.5964832419736865
 30
0.0
 10
87.0995874689812
 20
1.228370419159802
 30
0.0
 10
84.89863772604677
 20
2.492216368736322
 30
0.0
 10
81.59695205443295
 20
4.281941019375068
 30
0.0
 10
78.29491289917972
 20
5.902849661600385
 30
0.0
 10
74.99260140753482
 20
7.286306587131207
 30
0.0
 10
71.6901088932377
 20
8.383985082306765
 30
0.0
 10
68.38752590129774
 20
9.128140366416801
 30
0.0
 10
65.59696250465633
 20
9.507974303011025
 30
0.0
 10
63.90728172750535
 20
9.485427344836182
 30
0.0
 10
63.31846446899608
 20
9.477570216862773
 30
0.0
  0
SPLINE
  5
3C6
330
1F
100
AcDbEntity
  8
0
  6
Continuous
 62
     1
370
    15
100
AcDbSpline
210
0.0
220
0.0
230
1.0
 70
     8
 71
     3
 72
    11
 73
     7
 74
     0
 42
0.000000001
 43
0.00000001
 40
0.0
 40
0.0
 40
0.0
 40
0.0
 40
0.1189167074370904
 40
0.4126482104478295
 40
0.7063463745947232
 40
1.0
 40
1.0
 40
1.0
 40
1.0
 10
23.41382826044692
 20
-7.108242734887753
 30
0.0
 10
22.96137979883113
 20
-7.289735885500221
 30
0.0
 10
21.39135610721151
 20
-7.919528161311334
 30
0.0
 10
18.70393301618707
 20
-8.672139476933722
 30
0.0
 10
15.35174941472199
 20
-9.349540810134158
 30
0.0
 10
13.11719332296175
 20
-9.46348005362205
 30
0.0
 10
12.00000000000081
 20
-9.520445355373596
 30
0.0
  0
LINE
  5
3C7
330
1F
100
AcDbEntity
  8
0
  6
Continuous
 62
     1
370
    15
100
AcDbLine
 10
88.2
 20
-5.269722087595497
 30
0.0
 11
88.2
 21
0.5964832419736865
 31
0.0
  0
SPLINE
  5
3C8
330
1F
100
AcDbEntity
  8
0
  6
Continuous
 62
     1
370
    15
100
AcDbSpline
210
0.0
220
0.0
230
1.0
 70
     8
 71
     3
 72
    14
 73
    10
 74
     0
 42
0.000000001
 43
0.00000001
 40
0.0
 40
0.0
 40
0.0
 40
0.0
 40
0.2500000000000001
 40
0.2500000000000001
 40
0.5
 40
0.5
 40
0.75
 40
0.75
 40
1.0
 40
1.0
 40
1.0
 40
1.0
 10
88.2
 20
6.167475262783483
 30
0.0
 10
88.04300632252567
 20
5.809080276806895
 30
0.0
 10
87.85796057669147
 20
5.477031801469991
 30
0.0
 10
87.42876606047183
 20
4.868444428385942
 30
0.0
 10
87.18143726380806
 20
4.590102158575917
 30
0.0
 10
86.64985959125708
 20
4.116979557754235
 30
0.0
 10
86.3639144191841
 20
3.918396890292541
 30
0.0
 10
85.75341989545636
 20
3.593969675102699
 30
0.0
 10
85.43900405813999
 20
3.473382040395961
 30
0.0
 10
85.11675451150437
 20
3.388812609867045
 30
0.0
  0
SPLINE
  5
3C9
330
1F
100
AcDbEntity
  8
0
  6
Continuous
 62
     1
370
    15
100
AcDbSpline
210
0.0
220
0.0
230
1.0
 70
     8
 71
     3
 72
     8
 73
     4
 74
     0
 42
0.000000001
 43
0.00000001
 40
0.0
 40
0.0
 40
0.0
 40
0.0
 40
1.0
 40
1.0
 40
1.0
 40
1.0
 10
88.2
 20
1.837376426293247
 30
0.0
 10
87.14650446030929
 20
2.410081156542148
 30
0.0
 10
86.11954768106587
 20
2.925518111563292
 30
0.0
 10
85.11675451150437
 20
3.388812609867045
 30
0.0
  0
SPLINE
  5
3CA
330
1F
100
AcDbEntity
  8
외형선
  6
Continuous
370
    15
100
AcDbSpline
210
0.0
220
0.0
230
1.0
 70
    24
 71
     3
 72
    15
 73
    11
 74
     0
 42
0.000000001
 43
0.00000001
 40
0.0
 40
0.0
 40
0.0
 40
0.0
 40
0.0902085977035214
 40
0.2194685644140185
 40
0.3487285311245159
 40
0.4779884978350135
 40
0.6072484645455111
 40
0.7365084312560082
 40
0.8657683979665054
 40
1.0
 40
1.0
 40
1.0
 40
1.0
 10
12.0
 20
-1.541495337636604
 30
0.0
 10
12.0
 20
-1.592506786855807
 30
0.0
 10
12.0
 20
-1.716612579583142
 30
0.0
 10
12.0
 20
-2.177990788650817
 30
0.0
 10
12.0
 20
-2.916133896119732
 30
0.0
 10
12.0
 20
-3.894036337510059
 30
0.0
 10
12.0
 20
-5.067910624225604
 30
0.0
 10
12.0
 20
-6.414909792520405
 30
0.0
 10
12.0
 20
-7.905256141988886
 30
0.0
 10
12.0
 20
-8.975318866333069
 30
0.0
 10
12.0
 20
-9.520445355388205
 30
0.0
  0
LINE
  5
3CB
330
1F
100
AcDbEntity
  8
0
  6
Continuous
 62
     1
370
    15
100
AcDbLine
 10
88.2
 20
0.5964832419736865
 30
0.0
 11
88.2
 21
1.837376426293247
 31
0.0
  0
LINE
  5
3CC
330
1F
100
AcDbEntity
  8
0
  6
Continuous
 62
     1
370
    15
100
AcDbLine
 10
88.2
 20
6.167475262783483
 30
0.0
 11
88.2
 21
9.506304894229118
 31
0.0
  0
LINE
  5
3CD
330
1F
100
AcDbEntity
  8
0
  6
Continuous
 62
     1
370
    15
100
AcDbLine
 10
88.2
 20
1.837376426293247
 30
0.0
 11
88.2
 21
6.167475262783483
 31
0.0
  0
LINE
  5
3CE
330
1F
100
AcDbEntity
  8
0
  6
Continuous
 62
     1
370
    15
100
AcDbLine
 10
88.2
 20
-5.269722087595497
 30
0.0
 11
88.2
 21
-5.568392862373742
 31
0.0
  0
LINE
  5
3CF
330
1F
100
AcDbEntity
  8
중심선
 62
     1
100
AcDbLine
 10
-67.2
 20
-0.0000000000000142
 30
0.0
 11
91.20000000000003
 21
0.0
 31
0.0
  0
CIRCLE
  5
3D0
330
1F
100
AcDbEntity
  8
해칭선
100
AcDbCircle
 10
0.0
 20
0.0
 30
0.0
 40
3.000000000000003
  0
INSERT
  5
3D1
330
1F
100
AcDbEntity
  8
0
  6
Continuous
 62
     7
100
AcDbBlockReference
 66
     1
  2
블럭10
 10
-1.940272932125197
 20
-52.04717430164393
 30
0.0
  0
ATTRIB
  5
3D2
330
3D1
100
AcDbEntity
  8
FORMAT
 62
     2
100
AcDbText
 10
-11.12156822086646
 20
-49.97180738881176
 30
0.0
 40
4.233333333333333
  1
E5059908 [ 3 FLUTE ]
 41
0.75
  7
SLDTEXTSTYLE0
 11
-11.12156822086646
 21
-52.08847405547843
 31
0.0
100
AcDbAttribute
  2
AUTOATTR0
 70
     0
 74
     1
  0
SEQEND
  5
3D3
330
3D1
100
AcDbEntity
  8
0
  6
Continuous
 62
     7
  0
HATCH
  5
3D4
330
1F
100
AcDbEntity
  8
중심선
100
AcDbHatch
 10
0.0
 20
0.0
 30
0.0
210
0.0
220
0.0
230
1.0
  2
SOLID
 70
     1
 71
     0
 91
        1
 92
        0
 93
        4
 72
     1
 10
3.774636372255642
 20
-35.80000000000001
 11
0.328361128418365
 21
-35.80000000000001
 72
     1
 10
0.328361128418365
 20
-35.80000000000001
 11
-1.799868730785661
 21
-38.33632558057261
 72
     1
 10
-1.799868730785661
 20
-38.33632558057261
 11
1.646439598164775
 21
-38.33628615127012
 72
     1
 10
1.646439598164775
 20
-38.33628615127012
 11
3.774636372255642
 21
-35.8
 97
        0
 75
     0
 76
     1
 98
        1
 10
3.075369342984445
 20
-0.0010749287239094
  0
HATCH
  5
3D5
330
1F
100
AcDbEntity
  8
중심선
100
AcDbHatch
 10
0.0
 20
0.0
 30
0.0
210
0.0
220
0.0
230
1.0
  2
SOLID
 70
     1
 71
     0
 91
        1
 92
        0
 93
        4
 72
     1
 10
8.787400363291624
 20
-35.80000000000001
 11
5.341125119454347
 21
-35.80000000000001
 72
     1
 10
5.341125119454347
 20
-35.80000000000001
 11
0.8099871110969303
 21
-41.20000000000003
 72
     1
 10
0.8099871110969303
 20
-41.20000000000002
 11
4.256262354934208
 21
-41.20000000000002
 72
     1
 10
4.256262354934208
 20
-41.20000000000002
 11
8.787400363291624
 21
-35.8
 97
        0
 75
     0
 76
     1
 98
        1
 10
3.075369342984445
 20
-0.0010749287239094
  0
HATCH
  5
3D6
330
1F
100
AcDbEntity
  8
중심선
100
AcDbHatch
 10
0.0
 20
0.0
 30
0.0
210
0.0
220
0.0
230
1.0
  2
SOLID
 70
     1
 71
     0
 91
        1
 92
        0
 93
        4
 72
     1
 10
13.80016435432749
 20
-35.80000000000001
 11
10.35388911049043
 21
-35.79999999999999
 72
     1
 10
10.35388911049043
 20
-35.79999999999998
 11
3.305452208601125
 21
-44.20000000000002
 72
     1
 10
3.305452208601125
 20
-44.20000000000002
 11
6.751727452438402
 21
-44.20000000000002
 72
     1
 10
6.751727452438402
 20
-44.20000000000002
 11
13.80016435432749
 21
-35.8
 97
        0
 75
     0
 76
     1
 98
        1
 10
3.075369342984445
 20
-0.0010749287239094
  0
HATCH
  5
3D7
330
1F
100
AcDbEntity
  8
중심선
100
AcDbHatch
 10
0.0
 20
0.0
 30
0.0
210
0.0
220
0.0
230
1.0
  2
SOLID
 70
     1
 71
     0
 91
        1
 92
        0
 93
        6
 72
     3
 10
18.60005478533969
 20
-40.00000000005127
 11
3.960054785062283
 21
1.540740868222201E-10
 40
0.3939339440162628
 50
17.09539180608447
 51
320.0019657685078
 73
     0
 72
     1
 10
20.28305444104028
 20
-38.58789400463831
 11
22.58835631474135
 21
-36.6535672945904
 72
     3
 10
18.60005478528684
 20
-40.00000000000016
 11
6.600054785286829
 21
-1.278976924368180E-13
 40
0.636358354079598
 50
39.99873849337385
 51
368.4976242363725
 73
     1
 72
     1
 10
25.02538727718745
 20
-39.03999999993003
 11
17.28012209212277
 21
-39.03999999993003
 72
     1
 10
17.28012209212277
 20
-39.03999999993003
 11
17.28009704767683
 21
-40.95999999992992
 72
     1
 10
17.28009704767683
 20
-40.95999999992992
 11
21.72147681714887
 21
-40.95999999992989
 97
        0
 75
     0
 76
     1
 98
        1
 10
3.075369342984445
 20
-0.0010749287239094
  0
DIMENSION
  5
3D8
330
1F
100
AcDbEntity
  8
치수문자_일반주서
100
AcDbDimension
  2
*D23
 10
88.2
 20
32.71605032795719
 30
0.0
 11
12.00000000000001
 21
32.71605032795719
 31
0.0
 70
   160
  1
<>
 71
     2
 42
152.4
  3
SLDDIMSTYLE0
100
AcDbAlignedDimension
 13
-64.2
 23
9.024999999999977
 33
0.0
 14
88.2
 24
9.525000000000006
 34
0.0
 50
-0.0000000000000027
100
AcDbRotatedDimension
1001
ACAD
1000
DSTYLE
1002
{
1070
   171
1070
     6
1070
   273
1070
     5
1002
}
  0
DIMENSION
  5
3D9
330
1F
100
AcDbEntity
  8
치수문자_일반주서
100
AcDbDimension
  2
*D24
 10
-78.77628998116606
 20
-9.525000000000063
 30
0.0
 11
-78.77628998116619
 21
26.60824999999995
 31
0.0
 70
   160
  1
%%c<>
 71
     2
 42
19.05000000000001
 52
-270.0
  3
SLDDIMSTYLE0
100
AcDbAlignedDimension
 13
-63.7
 23
9.525000000000006
 33
0.0
 14
-63.7
 24
-9.525000000000006
 34
0.0
 50
90.0000000000002
100
AcDbRotatedDimension
1001
ACAD
1000
DSTYLE
1002
{
1070
   171
1070
     6
1070
   273
1070
     5
1002
}
  0
DIMENSION
  5
3DA
330
1F
100
AcDbEntity
  8
치수문자_일반주서
100
AcDbDimension
  2
*D25
 10
12.0
 20
17.64211081217371
 30
0.0
 11
52.53610457905584
 21
17.64211081217371
 31
0.0
 70
   160
  1
<>
 71
     2
 42
76.2
  3
SLDDIMSTYLE0
100
AcDbAlignedDimension
 13
88.2
 23
9.525000000000006
 33
0.0
 14
12.0
 24
8.889532500881131
 34
0.0
 50
0.0000000000000107
100
AcDbRotatedDimension
1001
ACAD
1000
DSTYLE
1002
{
1070
   171
1070
     6
1070
   273
1070
     5
1002
}
  0
DIMENSION
  5
3DB
330
1F
100
AcDbEntity
  8
치수문자_일반주서
100
AcDbDimension
  2
*D26
 10
107.9147562223587
 20
-9.524999999999928
 30
0.0
 11
107.9147562223585
 21
26.60825000000008
 31
0.0
 70
   160
  1
%%c<>
 71
     2
 42
19.05000000000001
 52
-270.0
  3
SLDDIMSTYLE0
100
AcDbAlignedDimension
 13
88.2
 23
9.525000000000006
 33
0.0
 14
88.2
 24
-9.525000000000006
 34
0.0
 50
90.0000000000002
100
AcDbRotatedDimension
1001
ACAD
1000
DSTYLE
1002
{
1070
   171
1070
     6
1070
   273
1070
     5
1002
}
  0
INSERT
  5
3DC
330
1F
100
AcDbEntity
  8
해칭선
100
AcDbBlockReference
  2
SW_DOWELSYMBOL_0
 10
0.0
 20
0.0
 30
0.0
  0
ENDSEC
  0
SECTION
  2
OBJECTS
  0
DICTIONARY
  5
C
330
0
100
AcDbDictionary
281
     1
  3
ACAD_GROUP
350
D
  3
ACAD_IMAGE_VARS
350
148
  3
ACAD_LAYOUT
350
1A
  3
ACAD_MLINESTYLE
350
17
  3
ACAD_PLOTSETTINGS
350
19
  3
ACAD_PLOTSTYLENAME
350
E
  3
ACAD_SCALELIST
350
47
  3
APPDATA
350
146
  3
DWGPROPS
350
413
  0
DICTIONARY
  5
202
330
2
100
AcDbDictionary
280
     1
281
     1
  3
ACAD_LAYERSTATES
360
203
  0
DICTIONARY
  5
D
102
{ACAD_REACTORS
330
C
102
}
330
C
100
AcDbDictionary
281
     1
  0
RASTERVARIABLES
  5
148
102
{ACAD_REACTORS
330
C
102
}
330
C
100
AcDbRasterVariables
 90
        0
 70
     1
 71
     1
 72
     1
  0
DICTIONARY
  5
1A
102
{ACAD_REACTORS
330
C
102
}
330
C
100
AcDbDictionary
281
     1
  3
Layout1
350
1E
  3
Layout2
350
26
  3
Model
350
22
  0
DICTIONARY
  5
17
102
{ACAD_REACTORS
330
C
102
}
330
C
100
AcDbDictionary
281
     1
  3
Standard
350
18
  0
DICTIONARY
  5
19
102
{ACAD_REACTORS
330
C
102
}
330
C
100
AcDbDictionary
281
     1
  0
ACDBDICTIONARYWDFLT
  5
E
102
{ACAD_REACTORS
330
C
102
}
330
C
100
AcDbDictionary
281
     1
  3
Normal
350
F
100
AcDbDictionaryWithDefault
340
F
  0
DICTIONARY
  5
47
102
{ACAD_REACTORS
330
C
102
}
330
C
100
AcDbDictionary
281
     1
  3
A0
350
48
  3
A1
350
49
  3
A2
350
4A
  3
A3
350
4B
  3
A4
350
4C
  3
A5
350
4D
  3
A6
350
4E
  3
A7
350
4F
  3
A8
350
50
  3
A9
350
51
  3
B0
350
52
  3
B1
350
53
  3
B2
350
54
  3
B3
350
55
  3
B4
350
56
  3
B5
350
57
  3
B6
350
58
  3
B7
350
59
  3
B8
350
5A
  3
B9
350
5B
  3
C0
350
5C
  3
C1
350
5D
  3
C2
350
5E
  3
C3
350
5F
  3
C4
350
60
  3
C5
350
61
  3
C6
350
62
  3
C7
350
63
  3
C8
350
64
  3
C9
350
65
  3
D0
350
66
  3
D1
350
67
  3
D2
350
68
  0
DICTIONARY
  5
146
102
{ACAD_REACTORS
330
C
102
}
330
C
100
AcDbDictionary
281
     1
  0
XRECORD
  5
413
102
{ACAD_REACTORS
330
C
102
}
330
C
100
AcDbXrecord
280
     1
  1
DWGPROPS COOKIE
  2

  3

  4

  6

  7

  8
12014074
  9

300
=
301
=
302
=
303
=
304
=
305
=
306
=
307
=
308
=
309
=
 40
0.0
 41
2458311.274097245
 42
2458323.037868924
  1

 90
        0
  0
DICTIONARY
  5
203
102
{ACAD_REACTORS
330
202
102
}
330
202
100
AcDbDictionary
281
     1
  0
LAYOUT
  5
1E
102
{ACAD_REACTORS
330
1A
102
}
330
1A
100
AcDbPlotSettings
  1

  2
none_device
  4

  6

 40
0.0
 41
0.0
 42
0.0
 43
0.0
 44
0.0
 45
0.0
 46
0.0
 47
0.0
 48
0.0
 49
0.0
140
0.0
141
0.0
142
1.0
143
1.0
 70
   688
 72
     1
 73
     0
 74
     5
  7

 75
    16
147
1.0
148
0.0
149
0.0
100
AcDbLayout
  1
Layout1
 70
     1
 71
     1
 10
0.0
 20
0.0
 11
420.0
 21
297.0
 12
0.0
 22
0.0
 32
0.0
 14
1.000000000000000E+20
 24
1.000000000000000E+20
 34
1.000000000000000E+20
 15
-1.000000000000000E+20
 25
-1.000000000000000E+20
 35
-1.000000000000000E+20
146
0.0
 13
0.0
 23
0.0
 33
0.0
 16
1.0
 26
0.0
 36
0.0
 17
0.0
 27
1.0
 37
0.0
 76
     0
330
1B
  0
LAYOUT
  5
26
102
{ACAD_REACTORS
330
1A
102
}
330
1A
100
AcDbPlotSettings
  1

  2
none_device
  4

  6

 40
0.0
 41
0.0
 42
0.0
 43
0.0
 44
0.0
 45
0.0
 46
0.0
 47
0.0
 48
0.0
 49
0.0
140
0.0
141
0.0
142
1.0
143
1.0
 70
   688
 72
     1
 73
     0
 74
     5
  7

 75
    16
147
1.0
148
0.0
149
0.0
100
AcDbLayout
  1
Layout2
 70
     1
 71
     2
 10
0.0
 20
0.0
 11
0.0
 21
0.0
 12
0.0
 22
0.0
 32
0.0
 14
0.0
 24
0.0
 34
0.0
 15
0.0
 25
0.0
 35
0.0
146
0.0
 13
0.0
 23
0.0
 33
0.0
 16
1.0
 26
0.0
 36
0.0
 17
0.0
 27
1.0
 37
0.0
 76
     0
330
23
  0
LAYOUT
  5
22
102
{ACAD_REACTORS
330
1A
102
}
330
1A
100
AcDbPlotSettings
  1

  2
none_device
  4
ANSI_A_(11.00_x_8.50_Inches)
  6

 40
6.35
 41
19.05
 42
6.35000508
 43
19.05000254
 44
279.4
 45
215.9
 46
112.2165880836287
 47
98.16006087607134
 48
0.0
 49
0.0
140
0.0
141
0.0
142
0.0702466707185153
143
1.0
 70
  1696
 72
     0
 73
     0
 74
     0
  7

 75
     0
147
0.0235690232323232
148
0.0
149
0.0
100
AcDbLayout
  1
Model
 70
     1
 71
     0
 10
0.0
 20
0.0
 11
420.0
 21
297.0
 12
0.0
 22
0.0
 32
0.0
 14
1.000000000000000E+20
 24
1.000000000000000E+20
 34
1.000000000000000E+20
 15
-1.000000000000000E+20
 25
-1.000000000000000E+20
 35
-1.000000000000000E+20
146
0.0
 13
0.0
 23
0.0
 33
0.0
 16
1.0
 26
0.0
 36
0.0
 17
0.0
 27
1.0
 37
0.0
 76
     0
330
1F
331
29
  0
MLINESTYLE
  5
18
102
{ACAD_REACTORS
330
17
102
}
330
17
100
AcDbMlineStyle
  2
Standard
 70
     0
  3

 62
   256
 51
90.0
 52
90.0
 71
     2
 49
0.5
 62
   256
  6
BYLAYER
 49
-0.5
 62
   256
  6
BYLAYER
  0
ACDBPLACEHOLDER
  5
F
102
{ACAD_REACTORS
330
E
102
}
330
E
  0
SCALE
  5
48
102
{ACAD_REACTORS
330
47
102
}
330
47
100
AcDbScale
 70
     0
300
1:1
140
1.0
141
1.0
290
     1
  0
SCALE
  5
49
102
{ACAD_REACTORS
330
47
102
}
330
47
100
AcDbScale
 70
     0
300
1:2
140
1.0
141
2.0
290
     0
  0
SCALE
  5
4A
102
{ACAD_REACTORS
330
47
102
}
330
47
100
AcDbScale
 70
     0
300
1:4
140
1.0
141
4.0
290
     0
  0
SCALE
  5
4B
102
{ACAD_REACTORS
330
47
102
}
330
47
100
AcDbScale
 70
     0
300
1:5
140
1.0
141
5.0
290
     0
  0
SCALE
  5
4C
102
{ACAD_REACTORS
330
47
102
}
330
47
100
AcDbScale
 70
     0
300
1:8
140
1.0
141
8.0
290
     0
  0
SCALE
  5
4D
102
{ACAD_REACTORS
330
47
102
}
330
47
100
AcDbScale
 70
     0
300
1:10
140
1.0
141
10.0
290
     0
  0
SCALE
  5
4E
102
{ACAD_REACTORS
330
47
102
}
330
47
100
AcDbScale
 70
     0
300
1:16
140
1.0
141
16.0
290
     0
  0
SCALE
  5
4F
102
{ACAD_REACTORS
330
47
102
}
330
47
100
AcDbScale
 70
     0
300
1:20
140
1.0
141
20.0
290
     0
  0
SCALE
  5
50
102
{ACAD_REACTORS
330
47
102
}
330
47
100
AcDbScale
 70
     0
300
1:30
140
1.0
141
30.0
290
     0
  0
SCALE
  5
51
102
{ACAD_REACTORS
330
47
102
}
330
47
100
AcDbScale
 70
     0
300
1:40
140
1.0
141
40.0
290
     0
  0
SCALE
  5
52
102
{ACAD_REACTORS
330
47
102
}
330
47
100
AcDbScale
 70
     0
300
1:50
140
1.0
141
50.0
290
     0
  0
SCALE
  5
53
102
{ACAD_REACTORS
330
47
102
}
330
47
100
AcDbScale
 70
     0
300
1:100
140
1.0
141
100.0
290
     0
  0
SCALE
  5
54
102
{ACAD_REACTORS
330
47
102
}
330
47
100
AcDbScale
 70
     0
300
2:1
140
2.0
141
1.0
290
     0
  0
SCALE
  5
55
102
{ACAD_REACTORS
330
47
102
}
330
47
100
AcDbScale
 70
     0
300
4:1
140
4.0
141
1.0
290
     0
  0
SCALE
  5
56
102
{ACAD_REACTORS
330
47
102
}
330
47
100
AcDbScale
 70
     0
300
8:1
140
8.0
141
1.0
290
     0
  0
SCALE
  5
57
102
{ACAD_REACTORS
330
47
102
}
330
47
100
AcDbScale
 70
     0
300
10:1
140
10.0
141
1.0
290
     0
  0
SCALE
  5
58
102
{ACAD_REACTORS
330
47
102
}
330
47
100
AcDbScale
 70
     0
300
100:1
140
100.0
141
1.0
290
     0
  0
SCALE
  5
59
102
{ACAD_REACTORS
330
47
102
}
330
47
100
AcDbScale
 70
     0
300
1/128" = 1'-0"
140
0.0078125
141
12.0
290
     0
  0
SCALE
  5
5A
102
{ACAD_REACTORS
330
47
102
}
330
47
100
AcDbScale
 70
     0
300
1/64" = 1'-0"
140
0.015625
141
12.0
290
     0
  0
SCALE
  5
5B
102
{ACAD_REACTORS
330
47
102
}
330
47
100
AcDbScale
 70
     0
300
1/32" = 1'-0"
140
0.03125
141
12.0
290
     0
  0
SCALE
  5
5C
102
{ACAD_REACTORS
330
47
102
}
330
47
100
AcDbScale
 70
     0
300
1/16" = 1'-0"
140
0.0625
141
12.0
290
     0
  0
SCALE
  5
5D
102
{ACAD_REACTORS
330
47
102
}
330
47
100
AcDbScale
 70
     0
300
3/32" = 1'-0"
140
0.09375
141
12.0
290
     0
  0
SCALE
  5
5E
102
{ACAD_REACTORS
330
47
102
}
330
47
100
AcDbScale
 70
     0
300
1/8" = 1'-0"
140
0.125
141
12.0
290
     0
  0
SCALE
  5
5F
102
{ACAD_REACTORS
330
47
102
}
330
47
100
AcDbScale
 70
     0
300
3/16" = 1'-0"
140
0.1875
141
12.0
290
     0
  0
SCALE
  5
60
102
{ACAD_REACTORS
330
47
102
}
330
47
100
AcDbScale
 70
     0
300
1/4" = 1'-0"
140
0.25
141
12.0
290
     0
  0
SCALE
  5
61
102
{ACAD_REACTORS
330
47
102
}
330
47
100
AcDbScale
 70
     0
300
3/8" = 1'-0"
140
0.375
141
12.0
290
     0
  0
SCALE
  5
62
102
{ACAD_REACTORS
330
47
102
}
330
47
100
AcDbScale
 70
     0
300
1/2" = 1'-0"
140
0.5
141
12.0
290
     0
  0
SCALE
  5
63
102
{ACAD_REACTORS
330
47
102
}
330
47
100
AcDbScale
 70
     0
300
3/4" = 1'-0"
140
0.75
141
12.0
290
     0
  0
SCALE
  5
64
102
{ACAD_REACTORS
330
47
102
}
330
47
100
AcDbScale
 70
     0
300
1" = 1'-0"
140
1.0
141
12.0
290
     0
  0
SCALE
  5
65
102
{ACAD_REACTORS
330
47
102
}
330
47
100
AcDbScale
 70
     0
300
1-1/2" = 1'-0"
140
1.5
141
12.0
290
     0
  0
SCALE
  5
66
102
{ACAD_REACTORS
330
47
102
}
330
47
100
AcDbScale
 70
     0
300
3" = 1'-0"
140
3.0
141
12.0
290
     0
  0
SCALE
  5
67
102
{ACAD_REACTORS
330
47
102
}
330
47
100
AcDbScale
 70
     0
300
6" = 1'-0"
140
6.0
141
12.0
290
     0
  0
SCALE
  5
68
102
{ACAD_REACTORS
330
47
102
}
330
47
100
AcDbScale
 70
     0
300
1'-0" = 1'-0"
140
12.0
141
12.0
290
     0
  0
ENDSEC
  0
EOF
