  0
SECTION
  2
HEADER
  9
$ACADVER
  1
AC1015
  9
$ACADMAINTVER
 70
     6
  9
$DWGCODEPAGE
  3
ANSI_949
  9
$INSBASE
 10
0.0
 20
0.0
 30
0.0
  9
$EXTMIN
 10
-53.30631740100982
 20
-40.00000000000001
 30
0.0
  9
$EXTMAX
 10
95.5134838153456
 20
50.80074321972549
 30
0.0
  9
$LIMMIN
 10
0.0
 20
0.0
  9
$LIMMAX
 10
420.0
 20
297.0
  9
$ORTHOMODE
 70
     0
  9
$REGENMODE
 70
     1
  9
$FILLMODE
 70
     1
  9
$QTEXTMODE
 70
     0
  9
$MIRRTEXT
 70
     1
  9
$LTSCALE
 40
1.0
  9
$ATTMODE
 70
     1
  9
$TEXTSIZE
 40
3.5
  9
$TRACEWID
 40
1.0
  9
$TEXTSTYLE
  7
Standard
  9
$CLAYER
  8
0
  9
$CELTYPE
  6
ByLayer
  9
$CECOLOR
 62
   256
  9
$CELTSCALE
 40
1.0
  9
$DISPSILH
 70
     0
  9
$DIMSCALE
 40
1.0
  9
$DIMASZ
 40
3.302
  9
$DIMEXO
 40
1.0
  9
$DIMDLI
 40
3.75
  9
$DIMRND
 40
0.0
  9
$DIMDLE
 40
0.0
  9
$DIMEXE
 40
1.0
  9
$DIMTP
 40
0.0
  9
$DIMTM
 40
0.0
  9
$DIMTXT
 40
3.5
  9
$DIMCEN
 40
2.5
  9
$DIMTSZ
 40
0.0
  9
$DIMTOL
 70
     0
  9
$DIMLIM
 70
     0
  9
$DIMTIH
 70
     1
  9
$DIMTOH
 70
     1
  9
$DIMSE1
 70
     0
  9
$DIMSE2
 70
     0
  9
$DIMTAD
 70
     1
  9
$DIMZIN
 70
     0
  9
$DIMBLK
  1

  9
$DIMASO
 70
     1
  9
$DIMSHO
 70
     1
  9
$DIMPOST
  1

  9
$DIMAPOST
  1

  9
$DIMALT
 70
     0
  9
$DIMALTD
 70
     3
  9
$DIMALTF
 40
0.0393700787401575
  9
$DIMLFAC
 40
1.0
  9
$DIMTOFL
 70
     1
  9
$DIMTVP
 40
0.0
  9
$DIMTIX
 70
     0
  9
$DIMSOXD
 70
     0
  9
$DIMSAH
 70
     0
  9
$DIMBLK1
  1

  9
$DIMBLK2
  1

  9
$DIMSTYLE
  2
ISO-25
  9
$DIMCLRD
 70
     0
  9
$DIMCLRE
 70
     0
  9
$DIMCLRT
 70
     0
  9
$DIMTFAC
 40
1.0
  9
$DIMGAP
 40
1.524
  9
$DIMJUST
 70
     0
  9
$DIMSD1
 70
     0
  9
$DIMSD2
 70
     0
  9
$DIMTOLJ
 70
     0
  9
$DIMTZIN
 70
     0
  9
$DIMALTZ
 70
     0
  9
$DIMALTTZ
 70
     0
  9
$DIMUPT
 70
     0
  9
$DIMDEC
 70
     2
  9
$DIMTDEC
 70
     2
  9
$DIMALTU
 70
     2
  9
$DIMALTTD
 70
     3
  9
$DIMTXSTY
  7
Standard
  9
$DIMAUNIT
 70
     0
  9
$DIMADEC
 70
     2
  9
$DIMALTRND
 40
0.0
  9
$DIMAZIN
 70
     0
  9
$DIMDSEP
 70
    44
  9
$DIMATFIT
 70
     3
  9
$DIMFRAC
 70
     0
  9
$DIMLDRBLK
  1

  9
$DIMLUNIT
 70
     2
  9
$DIMLWD
 70
    -2
  9
$DIMLWE
 70
    -2
  9
$DIMTMOVE
 70
     0
  9
$LUNITS
 70
     2
  9
$LUPREC
 70
     2
  9
$SKETCHINC
 40
1.0
  9
$FILLETRAD
 40
10.0
  9
$AUNITS
 70
     0
  9
$AUPREC
 70
     2
  9
$MENU
  1
.
  9
$ELEVATION
 40
0.0
  9
$PELEVATION
 40
0.0
  9
$THICKNESS
 40
0.0
  9
$LIMCHECK
 70
     0
  9
$CHAMFERA
 40
0.0
  9
$CHAMFERB
 40
0.0
  9
$CHAMFERC
 40
0.0
  9
$CHAMFERD
 40
0.0
  9
$SKPOLY
 70
     0
  9
$TDCREATE
 40
2458316.467948136
  9
$TDUCREATE
 40
2458316.092948136
  9
$TDUPDATE
 40
2459720.395787766
  9
$TDUUPDATE
 40
2459720.020787766
  9
$TDINDWG
 40
0.0011354745
  9
$TDUSRTIMER
 40
0.0001353125
  9
$USRTIMER
 70
     1
  9
$ANGBASE
 50
0.0
  9
$ANGDIR
 70
     0
  9
$PDMODE
 70
     0
  9
$PDSIZE
 40
-1.0
  9
$PLINEWID
 40
0.0
  9
$SPLFRAME
 70
     0
  9
$SPLINETYPE
 70
     6
  9
$SPLINESEGS
 70
     8
  9
$HANDSEED
  5
2F2
  9
$SURFTAB1
 70
     6
  9
$SURFTAB2
 70
     6
  9
$SURFTYPE
 70
     6
  9
$SURFU
 70
     6
  9
$SURFV
 70
     6
  9
$UCSBASE
  2

  9
$UCSNAME
  2

  9
$UCSORG
 10
0.0
 20
0.0
 30
0.0
  9
$UCSXDIR
 10
1.0
 20
0.0
 30
0.0
  9
$UCSYDIR
 10
0.0
 20
1.0
 30
0.0
  9
$UCSORTHOREF
  2

  9
$UCSORTHOVIEW
 70
     0
  9
$UCSORGTOP
 10
0.0
 20
0.0
 30
0.0
  9
$UCSORGBOTTOM
 10
0.0
 20
0.0
 30
0.0
  9
$UCSORGLEFT
 10
0.0
 20
0.0
 30
0.0
  9
$UCSORGRIGHT
 10
0.0
 20
0.0
 30
0.0
  9
$UCSORGFRONT
 10
0.0
 20
0.0
 30
0.0
  9
$UCSORGBACK
 10
0.0
 20
0.0
 30
0.0
  9
$PUCSBASE
  2

  9
$PUCSNAME
  2

  9
$PUCSORG
 10
0.0
 20
0.0
 30
0.0
  9
$PUCSXDIR
 10
1.0
 20
0.0
 30
0.0
  9
$PUCSYDIR
 10
0.0
 20
1.0
 30
0.0
  9
$PUCSORTHOREF
  2

  9
$PUCSORTHOVIEW
 70
     0
  9
$PUCSORGTOP
 10
0.0
 20
0.0
 30
0.0
  9
$PUCSORGBOTTOM
 10
0.0
 20
0.0
 30
0.0
  9
$PUCSORGLEFT
 10
0.0
 20
0.0
 30
0.0
  9
$PUCSORGRIGHT
 10
0.0
 20
0.0
 30
0.0
  9
$PUCSORGFRONT
 10
0.0
 20
0.0
 30
0.0
  9
$PUCSORGBACK
 10
0.0
 20
0.0
 30
0.0
  9
$USERI1
 70
     0
  9
$USERI2
 70
     0
  9
$USERI3
 70
     0
  9
$USERI4
 70
     0
  9
$USERI5
 70
     0
  9
$USERR1
 40
0.0
  9
$USERR2
 40
0.0
  9
$USERR3
 40
0.0
  9
$USERR4
 40
0.0
  9
$USERR5
 40
0.0
  9
$WORLDVIEW
 70
     1
  9
$SHADEDGE
 70
     3
  9
$SHADEDIF
 70
    70
  9
$TILEMODE
 70
     1
  9
$MAXACTVP
 70
    64
  9
$PINSBASE
 10
0.0
 20
0.0
 30
0.0
  9
$PLIMCHECK
 70
     0
  9
$PEXTMIN
 10
1.000000000000000E+20
 20
1.000000000000000E+20
 30
1.000000000000000E+20
  9
$PEXTMAX
 10
-1.000000000000000E+20
 20
-1.000000000000000E+20
 30
-1.000000000000000E+20
  9
$PLIMMIN
 10
0.0
 20
0.0
  9
$PLIMMAX
 10
0.0
 20
0.0
  9
$UNITMODE
 70
     0
  9
$VISRETAIN
 70
     1
  9
$PLINEGEN
 70
     0
  9
$PSLTSCALE
 70
     1
  9
$TREEDEPTH
 70
  3020
  9
$CMLSTYLE
  2
Standard
  9
$CMLJUST
 70
     0
  9
$CMLSCALE
 40
20.0
  9
$PROXYGRAPHICS
 70
     1
  9
$MEASUREMENT
 70
     1
  9
$CELWEIGHT
370
    -1
  9
$ENDCAPS
280
     0
  9
$JOINSTYLE
280
     0
  9
$LWDISPLAY
290
     1
  9
$INSUNITS
 70
     4
  9
$HYPERLINKBASE
  1

  9
$STYLESHEET
  1

  9
$XEDIT
290
     1
  9
$CEPSNTYPE
380
     0
  9
$PSTYLEMODE
290
     1
  9
$FINGERPRINTGUID
  2
{3D8C4421-9B2E-477E-BDF6-15281AD80F4D}
  9
$VERSIONGUID
  2
{FAEB1C32-E019-11D5-929B-00C0DF256EC4}
  9
$EXTNAMES
290
     1
  9
$PSVPSCALE
 40
0.0
  9
$OLESTARTUP
290
     0
  0
ENDSEC
  0
SECTION
  2
CLASSES
  0
CLASS
  1
ACDBDICTIONARYWDFLT
  2
AcDbDictionaryWithDefault
  3
ObjectDBX Classes
 90
        0
280
     0
281
     0
  0
CLASS
  1
VISUALSTYLE
  2
AcDbVisualStyle
  3
ObjectDBX Classes
 90
     4095
280
     0
281
     0
  0
CLASS
  1
MATERIAL
  2
AcDbMaterial
  3
ObjectDBX Classes
 90
     1153
280
     0
281
     0
  0
CLASS
  1
SCALE
  2
AcDbScale
  3
ObjectDBX Classes
 90
     1153
280
     0
281
     0
  0
CLASS
  1
SUN
  2
AcDbSun
  3
SCENEOE
 90
     1153
280
     0
281
     0
  0
CLASS
  1
ACDBPLACEHOLDER
  2
AcDbPlaceHolder
  3
ObjectDBX Classes
 90
        0
280
     0
281
     0
  0
CLASS
  1
LAYOUT
  2
AcDbLayout
  3
ObjectDBX Classes
 90
        0
280
     0
281
     0
  0
CLASS
  1
TABLESTYLE
  2
AcDbTableStyle
  3
ObjectDBX Classes
 90
     4095
280
     0
281
     0
  0
CLASS
  1
MLEADERSTYLE
  2
AcDbMLeaderStyle
  3
ACDB_MLEADERSTYLE_CLASS
 90
     4095
280
     0
281
     0
  0
CLASS
  1
RASTERVARIABLES
  2
AcDbRasterVariables
  3
ISM
 90
        0
280
     0
281
     0
  0
ENDSEC
  0
SECTION
  2
TABLES
  0
TABLE
  2
VPORT
  5
8
330
0
100
AcDbSymbolTable
 70
     1
  0
VPORT
  5
29
330
8
100
AcDbSymbolTableRecord
100
AcDbViewportTableRecord
  2
*Active
 70
     0
 10
0.0
 20
0.0
 11
1.0
 21
1.0
 12
-5.384670424596806
 22
7.488089565210814
 13
0.0
 23
0.0
 14
10.0
 24
10.0
 15
10.0
 25
10.0
 16
0.0
 26
0.0
 36
1.0
 17
0.0
 27
0.0
 37
0.0
 40
115.6160060175457
 41
1.519944979367263
 42
50.0
 43
0.0
 44
0.0
 50
0.0
 51
0.0
 71
    16
 72
  2000
 73
     1
 74
     3
 75
     0
 76
     0
 77
     0
 78
     0
281
     0
 65
     1
110
0.0
120
0.0
130
0.0
111
1.0
121
0.0
131
0.0
112
0.0
122
1.0
132
0.0
 79
     0
146
0.0
  0
ENDTAB
  0
TABLE
  2
LTYPE
  5
5
330
0
100
AcDbSymbolTable
 70
     6
  0
LTYPE
  5
14
330
5
100
AcDbSymbolTableRecord
100
AcDbLinetypeTableRecord
  2
ByBlock
 70
     0
  3

 72
    65
 73
     0
 40
0.0
  0
LTYPE
  5
15
330
5
100
AcDbSymbolTableRecord
100
AcDbLinetypeTableRecord
  2
ByLayer
 70
     0
  3

 72
    65
 73
     0
 40
0.0
  0
LTYPE
  5
16
330
5
100
AcDbSymbolTableRecord
100
AcDbLinetypeTableRecord
  2
Continuous
 70
     0
  3
Solid line
 72
    65
 73
     0
 40
0.0
  0
LTYPE
  5
6A
330
5
100
AcDbSymbolTableRecord
100
AcDbLinetypeTableRecord
  2
HIDDEN
 70
     0
  3
Hidden __ __ __ __ __ __ __ __ __ __ __ __ __ __
 72
    65
 73
     2
 40
1.905
 49
1.27
 74
     0
 49
-0.635
 74
     0
  0
LTYPE
  5
6B
330
5
100
AcDbSymbolTableRecord
100
AcDbLinetypeTableRecord
  2
PHANTOM
 70
     0
  3
Phantom ______  __  __  ______  __  __  ______
 72
    65
 73
     6
 40
12.7
 49
6.35
 74
     0
 49
-1.27
 74
     0
 49
1.27
 74
     0
 49
-1.27
 74
     0
 49
1.27
 74
     0
 49
-1.27
 74
     0
  0
LTYPE
  5
6C
330
5
100
AcDbSymbolTableRecord
100
AcDbLinetypeTableRecord
  2
CENTER
 70
     0
  3
Center ____ _ ____ _ ____ _ ____ _ ____ _ ____
 72
    65
 73
     4
 40
10.16
 49
6.35
 74
     0
 49
-1.27
 74
     0
 49
1.27
 74
     0
 49
-1.27
 74
     0
  0
LTYPE
  5
6D
330
5
100
AcDbSymbolTableRecord
100
AcDbLinetypeTableRecord
  2
CENTERX2
 70
     0
  3
Center (2x) ________  __  ________  __  _____
 72
    65
 73
     4
 40
20.32
 49
12.7
 74
     0
 49
-2.54
 74
     0
 49
2.54
 74
     0
 49
-2.54
 74
     0
  0
LTYPE
  5
6E
330
5
100
AcDbSymbolTableRecord
100
AcDbLinetypeTableRecord
  2
DOT2
 70
     0
  3
Dot (.5x) ........................................
 72
    65
 73
     2
 40
0.635
 49
0.0
 74
     0
 49
-0.635
 74
     0
  0
ENDTAB
  0
TABLE
  2
LAYER
  5
2
102
{ACAD_XDICTIONARY
360
217
102
}
330
0
100
AcDbSymbolTable
 70
    18
  0
LAYER
  5
10
330
2
100
AcDbSymbolTableRecord
100
AcDbLayerTableRecord
  2
0
 70
     0
 62
     7
  6
Continuous
370
    -3
390
F
  0
LAYER
  5
6F
330
2
100
AcDbSymbolTableRecord
100
AcDbLayerTableRecord
  2
FORMAT
 70
     0
 62
     2
  6
Continuous
370
    -3
390
F
  0
LAYER
  5
70
330
2
100
AcDbSymbolTableRecord
100
AcDbLayerTableRecord
  2
외형선
 70
     0
 62
     4
  6
Continuous
370
    30
390
F
  0
LAYER
  5
71
330
2
100
AcDbSymbolTableRecord
100
AcDbLayerTableRecord
  2
숨은선
 70
     0
 62
     2
  6
HIDDEN
370
    15
390
F
  0
LAYER
  5
72
330
2
100
AcDbSymbolTableRecord
100
AcDbLayerTableRecord
  2
중심선
 70
     0
 62
     1
  6
CENTERX2
370
    -3
390
F
  0
LAYER
  5
73
330
2
100
AcDbSymbolTableRecord
100
AcDbLayerTableRecord
  2
파단선
 70
     0
 62
     4
  6
Continuous
370
    -3
390
F
  0
LAYER
  5
74
330
2
100
AcDbSymbolTableRecord
100
AcDbLayerTableRecord
  2
해칭선
 70
     0
 62
   100
  6
Continuous
370
    -3
390
F
  0
LAYER
  5
75
330
2
100
AcDbSymbolTableRecord
100
AcDbLayerTableRecord
  2
가는실선
 70
     0
 62
     4
  6
Continuous
370
    -3
390
F
  0
LAYER
  5
76
330
2
100
AcDbSymbolTableRecord
100
AcDbLayerTableRecord
  2
치수_보조선
 70
     0
 62
     4
  6
Continuous
370
    -3
390
F
  0
LAYER
  5
77
330
2
100
AcDbSymbolTableRecord
100
AcDbLayerTableRecord
  2
치수문자_일반주서
 70
     0
 62
     7
  6
Continuous
370
    15
390
F
  0
LAYER
  5
78
330
2
100
AcDbSymbolTableRecord
100
AcDbLayerTableRecord
  2
개별주서
 70
     0
 62
   100
  6
Continuous
370
    30
390
F
  0
LAYER
  5
79
330
2
100
AcDbSymbolTableRecord
100
AcDbLayerTableRecord
  2
중간선
 70
     0
 62
     2
  6
Continuous
370
    15
390
F
  0
LAYER
  5
7A
330
2
100
AcDbSymbolTableRecord
100
AcDbLayerTableRecord
  2
윤곽선
 70
     0
 62
     3
  6
Continuous
370
    40
390
F
  0
LAYER
  5
7B
330
2
100
AcDbSymbolTableRecord
100
AcDbLayerTableRecord
  2
중심마크
 70
     0
 62
   100
  6
Continuous
370
    30
390
F
  0
LAYER
  5
7C
330
2
100
AcDbSymbolTableRecord
100
AcDbLayerTableRecord
  2
가상선
 70
     0
 62
     4
  6
PHANTOM
370
    -3
390
F
  0
LAYER
  5
7D
330
2
100
AcDbSymbolTableRecord
100
AcDbLayerTableRecord
  2
특수지정선
 70
     0
 62
     5
  6
CENTERX2
370
    60
390
F
  0
LAYER
  5
7E
330
2
100
AcDbSymbolTableRecord
100
AcDbLayerTableRecord
  2
참조1
 70
     0
 62
    -4
  6
Continuous
370
    -3
390
F
  0
LAYER
  5
15F
330
2
100
AcDbSymbolTableRecord
100
AcDbLayerTableRecord
  2
Defpoints
 70
     0
 62
     7
  6
Continuous
290
     0
370
    -3
390
F
  0
ENDTAB
  0
TABLE
  2
STYLE
  5
3
330
0
100
AcDbSymbolTable
 70
     2
  0
STYLE
  5
11
330
3
100
AcDbSymbolTableRecord
100
AcDbTextStyleTableRecord
  2
Standard
 70
     0
 40
0.0
 41
1.0
 50
0.0
 71
     0
 42
3.5
  3
txt
  4

  0
STYLE
  5
94
330
3
100
AcDbSymbolTableRecord
100
AcDbTextStyleTableRecord
  2
SLDTEXTSTYLE0
 70
     0
 40
0.0
 41
0.75
 50
0.0
 71
     0
 42
3.5
  3
TXT
  4

  0
ENDTAB
  0
TABLE
  2
VIEW
  5
6
330
0
100
AcDbSymbolTable
 70
     0
  0
ENDTAB
  0
TABLE
  2
UCS
  5
7
330
0
100
AcDbSymbolTable
 70
     0
  0
ENDTAB
  0
TABLE
  2
APPID
  5
9
330
0
100
AcDbSymbolTable
 70
     3
  0
APPID
  5
12
330
9
100
AcDbSymbolTableRecord
100
AcDbRegAppTableRecord
  2
ACAD
 70
     0
  0
APPID
  5
16B
330
9
100
AcDbSymbolTableRecord
100
AcDbRegAppTableRecord
  2
PE_URL
 70
     0
  0
APPID
  5
16C
330
9
100
AcDbSymbolTableRecord
100
AcDbRegAppTableRecord
  2
ACAD_DSTYLE_DIMRADIAL_EXTENSION
 70
     0
  0
ENDTAB
  0
TABLE
  2
DIMSTYLE
  5
A
330
0
100
AcDbSymbolTable
 70
     4
100
AcDbDimStyleTable
  0
DIMSTYLE
105
27
330
A
100
AcDbSymbolTableRecord
100
AcDbDimStyleTableRecord
  2
ISO-25
 70
     0
 41
2.5
 42
0.625
 43
3.75
 44
1.25
 73
     0
 74
     0
 77
     1
 78
     8
140
2.5
141
2.5
143
0.03937007874016
147
0.625
171
     3
172
     1
178
     0
271
     2
272
     2
274
     3
278
    44
283
     0
284
     8
340
11
  0
DIMSTYLE
105
DC
102
{ACAD_REACTORS
330
DB
330
105
330
EF
330
118
102
}
330
A
100
AcDbSymbolTableRecord
100
AcDbDimStyleTableRecord
  2
SLDDIMSTYLE0
 70
     0
 41
3.302
 44
0.0
 45
0.000000001
 73
     0
 74
     0
 77
     1
 78
     4
 79
     1
140
3.5
143
0.0393700787401575
147
0.875
148
0.000000001
170
     1
173
     1
178
     0
271
     2
272
     2
276
     2
284
    12
340
94
  0
DIMSTYLE
105
F0
102
{ACAD_REACTORS
102
}
330
A
100
AcDbSymbolTableRecord
100
AcDbDimStyleTableRecord
  2
SLDDIMSTYLE1
 70
     0
 41
3.302
 44
0.0
 45
0.000000001
 73
     0
 74
     0
 77
     1
 78
     4
 79
     1
140
3.5
143
0.0393700787401575
147
0.875
148
0.000000001
170
     1
172
     1
173
     1
178
     0
271
     2
272
     2
276
     2
284
    12
289
     0
340
94
  0
DIMSTYLE
105
16A
102
{ACAD_REACTORS
102
}
330
A
100
AcDbSymbolTableRecord
100
AcDbDimStyleTableRecord
  2
SLDDIMSTYLE2
 70
     0
 41
3.302
 44
0.0
 45
0.000000001
 73
     0
 74
     0
 77
     1
 78
    12
 79
     3
140
3.5
147
0.875
172
     1
173
     1
178
     0
271
     2
272
     2
276
     2
284
    12
289
     0
340
94
  0
ENDTAB
  0
TABLE
  2
BLOCK_RECORD
  5
1
330
0
100
AcDbSymbolTable
 70
    17
  0
BLOCK_RECORD
  5
1F
102
{ACAD_XDICTIONARY
360
2EF
102
}
330
1
100
AcDbSymbolTableRecord
100
AcDbBlockTableRecord
  2
*Model_Space
340
22
  0
BLOCK_RECORD
  5
1B
330
1
100
AcDbSymbolTableRecord
100
AcDbBlockTableRecord
  2
*Paper_Space
340
1E
  0
BLOCK_RECORD
  5
23
330
1
100
AcDbSymbolTableRecord
100
AcDbBlockTableRecord
  2
*Paper_Space0
340
26
  0
BLOCK_RECORD
  5
7F
330
1
100
AcDbSymbolTableRecord
100
AcDbBlockTableRecord
  2
블럭10
340
0
102
{BLKREFS
331
D4
102
}
  0
BLOCK_RECORD
  5
DD
330
1
100
AcDbSymbolTableRecord
100
AcDbBlockTableRecord
  2
_D
340
0
  0
BLOCK_RECORD
  5
F1
330
1
100
AcDbSymbolTableRecord
100
AcDbBlockTableRecord
  2
_D_1
340
0
  0
BLOCK_RECORD
  5
106
330
1
100
AcDbSymbolTableRecord
100
AcDbBlockTableRecord
  2
_D_2
340
0
  0
BLOCK_RECORD
  5
119
330
1
100
AcDbSymbolTableRecord
100
AcDbBlockTableRecord
  2
_D_3
340
0
  0
BLOCK_RECORD
  5
133
330
1
100
AcDbSymbolTableRecord
100
AcDbBlockTableRecord
  2
SW_DOWELSYMBOL_0
340
0
102
{BLKREFS
331
139
102
}
  0
BLOCK_RECORD
  5
1F5
330
1
100
AcDbSymbolTableRecord
100
AcDbBlockTableRecord
  2
_D_4
340
0
  0
BLOCK_RECORD
  5
20F
330
1
100
AcDbSymbolTableRecord
100
AcDbBlockTableRecord
  2
*D8
340
0
  0
BLOCK_RECORD
  5
21B
330
1
100
AcDbSymbolTableRecord
100
AcDbBlockTableRecord
  2
*D9
340
0
  0
BLOCK_RECORD
  5
227
330
1
100
AcDbSymbolTableRecord
100
AcDbBlockTableRecord
  2
*D10
340
0
  0
BLOCK_RECORD
  5
233
330
1
100
AcDbSymbolTableRecord
100
AcDbBlockTableRecord
  2
*D11
340
0
  0
BLOCK_RECORD
  5
28D
330
1
100
AcDbSymbolTableRecord
100
AcDbBlockTableRecord
  2
*D12
340
0
  0
BLOCK_RECORD
  5
299
330
1
100
AcDbSymbolTableRecord
100
AcDbBlockTableRecord
  2
*D13
340
0
  0
BLOCK_RECORD
  5
2A5
330
1
100
AcDbSymbolTableRecord
100
AcDbBlockTableRecord
  2
*D14
340
0
  0
BLOCK_RECORD
  5
2B3
330
1
100
AcDbSymbolTableRecord
100
AcDbBlockTableRecord
  2
*D15
340
0
  0
BLOCK_RECORD
  5
2C1
330
1
100
AcDbSymbolTableRecord
100
AcDbBlockTableRecord
  2
*D16
340
0
  0
ENDTAB
  0
ENDSEC
  0
SECTION
  2
BLOCKS
  0
BLOCK
  5
20
330
1F
100
AcDbEntity
  8
0
100
AcDbBlockBegin
  2
*Model_Space
 70
     0
 10
0.0
 20
0.0
 30
0.0
  3
*Model_Space
  1
*Model_Space
  0
ENDBLK
  5
21
330
1F
100
AcDbEntity
  8
0
100
AcDbBlockEnd
  0
BLOCK
  5
1C
330
1B
100
AcDbEntity
 67
     1
  8
0
100
AcDbBlockBegin
  2
*Paper_Space
 70
     0
 10
0.0
 20
0.0
 30
0.0
  3
*Paper_Space
  1
*Paper_Space
  0
ENDBLK
  5
1D
330
1B
100
AcDbEntity
 67
     1
  8
0
100
AcDbBlockEnd
  0
BLOCK
  5
24
330
23
100
AcDbEntity
  8
0
100
AcDbBlockBegin
  2
*Paper_Space0
 70
     0
 10
0.0
 20
0.0
 30
0.0
  3
*Paper_Space0
  1
*Paper_Space0
  0
ENDBLK
  5
25
330
23
100
AcDbEntity
  8
0
100
AcDbBlockEnd
  0
BLOCK
  5
80
330
7F
100
AcDbEntity
  8
0
100
AcDbBlockBegin
  2
블럭10
 70
     2
 10
0.0
 20
0.0
 30
0.0
  3
블럭10
  1
블럭10
  0
ELLIPSE
  5
82
330
7F
100
AcDbEntity
  8
중심선
100
AcDbEllipse
 10
20.54032771741204
 20
12.0471743016438
 30
0.0
 11
6.600054785286829
 21
-1.261213355974178E-13
 31
0.0
210
0.0
220
0.0
230
1.0
 40
0.636358354079598
 41
0.9219305317359503
 42
6.513795318482858
  0
ELLIPSE
  5
83
330
7F
100
AcDbEntity
  8
중심선
100
AcDbEllipse
 10
20.54032771746488
 20
12.04717430159265
 30
0.0
 11
3.960054785062283
 21
1.540847449632565E-10
 31
0.0
210
0.0
220
0.0
230
1.0
 40
0.3939339440162632
 41
1.131841032648279
 42
5.62031148352944
  0
LINE
  5
84
330
7F
100
AcDbEntity
  8
중심선
100
AcDbLine
 10
2.268634060543552
 20
16.24717430164393
 30
0.0
 11
5.714909304380834
 21
16.24717430164393
 31
0.0
  0
LINE
  5
85
330
7F
100
AcDbEntity
  8
중심선
100
AcDbLine
 10
5.245725140726316
 20
7.84717430164391
 30
0.0
 11
8.692000384563599
 21
7.84717430164391
 31
0.0
  0
LINE
  5
86
330
7F
100
AcDbEntity
  8
중심선
100
AcDbLine
 10
15.74043728645272
 20
16.24717430164393
 30
0.0
 11
8.692000384563599
 21
7.84717430164391
 31
0.0
  0
LINE
  5
87
330
7F
100
AcDbEntity
  8
중심선
100
AcDbLine
 10
0.1404042013395286
 20
13.71084872107135
 30
0.0
 11
3.58671253028996
 21
13.71088815037384
 31
0.0
  0
LINE
  5
88
330
7F
100
AcDbEntity
  8
중심선
100
AcDbLine
 10
2.750260043222114
 20
10.84717430164391
 30
0.0
 11
6.196535287059397
 21
10.84717430164391
 31
0.0
  0
LINE
  5
89
330
7F
100
AcDbEntity
  8
중심선
100
AcDbLine
 10
12.29416204261559
 20
16.24717430164393
 30
0.0
 11
5.245725140726316
 21
7.84717430164391
 31
0.0
  0
LINE
  5
8A
330
7F
100
AcDbEntity
  8
중심선
100
AcDbLine
 10
10.72767329541681
 20
16.24717430164393
 30
0.0
 11
6.196535287059397
 21
10.84717430164391
 31
0.0
  0
LINE
  5
8B
330
7F
100
AcDbEntity
  8
중심선
100
AcDbLine
 10
7.28139805157953
 20
16.24717430164393
 30
0.0
 11
2.750260043222114
 21
10.84717430164391
 31
0.0
  0
LINE
  5
8C
330
7F
100
AcDbEntity
  8
중심선
100
AcDbLine
 10
5.714909304380834
 20
16.24717430164393
 30
0.0
 11
3.58671253028996
 21
13.71088815037384
 31
0.0
  0
LINE
  5
8D
330
7F
100
AcDbEntity
  8
중심선
100
AcDbLine
 10
2.268634060543552
 20
16.24717430164393
 30
0.0
 11
0.1404042013395286
 21
13.71084872107135
 31
0.0
  0
LINE
  5
8E
330
7F
100
AcDbEntity
  8
중심선
100
AcDbLine
 10
7.28139805157953
 20
16.24717430164393
 30
0.0
 11
10.72767329541681
 21
16.24717430164393
 31
0.0
  0
LINE
  5
8F
330
7F
100
AcDbEntity
  8
중심선
100
AcDbLine
 10
12.29416204261559
 20
16.24717430164393
 30
0.0
 11
15.74043728645272
 21
16.24717430164393
 31
0.0
  0
LINE
  5
90
330
7F
100
AcDbEntity
  8
중심선
100
AcDbLine
 10
19.22036997980202
 20
11.08717430171403
 30
0.0
 11
23.66174974927406
 21
11.08717430171406
 31
0.0
  0
LINE
  5
91
330
7F
100
AcDbEntity
  8
중심선
100
AcDbLine
 10
19.22039502424796
 20
13.00717430171391
 30
0.0
 11
19.22036997980202
 21
11.08717430171403
 31
0.0
  0
LINE
  5
92
330
7F
100
AcDbEntity
  8
중심선
100
AcDbLine
 10
19.22039502424796
 20
13.00717430171391
 30
0.0
 11
26.96566020931264
 21
13.00717430171391
 31
0.0
  0
LINE
  5
93
330
7F
100
AcDbEntity
  8
중심선
100
AcDbLine
 10
22.22332737316547
 20
13.45928029700563
 30
0.0
 11
24.52862924686651
 21
15.39360700705356
 31
0.0
  0
ATTDEF
  5
95
330
7F
100
AcDbEntity
  8
FORMAT
 62
     2
100
AcDbText
 10
4.408487351596664
 20
2.075366912832191
 30
0.0
 40
4.233333333333333
  1
E5058032
 41
0.75
  7
SLDTEXTSTYLE0
 11
4.408487351596664
 21
-0.0412997538344756
 31
0.0
100
AcDbAttributeDefinition
  3

  2
AUTOATTR0
 70
     0
 74
     1
  0
ENDBLK
  5
81
330
7F
100
AcDbEntity
  8
0
100
AcDbBlockEnd
  0
BLOCK
  5
DE
330
DD
100
AcDbEntity
  8
0
100
AcDbBlockBegin
  2
_D
 70
     0
 10
0.0
 20
0.0
 30
0.0
  3
_D
  1
_D
  0
LINE
  5
E0
330
DD
100
AcDbEntity
  8
치수문자_일반주서
 62
     0
370
    -2
100
AcDbLine
 10
35.46250000000094
 20
6.349999999999997
 30
0.0
 11
47.77069949711386
 21
6.350000000000044
 31
0.0
  0
LINE
  5
E1
330
DD
100
AcDbEntity
  8
치수문자_일반주서
 62
     0
370
    -2
100
AcDbLine
 10
35.46250000000094
 20
-6.350000000000006
 30
0.0
 11
47.7706994971139
 21
-6.349999999999959
 31
0.0
  0
LINE
  5
E2
330
DD
100
AcDbEntity
  8
치수문자_일반주서
 62
     0
370
    -2
100
AcDbLine
 10
47.77069949711386
 20
6.350000000000044
 30
0.0
 11
47.77069949711375
 21
38.87758004093322
 31
0.0
  0
LINE
  5
E3
330
DD
100
AcDbEntity
  8
치수문자_일반주서
 62
     0
370
    -2
100
AcDbLine
 10
47.77069949711387
 20
3.048000000000044
 30
0.0
 11
47.77069949711389
 21
-3.047999999999959
 31
0.0
  0
SOLID
  5
E4
330
DD
100
AcDbEntity
  8
치수문자_일반주서
 62
     0
100
AcDbTrace
 10
48.32103283044721
 20
3.048000000000046
 30
0.0
 11
47.22036616378054
 21
3.048000000000043
 31
0.0
 12
47.77069949711386
 22
6.350000000000044
 32
0.0
 13
47.77069949711386
 23
6.350000000000044
 33
0.0
  0
SOLID
  5
E5
330
DD
100
AcDbEntity
  8
치수문자_일반주서
 62
     0
100
AcDbTrace
 10
47.22036616378055
 20
-3.047999999999961
 30
0.0
 11
48.32103283044722
 21
-3.047999999999957
 31
0.0
 12
47.7706994971139
 22
-6.349999999999959
 32
0.0
 13
47.7706994971139
 23
-6.349999999999959
 33
0.0
  0
MTEXT
  5
E6
330
DD
100
AcDbEntity
  8
치수문자_일반주서
 62
     0
100
AcDbMText
 10
43.3956994971138
 20
25.53383004093321
 30
0.0
 40
3.5
 41
0.0
 71
     2
 72
     1
  1
\A1;%%c12.70 [1/2]
  7
SLDTEXTSTYLE0
 11
-3.356894814614646E-15
 21
1.0
 31
0.0
 73
     1
 44
1.0
  0
POINT
  5
E7
330
DD
100
AcDbEntity
  8
Defpoints
 62
     0
100
AcDbPoint
 10
35.40000000000094
 20
6.349999999999997
 30
0.0
  0
POINT
  5
E8
330
DD
100
AcDbEntity
  8
Defpoints
 62
     0
100
AcDbPoint
 10
35.40000000000094
 20
-6.350000000000006
 30
0.0
  0
POINT
  5
E9
330
DD
100
AcDbEntity
  8
Defpoints
 62
     0
100
AcDbPoint
 10
47.77069949711391
 20
-6.34999999999996
 30
0.0
  0
ENDBLK
  5
DF
330
DD
100
AcDbEntity
  8
0
100
AcDbBlockEnd
  0
BLOCK
  5
F2
330
F1
100
AcDbEntity
  8
0
100
AcDbBlockBegin
  2
_D_1
 70
     0
 10
0.0
 20
0.0
 30
0.0
  3
_D_1
  1
_D_1
  0
LINE
  5
F4
330
F1
100
AcDbEntity
  8
치수문자_일반주서
 62
     0
370
    -2
100
AcDbLine
 10
35.40000000000094
 20
6.366161198242543
 30
0.0
 11
35.40000000000094
 21
28.42574321972548
 31
0.0
  0
LINE
  5
F5
330
F1
100
AcDbEntity
  8
치수문자_일반주서
 62
     0
370
    -2
100
AcDbLine
 10
10.00000000000097
 20
6.397921721673914
 30
0.0
 11
10.00000000000097
 21
28.42574321972548
 31
0.0
  0
LINE
  5
F6
330
F1
100
AcDbEntity
  8
치수문자_일반주서
 62
     0
370
    -2
100
AcDbLine
 10
32.09800000000094
 20
28.42574321972548
 30
0.0
 11
13.30200000000097
 21
28.42574321972548
 31
0.0
  0
SOLID
  5
F7
330
F1
100
AcDbEntity
  8
치수문자_일반주서
 62
     0
100
AcDbTrace
 10
32.09800000000094
 20
27.87540988639214
 30
0.0
 11
32.09800000000094
 21
28.97607655305881
 31
0.0
 12
35.40000000000094
 22
28.42574321972548
 32
0.0
 13
35.40000000000094
 23
28.42574321972548
 33
0.0
  0
SOLID
  5
F8
330
F1
100
AcDbEntity
  8
치수문자_일반주서
 62
     0
100
AcDbTrace
 10
13.30200000000097
 20
28.97607655305881
 30
0.0
 11
13.30200000000097
 21
27.87540988639214
 31
0.0
 12
10.00000000000097
 22
28.42574321972548
 32
0.0
 13
10.00000000000097
 23
28.42574321972548
 33
0.0
  0
MTEXT
  5
F9
330
F1
100
AcDbEntity
  8
치수문자_일반주서
 62
     0
100
AcDbMText
 10
22.70000000000096
 20
32.80074321972548
 30
0.0
 40
3.5
 41
0.0
 71
     2
 72
     1
  1
\A1;25.40 [1]
  7
SLDTEXTSTYLE0
 73
     1
 44
1.0
  0
POINT
  5
FA
330
F1
100
AcDbEntity
  8
Defpoints
 62
     0
100
AcDbPoint
 10
35.40000000000094
 20
6.303661198242543
 30
0.0
  0
POINT
  5
FB
330
F1
100
AcDbEntity
  8
Defpoints
 62
     0
100
AcDbPoint
 10
10.00000000000097
 20
6.335421721673914
 30
0.0
  0
POINT
  5
FC
330
F1
100
AcDbEntity
  8
Defpoints
 62
     0
100
AcDbPoint
 10
10.00000000000097
 20
28.42574321972548
 30
0.0
  0
ENDBLK
  5
F3
330
F1
100
AcDbEntity
  8
0
100
AcDbBlockEnd
  0
BLOCK
  5
107
330
106
100
AcDbEntity
  8
0
100
AcDbBlockBegin
  2
_D_2
 70
     0
 10
0.0
 20
0.0
 30
0.0
  3
_D_2
  1
_D_2
  0
LINE
  5
109
330
106
100
AcDbEntity
  8
치수문자_일반주서
 62
     0
370
    -2
100
AcDbLine
 10
35.40000000000094
 20
6.366161198242543
 30
0.0
 11
35.40000000000094
 21
46.4257432197255
 31
0.0
  0
LINE
  5
10A
330
106
100
AcDbEntity
  8
치수문자_일반주서
 62
     0
370
    -2
100
AcDbLine
 10
-40.79999999999905
 20
5.1425
 30
0.0
 11
-40.79999999999905
 21
46.4257432197255
 31
0.0
  0
LINE
  5
10B
330
106
100
AcDbEntity
  8
치수문자_일반주서
 62
     0
370
    -2
100
AcDbLine
 10
32.09800000000094
 20
46.4257432197255
 30
0.0
 11
-37.49799999999905
 21
46.4257432197255
 31
0.0
  0
SOLID
  5
10C
330
106
100
AcDbEntity
  8
치수문자_일반주서
 62
     0
100
AcDbTrace
 10
32.09800000000094
 20
45.87540988639216
 30
0.0
 11
32.09800000000094
 21
46.97607655305883
 31
0.0
 12
35.40000000000094
 22
46.4257432197255
 32
0.0
 13
35.40000000000094
 23
46.4257432197255
 33
0.0
  0
SOLID
  5
10D
330
106
100
AcDbEntity
  8
치수문자_일반주서
 62
     0
100
AcDbTrace
 10
-37.49799999999905
 20
46.97607655305883
 30
0.0
 11
-37.49799999999905
 21
45.87540988639216
 31
0.0
 12
-40.79999999999905
 22
46.4257432197255
 32
0.0
 13
-40.79999999999905
 23
46.4257432197255
 33
0.0
  0
MTEXT
  5
10E
330
106
100
AcDbEntity
  8
치수문자_일반주서
 62
     0
100
AcDbMText
 10
-2.699999999999047
 20
50.8007432197255
 30
0.0
 40
3.5
 41
0.0
 71
     2
 72
     1
  1
\A1;76.20 [3]
  7
SLDTEXTSTYLE0
 73
     1
 44
1.0
  0
POINT
  5
10F
330
106
100
AcDbEntity
  8
Defpoints
 62
     0
100
AcDbPoint
 10
35.40000000000094
 20
6.303661198242543
 30
0.0
  0
POINT
  5
110
330
106
100
AcDbEntity
  8
Defpoints
 62
     0
100
AcDbPoint
 10
-40.79999999999905
 20
5.08
 30
0.0
  0
POINT
  5
111
330
106
100
AcDbEntity
  8
Defpoints
 62
     0
100
AcDbPoint
 10
-40.79999999999905
 20
46.4257432197255
 30
0.0
  0
ENDBLK
  5
108
330
106
100
AcDbEntity
  8
0
100
AcDbBlockEnd
  0
BLOCK
  5
11A
330
119
100
AcDbEntity
  8
0
100
AcDbBlockBegin
  2
_D_3
 70
     0
 10
0.0
 20
0.0
 30
0.0
  3
_D_3
  1
_D_3
  0
LINE
  5
11C
330
119
100
AcDbEntity
  8
치수문자_일반주서
 62
     0
370
    -2
100
AcDbLine
 10
-39.59249999999905
 20
6.34999999999999
 30
0.0
 11
-48.93131740100972
 21
6.349999999999955
 31
0.0
  0
LINE
  5
11D
330
119
100
AcDbEntity
  8
치수문자_일반주서
 62
     0
370
    -2
100
AcDbLine
 10
-39.59249999999905
 20
-6.349999999999999
 30
0.0
 11
-48.93131740100968
 21
-6.350000000000033
 31
0.0
  0
LINE
  5
11E
330
119
100
AcDbEntity
  8
치수문자_일반주서
 62
     0
370
    -2
100
AcDbLine
 10
-48.93131740100972
 20
6.349999999999955
 30
0.0
 11
-48.93131740100982
 21
36.77699999999996
 31
0.0
  0
LINE
  5
11F
330
119
100
AcDbEntity
  8
치수문자_일반주서
 62
     0
370
    -2
100
AcDbLine
 10
-48.93131740100971
 20
3.047999999999956
 30
0.0
 11
-48.93131740100969
 21
-3.048000000000034
 31
0.0
  0
SOLID
  5
120
330
119
100
AcDbEntity
  8
치수문자_일반주서
 62
     0
100
AcDbTrace
 10
-48.38098406767637
 20
3.047999999999957
 30
0.0
 11
-49.48165073434304
 21
3.047999999999954
 31
0.0
 12
-48.93131740100972
 22
6.349999999999955
 32
0.0
 13
-48.93131740100972
 23
6.349999999999955
 33
0.0
  0
SOLID
  5
121
330
119
100
AcDbEntity
  8
치수문자_일반주서
 62
     0
100
AcDbTrace
 10
-49.48165073434303
 20
-3.048000000000036
 30
0.0
 11
-48.38098406767636
 21
-3.048000000000032
 31
0.0
 12
-48.93131740100968
 22
-6.350000000000033
 32
0.0
 13
-48.93131740100968
 23
-6.350000000000033
 33
0.0
  0
MTEXT
  5
122
330
119
100
AcDbEntity
  8
치수문자_일반주서
 62
     0
100
AcDbMText
 10
-53.30631740100978
 20
23.43324999999994
 30
0.0
 40
3.5
 41
0.0
 71
     2
 72
     1
  1
\A1;%%c12.70 [1/2]
  7
SLDTEXTSTYLE0
 11
-3.356894814614650E-15
 21
1.0
 31
0.0
 73
     1
 44
1.0
  0
POINT
  5
123
330
119
100
AcDbEntity
  8
Defpoints
 62
     0
100
AcDbPoint
 10
-39.52999999999905
 20
6.34999999999999
 30
0.0
  0
POINT
  5
124
330
119
100
AcDbEntity
  8
Defpoints
 62
     0
100
AcDbPoint
 10
-39.52999999999905
 20
-6.349999999999999
 30
0.0
  0
POINT
  5
2CA
330
119
100
AcDbEntity
  8
Defpoints
 62
     0
100
AcDbPoint
 10
-48.93131740100968
 20
-6.350000000000034
 30
0.0
  0
ENDBLK
  5
11B
330
119
100
AcDbEntity
  8
0
100
AcDbBlockEnd
  0
BLOCK
  5
134
330
133
100
AcDbEntity
  8
0
100
AcDbBlockBegin
  2
SW_DOWELSYMBOL_0
 70
     0
 10
0.0
 20
0.0
 30
0.0
  3
SW_DOWELSYMBOL_0
  1
SW_DOWELSYMBOL_0
  0
CIRCLE
  5
136
330
133
100
AcDbEntity
  8
해칭선
 62
     0
100
AcDbCircle
 10
0.0
 20
0.0
 30
0.0
 40
3.0
  0
HATCH
  5
137
330
133
100
AcDbEntity
  8
0
  6
Continuous
 62
     0
370
     0
100
AcDbHatch
 10
0.0
 20
0.0
 30
0.0
210
0.0
220
0.0
230
1.0
  2
SOLID
 70
     1
 71
     0
 91
        1
 92
        0
 93
        3
 72
     2
 10
0.0
 20
0.0
 40
3.0
 50
0.0
 51
90.0
 73
     1
 72
     1
 10
0.0
 20
3.0
 11
0.0
 21
0.0
 72
     1
 10
0.0
 20
0.0
 11
3.000000000000001
 21
0.0
 97
        0
 75
     0
 76
     1
 98
        1
 10
0.0
 20
0.0
  0
HATCH
  5
138
330
133
100
AcDbEntity
  8
0
  6
Continuous
 62
     0
370
     0
100
AcDbHatch
 10
0.0
 20
0.0
 30
0.0
210
0.0
220
0.0
230
1.0
  2
SOLID
 70
     1
 71
     0
 91
        1
 92
        0
 93
        3
 72
     2
 10
0.0
 20
0.0
 40
3.0
 50
180.0
 51
270.0000000000007
 73
     1
 72
     1
 10
0.0
 20
-3.0
 11
0.0
 21
0.0
 72
     1
 10
0.0
 20
0.0
 11
-2.999999999999999
 21
0.0
 97
        0
 75
     0
 76
     1
 98
        1
 10
0.0
 20
0.0
  0
ENDBLK
  5
135
330
133
100
AcDbEntity
  8
0
100
AcDbBlockEnd
  0
BLOCK
  5
1F6
330
1F5
100
AcDbEntity
  8
0
100
AcDbBlockBegin
  2
_D_4
 70
     0
 10
0.0
 20
0.0
 30
0.0
  3
_D_4
  1
_D_4
  0
LINE
  5
1F7
330
1F5
100
AcDbEntity
  8
치수문자_일반주서
 62
     0
370
    -2
100
AcDbLine
 10
102.4375000000001
 20
36.22143424691529
 30
0.0
 11
117.3750000000001
 21
36.22143424691535
 31
0.0
  0
LINE
  5
1F8
330
1F5
100
AcDbEntity
  8
치수문자_일반주서
 62
     0
370
    -2
100
AcDbLine
 10
102.4375000000001
 20
22.22143424691529
 30
0.0
 11
117.3750000000001
 21
22.22143424691535
 31
0.0
  0
LINE
  5
1F9
330
1F5
100
AcDbEntity
  8
치수문자_일반주서
 62
     0
370
    -2
100
AcDbLine
 10
117.3750000000001
 20
36.22143424691535
 30
0.0
 11
117.3750000000001
 21
22.22143424691535
 31
0.0
  0
LINE
  5
1FA
330
1F5
100
AcDbEntity
  8
치수문자_일반주서
 62
     0
370
    -2
100
AcDbLine
 10
117.3750000000001
 20
39.52343424691535
 30
0.0
 11
117.375
 21
42.82543424691535
 31
0.0
  0
LINE
  5
1FB
330
1F5
100
AcDbEntity
  8
치수문자_일반주서
 62
     0
370
    -2
100
AcDbLine
 10
117.3750000000001
 20
18.91943424691535
 30
0.0
 11
117.3750000000001
 21
15.61743424691535
 31
0.0
  0
SOLID
  5
1FC
330
1F5
100
AcDbEntity
  8
치수문자_일반주서
 62
     0
100
AcDbTrace
 10
116.8246666666667
 20
39.52343424691535
 30
0.0
 11
117.9253333333334
 21
39.52343424691535
 31
0.0
 12
117.3750000000001
 22
36.22143424691535
 32
0.0
 13
117.3750000000001
 23
36.22143424691535
 33
0.0
  0
SOLID
  5
1FD
330
1F5
100
AcDbEntity
  8
치수문자_일반주서
 62
     0
100
AcDbTrace
 10
117.9253333333335
 20
18.91943424691535
 30
0.0
 11
116.8246666666668
 21
18.91943424691535
 31
0.0
 12
117.3750000000001
 22
22.22143424691535
 32
0.0
 13
117.3750000000001
 23
22.22143424691535
 33
0.0
  0
MTEXT
  5
1FE
330
1F5
100
AcDbEntity
  8
치수문자_일반주서
 62
     0
100
AcDbMText
 10
113.0000000000001
 20
29.28713862862833
 30
0.0
 40
3.5
 41
0.0
 71
     2
 72
     1
  1
\A1;%%c14
  7
SLDTEXTSTYLE0
 11
-3.045183153257572E-15
 21
1.0
 31
0.0
 73
     1
 44
1.0
  0
POINT
  5
1FF
330
1F5
100
AcDbEntity
  8
Defpoints
 62
     0
100
AcDbPoint
 10
102.3750000000001
 20
36.22143424691529
 30
0.0
  0
POINT
  5
200
330
1F5
100
AcDbEntity
  8
Defpoints
 62
     0
100
AcDbPoint
 10
102.3750000000001
 20
22.22143424691529
 30
0.0
  0
POINT
  5
201
330
1F5
100
AcDbEntity
  8
Defpoints
 62
     0
100
AcDbPoint
 10
117.3750000000001
 20
22.22143424691535
 30
0.0
  0
ENDBLK
  5
202
330
1F5
100
AcDbEntity
  8
0
100
AcDbBlockEnd
  0
BLOCK
  5
210
330
20F
100
AcDbEntity
  8
0
100
AcDbBlockBegin
  2
*D8
 70
     1
 10
0.0
 20
0.0
 30
0.0
  3
*D8
  1
*D8
  0
LINE
  5
211
330
20F
100
AcDbEntity
  8
치수문자_일반주서
 62
     0
370
    -2
100
AcDbLine
 10
103.8657751816695
 20
19.48229575403651
 30
0.0
 11
120.1921280501954
 21
-7.081888143622854
 31
0.0
  0
MTEXT
  5
212
330
20F
100
AcDbEntity
  8
치수문자_일반주서
 62
     0
100
AcDbMText
 10
115.6706384014277
 20
5.288158154535728
 30
0.0
 40
3.5
 41
0.0
 71
     5
 72
     1
  1
\A1;R.50 [R0.02]
  7
SLDTEXTSTYLE0
 11
0.5236126201129557
 21
-0.8519564684057781
 31
0.0
 73
     1
 44
1.0
  0
LINE
  5
213
330
20F
100
AcDbEntity
  8
치수문자_일반주서
 62
     0
370
    -2
100
AcDbLine
 10
101.875
 20
22.72143424691529
 30
0.0
 11
102.1368063100565
 21
22.29545601271239
 31
0.0
  0
SOLID
  5
214
330
20F
100
AcDbEntity
  8
치수문자_일반주서
 62
     0
100
AcDbTrace
 10
104.3346352247821
 20
19.77045723263868
 30
0.0
 11
103.3969151385569
 21
19.19413427543435
 31
0.0
 12
102.1368063100565
 22
22.29545601271239
 32
0.0
 13
102.1368063100565
 23
22.29545601271239
 33
0.0
  0
POINT
  5
215
330
20F
100
AcDbEntity
  8
Defpoints
 62
     0
100
AcDbPoint
 10
102.1368063100565
 20
22.29545601271239
 30
0.0
  0
POINT
  5
241
330
20F
100
AcDbEntity
  8
Defpoints
 62
     0
100
AcDbPoint
 10
101.875
 20
22.72143424691529
 30
0.0
  0
ENDBLK
  5
216
330
20F
100
AcDbEntity
  8
0
100
AcDbBlockEnd
  0
BLOCK
  5
21C
330
21B
100
AcDbEntity
  8
0
100
AcDbBlockBegin
  2
*D9
 70
     1
 10
0.0
 20
0.0
 30
0.0
  3
*D9
  1
*D10
  0
LINE
  5
21E
330
21B
100
AcDbEntity
  8
치수문자_일반주서
 62
     0
370
    -2
100
AcDbLine
 10
19.37500000000004
 20
35.78393424691529
 30
0.0
 11
19.37500000000004
 21
70.88391841499404
 31
0.0
  0
LINE
  5
21F
330
21B
100
AcDbEntity
  8
치수문자_일반주서
 62
     0
370
    -2
100
AcDbLine
 10
102.3750000000001
 20
36.34643424691529
 30
0.0
 11
102.3750000000001
 21
70.88391841499404
 31
0.0
  0
LINE
  5
220
330
21B
100
AcDbEntity
  8
치수문자_일반주서
 62
     0
370
    -2
100
AcDbLine
 10
22.67700000000004
 20
70.88391841499404
 30
0.0
 11
99.07300000000006
 21
70.88391841499404
 31
0.0
  0
SOLID
  5
221
330
21B
100
AcDbEntity
  8
치수문자_일반주서
 62
     0
100
AcDbTrace
 10
22.67700000000004
 20
71.43425174832737
 30
0.0
 11
22.67700000000004
 21
70.33358508166071
 31
0.0
 12
19.37500000000004
 22
70.88391841499404
 32
0.0
 13
19.37500000000004
 23
70.88391841499404
 33
0.0
  0
SOLID
  5
222
330
21B
100
AcDbEntity
  8
치수문자_일반주서
 62
     0
100
AcDbTrace
 10
99.07300000000006
 20
70.33358508166071
 30
0.0
 11
99.07300000000006
 21
71.43425174832737
 31
0.0
 12
102.3750000000001
 22
70.88391841499404
 32
0.0
 13
102.3750000000001
 23
70.88391841499404
 33
0.0
  0
MTEXT
  5
223
330
21B
100
AcDbEntity
  8
치수문자_일반주서
 62
     0
100
AcDbMText
 10
60.87500000000005
 20
75.25891841499404
 30
0.0
 40
3.5
 41
0.0
 71
     2
 72
     1
  1
\A1;83.00 [3.27]
  7
SLDTEXTSTYLE0
 73
     1
 44
1.0
  0
POINT
  5
224
330
21B
100
AcDbEntity
  8
Defpoints
 62
     0
100
AcDbPoint
 10
19.37500000000004
 20
35.72143424691529
 30
0.0
  0
POINT
  5
225
330
21B
100
AcDbEntity
  8
Defpoints
 62
     0
100
AcDbPoint
 10
102.3750000000001
 20
36.28393424691529
 30
0.0
  0
POINT
  5
226
330
21B
100
AcDbEntity
  8
Defpoints
 62
     0
100
AcDbPoint
 10
102.3750000000001
 20
70.88391841499404
 30
0.0
  0
ENDBLK
  5
21D
330
21B
100
AcDbEntity
  8
0
100
AcDbBlockEnd
  0
BLOCK
  5
228
330
227
100
AcDbEntity
  8
0
100
AcDbBlockBegin
  2
*D10
 70
     1
 10
0.0
 20
0.0
 30
0.0
  3
*D10
  1
*D11
  0
LINE
  5
22A
330
227
100
AcDbEntity
  8
치수문자_일반주서
 62
     0
370
    -2
100
AcDbLine
 10
76.37504186422882
 20
28.62038676313042
 30
0.0
 11
76.37504186422882
 21
61.90091383617725
 31
0.0
  0
LINE
  5
22B
330
227
100
AcDbEntity
  8
치수문자_일반주서
 62
     0
370
    -2
100
AcDbLine
 10
102.3750000000001
 20
36.28393424691529
 30
0.0
 11
102.3750000000001
 21
61.90091383617725
 31
0.0
  0
LINE
  5
22C
330
227
100
AcDbEntity
  8
치수문자_일반주서
 62
     0
370
    -2
100
AcDbLine
 10
79.67704186422881
 20
61.90091383617725
 30
0.0
 11
99.07300000000006
 21
61.90091383617725
 31
0.0
  0
SOLID
  5
22D
330
227
100
AcDbEntity
  8
치수문자_일반주서
 62
     0
100
AcDbTrace
 10
79.67704186422881
 20
62.45124716951059
 30
0.0
 11
79.67704186422881
 21
61.35058050284392
 31
0.0
 12
76.37504186422882
 22
61.90091383617725
 32
0.0
 13
76.37504186422882
 23
61.90091383617725
 33
0.0
  0
SOLID
  5
22E
330
227
100
AcDbEntity
  8
치수문자_일반주서
 62
     0
100
AcDbTrace
 10
99.07300000000006
 20
61.35058050284392
 30
0.0
 11
99.07300000000006
 21
62.45124716951059
 31
0.0
 12
102.3750000000001
 22
61.90091383617725
 32
0.0
 13
102.3750000000001
 23
61.90091383617725
 33
0.0
  0
MTEXT
  5
22F
330
227
100
AcDbEntity
  8
치수문자_일반주서
 62
     0
100
AcDbMText
 10
89.42159572693208
 20
66.27591383617725
 30
0.0
 40
3.5
 41
0.0
 71
     2
 72
     1
  1
\A1;26.00 [1.02]
  7
SLDTEXTSTYLE0
 73
     1
 44
1.0
  0
POINT
  5
230
330
227
100
AcDbEntity
  8
Defpoints
 62
     0
100
AcDbPoint
 10
76.37504186422882
 20
28.55788676313042
 30
0.0
  0
POINT
  5
231
330
227
100
AcDbEntity
  8
Defpoints
 62
     0
100
AcDbPoint
 10
102.3750000000001
 20
36.22143424691529
 30
0.0
  0
POINT
  5
232
330
227
100
AcDbEntity
  8
Defpoints
 62
     0
100
AcDbPoint
 10
102.3750000000001
 20
61.90091383617725
 30
0.0
  0
ENDBLK
  5
229
330
227
100
AcDbEntity
  8
0
100
AcDbBlockEnd
  0
BLOCK
  5
234
330
233
100
AcDbEntity
  8
0
100
AcDbBlockBegin
  2
*D11
 70
     1
 10
0.0
 20
0.0
 30
0.0
  3
*D11
  1
*D12
  0
LINE
  5
236
330
233
100
AcDbEntity
  8
치수문자_일반주서
 62
     0
370
    -2
100
AcDbLine
 10
19.81250000000005
 20
36.22143424691529
 30
0.0
 11
4.374999999999983
 21
36.22143424691524
 31
0.0
  0
LINE
  5
237
330
233
100
AcDbEntity
  8
치수문자_일반주서
 62
     0
370
    -2
100
AcDbLine
 10
19.81250000000005
 20
22.22143424691529
 30
0.0
 11
4.375000000000032
 21
22.22143424691524
 31
0.0
  0
LINE
  5
238
330
233
100
AcDbEntity
  8
치수문자_일반주서
 62
     0
370
    -2
100
AcDbLine
 10
4.374999999999983
 20
36.22143424691524
 30
0.0
 11
4.375000000000032
 21
22.22143424691524
 31
0.0
  0
LINE
  5
239
330
233
100
AcDbEntity
  8
치수문자_일반주서
 62
     0
370
    -2
100
AcDbLine
 10
4.374999999999972
 20
39.52343424691524
 30
0.0
 11
4.37499999999996
 21
42.82543424691524
 31
0.0
  0
LINE
  5
23A
330
233
100
AcDbEntity
  8
치수문자_일반주서
 62
     0
370
    -2
100
AcDbLine
 10
4.375000000000044
 20
18.91943424691524
 30
0.0
 11
4.375000000000055
 21
15.61743424691524
 31
0.0
  0
SOLID
  5
23B
330
233
100
AcDbEntity
  8
치수문자_일반주서
 62
     0
100
AcDbTrace
 10
3.824666666666638
 20
39.52343424691524
 30
0.0
 11
4.925333333333305
 21
39.52343424691524
 31
0.0
 12
4.374999999999983
 22
36.22143424691524
 32
0.0
 13
4.374999999999983
 23
36.22143424691524
 33
0.0
  0
SOLID
  5
23C
330
233
100
AcDbEntity
  8
치수문자_일반주서
 62
     0
100
AcDbTrace
 10
4.925333333333377
 20
18.91943424691524
 30
0.0
 11
3.82466666666671
 21
18.91943424691523
 31
0.0
 12
4.375000000000032
 22
22.22143424691524
 32
0.0
 13
4.375000000000032
 23
22.22143424691524
 33
0.0
  0
MTEXT
  5
23D
330
233
100
AcDbEntity
  8
치수문자_일반주서
 62
     0
100
AcDbMText
 10
0.0000000000000071
 20
29.22143424691528
 30
0.0
 40
3.5
 41
0.0
 71
     2
 72
     1
  1
\A1;%%c14
  7
SLDTEXTSTYLE0
 11
-3.489272363107635E-15
 21
1.0
 31
0.0
 73
     1
 44
1.0
  0
POINT
  5
23E
330
233
100
AcDbEntity
  8
Defpoints
 62
     0
100
AcDbPoint
 10
19.87500000000005
 20
36.22143424691529
 30
0.0
  0
POINT
  5
23F
330
233
100
AcDbEntity
  8
Defpoints
 62
     0
100
AcDbPoint
 10
19.87500000000005
 20
22.22143424691529
 30
0.0
  0
POINT
  5
240
330
233
100
AcDbEntity
  8
Defpoints
 62
     0
100
AcDbPoint
 10
4.375000000000043
 20
22.22143424691524
 30
0.0
  0
ENDBLK
  5
235
330
233
100
AcDbEntity
  8
0
100
AcDbBlockEnd
  0
BLOCK
  5
28E
330
28D
100
AcDbEntity
  8
0
100
AcDbBlockBegin
  2
*D12
 70
     1
 10
0.0
 20
0.0
 30
0.0
  3
*D12
  1
*D13
  0
LINE
  5
290
330
28D
100
AcDbEntity
  8
치수문자_일반주서
 62
     0
370
    -2
100
AcDbLine
 10
-45.32321944542888
 20
102.5046919176143
 30
0.0
 11
-45.32321944542888
 21
137.604676085693
 31
0.0
  0
LINE
  5
291
330
28D
100
AcDbEntity
  8
치수문자_일반주서
 62
     0
370
    -2
100
AcDbLine
 10
37.67678055457114
 20
103.0671919176143
 30
0.0
 11
37.67678055457114
 21
137.604676085693
 31
0.0
  0
LINE
  5
292
330
28D
100
AcDbEntity
  8
치수문자_일반주서
 62
     0
370
    -2
100
AcDbLine
 10
-42.02121944542888
 20
137.604676085693
 30
0.0
 11
34.37478055457114
 21
137.604676085693
 31
0.0
  0
SOLID
  5
293
330
28D
100
AcDbEntity
  8
치수문자_일반주서
 62
     0
100
AcDbTrace
 10
-42.02121944542888
 20
138.1550094190263
 30
0.0
 11
-42.02121944542888
 21
137.0543427523597
 31
0.0
 12
-45.32321944542888
 22
137.604676085693
 32
0.0
 13
-45.32321944542888
 23
137.604676085693
 33
0.0
  0
SOLID
  5
294
330
28D
100
AcDbEntity
  8
치수문자_일반주서
 62
     0
100
AcDbTrace
 10
34.37478055457114
 20
137.0543427523597
 30
0.0
 11
34.37478055457114
 21
138.1550094190263
 31
0.0
 12
37.67678055457114
 22
137.604676085693
 32
0.0
 13
37.67678055457114
 23
137.604676085693
 33
0.0
  0
MTEXT
  5
295
330
28D
100
AcDbEntity
  8
치수문자_일반주서
 62
     0
100
AcDbMText
 10
-3.823219445428869
 20
141.979676085693
 30
0.0
 40
3.5
 41
0.0
 71
     2
 72
     1
  1
\A1;83.00 [3.27]
  7
SLDTEXTSTYLE0
 73
     1
 44
1.0
  0
POINT
  5
296
330
28D
100
AcDbEntity
  8
Defpoints
 62
     0
100
AcDbPoint
 10
-45.32321944542888
 20
102.4421919176143
 30
0.0
  0
POINT
  5
297
330
28D
100
AcDbEntity
  8
Defpoints
 62
     0
100
AcDbPoint
 10
37.67678055457114
 20
103.0046919176143
 30
0.0
  0
POINT
  5
298
330
28D
100
AcDbEntity
  8
Defpoints
 62
     0
100
AcDbPoint
 10
37.67678055457114
 20
137.604676085693
 30
0.0
  0
ENDBLK
  5
28F
330
28D
100
AcDbEntity
  8
0
100
AcDbBlockEnd
  0
BLOCK
  5
29A
330
299
100
AcDbEntity
  8
0
100
AcDbBlockBegin
  2
*D13
 70
     1
 10
0.0
 20
0.0
 30
0.0
  3
*D13
  1
*D14
  0
LINE
  5
29C
330
299
100
AcDbEntity
  8
치수문자_일반주서
 62
     0
370
    -2
100
AcDbLine
 10
11.6768224187999
 20
95.34114443382938
 30
0.0
 11
11.6768224187999
 21
128.6216715068762
 31
0.0
  0
LINE
  5
29D
330
299
100
AcDbEntity
  8
치수문자_일반주서
 62
     0
370
    -2
100
AcDbLine
 10
37.67678055457114
 20
103.0046919176143
 30
0.0
 11
37.67678055457114
 21
128.6216715068762
 31
0.0
  0
LINE
  5
29E
330
299
100
AcDbEntity
  8
치수문자_일반주서
 62
     0
370
    -2
100
AcDbLine
 10
14.9788224187999
 20
128.6216715068762
 30
0.0
 11
34.37478055457114
 21
128.6216715068762
 31
0.0
  0
SOLID
  5
29F
330
299
100
AcDbEntity
  8
치수문자_일반주서
 62
     0
100
AcDbTrace
 10
14.9788224187999
 20
129.1720048402096
 30
0.0
 11
14.9788224187999
 21
128.0713381735429
 31
0.0
 12
11.6768224187999
 22
128.6216715068762
 32
0.0
 13
11.6768224187999
 23
128.6216715068762
 33
0.0
  0
SOLID
  5
2A0
330
299
100
AcDbEntity
  8
치수문자_일반주서
 62
     0
100
AcDbTrace
 10
34.37478055457114
 20
128.0713381735429
 30
0.0
 11
34.37478055457114
 21
129.1720048402096
 31
0.0
 12
37.67678055457114
 22
128.6216715068762
 32
0.0
 13
37.67678055457114
 23
128.6216715068762
 33
0.0
  0
MTEXT
  5
2A1
330
299
100
AcDbEntity
  8
치수문자_일반주서
 62
     0
100
AcDbMText
 10
24.72337628150316
 20
132.9966715068762
 30
0.0
 40
3.5
 41
0.0
 71
     2
 72
     1
  1
\A1;26.00 [1.02]
  7
SLDTEXTSTYLE0
 73
     1
 44
1.0
  0
POINT
  5
2A2
330
299
100
AcDbEntity
  8
Defpoints
 62
     0
100
AcDbPoint
 10
11.6768224187999
 20
95.27864443382938
 30
0.0
  0
POINT
  5
2A3
330
299
100
AcDbEntity
  8
Defpoints
 62
     0
100
AcDbPoint
 10
37.67678055457114
 20
102.9421919176143
 30
0.0
  0
POINT
  5
2A4
330
299
100
AcDbEntity
  8
Defpoints
 62
     0
100
AcDbPoint
 10
37.67678055457114
 20
128.6216715068762
 30
0.0
  0
ENDBLK
  5
29B
330
299
100
AcDbEntity
  8
0
100
AcDbBlockEnd
  0
BLOCK
  5
2A6
330
2A5
100
AcDbEntity
  8
0
100
AcDbBlockBegin
  2
*D14
 70
     1
 10
0.0
 20
0.0
 30
0.0
  3
*D14
  1
*D15
  0
LINE
  5
2A8
330
2A5
100
AcDbEntity
  8
치수문자_일반주서
 62
     0
370
    -2
100
AcDbLine
 10
-44.88571944542887
 20
102.9421919176143
 30
0.0
 11
-60.32321944542893
 21
102.9421919176142
 31
0.0
  0
LINE
  5
2A9
330
2A5
100
AcDbEntity
  8
치수문자_일반주서
 62
     0
370
    -2
100
AcDbLine
 10
-44.88571944542887
 20
88.94219191761425
 30
0.0
 11
-60.32321944542888
 21
88.9421919176142
 31
0.0
  0
LINE
  5
2AA
330
2A5
100
AcDbEntity
  8
치수문자_일반주서
 62
     0
370
    -2
100
AcDbLine
 10
-60.32321944542893
 20
102.9421919176142
 30
0.0
 11
-60.32321944542888
 21
88.9421919176142
 31
0.0
  0
LINE
  5
2AB
330
2A5
100
AcDbEntity
  8
치수문자_일반주서
 62
     0
370
    -2
100
AcDbLine
 10
-60.32321944542895
 20
106.2441919176142
 30
0.0
 11
-60.32321944542896
 21
109.5461919176142
 31
0.0
  0
LINE
  5
2AC
330
2A5
100
AcDbEntity
  8
치수문자_일반주서
 62
     0
370
    -2
100
AcDbLine
 10
-60.32321944542887
 20
85.64019191761419
 30
0.0
 11
-60.32321944542885
 21
82.33819191761418
 31
0.0
  0
SOLID
  5
2AD
330
2A5
100
AcDbEntity
  8
치수문자_일반주서
 62
     0
100
AcDbTrace
 10
-60.87355277876228
 20
106.2441919176142
 30
0.0
 11
-59.77288611209561
 21
106.2441919176142
 31
0.0
 12
-60.32321944542893
 22
102.9421919176142
 32
0.0
 13
-60.32321944542893
 23
102.9421919176142
 33
0.0
  0
SOLID
  5
2AE
330
2A5
100
AcDbEntity
  8
치수문자_일반주서
 62
     0
100
AcDbTrace
 10
-59.77288611209553
 20
85.64019191761419
 30
0.0
 11
-60.8735527787622
 21
85.64019191761419
 31
0.0
 12
-60.32321944542888
 22
88.9421919176142
 32
0.0
 13
-60.32321944542888
 23
88.9421919176142
 33
0.0
  0
MTEXT
  5
2AF
330
2A5
100
AcDbEntity
  8
치수문자_일반주서
 62
     0
100
AcDbMText
 10
-64.69821944542892
 20
95.94219191761424
 30
0.0
 40
3.5
 41
0.0
 71
     2
 72
     1
  1
\A1;%%c14
  7
SLDTEXTSTYLE0
 11
-3.552713678800501E-15
 21
1.0
 31
0.0
 73
     1
 44
1.0
  0
POINT
  5
2B0
330
2A5
100
AcDbEntity
  8
Defpoints
 62
     0
100
AcDbPoint
 10
-44.82321944542887
 20
102.9421919176143
 30
0.0
  0
POINT
  5
2B1
330
2A5
100
AcDbEntity
  8
Defpoints
 62
     0
100
AcDbPoint
 10
-44.82321944542887
 20
88.94219191761425
 30
0.0
  0
POINT
  5
2B2
330
2A5
100
AcDbEntity
  8
Defpoints
 62
     0
100
AcDbPoint
 10
-60.32321944542889
 20
88.9421919176142
 30
0.0
  0
ENDBLK
  5
2A7
330
2A5
100
AcDbEntity
  8
0
100
AcDbBlockEnd
  0
BLOCK
  5
2B4
330
2B3
100
AcDbEntity
  8
0
100
AcDbBlockBegin
  2
*D15
 70
     1
 10
0.0
 20
0.0
 30
0.0
  3
*D15
  1
*D16
  0
LINE
  5
2B6
330
2B3
100
AcDbEntity
  8
치수문자_일반주서
 62
     0
370
    -2
100
AcDbLine
 10
37.73928055457115
 20
102.9421919176143
 30
0.0
 11
52.67678055457115
 21
102.9421919176143
 31
0.0
  0
LINE
  5
2B7
330
2B3
100
AcDbEntity
  8
치수문자_일반주서
 62
     0
370
    -2
100
AcDbLine
 10
37.73928055457114
 20
88.94219191761425
 30
0.0
 11
52.6767805545712
 21
88.94219191761431
 31
0.0
  0
LINE
  5
2B8
330
2B3
100
AcDbEntity
  8
치수문자_일반주서
 62
     0
370
    -2
100
AcDbLine
 10
52.67678055457115
 20
102.9421919176143
 30
0.0
 11
52.6767805545712
 21
88.94219191761431
 31
0.0
  0
LINE
  5
2B9
330
2B3
100
AcDbEntity
  8
치수문자_일반주서
 62
     0
370
    -2
100
AcDbLine
 10
52.67678055457113
 20
106.2441919176143
 30
0.0
 11
52.67678055457112
 21
109.5461919176143
 31
0.0
  0
LINE
  5
2BA
330
2B3
100
AcDbEntity
  8
치수문자_일반주서
 62
     0
370
    -2
100
AcDbLine
 10
52.67678055457121
 20
85.6401919176143
 30
0.0
 11
52.67678055457122
 21
82.3381919176143
 31
0.0
  0
SOLID
  5
2BB
330
2B3
100
AcDbEntity
  8
치수문자_일반주서
 62
     0
100
AcDbTrace
 10
52.1264472212378
 20
106.2441919176143
 30
0.0
 11
53.22711388790447
 21
106.2441919176143
 31
0.0
 12
52.67678055457115
 22
102.9421919176143
 32
0.0
 13
52.67678055457115
 23
102.9421919176143
 33
0.0
  0
SOLID
  5
2BC
330
2B3
100
AcDbEntity
  8
치수문자_일반주서
 62
     0
100
AcDbTrace
 10
53.22711388790454
 20
85.6401919176143
 30
0.0
 11
52.12644722123787
 21
85.6401919176143
 31
0.0
 12
52.6767805545712
 22
88.94219191761431
 32
0.0
 13
52.6767805545712
 23
88.94219191761431
 33
0.0
  0
MTEXT
  5
2BD
330
2B3
100
AcDbEntity
  8
치수문자_일반주서
 62
     0
100
AcDbMText
 10
48.30178055457117
 20
96.00789629932729
 30
0.0
 40
3.5
 41
0.0
 71
     2
 72
     1
  1
\A1;%%c14
  7
SLDTEXTSTYLE0
 11
-3.552713678800501E-15
 21
1.0
 31
0.0
 73
     1
 44
1.0
  0
POINT
  5
2BE
330
2B3
100
AcDbEntity
  8
Defpoints
 62
     0
100
AcDbPoint
 10
37.67678055457115
 20
102.9421919176143
 30
0.0
  0
POINT
  5
2BF
330
2B3
100
AcDbEntity
  8
Defpoints
 62
     0
100
AcDbPoint
 10
37.67678055457114
 20
88.94219191761425
 30
0.0
  0
POINT
  5
2C0
330
2B3
100
AcDbEntity
  8
Defpoints
 62
     0
100
AcDbPoint
 10
52.6767805545712
 20
88.94219191761431
 30
0.0
  0
ENDBLK
  5
2B5
330
2B3
100
AcDbEntity
  8
0
100
AcDbBlockEnd
  0
BLOCK
  5
2C2
330
2C1
100
AcDbEntity
  8
0
100
AcDbBlockBegin
  2
*D16
 70
     1
 10
0.0
 20
0.0
 30
0.0
  3
*D16
  1
*D17
  0
LINE
  5
2C4
330
2C1
100
AcDbEntity
  8
치수문자_일반주서
 62
     0
370
    -2
100
AcDbLine
 10
39.16755573624059
 20
86.20305342473547
 30
0.0
 11
55.49390860476642
 21
59.6388695270761
 31
0.0
  0
MTEXT
  5
2C5
330
2C1
100
AcDbEntity
  8
치수문자_일반주서
 62
     0
100
AcDbMText
 10
50.97241895599876
 20
72.00891582523468
 30
0.0
 40
3.5
 41
0.0
 71
     5
 72
     1
  1
\A1;R.50 [R0.02]
  7
SLDTEXTSTYLE0
 11
0.5236126201129557
 21
-0.8519564684057781
 31
0.0
 73
     1
 44
1.0
  0
LINE
  5
2C6
330
2C1
100
AcDbEntity
  8
치수문자_일반주서
 62
     0
370
    -2
100
AcDbLine
 10
37.17678055457112
 20
89.44219191761425
 30
0.0
 11
37.43858686462761
 21
89.01621368341135
 31
0.0
  0
SOLID
  5
2C7
330
2C1
100
AcDbEntity
  8
치수문자_일반주서
 62
     0
100
AcDbTrace
 10
39.63641577935324
 20
86.49121490333764
 30
0.0
 11
38.69869569312794
 21
85.91489194613331
 31
0.0
 12
37.43858686462761
 22
89.01621368341135
 32
0.0
 13
37.43858686462761
 23
89.01621368341135
 33
0.0
  0
POINT
  5
2C8
330
2C1
100
AcDbEntity
  8
Defpoints
 62
     0
100
AcDbPoint
 10
37.43858686462761
 20
89.01621368341135
 30
0.0
  0
POINT
  5
2C9
330
2C1
100
AcDbEntity
  8
Defpoints
 62
     0
100
AcDbPoint
 10
37.17678055457112
 20
89.44219191761425
 30
0.0
  0
ENDBLK
  5
2C3
330
2C1
100
AcDbEntity
  8
0
100
AcDbBlockEnd
  0
ENDSEC
  0
SECTION
  2
ENTITIES
  0
LINE
  5
96
330
1F
100
AcDbEntity
  8
0
  6
Continuous
 62
     1
370
    15
100
AcDbLine
 10
14.13184064851255
 20
-1.231518713565788
 30
0.0
 11
14.17103053020959
 21
-1.269682459357513
 31
0.0
  0
LINE
  5
97
330
1F
100
AcDbEntity
  8
0
  6
Continuous
 62
     1
370
    15
100
AcDbLine
 10
27.42986048182268
 20
-1.23037082422849
 30
0.0
 11
27.47076258366788
 21
-1.269998967686138
 31
0.0
  0
LINE
  5
98
330
1F
100
AcDbEntity
  8
0
  6
Continuous
 62
     1
370
    15
100
AcDbLine
 10
22.86866788363742
 20
6.349999999999997
 30
0.0
 11
21.33225406436879
 21
6.349999999999997
 31
0.0
  0
LINE
  5
99
330
1F
100
AcDbEntity
  8
0
  6
Continuous
 62
     1
370
    15
100
AcDbLine
 10
21.33225406436874
 20
-6.350000000000006
 30
0.0
 11
22.86866788363738
 21
-6.350000000000006
 31
0.0
  0
LINE
  5
9A
330
1F
100
AcDbEntity
  8
0
  6
Continuous
 62
     1
370
    15
100
AcDbLine
 10
34.63168265182766
 20
-6.350000000000006
 30
0.0
 11
35.40000000000094
 21
-6.350000000000006
 31
0.0
  0
LINE
  5
9B
330
1F
100
AcDbEntity
  8
0
  6
Continuous
 62
     1
370
    15
100
AcDbLine
 10
16.21879958043735
 20
6.349999999999997
 30
0.0
 11
14.68257137725482
 21
6.349999999999997
 31
0.0
  0
LINE
  5
9C
330
1F
100
AcDbEntity
  8
0
  6
Continuous
 62
     1
370
    15
100
AcDbLine
 10
27.98193306947529
 20
-6.350000000000006
 30
0.0
 11
29.51851023172779
 21
-6.350000000000006
 31
0.0
  0
LINE
  5
9D
330
1F
100
AcDbEntity
  8
0
  6
Continuous
 62
     1
370
    15
100
AcDbLine
 10
29.51851023172781
 20
6.349999999999997
 30
0.0
 11
27.98193306947535
 21
6.349999999999997
 31
0.0
  0
LINE
  5
9E
330
1F
100
AcDbEntity
  8
0
  6
Continuous
 62
     1
370
    15
100
AcDbLine
 10
14.68257137725481
 20
-6.350000000000006
 30
0.0
 11
16.21879958043731
 21
-6.350000000000006
 31
0.0
  0
LINE
  5
9F
330
1F
100
AcDbEntity
  8
0
  6
Continuous
 62
     1
370
    15
100
AcDbLine
 10
35.40000000000094
 20
6.349999999999997
 30
0.0
 11
34.63168265182765
 21
6.349999999999997
 31
0.0
  0
LINE
  5
A0
330
1F
100
AcDbEntity
  8
외형선
  6
Continuous
370
    15
100
AcDbLine
 10
-39.52999999999904
 20
-6.350000000000004
 30
0.0
 11
9.569010984527953
 21
-6.350000000000004
 31
0.0
  0
LINE
  5
A1
330
1F
100
AcDbEntity
  8
외형선
  6
Continuous
370
    15
100
AcDbLine
 10
9.569010984527946
 20
6.349999999999995
 30
0.0
 11
-39.52999999999904
 21
6.349999999999995
 31
0.0
  0
LINE
  5
A2
330
1F
100
AcDbEntity
  8
외형선
  6
Continuous
370
    15
100
AcDbLine
 10
-39.52999999999904
 20
6.349999999999997
 30
0.0
 11
-40.79999999999905
 21
5.08
 31
0.0
  0
LINE
  5
A3
330
1F
100
AcDbEntity
  8
외형선
  6
Continuous
370
    15
100
AcDbLine
 10
-40.79999999999905
 20
-5.080000000000009
 30
0.0
 11
-39.52999999999904
 21
-6.350000000000006
 31
0.0
  0
SPLINE
  5
A4
330
1F
100
AcDbEntity
  8
0
  6
Continuous
 62
     1
370
    15
100
AcDbSpline
210
0.0
220
0.0
230
1.0
 70
     8
 71
     3
 72
    21
 73
    17
 74
     0
 42
0.000000001
 43
0.00000001
 40
0.0
 40
0.0
 40
0.0
 40
0.0
 40
0.0725450113670807
 40
0.1451732724882984
 40
0.2178951163016284
 40
0.2904437302996302
 40
0.3630584207835422
 40
0.4344672028906136
 40
0.5056928400434128
 40
0.5769919268532925
 40
0.6483943501771482
 40
0.7196171594636941
 40
0.7909261366776692
 40
0.8623211004236965
 40
0.9335416472013578
 40
1.0
 40
1.0
 40
1.0
 40
1.0
 10
10.0
 20
2.795288108570083
 30
0.0
 10
10.37276448949952
 20
2.451743825622312
 30
0.0
 10
11.11872123812071
 20
1.764261022045202
 30
0.0
 10
12.23891648412218
 20
0.6548666893709046
 30
0.0
 10
13.36073284077935
 20
-0.4670548353959616
 30
0.0
 10
14.47983017706472
 20
-1.578685807709113
 30
0.0
 10
15.59315239821781
 20
-2.633448588335131
 30
0.0
 10
16.70145010368182
 20
-3.600110644720777
 30
0.0
 10
17.80012696068854
 20
-4.455458662199559
 30
0.0
 10
18.89993197055231
 20
-5.17631693512812
 30
0.0
 10
20.00133213186354
 20
-5.74165772059744
 30
0.0
 10
21.09996102510429
 20
-6.136117553143032
 30
0.0
 10
22.19991525115433
 20
-6.347246899927714
 30
0.0
 10
23.30122069632383
 20
-6.364650536134328
 30
0.0
 10
24.37477915236683
 20
-6.20971088945329
 30
0.0
 10
25.08293108773798
 20
-5.957963489353895
 30
0.0
 10
25.42475987414437
 20
-5.836443651648667
 30
0.0
  0
SPLINE
  5
A5
330
1F
100
AcDbEntity
  8
외형선
  6
Continuous
370
    15
100
AcDbSpline
210
0.0
220
0.0
230
1.0
 70
    24
 71
     3
 72
    16
 73
    12
 74
     0
 42
0.000000001
 43
0.00000001
 40
0.0
 40
0.0
 40
0.0
 40
0.0
 40
0.1084621066531985
 40
0.2195043317916187
 40
0.3387267495301615
 40
0.461406625459823
 40
0.5806290431983574
 40
0.7033089191280102
 40
0.8225313368665464
 40
0.9452112127962001
 40
1.0
 40
1.0
 40
1.0
 40
1.0
 10
10.00000000000096
 20
6.048208480713463
 30
0.0
 10
10.00000000000097
 20
5.933773011641866
 30
0.0
 10
10.00000000000099
 20
5.702179859462565
 30
0.0
 10
10.00000000000097
 20
5.315283034520031
 30
0.0
 10
10.0000000000009
 20
4.900684341794951
 30
0.0
 10
10.00000000000103
 20
4.472958621368566
 30
0.0
 10
10.00000000000089
 20
4.051227149737183
 30
0.0
 10
10.00000000000097
 20
3.653760949878601
 30
0.0
 10
10.00000000000091
 20
3.288650522497217
 30
0.0
 10
10.00000000000101
 20
3.017088902925605
 30
0.0
 10
10.00000000000099
 20
2.888944210954846
 30
0.0
 10
10.00000000000098
 20
2.849382903985385
 30
0.0
  0
SPLINE
  5
A6
330
1F
100
AcDbEntity
  8
0
  6
Continuous
 62
     1
370
    15
100
AcDbSpline
210
0.0
220
0.0
230
1.0
 70
     8
 71
     3
 72
    24
 73
    20
 74
     0
 42
0.000000001
 43
0.00000001
 40
0.0
 40
0.0
 40
0.0
 40
0.0
 40
0.0157113359021003
 40
0.0768023716569373
 40
0.1380371342482849
 40
0.1992144448844235
 40
0.2603069363206225
 40
0.3215490414235004
 40
0.3827173878751071
 40
0.4438118200757475
 40
0.5050603239527885
 40
0.5662201864843077
 40
0.627317044409022
 40
0.688571002806236
 40
0.750859381051628
 40
0.813091079345347
 40
0.875471372974095
 40
0.9377713920181183
 40
0.9999999999999999
 40
0.9999999999999999
 40
0.9999999999999999
 40
0.9999999999999999
 10
27.98193306947529
 20
-6.331832568051476
 30
0.0
 10
27.88773097441523
 20
-6.337264756315252
 30
0.0
 10
27.42723898565332
 20
-6.363819146377606
 30
0.0
 10
26.60114040006193
 20
-6.221592162467367
 30
0.0
 10
25.49990130467505
 20
-5.902979800611513
 30
0.0
 10
24.39980285513727
 20
-5.392557743079204
 30
0.0
 10
23.30120380091262
 20
-4.723632956957379
 30
0.0
 10
22.19991977702655
 20
-3.914088787857728
 30
0.0
 10
21.09995981474601
 20
-2.986846027709123
 30
0.0
 10
20.00133245693877
 20
-1.968725620370158
 30
0.0
 10
18.89993188349419
 20
-0.8944117595271951
 30
0.0
 10
17.80012698397175
 20
0.2082258969765582
 30
0.0
 10
16.70145009743144
 20
1.305783914062566
 30
0.0
 10
15.59315239992598
 20
2.368051447339434
 30
0.0
 10
14.47983017660432
 20
3.366213561953175
 30
0.0
 10
13.36073284090296
 20
4.267468885350835
 30
0.0
 10
12.23891648408921
 20
5.03076453941246
 30
0.0
 10
11.11872123812893
 20
5.652499242044295
 30
0.0
 10
10.37276448950226
 20
5.9163558374309
 30
0.0
 10
10.00000000000001
 20
6.048208480713727
 30
0.0
  0
SPLINE
  5
A7
330
1F
100
AcDbEntity
  8
0
  6
Continuous
 62
     1
370
    15
100
AcDbSpline
210
0.0
220
0.0
230
1.0
 70
     8
 71
     3
 72
    27
 73
    23
 74
     0
 42
0.000000001
 43
0.00000001
 40
0.0
 40
0.0
 40
0.0
 40
0.0
 40
0.0506913591652934
 40
0.1014408897073343
 40
0.1522558118423755
 40
0.2029496883724678
 40
0.2536897363320843
 40
0.3035871469621462
 40
0.3533565837111462
 40
0.4031773439471438
 40
0.4530703113307609
 40
0.5028377720874602
 40
0.5526654433159139
 40
0.6025531982647709
 40
0.6523190780767806
 40
0.7021540515206045
 40
0.7520358252672262
 40
0.8018005192827155
 40
0.8516431857016462
 40
0.9015182099613701
 40
0.9512821134039363
 40
1.0
 40
1.0
 40
1.0
 40
1.0
 10
10.0
 20
6.335421721673979
 30
0.0
 10
10.37276448950205
 20
6.291133962421442
 30
0.0
 10
11.11872123812831
 20
6.202507621054817
 30
0.0
 10
12.23891648409172
 20
5.824171260209694
 30
0.0
 10
13.36073284089355
 20
5.279989356654601
 30
0.0
 10
14.4798301766394
 20
4.566711283151583
 30
0.0
 10
15.59315239979573
 20
3.71817446873358
 30
0.0
 10
16.70145009790813
 20
2.763402508795864
 30
0.0
 10
17.80012698219602
 20
1.729290251552075
 30
0.0
 10
18.89993189013378
 20
0.6444352803710883
 30
0.0
 10
20.00133243214654
 20
-0.4580693507166734
 30
0.0
 10
21.0999599070553
 20
-1.549702717861192
 30
0.0
 10
22.19991943185593
 20
-2.593512850285151
 30
0.0
 10
23.3012050894598
 20
-3.558619824461776
 30
0.0
 10
24.39979805668126
 20
-4.419504405316006
 30
0.0
 10
25.49991924896658
 20
-5.146708643384902
 30
0.0
 10
26.60107343026845
 20
-5.719615674832946
 30
0.0
 10
27.69964112539995
 20
-6.122197793857765
 30
0.0
 10
28.79993066667538
 20
-6.341696553870126
 30
0.0
 10
29.90094387814994
 20
-6.368117997082397
 30
0.0
 10
30.99114273904972
 20
-6.218063453426939
 30
0.0
 10
31.71620384840853
 20
-5.965163838863525
 30
0.0
 10
32.07488381236026
 20
-5.840057108597394
 30
0.0
  0
SPLINE
  5
A8
330
1F
100
AcDbEntity
  8
0
  6
Continuous
 62
     1
370
    15
100
AcDbSpline
210
0.0
220
0.0
230
1.0
 70
     8
 71
     3
 72
    29
 73
    25
 74
     0
 42
0.000000001
 43
0.00000001
 40
0.0
 40
0.0
 40
0.0
 40
0.0
 40
0.0147769812610867
 40
0.0635869873530106
 40
0.1124989996460911
 40
0.1613945756546133
 40
0.2102049694713774
 40
0.2591243549562283
 40
0.3080120025981258
 40
0.3568231718399086
 40
0.405749177486981
 40
0.4546292795563136
 40
0.5034416118739625
 40
0.5523734841194406
 40
0.6012464238887254
 40
0.6500603068591082
 40
0.6989972916656152
 40
0.7478634528616755
 40
0.7966792739630271
 40
0.8456206168804091
 40
0.8953884516333381
 40
0.9451109996321708
 40
0.994952273921318
 40
1.0
 40
1.0
 40
1.0
 40
1.0
 10
34.63168265182765
 20
-6.329917228955282
 30
0.0
 10
34.52077093804192
 20
-6.335669905077223
 30
0.0
 10
34.04350554687805
 20
-6.360424307708509
 30
0.0
 10
33.20085801098598
 20
-6.211291123403881
 30
0.0
 10
32.09994324897566
 20
-5.883417292112423
 30
0.0
 10
30.99949265931261
 20
-5.365694429105533
 30
0.0
 10
29.90093714471152
 20
-4.689808572743196
 30
0.0
 10
28.79993247137622
 20
-3.874194890954951
 30
0.0
 10
27.69964064284037
 20
-2.942546450720116
 30
0.0
 10
26.60107355983709
 20
-1.921016722138248
 30
0.0
 10
25.49991921421244
 20
-0.8445352351893869
 30
0.0
 10
24.39979806611158
 20
0.2582117377483483
 30
0.0
 10
23.30120508641717
 20
1.354812322818304
 30
0.0
 10
22.19991943458029
 20
2.408149320820381
 30
0.0
 10
21.09995989921608
 20
3.390781895990816
 30
0.0
 10
20.00133246077742
 20
4.272905848343585
 30
0.0
 10
18.89993178320938
 20
5.025060463398765
 30
0.0
 10
17.80012738035041
 20
5.627981023030685
 30
0.0
 10
16.70144861201578
 20
6.063009769096149
 30
0.0
 10
15.59315800100766
 20
6.315991397595586
 30
0.0
 10
14.47980888924292
 20
6.382906690948019
 30
0.0
 10
13.36081224141405
 20
6.233209928268471
 30
0.0
 10
12.57472972060182
 20
6.041355371187212
 30
0.0
 10
12.16296220879084
 20
5.851215712369073
 30
0.0
 10
12.12509506612485
 20
5.833730006526805
 30
0.0
  0
LINE
  5
A9
330
1F
100
AcDbEntity
  8
0
  6
Continuous
 62
     1
370
    15
100
AcDbLine
 10
35.40000000000094
 20
-6.303661198242541
 30
0.0
 11
35.40000000000094
 21
-3.798253661878704
 31
0.0
  0
SPLINE
  5
AA
330
1F
100
AcDbEntity
  8
0
  6
Continuous
 62
     1
370
    15
100
AcDbSpline
210
0.0
220
0.0
230
1.0
 70
     8
 71
     3
 72
    25
 73
    21
 74
     0
 42
0.000000001
 43
0.00000001
 40
0.0
 40
0.0
 40
0.0
 40
0.0
 40
0.0251693991763249
 40
0.082447687898368
 40
0.1397850434232222
 40
0.197205500186895
 40
0.2544815147932378
 40
0.3118268239910108
 40
0.3692412819055377
 40
0.426515477045712
 40
0.4838691901641963
 40
0.5412767644760362
 40
0.5985495949153036
 40
0.6559121616692333
 40
0.7133119681805008
 40
0.7705838887709314
 40
0.8279557583136359
 40
0.88534691345333
 40
0.9426183791048721
 40
1.0
 40
1.0
 40
1.0
 40
1.0
 10
16.21879958043735
 20
6.326528008566504
 30
0.0
 10
16.37987525810492
 20
6.331943789665361
 30
0.0
 10
16.90751269224931
 20
6.349684325569153
 30
0.0
 10
17.80010215817069
 20
6.177824836885174
 30
0.0
 10
18.8999385558744
 20
5.822623312379728
 30
0.0
 10
20.00133065009087
 20
5.283043898667699
 30
0.0
 10
21.09996038453518
 20
4.586725381635344
 30
0.0
 10
22.19991930418519
 20
3.753034994497632
 30
0.0
 10
23.3012051216621
 20
2.808516441198951
 30
0.0
 10
24.39979805523155
 20
1.77738040945909
 30
0.0
 10
25.49991922248779
 20
0.6945033086846476
 30
0.0
 10
26.60107353763609
 20
-0.4080897885065042
 30
0.0
 10
27.69964072321511
 20
-1.501133830280731
 30
0.0
 10
28.7999321714087
 20
-2.547407079164485
 30
0.0
 10
29.90093826374041
 20
-3.516993247483613
 30
0.0
 10
30.99948849047349
 20
-4.383115054351905
 30
0.0
 10
32.09995884086034
 20
-5.117381914235118
 30
0.0
 10
33.2007998538961
 20
-5.694938014209241
 30
0.0
 10
34.29934189172798
 20
-6.116481006942722
 30
0.0
 10
35.03287904375185
 20
-6.241227850135286
 30
0.0
 10
35.40000000000094
 20
-6.303661198242541
 30
0.0
  0
SPLINE
  5
AB
330
1F
100
AcDbEntity
  8
0
  6
Continuous
 62
     1
370
    15
100
AcDbSpline
210
0.0
220
0.0
230
1.0
 70
     8
 71
     3
 72
    23
 73
    19
 74
     0
 42
0.000000001
 43
0.00000001
 40
0.0
 40
0.0
 40
0.0
 40
0.0
 40
0.0662049562334223
 40
0.1322828191054744
 40
0.1984987756249526
 40
0.2646924810806813
 40
0.3307708688456985
 40
0.3969968070224994
 40
0.4631797792379651
 40
0.5292592167555259
 40
0.5954941171555775
 40
0.6616668743485681
 40
0.727747886411468
 40
0.7939907288774201
 40
0.8601537899134482
 40
0.9262369012143304
 40
0.9924866649477364
 40
1.0
 40
1.0
 40
1.0
 40
1.0
 10
35.40000000000096
 20
-3.814979619574803
 30
0.0
 10
35.03287904375078
 20
-3.51084741675436
 30
0.0
 10
34.29934189172482
 20
-2.903166852356735
 30
0.0
 10
33.20079985390879
 20
-1.871860876800842
 30
0.0
 10
32.09995884081268
 20
-0.794946247362344
 30
0.0
 10
30.99948849065131
 20
0.30827708539082
 30
0.0
 10
29.90093826307728
 20
1.403679805770137
 30
0.0
 10
28.79993217388919
 20
2.454716153711337
 30
0.0
 10
27.69964071397125
 20
3.433047309360325
 30
0.0
 10
26.60107357210952
 20
4.309990375075032
 30
0.0
 10
25.4999190935383
 20
5.055935837369953
 30
0.0
 10
24.39979853565755
 20
5.651388309037531
 30
0.0
 10
23.30120332955569
 20
6.078473132155961
 30
0.0
 10
22.19992600756246
 20
6.32150459138316
 30
0.0
 10
21.09993541543629
 20
6.380528013893402
 30
0.0
 10
20.00142381308331
 20
6.23076589696477
 30
0.0
 10
19.22511374115534
 20
6.040083278737179
 30
0.0
 10
18.81639959535808
 20
5.852318062497574
 30
0.0
 10
18.77476893763726
 20
5.833192740975116
 30
0.0
  0
SPLINE
  5
AC
330
1F
100
AcDbEntity
  8
0
  6
Continuous
 62
     1
370
    15
100
AcDbSpline
210
0.0
220
0.0
230
1.0
 70
     8
 71
     3
 72
    15
 73
    11
 74
     0
 42
0.000000001
 43
0.00000001
 40
0.0
 40
0.0
 40
0.0
 40
0.0
 40
0.127519329970057
 40
0.2551849960239851
 40
0.3830151613587059
 40
0.5105408240189453
 40
0.6381826356610553
 40
0.7637047063958008
 40
0.8889048456646043
 40
1.0
 40
1.0
 40
1.0
 40
1.0
 10
10.0
 20
-3.54013361310391
 30
0.0
 10
10.37276447903731
 20
-3.839391338979478
 30
0.0
 10
11.11872120672209
 20
-4.438250206930205
 30
0.0
 10
12.23891660995229
 20
-5.169290112073653
 30
0.0
 10
13.36073236873071
 20
-5.747098433745952
 30
0.0
 10
14.47983193530216
 20
-6.145195057065988
 30
0.0
 10
15.59314587518125
 20
-6.352372599652181
 30
0.0
 10
16.7014739719548
 20
-6.360770521801018
 30
0.0
 10
17.75845580180075
 20
-6.201241417703863
 30
0.0
 10
18.44975290640059
 20
-5.9508943783881
 30
0.0
 10
18.77476893763722
 20
-5.833192740975123
 30
0.0
  0
SPLINE
  5
AD
330
1F
100
AcDbEntity
  8
외형선
  6
Continuous
370
    15
100
AcDbSpline
210
0.0
220
0.0
230
1.0
 70
    24
 71
     3
 72
    24
 73
    20
 74
     0
 42
0.000000001
 43
0.00000001
 40
0.0
 40
0.0
 40
0.0
 40
0.0
 40
0.1250000000000003
 40
0.1250000000000003
 40
0.1875000000000004
 40
0.1875000000000004
 40
0.2500000000000006
 40
0.2500000000000006
 40
0.3750000000000004
 40
0.3750000000000004
 40
0.5000000000000003
 40
0.5000000000000003
 40
0.6250000000000002
 40
0.6250000000000002
 40
0.75
 40
0.75
 40
0.875
 40
0.875
 40
1.0
 40
1.0
 40
1.0
 40
1.0
 10
10.00000000000096
 20
1.348916003062274
 30
0.0
 10
10.00000000000096
 20
1.345854780378779
 30
0.0
 10
10.00000000000096
 20
1.309370713286708
 30
0.0
 10
10.00000000000098
 20
1.23148322099737
 30
0.0
 10
10.00000000000096
 20
1.202867268679127
 30
0.0
 10
10.00000000000096
 20
1.131746401574945
 30
0.0
 10
10.00000000000096
 20
1.089254041638159
 30
0.0
 10
10.00000000000097
 20
0.9359717144226551
 30
0.0
 10
10.00000000000098
 20
0.7990609378649928
 30
0.0
 10
10.00000000000098
 20
0.4307499144608057
 30
0.0
 10
10.00000000000096
 20
0.1982269725989093
 30
0.0
 10
10.00000000000096
 20
-0.3639535039022249
 30
0.0
 10
10.00000000000097
 20
-0.6943399519286219
 30
0.0
 10
10.00000000000096
 20
-1.397656539650826
 30
0.0
 10
10.00000000000094
 20
-1.768772310304675
 30
0.0
 10
10.00000000000096
 20
-2.451177387942235
 30
0.0
 10
10.00000000000095
 20
-2.759823450027468
 30
0.0
 10
10.00000000000096
 20
-3.246294091017435
 30
0.0
 10
10.00000000000096
 20
-3.424382466759231
 30
0.0
 10
10.00000000000096
 20
-3.540133613104663
 30
0.0
  0
SPLINE
  5
AE
330
1F
100
AcDbEntity
  8
0
  6
Continuous
 62
     1
370
    15
100
AcDbSpline
210
0.0
220
0.0
230
1.0
 70
     8
 71
     3
 72
    18
 73
    14
 74
     0
 42
0.000000001
 43
0.00000001
 40
0.0
 40
0.0
 40
0.0
 40
0.0
 40
0.0205165415018072
 40
0.1174591486179773
 40
0.2146462315309592
 40
0.3116926613136372
 40
0.4086391174878539
 40
0.5058348554515022
 40
0.6046719763255567
 40
0.7034191593429445
 40
0.8024021284813277
 40
0.9012577205863537
 40
1.0
 40
1.0
 40
1.0
 40
1.0
 10
21.33225406436874
 20
-6.334138599165379
 30
0.0
 10
21.25474373215254
 20
-6.339044384938023
 30
0.0
 10
20.81098971881604
 20
-6.367130474404231
 30
0.0
 10
20.00140505434241
 20
-6.231461051318242
 30
0.0
 10
18.89991244125038
 20
-5.922180986533077
 30
0.0
 10
17.8001321836922
 20
-5.419086406310704
 30
0.0
 10
16.70144870156583
 20
-4.757197438225597
 30
0.0
 10
15.59315278140657
 20
-3.948731067545293
 30
0.0
 10
14.47983007377899
 20
-3.013497704432062
 30
0.0
 10
13.36073286850935
 20
-1.977709640023052
 30
0.0
 10
12.2389164767304
 20
-0.8837836046179762
 30
0.0
 10
11.11872123996518
 20
0.2421031053209162
 30
0.0
 10
10.3727644901141
 20
0.9801194425442987
 30
0.0
 10
10.0
 20
1.348916003063225
 30
0.0
  0
LINE
  5
AF
330
1F
100
AcDbEntity
  8
0
  6
Continuous
 62
     1
370
    15
100
AcDbLine
 10
35.40000000000094
 20
-2.488681578667653
 30
0.0
 11
35.40000000000094
 21
2.488681578667764
 31
0.0
  0
SPLINE
  5
B0
330
1F
100
AcDbEntity
  8
0
  6
Continuous
 62
     1
370
    15
100
AcDbSpline
210
0.0
220
0.0
230
1.0
 70
     8
 71
     3
 72
    19
 73
    15
 74
     0
 42
0.000000001
 43
0.00000001
 40
0.0
 40
0.0
 40
0.0
 40
0.0
 40
0.0345303663321632
 40
0.1221970043259373
 40
0.20998535636216
 40
0.2978561509316782
 40
0.3855207000486017
 40
0.4733226038851007
 40
0.5611815086854285
 40
0.6488446651439582
 40
0.7366608082764238
 40
0.8245064708712868
 40
0.9121689309784711
 40
1.0
 40
1.0
 40
1.0
 40
1.0
 10
22.86866788363742
 20
6.327263886472537
 30
0.0
 10
23.01302374974503
 20
6.333013765561645
 30
0.0
 10
23.52387423495388
 20
6.35336159486546
 30
0.0
 10
24.39976261099259
 20
6.189407599433313
 30
0.0
 10
25.49992873595433
 20
5.843229643657451
 30
0.0
 10
26.60107099429742
 20
5.310946319305953
 30
0.0
 10
27.69964140520011
 20
4.621368878865455
 30
0.0
 10
28.7999319884055
 20
3.793648371770894
 30
0.0
 10
29.90093831266482
 20
2.853383076799732
 30
0.0
 10
30.99948847735154
 20
1.825424959095119
 30
0.0
 10
32.09995884437929
 20
0.7443150095180842
 30
0.0
 10
33.20079985295985
 20
-0.3572329740772814
 30
0.0
 10
34.29934189196236
 20
-1.455803918684496
 30
0.0
 10
35.03287904383002
 20
-2.144168571975375
 30
0.0
 10
35.40000000000094
 20
-2.488681578667653
 30
0.0
  0
SPLINE
  5
B1
330
1F
100
AcDbEntity
  8
0
  6
Continuous
 62
     1
370
    15
100
AcDbSpline
210
0.0
220
0.0
230
1.0
 70
     8
 71
     3
 72
    17
 73
    13
 74
     0
 42
0.000000001
 43
0.00000001
 40
0.0
 40
0.0
 40
0.0
 40
0.0
 40
0.1103407847482085
 40
0.2204697487804509
 40
0.3308288672043375
 40
0.441150900793866
 40
0.551280739641303
 40
0.6616564940387593
 40
0.771960639025668
 40
0.8820922274478505
 40
0.9924829187745464
 40
1.0
 40
1.0
 40
1.0
 40
1.0
 10
35.40000000000097
 20
2.488681578667766
 30
0.0
 10
35.03287904117344
 20
2.818809059545461
 30
0.0
 10
34.2993418839977
 20
3.478430277037391
 30
0.0
 10
33.2007998847748
 20
4.345884849323132
 30
0.0
 10
32.0999587248041
 20
5.086755645546268
 30
0.0
 10
30.99948892324098
 20
5.674373968385193
 30
0.0
 10
29.90093665019078
 20
6.093589808391799
 30
0.0
 10
28.79993820693816
 20
6.32810008738147
 30
0.0
 10
27.69961823103556
 20
6.37873112096661
 30
0.0
 10
26.60115741811923
 20
6.219276057973568
 30
0.0
 10
25.84181622697085
 20
6.029765961318607
 30
0.0
 10
25.44975529080522
 20
5.848030027559914
 30
0.0
 10
25.42475987414443
 20
5.83644365164866
 30
0.0
  0
LINE
  5
B2
330
1F
100
AcDbEntity
  8
0
  6
Continuous
 62
     1
370
    15
100
AcDbLine
 10
35.40000000000094
 20
-3.814979619574804
 30
0.0
 11
35.40000000000094
 21
-2.488681578667653
 31
0.0
  0
LINE
  5
B3
330
1F
100
AcDbEntity
  8
외형선
  6
Continuous
370
    15
100
AcDbLine
 10
10.00000000000096
 20
1.348916003062276
 30
0.0
 11
10.00000000000096
 21
2.795288108569215
 31
0.0
  0
LINE
  5
B4
330
1F
100
AcDbEntity
  8
0
  6
Continuous
 62
     1
370
    15
100
AcDbLine
 10
35.40000000000094
 20
-6.350000000000008
 30
0.0
 11
35.40000000000094
 21
-6.303661198242541
 31
0.0
  0
LINE
  5
B5
330
1F
100
AcDbEntity
  8
외형선
  6
Continuous
370
    15
100
AcDbLine
 10
10.00000000000096
 20
6.048208480713463
 30
0.0
 11
10.00000000000096
 21
6.335421721673914
 31
0.0
  0
SPLINE
  5
B6
330
1F
100
AcDbEntity
  8
0
  6
Continuous
 62
     1
370
    15
100
AcDbSpline
210
0.0
220
0.0
230
1.0
 70
     8
 71
     3
 72
     9
 73
     5
 74
     0
 42
0.000000001
 43
0.00000001
 40
0.0
 40
0.0
 40
0.0
 40
0.0
 40
0.5264197794355027
 40
1.0
 40
1.0
 40
1.0
 40
1.0
 10
10.0
 20
-6.335421721673987
 30
0.0
 10
10.37273942294384
 20
-6.29428157261021
 30
0.0
 10
11.08080442639707
 20
-6.216130730504897
 30
0.0
 10
11.7894802250772
 20
-5.956626213111474
 30
0.0
 10
12.12509506612484
 20
-5.833730006526812
 30
0.0
  0
SPLINE
  5
B7
330
1F
100
AcDbEntity
  8
0
  6
Continuous
 62
     1
370
    15
100
AcDbSpline
210
0.0
220
0.0
230
1.0
 70
     8
 71
     3
 72
    13
 73
     9
 74
     0
 42
0.000000001
 43
0.00000001
 40
0.0
 40
0.0
 40
0.0
 40
0.0
 40
0.0650570641236418
 40
0.2518314377877919
 40
0.4389317635549423
 40
0.6260949832369702
 40
0.8128678732608812
 40
1.0
 40
1.0
 40
1.0
 40
1.0
 10
29.51851023172781
 20
6.328393850318512
 30
0.0
 10
29.64614305797475
 20
6.334255906307289
 30
0.0
 10
30.14020098351536
 20
6.356947523396562
 30
0.0
 10
30.99944129691596
 20
6.200463320384462
 30
0.0
 10
32.09997149686336
 20
5.863862868787741
 30
0.0
 10
33.20079648655879
 20
5.337128754902399
 30
0.0
 10
34.29934273471765
 20
4.66082135729721
 30
0.0
 10
35.03287932492833
 20
4.097107398631747
 30
0.0
 10
35.40000000000094
 20
3.814979619574824
 30
0.0
  0
LINE
  5
B8
330
1F
100
AcDbEntity
  8
0
  6
Continuous
 62
     1
370
    15
100
AcDbLine
 10
35.40000000000094
 20
2.488681578667764
 30
0.0
 11
35.40000000000094
 21
3.814979619574824
 31
0.0
  0
SPLINE
  5
B9
330
1F
100
AcDbEntity
  8
0
  6
Continuous
 62
     1
370
    15
100
AcDbSpline
210
0.0
220
0.0
230
1.0
 70
     8
 71
     3
 72
    11
 73
     7
 74
     0
 42
0.000000001
 43
0.00000001
 40
0.0
 40
0.0
 40
0.0
 40
0.0
 40
0.3310197597074725
 40
0.6614040622477684
 40
0.9924788225511798
 40
1.0
 40
1.0
 40
1.0
 40
1.0
 10
35.40000000000096
 20
6.303661198242543
 30
0.0
 10
35.03287340388769
 20
6.330722286019993
 30
0.0
 10
34.29932498296236
 20
6.384792512524493
 30
0.0
 10
33.2008673962596
 20
6.204981711662678
 30
0.0
 10
32.458586923482
 20
6.019400688633331
 30
0.0
 10
32.08322173920547
 20
5.843954271813293
 30
0.0
 10
32.07488381236028
 20
5.840057108597386
 30
0.0
  0
SPLINE
  5
BA
330
1F
100
AcDbEntity
  8
0
  6
Continuous
 62
     1
370
    15
100
AcDbSpline
210
0.0
220
0.0
230
1.0
 70
     8
 71
     3
 72
    12
 73
     8
 74
     0
 42
0.000000001
 43
0.00000001
 40
0.0
 40
0.0
 40
0.0
 40
0.0
 40
0.0433337217727868
 40
0.2822950258175042
 40
0.5218269158498625
 40
0.7610505623347457
 40
1.0
 40
1.0
 40
1.0
 40
1.0
 10
14.68257137725481
 20
-6.335361541949042
 30
0.0
 10
14.61492717725797
 20
-6.33997024925013
 30
0.0
 10
14.17426294618556
 20
-6.369993406581683
 30
0.0
 10
13.36080562859971
 20
-6.234094107508628
 30
0.0
 10
12.23889708166815
 20
-5.917502826655801
 30
0.0
 10
11.11872607964845
 20
-5.409658849680963
 30
0.0
 10
10.37276610272499
 20
-4.935990726512201
 30
0.0
 10
10.0
 20
-4.699292477650509
 30
0.0
  0
LINE
  5
BB
330
1F
100
AcDbEntity
  8
0
  6
Continuous
 62
     1
370
    15
100
AcDbLine
 10
35.40000000000094
 20
6.303661198242543
 30
0.0
 11
35.40000000000094
 21
6.349999999999999
 31
0.0
  0
LINE
  5
BC
330
1F
100
AcDbEntity
  8
외형선
  6
Continuous
370
    15
100
AcDbLine
 10
10.00000000000096
 20
-4.699292477651195
 30
0.0
 11
10.00000000000096
 21
-3.540133613104715
 31
0.0
  0
LINE
  5
BD
330
1F
100
AcDbEntity
  8
0
  6
Continuous
 62
     1
370
    15
100
AcDbLine
 10
35.40000000000094
 20
3.801293381208461
 30
0.0
 11
35.40000000000094
 21
6.303661198242543
 31
0.0
  0
SPLINE
  5
BE
330
1F
100
AcDbEntity
  8
외형선
  6
Continuous
370
    15
100
AcDbSpline
210
0.0
220
0.0
230
1.0
 70
    24
 71
     3
 72
    12
 73
     8
 74
     0
 42
0.000000001
 43
0.00000001
 40
0.0
 40
0.0
 40
0.0
 40
0.0
 40
0.1081456965307922
 40
0.3687177960193962
 40
0.629289895508004
 40
0.8898619949966126
 40
1.0
 40
1.0
 40
1.0
 40
1.0
 10
10.00000000000097
 20
-4.753397273067364
 30
0.0
 10
10.00000000000098
 20
-4.803969177227204
 30
0.0
 10
10.00000000000096
 20
-4.976391766756791
 30
0.0
 10
10.00000000000103
 20
-5.305416553567361
 30
0.0
 10
10.00000000000098
 20
-5.725858411061892
 30
0.0
 10
10.00000000000095
 20
-6.073792704719221
 30
0.0
 10
10.00000000000096
 20
-6.275495733800896
 30
0.0
 10
10.00000000000096
 20
-6.335421721673922
 30
0.0
  0
LINE
  5
BF
330
1F
100
AcDbEntity
  8
외형선
  6
Continuous
370
    15
100
AcDbLine
 10
9.569010984527946
 20
6.330751317664052
 30
0.0
 11
10.0
 21
6.33542172167398
 31
0.0
  0
SPLINE
  5
C0
330
1F
100
AcDbEntity
  8
외형선
  6
Continuous
370
    15
100
AcDbSpline
210
0.0
220
0.0
230
1.0
 70
     8
 71
     3
 72
     8
 73
     4
 74
     0
 42
0.000000001
 43
0.00000001
 40
0.0
 40
0.0
 40
0.0
 40
0.0
 40
1.0
 40
1.0
 40
1.0
 40
1.0
 10
9.999999999999993
 20
6.048208480713725
 30
0.0
 10
9.666766529296222
 20
6.149597681871469
 30
0.0
 10
9.331263399603348
 20
6.226135030057078
 30
0.0
 10
8.999670268565335
 20
6.276534757840142
 30
0.0
  0
LINE
  5
C1
330
1F
100
AcDbEntity
  8
외형선
  6
Continuous
370
    15
100
AcDbLine
 10
8.999670268565342
 20
3.653819119945858
 30
0.0
 11
8.999670268565342
 21
6.276539016240149
 31
0.0
  0
SPLINE
  5
C2
330
1F
100
AcDbEntity
  8
외형선
  6
Continuous
370
    15
100
AcDbSpline
210
0.0
220
0.0
230
1.0
 70
     8
 71
     3
 72
     8
 73
     4
 74
     0
 42
0.000000001
 43
0.00000001
 40
0.0
 40
0.0
 40
0.0
 40
0.0
 40
1.0
 40
1.0
 40
1.0
 40
1.0
 10
10.0
 20
2.795288108570077
 30
0.0
 10
9.666766529296236
 20
3.094142483287954
 30
0.0
 10
9.331263399603355
 20
3.382074810159454
 30
0.0
 10
8.999670268565335
 20
3.653844536155596
 30
0.0
  0
SPLINE
  5
C3
330
1F
100
AcDbEntity
  8
외형선
  6
Continuous
370
    15
100
AcDbSpline
210
0.0
220
0.0
230
1.0
 70
     8
 71
     3
 72
     8
 73
     4
 74
     0
 42
0.000000001
 43
0.00000001
 40
0.0
 40
0.0
 40
0.0
 40
0.0
 40
1.0
 40
1.0
 40
1.0
 40
1.0
 10
9.999999999999993
 20
1.348916003063221
 30
0.0
 10
9.666766529296222
 20
1.674157224423247
 30
0.0
 10
9.331263399603348
 20
1.994532744428749
 30
0.0
 10
8.999670268565335
 20
2.304175911982275
 30
0.0
  0
SPLINE
  5
C4
330
1F
100
AcDbEntity
  8
외형선
  6
Continuous
370
    15
100
AcDbSpline
210
0.0
220
0.0
230
1.0
 70
     8
 71
     3
 72
     8
 73
     4
 74
     0
 42
0.000000001
 43
0.00000001
 40
0.0
 40
0.0
 40
0.0
 40
0.0
 40
1.0
 40
1.0
 40
1.0
 40
1.0
 10
10.0
 20
-3.540133613103923
 30
0.0
 10
9.666766529296236
 20
-3.263819777117571
 30
0.0
 10
9.331263399603355
 20
-2.972208843648984
 30
0.0
 10
8.999670268565335
 20
-2.670737132010711
 30
0.0
  0
SPLINE
  5
C5
330
1F
100
AcDbEntity
  8
외형선
  6
Continuous
370
    15
100
AcDbSpline
210
0.0
220
0.0
230
1.0
 70
     8
 71
     3
 72
     8
 73
     4
 74
     0
 42
0.000000001
 43
0.00000001
 40
0.0
 40
0.0
 40
0.0
 40
0.0
 40
1.0
 40
1.0
 40
1.0
 40
1.0
 10
9.999999999999993
 20
-4.699292477650512
 30
0.0
 10
9.666766529296222
 20
-4.475440457448234
 30
0.0
 10
9.331263399603348
 20
-4.23160228562834
 30
0.0
 10
8.999670268565335
 20
-3.972358845857879
 30
0.0
  0
LINE
  5
C6
330
1F
100
AcDbEntity
  8
외형선
  6
Continuous
370
    15
100
AcDbLine
 10
8.999670268565342
 20
-6.324584445848809
 30
0.0
 11
8.999670268565342
 21
-3.972336941371948
 31
0.0
  0
SPLINE
  5
C7
330
1F
100
AcDbEntity
  8
외형선
  6
Continuous
370
    15
100
AcDbSpline
210
0.0
220
0.0
230
1.0
 70
     8
 71
     3
 72
     8
 73
     4
 74
     0
 42
0.000000001
 43
0.00000001
 40
0.0
 40
0.0
 40
0.0
 40
0.0
 40
1.0
 40
1.0
 40
1.0
 40
1.0
 10
10.0
 20
-6.335421721673988
 30
0.0
 10
9.666766529296236
 20
-6.357962260405515
 30
0.0
 10
9.331263399603355
 20
-6.35428365380843
 30
0.0
 10
8.999670268565335
 20
-6.3245816681663
 30
0.0
  0
LINE
  5
C8
330
1F
100
AcDbEntity
  8
외형선
  6
Continuous
370
    15
100
AcDbLine
 10
-39.52999999999904
 20
-0.0000000000000043
 30
0.0
 11
-39.52999999999904
 21
6.349999999999991
 31
0.0
  0
LINE
  5
C9
330
1F
100
AcDbEntity
  8
외형선
  6
Continuous
370
    15
100
AcDbLine
 10
-39.52999999999904
 20
-6.349999999999995
 30
0.0
 11
-39.52999999999904
 21
-0.0000000000000043
 31
0.0
  0
LINE
  5
CA
330
1F
100
AcDbEntity
  8
외형선
  6
Continuous
370
    15
100
AcDbLine
 10
8.999670268565342
 20
-2.670765325902959
 30
0.0
 11
8.999670268565342
 21
2.304202074868213
 31
0.0
  0
LINE
  5
CB
330
1F
100
AcDbEntity
  8
외형선
  6
Continuous
370
    15
100
AcDbLine
 10
-40.79999999999905
 20
-0.0000000000000043
 30
0.0
 11
-40.79999999999905
 21
5.079999999999999
 31
0.0
  0
LINE
  5
CC
330
1F
100
AcDbEntity
  8
외형선
  6
Continuous
370
    15
100
AcDbLine
 10
-40.79999999999905
 20
-5.080000000000005
 30
0.0
 11
-40.79999999999905
 21
-0.0000000000000043
 31
0.0
  0
SPLINE
  5
CD
330
1F
100
AcDbEntity
  8
외형선
  6
Continuous
370
    15
100
AcDbSpline
210
0.0
220
0.0
230
1.0
 70
    24
 71
     3
 72
    24
 73
    20
 74
     0
 42
0.000000001
 43
0.00000001
 40
0.0
 40
0.0
 40
0.0
 40
0.0
 40
0.1250000000000001
 40
0.1250000000000001
 40
0.2500000000000003
 40
0.2500000000000003
 40
0.3750000000000003
 40
0.3750000000000003
 40
0.5000000000000003
 40
0.5000000000000003
 40
0.6250000000000002
 40
0.6250000000000002
 40
0.7500000000000001
 40
0.7500000000000001
 40
0.8125000000000001
 40
0.8125000000000001
 40
0.8750000000000001
 40
0.8750000000000001
 40
1.0
 40
1.0
 40
1.0
 40
1.0
 10
10.00000000000095
 20
-3.540133613104656
 30
0.0
 10
10.00000000000098
 20
-3.424382466759227
 30
0.0
 10
10.00000000000098
 20
-3.246294091017436
 30
0.0
 10
10.00000000000098
 20
-2.759823450027484
 30
0.0
 10
10.00000000000096
 20
-2.451177387942262
 30
0.0
 10
10.00000000000097
 20
-1.768772310304724
 30
0.0
 10
10.00000000000098
 20
-1.397656539650883
 30
0.0
 10
10.00000000000097
 20
-0.6943399519286907
 30
0.0
 10
10.00000000000099
 20
-0.3639535039022954
 30
0.0
 10
10.00000000000098
 20
0.1982269725988408
 30
0.0
 10
10.00000000000097
 20
0.4307499144607425
 30
0.0
 10
10.00000000000097
 20
0.7990609378649405
 30
0.0
 10
10.00000000000096
 20
0.9359717144226081
 30
0.0
 10
10.00000000000095
 20
1.089254041638122
 30
0.0
 10
10.00000000000096
 20
1.13174640157491
 30
0.0
 10
10.00000000000096
 20
1.202867268679098
 30
0.0
 10
10.00000000000096
 20
1.231483220997343
 30
0.0
 10
10.00000000000098
 20
1.309370713286688
 30
0.0
 10
10.00000000000096
 20
1.345854780378765
 30
0.0
 10
10.00000000000095
 20
1.348916003062273
 30
0.0
  0
SPLINE
  5
CE
330
1F
100
AcDbEntity
  8
외형선
  6
Continuous
370
    15
100
AcDbSpline
210
0.0
220
0.0
230
1.0
 70
    24
 71
     3
 72
    16
 73
    12
 74
     0
 42
0.000000001
 43
0.00000001
 40
0.0
 40
0.0
 40
0.0
 40
0.0
 40
0.0977327881181238
 40
0.2188185238830132
 40
0.3399042596478966
 40
0.46098999541278
 40
0.5820757311775944
 40
0.7031614669424092
 40
0.8242472027073744
 40
0.9453329384723395
 40
1.0
 40
1.0
 40
1.0
 40
1.0
 10
10.00000000000095
 20
2.849382903985385
 30
0.0
 10
10.00000000000095
 20
2.924529663477625
 30
0.0
 10
10.00000000000094
 20
3.092779268377969
 30
0.0
 10
10.00000000000102
 20
3.414334158648078
 30
0.0
 10
10.00000000000098
 20
3.792156280262323
 30
0.0
 10
10.00000000000095
 20
4.199829248584916
 30
0.0
 10
10.00000000000099
 20
4.624596437641351
 30
0.0
 10
10.00000000000096
 20
5.054656542340909
 30
0.0
 10
10.00000000000098
 20
5.477024437628042
 30
0.0
 10
10.00000000000103
 20
5.808347850532471
 30
0.0
 10
10.00000000000098
 20
5.991301598228129
 30
0.0
 10
10.00000000000097
 20
6.048208480713432
 30
0.0
  0
SPLINE
  5
CF
330
1F
100
AcDbEntity
  8
외형선
  6
Continuous
370
    15
100
AcDbSpline
210
0.0
220
0.0
230
1.0
 70
    24
 71
     3
 72
    12
 73
     8
 74
     0
 42
0.000000001
 43
0.00000001
 40
0.0
 40
0.0
 40
0.0
 40
0.0
 40
0.2332998749023937
 40
0.4665997498047867
 40
0.7278364544716064
 40
0.9890731591384265
 40
1.0
 40
1.0
 40
1.0
 40
1.0
 10
10.00000000000097
 20
-6.335421721673923
 30
0.0
 10
10.00000000000098
 20
-6.208359086010355
 30
0.0
 10
10.000000000001
 20
-5.954233814683219
 30
0.0
 10
10.00000000000098
 20
-5.555715428201749
 30
0.0
 10
10.00000000000109
 20
-5.157895468571646
 30
0.0
 10
10.00000000000076
 20
-4.881589398297276
 30
0.0
 10
10.00000000000097
 20
-4.758335672193054
 30
0.0
 10
10.00000000000097
 20
-4.753387273067364
 30
0.0
  0
LINE
  5
D0
330
1F
100
AcDbEntity
  8
중심선
 62
     1
100
AcDbLine
 10
-43.79999999999905
 20
-0.0000000000000039
 30
0.0
 11
38.40000000000096
 21
0.0000000000000057
 31
0.0
  0
LINE
  5
D1
330
1F
100
AcDbEntity
  8
참조1
100
AcDbLine
 10
12.69999999999999
 20
-0.0000000000000039
 30
0.0
 11
12.7
 21
-40.00000000000001
 31
0.0
  0
LINE
  5
D2
330
1F
100
AcDbEntity
  8
참조1
100
AcDbLine
 10
12.7
 20
-40.00000000000001
 30
0.0
 11
-15.15885681430868
 21
-40.0
 31
0.0
  0
CIRCLE
  5
D3
330
1F
100
AcDbEntity
  8
해칭선
100
AcDbCircle
 10
0.0
 20
0.0
 30
0.0
 40
3.000000000000001
  0
INSERT
  5
D4
330
1F
100
AcDbEntity
  8
0
  6
Continuous
 62
     7
100
AcDbBlockReference
 66
     1
  2
블럭10
 10
-17.20033993836848
 20
-33.38201119264761
 30
0.0
  0
ATTRIB
  5
D5
330
D4
100
AcDbEntity
  8
FORMAT
 62
     2
100
AcDbText
 10
-26.38163522710976
 20
-31.30664427981542
 30
0.0
 40
4.233333333333333
  1
E5058032 [ 6 FLUTE ]
 41
0.75
  7
SLDTEXTSTYLE0
 11
-26.38163522710976
 21
-33.42331094648209
 31
0.0
100
AcDbAttribute
  2
AUTOATTR0
 70
     0
 74
     1
  0
SEQEND
  5
D6
330
D4
100
AcDbEntity
  8
0
  6
Continuous
 62
     7
  0
HATCH
  5
D7
330
1F
100
AcDbEntity
  8
중심선
100
AcDbHatch
 10
0.0
 20
0.0
 30
0.0
210
0.0
220
0.0
230
1.0
  2
SOLID
 70
     1
 71
     0
 91
        1
 92
        0
 93
        4
 72
     1
 10
-11.48543063398764
 20
-17.13483689100368
 11
-14.93170587782493
 21
-17.13483689100368
 72
     1
 10
-14.93170587782493
 20
-17.13483689100368
 11
-17.05993573702895
 21
-19.67116247157627
 72
     1
 10
-17.05993573702895
 20
-19.67116247157627
 11
-13.61362740807852
 21
-19.67112304227378
 72
     1
 10
-13.61362740807852
 20
-19.67112304227378
 11
-11.48543063398764
 21
-17.13483689100368
 97
        0
 75
     0
 76
     1
 98
        1
 10
-15.96006700624326
 20
18.66516310899632
  0
HATCH
  5
D8
330
1F
100
AcDbEntity
  8
중심선
100
AcDbHatch
 10
0.0
 20
0.0
 30
0.0
210
0.0
220
0.0
230
1.0
  2
SOLID
 70
     1
 71
     0
 91
        1
 92
        0
 93
        4
 72
     1
 10
-6.472666642951665
 20
-17.13483689100368
 11
-9.918941886788948
 21
-17.13483689100368
 72
     1
 10
-9.918941886788948
 20
-17.13483689100368
 11
-14.45007989514636
 21
-22.5348368910037
 72
     1
 10
-14.45007989514636
 20
-22.5348368910037
 11
-11.00380465130908
 21
-22.5348368910037
 72
     1
 10
-11.00380465130908
 20
-22.5348368910037
 11
-6.472666642951665
 21
-17.13483689100368
 97
        0
 75
     0
 76
     1
 98
        1
 10
-15.96006700624326
 20
18.66516310899632
  0
HATCH
  5
D9
330
1F
100
AcDbEntity
  8
중심선
100
AcDbHatch
 10
0.0
 20
0.0
 30
0.0
210
0.0
220
0.0
230
1.0
  2
SOLID
 70
     1
 71
     0
 91
        1
 92
        0
 93
        4
 72
     1
 10
-1.459902651915742
 20
-17.13483689100365
 11
-4.906177895752887
 21
-17.13483689100368
 72
     1
 10
-4.906177895752887
 20
-17.13483689100368
 11
-11.95461479764216
 21
-25.5348368910037
 72
     1
 10
-11.95461479764216
 20
-25.5348368910037
 11
-8.50833955380488
 21
-25.5348368910037
 72
     1
 10
-8.50833955380488
 20
-25.5348368910037
 11
-1.459902651915742
 21
-17.13483689100365
 97
        0
 75
     0
 76
     1
 98
        1
 10
-15.96006700624326
 20
18.66516310899632
  0
HATCH
  5
DA
330
1F
100
AcDbEntity
  8
중심선
100
AcDbHatch
 10
0.0
 20
0.0
 30
0.0
210
0.0
220
0.0
230
1.0
  2
SOLID
 70
     1
 71
     0
 91
        1
 92
        0
 93
        6
 72
     3
 10
3.339987779096401
 20
-21.33483689105495
 11
3.960054785062283
 21
1.540882976769353E-10
 40
0.3939339440162628
 50
17.09539180608436
 51
320.0019657685083
 73
     0
 72
     1
 10
5.022987434796971
 20
-19.92273089564201
 11
7.328289308498036
 21
-17.98840418559406
 72
     3
 10
3.339987779043554
 20
-21.33483689100383
 11
6.600054785286829
 21
-1.278976924368180E-13
 40
0.636358354079598
 50
39.99873849337408
 51
368.4976242363724
 73
     1
 72
     1
 10
9.765320270944166
 20
-20.3748368909337
 11
2.020055085879477
 21
-20.3748368909337
 72
     1
 10
2.020055085879477
 20
-20.3748368909337
 11
2.020030041433543
 21
-22.29483689093359
 72
     1
 10
2.020030041433543
 20
-22.29483689093359
 11
6.461409810905579
 21
-22.29483689093356
 97
        0
 75
     0
 76
     1
 98
        1
 10
-15.96006700624326
 20
18.66516310899632
  0
DIMENSION
  5
DB
330
1F
100
AcDbEntity
  8
치수문자_일반주서
100
AcDbDimension
  2
_D
 10
47.7706994971139
 20
-6.349999999999959
 30
0.0
 11
47.7706994971138
 21
25.53383004093322
 31
0.0
 70
   160
  1
%%c<>
 71
     2
 42
12.7
 52
-270.0
  3
SLDDIMSTYLE0
100
AcDbAlignedDimension
 13
35.40000000000094
 23
6.349999999999997
 33
0.0
 14
35.40000000000094
 24
-6.350000000000006
 34
0.0
 50
90.0000000000002
100
AcDbRotatedDimension
1001
ACAD
1000
DSTYLE
1002
{
1070
   171
1070
     6
1070
   273
1070
     5
1002
}
  0
DIMENSION
  5
EF
330
1F
100
AcDbEntity
  8
치수문자_일반주서
100
AcDbDimension
  2
_D_1
 10
10.00000000000097
 20
28.42574321972548
 30
0.0
 11
22.70000000000096
 21
28.42574321972548
 31
0.0
 70
   160
  1
<>
 71
     2
 42
25.39999999999997
  3
SLDDIMSTYLE0
100
AcDbAlignedDimension
 13
35.40000000000094
 23
6.303661198242543
 33
0.0
 14
10.00000000000097
 24
6.335421721673914
 34
0.0
100
AcDbRotatedDimension
1001
ACAD
1000
DSTYLE
1002
{
1070
   171
1070
     6
1070
   273
1070
     5
1002
}
  0
DIMENSION
  5
105
330
1F
100
AcDbEntity
  8
치수문자_일반주서
100
AcDbDimension
  2
_D_2
 10
-40.79999999999905
 20
46.4257432197255
 30
0.0
 11
-2.699999999999047
 21
46.4257432197255
 31
0.0
 70
   160
  1
<>
 71
     2
 42
76.19999999999999
  3
SLDDIMSTYLE0
100
AcDbAlignedDimension
 13
35.40000000000094
 23
6.303661198242543
 33
0.0
 14
-40.79999999999905
 24
5.08
 34
0.0
100
AcDbRotatedDimension
1001
ACAD
1000
DSTYLE
1002
{
1070
   171
1070
     6
1070
   273
1070
     5
1002
}
  0
DIMENSION
  5
118
330
1F
100
AcDbEntity
  8
치수문자_일반주서
100
AcDbDimension
  2
_D_3
 10
-48.93131740100968
 20
-6.350000000000033
 30
0.0
 11
-48.93131740100978
 21
23.43324999999996
 31
0.0
 70
   160
  1
%%c<>
 71
     2
 42
12.69999999999999
 52
-270.0
  3
SLDDIMSTYLE0
100
AcDbAlignedDimension
 13
-39.52999999999905
 23
6.34999999999999
 33
0.0
 14
-39.52999999999905
 24
-6.349999999999999
 34
0.0
 50
90.0000000000002
100
AcDbRotatedDimension
1001
ACAD
1000
DSTYLE
1002
{
1070
   171
1070
     6
1070
   273
1070
     5
1002
}
  0
LINE
  5
12C
330
1F
100
AcDbEntity
  8
참조1
100
AcDbLine
 10
82.81348381534559
 20
7.440000000000002
 30
0.0
 11
82.81348381534559
 21
-7.440000000000002
 31
0.0
  0
LINE
  5
12D
330
1F
100
AcDbEntity
  8
참조1
100
AcDbLine
 10
95.5134838153456
 20
5.440000000000002
 30
0.0
 11
82.81348381534559
 21
5.440000000000002
 31
0.0
  0
SOLID
  5
12E
330
1F
100
AcDbEntity
  8
참조1
100
AcDbTrace
 10
82.81348381534559
 20
5.440000000000002
 30
0.0
 11
89.16348381534559
 21
4.424000000000002
 31
0.0
 12
89.16348381534559
 22
6.456000000000002
 32
0.0
 13
89.16348381534559
 23
6.456000000000002
 33
0.0
  0
LINE
  5
12F
330
1F
100
AcDbEntity
  8
참조1
100
AcDbLine
 10
95.5134838153456
 20
-5.440000000000002
 30
0.0
 11
82.81348381534559
 21
-5.440000000000002
 31
0.0
  0
SOLID
  5
130
330
1F
100
AcDbEntity
  8
참조1
100
AcDbTrace
 10
82.81348381534559
 20
-5.440000000000002
 30
0.0
 11
89.16348381534559
 21
-6.456000000000002
 31
0.0
 12
89.16348381534559
 22
-4.424000000000002
 32
0.0
 13
89.16348381534559
 23
-4.424000000000002
 33
0.0
  0
MTEXT
  5
131
330
1F
100
AcDbEntity
  8
참조1
100
AcDbMText
 10
92.41359862590816
 20
11.06571756601608
 30
0.0
 40
3.5
 41
0.0
 71
     1
 72
     1
  1
A
  7
SLDTEXTSTYLE0
 73
     1
 44
1.0
  0
MTEXT
  5
132
330
1F
100
AcDbEntity
  8
참조1
100
AcDbMText
 10
92.41359862590816
 20
0.1857175660160727
 30
0.0
 40
3.5
 41
0.0
 71
     1
 72
     1
  1
A
  7
SLDTEXTSTYLE0
 73
     1
 44
1.0
  0
INSERT
  5
139
330
1F
100
AcDbEntity
  8
해칭선
100
AcDbBlockReference
  2
SW_DOWELSYMBOL_0
 10
0.0
 20
0.0
 30
0.0
  0
ENDSEC
  0
SECTION
  2
OBJECTS
  0
DICTIONARY
  5
C
330
0
100
AcDbDictionary
281
     1
  3
ACAD_GROUP
350
D
  3
ACAD_IMAGE_VARS
350
15D
  3
ACAD_LAYOUT
350
1A
  3
ACAD_MLINESTYLE
350
17
  3
ACAD_PLOTSETTINGS
350
19
  3
ACAD_PLOTSTYLENAME
350
E
  3
ACAD_SCALELIST
350
47
  3
APPDATA
350
15B
  3
DWGPROPS
350
2F1
  0
DICTIONARY
  5
217
330
2
100
AcDbDictionary
280
     1
281
     1
  3
ACAD_LAYERSTATES
360
218
  0
DICTIONARY
  5
2EF
330
1F
100
AcDbDictionary
280
     1
281
     1
  3
DIM_BOUNDING_BOXES_V1
360
2F0
  0
DICTIONARY
  5
D
102
{ACAD_REACTORS
330
C
102
}
330
C
100
AcDbDictionary
281
     1
  0
RASTERVARIABLES
  5
15D
102
{ACAD_REACTORS
330
C
102
}
330
C
100
AcDbRasterVariables
 90
        0
 70
     1
 71
     1
 72
     1
  0
DICTIONARY
  5
1A
102
{ACAD_REACTORS
330
C
102
}
330
C
100
AcDbDictionary
281
     1
  3
Layout1
350
1E
  3
Layout2
350
26
  3
Model
350
22
  0
DICTIONARY
  5
17
102
{ACAD_REACTORS
330
C
102
}
330
C
100
AcDbDictionary
281
     1
  3
Standard
350
18
  0
DICTIONARY
  5
19
102
{ACAD_REACTORS
330
C
102
}
330
C
100
AcDbDictionary
281
     1
  0
ACDBDICTIONARYWDFLT
  5
E
102
{ACAD_REACTORS
330
C
102
}
330
C
100
AcDbDictionary
281
     1
  3
Normal
350
F
100
AcDbDictionaryWithDefault
340
F
  0
DICTIONARY
  5
47
102
{ACAD_REACTORS
330
C
102
}
330
C
100
AcDbDictionary
281
     1
  3
A0
350
48
  3
A1
350
49
  3
A2
350
4A
  3
A3
350
4B
  3
A4
350
4C
  3
A5
350
4D
  3
A6
350
4E
  3
A7
350
4F
  3
A8
350
50
  3
A9
350
51
  3
B0
350
52
  3
B1
350
53
  3
B2
350
54
  3
B3
350
55
  3
B4
350
56
  3
B5
350
57
  3
B6
350
58
  3
B7
350
59
  3
B8
350
5A
  3
B9
350
5B
  3
C0
350
5C
  3
C1
350
5D
  3
C2
350
5E
  3
C3
350
5F
  3
C4
350
60
  3
C5
350
61
  3
C6
350
62
  3
C7
350
63
  3
C8
350
64
  3
C9
350
65
  3
D0
350
66
  3
D1
350
67
  3
D2
350
68
  0
DICTIONARY
  5
15B
102
{ACAD_REACTORS
330
C
102
}
330
C
100
AcDbDictionary
281
     1
  0
XRECORD
  5
2F1
102
{ACAD_REACTORS
330
C
102
}
330
C
100
AcDbXrecord
280
     1
  1
DWGPROPS COOKIE
  2

  3

  4

  6

  7

  8
12011056
  9

300
=
301
=
302
=
303
=
304
=
305
=
306
=
307
=
308
=
309
=
 40
0.0
 41
2458316.092948136
 42
2459720.020787766
  1

 90
        0
  0
DICTIONARY
  5
218
102
{ACAD_REACTORS
330
217
102
}
330
217
100
AcDbDictionary
281
     1
  0
DICTIONARY
  5
2F0
102
{ACAD_REACTORS
330
2EF
102
}
330
2EF
100
AcDbDictionary
281
     1
  0
LAYOUT
  5
1E
102
{ACAD_REACTORS
330
1A
102
}
330
1A
100
AcDbPlotSettings
  1

  2
none_device
  4

  6

 40
0.0
 41
0.0
 42
0.0
 43
0.0
 44
0.0
 45
0.0
 46
0.0
 47
0.0
 48
0.0
 49
0.0
140
0.0
141
0.0
142
1.0
143
1.0
 70
   688
 72
     1
 73
     0
 74
     5
  7

 75
    16
147
1.0
148
0.0
149
0.0
100
AcDbLayout
  1
Layout1
 70
     1
 71
     1
 10
0.0
 20
0.0
 11
420.0
 21
297.0
 12
0.0
 22
0.0
 32
0.0
 14
1.000000000000000E+20
 24
1.000000000000000E+20
 34
1.000000000000000E+20
 15
-1.000000000000000E+20
 25
-1.000000000000000E+20
 35
-1.000000000000000E+20
146
0.0
 13
0.0
 23
0.0
 33
0.0
 16
1.0
 26
0.0
 36
0.0
 17
0.0
 27
1.0
 37
0.0
 76
     0
330
1B
  0
LAYOUT
  5
26
102
{ACAD_REACTORS
330
1A
102
}
330
1A
100
AcDbPlotSettings
  1

  2
none_device
  4

  6

 40
0.0
 41
0.0
 42
0.0
 43
0.0
 44
0.0
 45
0.0
 46
0.0
 47
0.0
 48
0.0
 49
0.0
140
0.0
141
0.0
142
1.0
143
1.0
 70
   688
 72
     1
 73
     0
 74
     5
  7

 75
    16
147
1.0
148
0.0
149
0.0
100
AcDbLayout
  1
Layout2
 70
     1
 71
     2
 10
0.0
 20
0.0
 11
0.0
 21
0.0
 12
0.0
 22
0.0
 32
0.0
 14
0.0
 24
0.0
 34
0.0
 15
0.0
 25
0.0
 35
0.0
146
0.0
 13
0.0
 23
0.0
 33
0.0
 16
1.0
 26
0.0
 36
0.0
 17
0.0
 27
1.0
 37
0.0
 76
     0
330
23
  0
LAYOUT
  5
22
102
{ACAD_REACTORS
330
1A
102
}
330
1A
100
AcDbPlotSettings
  1

  2
none_device
  4
ANSI_A_(11.00_x_8.50_Inches)
  6

 40
6.35
 41
19.05
 42
6.35000508
 43
19.05000254
 44
279.4
 45
215.9
 46
82.72250211562732
 47
82.46851406226348
 48
0.0
 49
0.0
140
0.0
141
0.0
142
0.0778760043189824
143
1.0
 70
  1696
 72
     0
 73
     0
 74
     0
  7

 75
     0
147
0.0235690232323232
148
0.0
149
0.0
100
AcDbLayout
  1
Model
 70
     1
 71
     0
 10
0.0
 20
0.0
 11
420.0
 21
297.0
 12
0.0
 22
0.0
 32
0.0
 14
-53.30631740100982
 24
-40.00000000000001
 34
0.0
 15
95.5134838153456
 25
50.80074321972549
 35
0.0
146
0.0
 13
0.0
 23
0.0
 33
0.0
 16
1.0
 26
0.0
 36
0.0
 17
0.0
 27
1.0
 37
0.0
 76
     0
330
1F
331
29
  0
MLINESTYLE
  5
18
102
{ACAD_REACTORS
330
17
102
}
330
17
100
AcDbMlineStyle
  2
Standard
 70
     0
  3

 62
   256
 51
90.0
 52
90.0
 71
     2
 49
0.5
 62
   256
  6
BYLAYER
 49
-0.5
 62
   256
  6
BYLAYER
  0
ACDBPLACEHOLDER
  5
F
102
{ACAD_REACTORS
330
E
102
}
330
E
  0
SCALE
  5
48
102
{ACAD_REACTORS
330
47
102
}
330
47
100
AcDbScale
 70
     0
300
1:1
140
1.0
141
1.0
290
     1
  0
SCALE
  5
49
102
{ACAD_REACTORS
330
47
102
}
330
47
100
AcDbScale
 70
     0
300
1:2
140
1.0
141
2.0
290
     0
  0
SCALE
  5
4A
102
{ACAD_REACTORS
330
47
102
}
330
47
100
AcDbScale
 70
     0
300
1:4
140
1.0
141
4.0
290
     0
  0
SCALE
  5
4B
102
{ACAD_REACTORS
330
47
102
}
330
47
100
AcDbScale
 70
     0
300
1:5
140
1.0
141
5.0
290
     0
  0
SCALE
  5
4C
102
{ACAD_REACTORS
330
47
102
}
330
47
100
AcDbScale
 70
     0
300
1:8
140
1.0
141
8.0
290
     0
  0
SCALE
  5
4D
102
{ACAD_REACTORS
330
47
102
}
330
47
100
AcDbScale
 70
     0
300
1:10
140
1.0
141
10.0
290
     0
  0
SCALE
  5
4E
102
{ACAD_REACTORS
330
47
102
}
330
47
100
AcDbScale
 70
     0
300
1:16
140
1.0
141
16.0
290
     0
  0
SCALE
  5
4F
102
{ACAD_REACTORS
330
47
102
}
330
47
100
AcDbScale
 70
     0
300
1:20
140
1.0
141
20.0
290
     0
  0
SCALE
  5
50
102
{ACAD_REACTORS
330
47
102
}
330
47
100
AcDbScale
 70
     0
300
1:30
140
1.0
141
30.0
290
     0
  0
SCALE
  5
51
102
{ACAD_REACTORS
330
47
102
}
330
47
100
AcDbScale
 70
     0
300
1:40
140
1.0
141
40.0
290
     0
  0
SCALE
  5
52
102
{ACAD_REACTORS
330
47
102
}
330
47
100
AcDbScale
 70
     0
300
1:50
140
1.0
141
50.0
290
     0
  0
SCALE
  5
53
102
{ACAD_REACTORS
330
47
102
}
330
47
100
AcDbScale
 70
     0
300
1:100
140
1.0
141
100.0
290
     0
  0
SCALE
  5
54
102
{ACAD_REACTORS
330
47
102
}
330
47
100
AcDbScale
 70
     0
300
2:1
140
2.0
141
1.0
290
     0
  0
SCALE
  5
55
102
{ACAD_REACTORS
330
47
102
}
330
47
100
AcDbScale
 70
     0
300
4:1
140
4.0
141
1.0
290
     0
  0
SCALE
  5
56
102
{ACAD_REACTORS
330
47
102
}
330
47
100
AcDbScale
 70
     0
300
8:1
140
8.0
141
1.0
290
     0
  0
SCALE
  5
57
102
{ACAD_REACTORS
330
47
102
}
330
47
100
AcDbScale
 70
     0
300
10:1
140
10.0
141
1.0
290
     0
  0
SCALE
  5
58
102
{ACAD_REACTORS
330
47
102
}
330
47
100
AcDbScale
 70
     0
300
100:1
140
100.0
141
1.0
290
     0
  0
SCALE
  5
59
102
{ACAD_REACTORS
330
47
102
}
330
47
100
AcDbScale
 70
     0
300
1/128" = 1'-0"
140
0.0078125
141
12.0
290
     0
  0
SCALE
  5
5A
102
{ACAD_REACTORS
330
47
102
}
330
47
100
AcDbScale
 70
     0
300
1/64" = 1'-0"
140
0.015625
141
12.0
290
     0
  0
SCALE
  5
5B
102
{ACAD_REACTORS
330
47
102
}
330
47
100
AcDbScale
 70
     0
300
1/32" = 1'-0"
140
0.03125
141
12.0
290
     0
  0
SCALE
  5
5C
102
{ACAD_REACTORS
330
47
102
}
330
47
100
AcDbScale
 70
     0
300
1/16" = 1'-0"
140
0.0625
141
12.0
290
     0
  0
SCALE
  5
5D
102
{ACAD_REACTORS
330
47
102
}
330
47
100
AcDbScale
 70
     0
300
3/32" = 1'-0"
140
0.09375
141
12.0
290
     0
  0
SCALE
  5
5E
102
{ACAD_REACTORS
330
47
102
}
330
47
100
AcDbScale
 70
     0
300
1/8" = 1'-0"
140
0.125
141
12.0
290
     0
  0
SCALE
  5
5F
102
{ACAD_REACTORS
330
47
102
}
330
47
100
AcDbScale
 70
     0
300
3/16" = 1'-0"
140
0.1875
141
12.0
290
     0
  0
SCALE
  5
60
102
{ACAD_REACTORS
330
47
102
}
330
47
100
AcDbScale
 70
     0
300
1/4" = 1'-0"
140
0.25
141
12.0
290
     0
  0
SCALE
  5
61
102
{ACAD_REACTORS
330
47
102
}
330
47
100
AcDbScale
 70
     0
300
3/8" = 1'-0"
140
0.375
141
12.0
290
     0
  0
SCALE
  5
62
102
{ACAD_REACTORS
330
47
102
}
330
47
100
AcDbScale
 70
     0
300
1/2" = 1'-0"
140
0.5
141
12.0
290
     0
  0
SCALE
  5
63
102
{ACAD_REACTORS
330
47
102
}
330
47
100
AcDbScale
 70
     0
300
3/4" = 1'-0"
140
0.75
141
12.0
290
     0
  0
SCALE
  5
64
102
{ACAD_REACTORS
330
47
102
}
330
47
100
AcDbScale
 70
     0
300
1" = 1'-0"
140
1.0
141
12.0
290
     0
  0
SCALE
  5
65
102
{ACAD_REACTORS
330
47
102
}
330
47
100
AcDbScale
 70
     0
300
1-1/2" = 1'-0"
140
1.5
141
12.0
290
     0
  0
SCALE
  5
66
102
{ACAD_REACTORS
330
47
102
}
330
47
100
AcDbScale
 70
     0
300
3" = 1'-0"
140
3.0
141
12.0
290
     0
  0
SCALE
  5
67
102
{ACAD_REACTORS
330
47
102
}
330
47
100
AcDbScale
 70
     0
300
6" = 1'-0"
140
6.0
141
12.0
290
     0
  0
SCALE
  5
68
102
{ACAD_REACTORS
330
47
102
}
330
47
100
AcDbScale
 70
     0
300
1'-0" = 1'-0"
140
12.0
141
12.0
290
     0
  0
ENDSEC
  0
EOF
