  0
SECTION
  2
HEADER
  9
$ACADVER
  1
AC1015
  9
$ACADMAINTVER
 70
     6
  9
$DWGCODEPAGE
  3
ANSI_949
  9
$INSBASE
 10
0.0
 20
0.0
 30
0.0
  9
$EXTMIN
 10
-45.14006740101077
 20
-40.00000000000001
 30
0.0
  9
$EXTMAX
 10
95.5134838153456
 20
50.01278556994518
 30
0.0
  9
$LIMMIN
 10
0.0
 20
0.0
  9
$LIMMAX
 10
420.0
 20
297.0
  9
$ORTHOMODE
 70
     0
  9
$REGENMODE
 70
     1
  9
$FILLMODE
 70
     1
  9
$QTEXTMODE
 70
     0
  9
$MIRRTEXT
 70
     1
  9
$LTSCALE
 40
1.0
  9
$ATTMODE
 70
     1
  9
$TEXTSIZE
 40
3.5
  9
$TRACEWID
 40
1.0
  9
$TEXTSTYLE
  7
Standard
  9
$CLAYER
  8
0
  9
$CELTYPE
  6
ByLayer
  9
$CECOLOR
 62
   256
  9
$CELTSCALE
 40
1.0
  9
$DISPSILH
 70
     0
  9
$DIMSCALE
 40
1.0
  9
$DIMASZ
 40
3.302
  9
$DIMEXO
 40
1.0
  9
$DIMDLI
 40
3.75
  9
$DIMRND
 40
0.0
  9
$DIMDLE
 40
0.0
  9
$DIMEXE
 40
1.0
  9
$DIMTP
 40
0.0
  9
$DIMTM
 40
0.0
  9
$DIMTXT
 40
3.5
  9
$DIMCEN
 40
2.5
  9
$DIMTSZ
 40
0.0
  9
$DIMTOL
 70
     0
  9
$DIMLIM
 70
     0
  9
$DIMTIH
 70
     1
  9
$DIMTOH
 70
     1
  9
$DIMSE1
 70
     0
  9
$DIMSE2
 70
     0
  9
$DIMTAD
 70
     1
  9
$DIMZIN
 70
     0
  9
$DIMBLK
  1

  9
$DIMASO
 70
     1
  9
$DIMSHO
 70
     1
  9
$DIMPOST
  1

  9
$DIMAPOST
  1

  9
$DIMALT
 70
     0
  9
$DIMALTD
 70
     3
  9
$DIMALTF
 40
0.0393700787401575
  9
$DIMLFAC
 40
1.0
  9
$DIMTOFL
 70
     1
  9
$DIMTVP
 40
0.0
  9
$DIMTIX
 70
     0
  9
$DIMSOXD
 70
     0
  9
$DIMSAH
 70
     0
  9
$DIMBLK1
  1

  9
$DIMBLK2
  1

  9
$DIMSTYLE
  2
ISO-25
  9
$DIMCLRD
 70
     0
  9
$DIMCLRE
 70
     0
  9
$DIMCLRT
 70
     0
  9
$DIMTFAC
 40
1.0
  9
$DIMGAP
 40
1.524
  9
$DIMJUST
 70
     0
  9
$DIMSD1
 70
     0
  9
$DIMSD2
 70
     0
  9
$DIMTOLJ
 70
     0
  9
$DIMTZIN
 70
     0
  9
$DIMALTZ
 70
     0
  9
$DIMALTTZ
 70
     0
  9
$DIMUPT
 70
     0
  9
$DIMDEC
 70
     2
  9
$DIMTDEC
 70
     2
  9
$DIMALTU
 70
     2
  9
$DIMALTTD
 70
     3
  9
$DIMTXSTY
  7
Standard
  9
$DIMAUNIT
 70
     0
  9
$DIMADEC
 70
     2
  9
$DIMALTRND
 40
0.0
  9
$DIMAZIN
 70
     0
  9
$DIMDSEP
 70
    44
  9
$DIMATFIT
 70
     3
  9
$DIMFRAC
 70
     0
  9
$DIMLDRBLK
  1

  9
$DIMLUNIT
 70
     2
  9
$DIMLWD
 70
    -2
  9
$DIMLWE
 70
    -2
  9
$DIMTMOVE
 70
     0
  9
$LUNITS
 70
     2
  9
$LUPREC
 70
     2
  9
$SKETCHINC
 40
1.0
  9
$FILLETRAD
 40
10.0
  9
$AUNITS
 70
     0
  9
$AUPREC
 70
     2
  9
$MENU
  1
.
  9
$ELEVATION
 40
0.0
  9
$PELEVATION
 40
0.0
  9
$THICKNESS
 40
0.0
  9
$LIMCHECK
 70
     0
  9
$CHAMFERA
 40
0.0
  9
$CHAMFERB
 40
0.0
  9
$CHAMFERC
 40
0.0
  9
$CHAMFERD
 40
0.0
  9
$SKPOLY
 70
     0
  9
$TDCREATE
 40
2458316.467882778
  9
$TDUCREATE
 40
2458316.092882778
  9
$TDUPDATE
 40
2459720.395603125
  9
$TDUUPDATE
 40
2459720.020603125
  9
$TDINDWG
 40
0.0010199537
  9
$TDUSRTIMER
 40
0.0001440046
  9
$USRTIMER
 70
     1
  9
$ANGBASE
 50
0.0
  9
$ANGDIR
 70
     0
  9
$PDMODE
 70
     0
  9
$PDSIZE
 40
-1.0
  9
$PLINEWID
 40
0.0
  9
$SPLFRAME
 70
     0
  9
$SPLINETYPE
 70
     6
  9
$SPLINESEGS
 70
     8
  9
$HANDSEED
  5
2F8
  9
$SURFTAB1
 70
     6
  9
$SURFTAB2
 70
     6
  9
$SURFTYPE
 70
     6
  9
$SURFU
 70
     6
  9
$SURFV
 70
     6
  9
$UCSBASE
  2

  9
$UCSNAME
  2

  9
$UCSORG
 10
0.0
 20
0.0
 30
0.0
  9
$UCSXDIR
 10
1.0
 20
0.0
 30
0.0
  9
$UCSYDIR
 10
0.0
 20
1.0
 30
0.0
  9
$UCSORTHOREF
  2

  9
$UCSORTHOVIEW
 70
     0
  9
$UCSORGTOP
 10
0.0
 20
0.0
 30
0.0
  9
$UCSORGBOTTOM
 10
0.0
 20
0.0
 30
0.0
  9
$UCSORGLEFT
 10
0.0
 20
0.0
 30
0.0
  9
$UCSORGRIGHT
 10
0.0
 20
0.0
 30
0.0
  9
$UCSORGFRONT
 10
0.0
 20
0.0
 30
0.0
  9
$UCSORGBACK
 10
0.0
 20
0.0
 30
0.0
  9
$PUCSBASE
  2

  9
$PUCSNAME
  2

  9
$PUCSORG
 10
0.0
 20
0.0
 30
0.0
  9
$PUCSXDIR
 10
1.0
 20
0.0
 30
0.0
  9
$PUCSYDIR
 10
0.0
 20
1.0
 30
0.0
  9
$PUCSORTHOREF
  2

  9
$PUCSORTHOVIEW
 70
     0
  9
$PUCSORGTOP
 10
0.0
 20
0.0
 30
0.0
  9
$PUCSORGBOTTOM
 10
0.0
 20
0.0
 30
0.0
  9
$PUCSORGLEFT
 10
0.0
 20
0.0
 30
0.0
  9
$PUCSORGRIGHT
 10
0.0
 20
0.0
 30
0.0
  9
$PUCSORGFRONT
 10
0.0
 20
0.0
 30
0.0
  9
$PUCSORGBACK
 10
0.0
 20
0.0
 30
0.0
  9
$USERI1
 70
     0
  9
$USERI2
 70
     0
  9
$USERI3
 70
     0
  9
$USERI4
 70
     0
  9
$USERI5
 70
     0
  9
$USERR1
 40
0.0
  9
$USERR2
 40
0.0
  9
$USERR3
 40
0.0
  9
$USERR4
 40
0.0
  9
$USERR5
 40
0.0
  9
$WORLDVIEW
 70
     1
  9
$SHADEDGE
 70
     3
  9
$SHADEDIF
 70
    70
  9
$TILEMODE
 70
     1
  9
$MAXACTVP
 70
    64
  9
$PINSBASE
 10
0.0
 20
0.0
 30
0.0
  9
$PLIMCHECK
 70
     0
  9
$PEXTMIN
 10
1.000000000000000E+20
 20
1.000000000000000E+20
 30
1.000000000000000E+20
  9
$PEXTMAX
 10
-1.000000000000000E+20
 20
-1.000000000000000E+20
 30
-1.000000000000000E+20
  9
$PLIMMIN
 10
0.0
 20
0.0
  9
$PLIMMAX
 10
0.0
 20
0.0
  9
$UNITMODE
 70
     0
  9
$VISRETAIN
 70
     1
  9
$PLINEGEN
 70
     0
  9
$PSLTSCALE
 70
     1
  9
$TREEDEPTH
 70
  3020
  9
$CMLSTYLE
  2
Standard
  9
$CMLJUST
 70
     0
  9
$CMLSCALE
 40
20.0
  9
$PROXYGRAPHICS
 70
     1
  9
$MEASUREMENT
 70
     1
  9
$CELWEIGHT
370
    -1
  9
$ENDCAPS
280
     0
  9
$JOINSTYLE
280
     0
  9
$LWDISPLAY
290
     1
  9
$INSUNITS
 70
     4
  9
$HYPERLINKBASE
  1

  9
$STYLESHEET
  1

  9
$XEDIT
290
     1
  9
$CEPSNTYPE
380
     0
  9
$PSTYLEMODE
290
     1
  9
$FINGERPRINTGUID
  2
{69EAFEEB-27E2-4C59-B226-E0BF78657CE7}
  9
$VERSIONGUID
  2
{FAEB1C32-E019-11D5-929B-00C0DF256EC4}
  9
$EXTNAMES
290
     1
  9
$PSVPSCALE
 40
0.0
  9
$OLESTARTUP
290
     0
  0
ENDSEC
  0
SECTION
  2
CLASSES
  0
CLASS
  1
ACDBDICTIONARYWDFLT
  2
AcDbDictionaryWithDefault
  3
ObjectDBX Classes
 90
        0
280
     0
281
     0
  0
CLASS
  1
VISUALSTYLE
  2
AcDbVisualStyle
  3
ObjectDBX Classes
 90
     4095
280
     0
281
     0
  0
CLASS
  1
MATERIAL
  2
AcDbMaterial
  3
ObjectDBX Classes
 90
     1153
280
     0
281
     0
  0
CLASS
  1
SCALE
  2
AcDbScale
  3
ObjectDBX Classes
 90
     1153
280
     0
281
     0
  0
CLASS
  1
SUN
  2
AcDbSun
  3
SCENEOE
 90
     1153
280
     0
281
     0
  0
CLASS
  1
ACDBPLACEHOLDER
  2
AcDbPlaceHolder
  3
ObjectDBX Classes
 90
        0
280
     0
281
     0
  0
CLASS
  1
LAYOUT
  2
AcDbLayout
  3
ObjectDBX Classes
 90
        0
280
     0
281
     0
  0
CLASS
  1
TABLESTYLE
  2
AcDbTableStyle
  3
ObjectDBX Classes
 90
     4095
280
     0
281
     0
  0
CLASS
  1
MLEADERSTYLE
  2
AcDbMLeaderStyle
  3
ACDB_MLEADERSTYLE_CLASS
 90
     4095
280
     0
281
     0
  0
CLASS
  1
RASTERVARIABLES
  2
AcDbRasterVariables
  3
ISM
 90
        0
280
     0
281
     0
  0
ENDSEC
  0
SECTION
  2
TABLES
  0
TABLE
  2
VPORT
  5
8
330
0
100
AcDbSymbolTable
 70
     1
  0
VPORT
  5
29
330
8
100
AcDbSymbolTableRecord
100
AcDbViewportTableRecord
  2
*Active
 70
     0
 10
0.0
 20
0.0
 11
1.0
 21
1.0
 12
2.599186727086529
 22
8.37385571439666
 13
0.0
 23
0.0
 14
10.0
 24
10.0
 15
10.0
 25
10.0
 16
0.0
 26
0.0
 36
1.0
 17
0.0
 27
0.0
 37
0.0
 40
114.7825696056448
 41
1.519944979367263
 42
50.0
 43
0.0
 44
0.0
 50
0.0
 51
0.0
 71
    16
 72
  2000
 73
     1
 74
     3
 75
     0
 76
     0
 77
     0
 78
     0
281
     0
 65
     1
110
0.0
120
0.0
130
0.0
111
1.0
121
0.0
131
0.0
112
0.0
122
1.0
132
0.0
 79
     0
146
0.0
  0
ENDTAB
  0
TABLE
  2
LTYPE
  5
5
330
0
100
AcDbSymbolTable
 70
     6
  0
LTYPE
  5
14
330
5
100
AcDbSymbolTableRecord
100
AcDbLinetypeTableRecord
  2
ByBlock
 70
     0
  3

 72
    65
 73
     0
 40
0.0
  0
LTYPE
  5
15
330
5
100
AcDbSymbolTableRecord
100
AcDbLinetypeTableRecord
  2
ByLayer
 70
     0
  3

 72
    65
 73
     0
 40
0.0
  0
LTYPE
  5
16
330
5
100
AcDbSymbolTableRecord
100
AcDbLinetypeTableRecord
  2
Continuous
 70
     0
  3
Solid line
 72
    65
 73
     0
 40
0.0
  0
LTYPE
  5
6A
330
5
100
AcDbSymbolTableRecord
100
AcDbLinetypeTableRecord
  2
HIDDEN
 70
     0
  3
Hidden __ __ __ __ __ __ __ __ __ __ __ __ __ __
 72
    65
 73
     2
 40
1.905
 49
1.27
 74
     0
 49
-0.635
 74
     0
  0
LTYPE
  5
6B
330
5
100
AcDbSymbolTableRecord
100
AcDbLinetypeTableRecord
  2
PHANTOM
 70
     0
  3
Phantom ______  __  __  ______  __  __  ______
 72
    65
 73
     6
 40
12.7
 49
6.35
 74
     0
 49
-1.27
 74
     0
 49
1.27
 74
     0
 49
-1.27
 74
     0
 49
1.27
 74
     0
 49
-1.27
 74
     0
  0
LTYPE
  5
6C
330
5
100
AcDbSymbolTableRecord
100
AcDbLinetypeTableRecord
  2
CENTER
 70
     0
  3
Center ____ _ ____ _ ____ _ ____ _ ____ _ ____
 72
    65
 73
     4
 40
10.16
 49
6.35
 74
     0
 49
-1.27
 74
     0
 49
1.27
 74
     0
 49
-1.27
 74
     0
  0
LTYPE
  5
6D
330
5
100
AcDbSymbolTableRecord
100
AcDbLinetypeTableRecord
  2
CENTERX2
 70
     0
  3
Center (2x) ________  __  ________  __  _____
 72
    65
 73
     4
 40
20.32
 49
12.7
 74
     0
 49
-2.54
 74
     0
 49
2.54
 74
     0
 49
-2.54
 74
     0
  0
LTYPE
  5
6E
330
5
100
AcDbSymbolTableRecord
100
AcDbLinetypeTableRecord
  2
DOT2
 70
     0
  3
Dot (.5x) ........................................
 72
    65
 73
     2
 40
0.635
 49
0.0
 74
     0
 49
-0.635
 74
     0
  0
ENDTAB
  0
TABLE
  2
LAYER
  5
2
102
{ACAD_XDICTIONARY
360
21D
102
}
330
0
100
AcDbSymbolTable
 70
    18
  0
LAYER
  5
10
330
2
100
AcDbSymbolTableRecord
100
AcDbLayerTableRecord
  2
0
 70
     0
 62
     7
  6
Continuous
370
    -3
390
F
  0
LAYER
  5
6F
330
2
100
AcDbSymbolTableRecord
100
AcDbLayerTableRecord
  2
FORMAT
 70
     0
 62
     2
  6
Continuous
370
    -3
390
F
  0
LAYER
  5
70
330
2
100
AcDbSymbolTableRecord
100
AcDbLayerTableRecord
  2
외형선
 70
     0
 62
     4
  6
Continuous
370
    30
390
F
  0
LAYER
  5
71
330
2
100
AcDbSymbolTableRecord
100
AcDbLayerTableRecord
  2
숨은선
 70
     0
 62
     2
  6
HIDDEN
370
    15
390
F
  0
LAYER
  5
72
330
2
100
AcDbSymbolTableRecord
100
AcDbLayerTableRecord
  2
중심선
 70
     0
 62
     1
  6
CENTERX2
370
    -3
390
F
  0
LAYER
  5
73
330
2
100
AcDbSymbolTableRecord
100
AcDbLayerTableRecord
  2
파단선
 70
     0
 62
     4
  6
Continuous
370
    -3
390
F
  0
LAYER
  5
74
330
2
100
AcDbSymbolTableRecord
100
AcDbLayerTableRecord
  2
해칭선
 70
     0
 62
   100
  6
Continuous
370
    -3
390
F
  0
LAYER
  5
75
330
2
100
AcDbSymbolTableRecord
100
AcDbLayerTableRecord
  2
가는실선
 70
     0
 62
     4
  6
Continuous
370
    -3
390
F
  0
LAYER
  5
76
330
2
100
AcDbSymbolTableRecord
100
AcDbLayerTableRecord
  2
치수_보조선
 70
     0
 62
     4
  6
Continuous
370
    -3
390
F
  0
LAYER
  5
77
330
2
100
AcDbSymbolTableRecord
100
AcDbLayerTableRecord
  2
치수문자_일반주서
 70
     0
 62
     7
  6
Continuous
370
    15
390
F
  0
LAYER
  5
78
330
2
100
AcDbSymbolTableRecord
100
AcDbLayerTableRecord
  2
개별주서
 70
     0
 62
   100
  6
Continuous
370
    30
390
F
  0
LAYER
  5
79
330
2
100
AcDbSymbolTableRecord
100
AcDbLayerTableRecord
  2
중간선
 70
     0
 62
     2
  6
Continuous
370
    15
390
F
  0
LAYER
  5
7A
330
2
100
AcDbSymbolTableRecord
100
AcDbLayerTableRecord
  2
윤곽선
 70
     0
 62
     3
  6
Continuous
370
    40
390
F
  0
LAYER
  5
7B
330
2
100
AcDbSymbolTableRecord
100
AcDbLayerTableRecord
  2
중심마크
 70
     0
 62
   100
  6
Continuous
370
    30
390
F
  0
LAYER
  5
7C
330
2
100
AcDbSymbolTableRecord
100
AcDbLayerTableRecord
  2
가상선
 70
     0
 62
     4
  6
PHANTOM
370
    -3
390
F
  0
LAYER
  5
7D
330
2
100
AcDbSymbolTableRecord
100
AcDbLayerTableRecord
  2
특수지정선
 70
     0
 62
     5
  6
CENTERX2
370
    60
390
F
  0
LAYER
  5
7E
330
2
100
AcDbSymbolTableRecord
100
AcDbLayerTableRecord
  2
참조1
 70
     0
 62
    -4
  6
Continuous
370
    -3
390
F
  0
LAYER
  5
165
330
2
100
AcDbSymbolTableRecord
100
AcDbLayerTableRecord
  2
Defpoints
 70
     0
 62
     7
  6
Continuous
290
     0
370
    -3
390
F
  0
ENDTAB
  0
TABLE
  2
STYLE
  5
3
330
0
100
AcDbSymbolTable
 70
     2
  0
STYLE
  5
11
330
3
100
AcDbSymbolTableRecord
100
AcDbTextStyleTableRecord
  2
Standard
 70
     0
 40
0.0
 41
1.0
 50
0.0
 71
     0
 42
3.5
  3
txt
  4

  0
STYLE
  5
94
330
3
100
AcDbSymbolTableRecord
100
AcDbTextStyleTableRecord
  2
SLDTEXTSTYLE0
 70
     0
 40
0.0
 41
0.75
 50
0.0
 71
     0
 42
3.5
  3
TXT
  4

  0
ENDTAB
  0
TABLE
  2
VIEW
  5
6
330
0
100
AcDbSymbolTable
 70
     0
  0
ENDTAB
  0
TABLE
  2
UCS
  5
7
330
0
100
AcDbSymbolTable
 70
     0
  0
ENDTAB
  0
TABLE
  2
APPID
  5
9
330
0
100
AcDbSymbolTable
 70
     3
  0
APPID
  5
12
330
9
100
AcDbSymbolTableRecord
100
AcDbRegAppTableRecord
  2
ACAD
 70
     0
  0
APPID
  5
171
330
9
100
AcDbSymbolTableRecord
100
AcDbRegAppTableRecord
  2
PE_URL
 70
     0
  0
APPID
  5
172
330
9
100
AcDbSymbolTableRecord
100
AcDbRegAppTableRecord
  2
ACAD_DSTYLE_DIMRADIAL_EXTENSION
 70
     0
  0
ENDTAB
  0
TABLE
  2
DIMSTYLE
  5
A
330
0
100
AcDbSymbolTable
 70
     5
100
AcDbDimStyleTable
  0
DIMSTYLE
105
27
330
A
100
AcDbSymbolTableRecord
100
AcDbDimStyleTableRecord
  2
ISO-25
 70
     0
 41
2.5
 42
0.625
 43
3.75
 44
1.25
 73
     0
 74
     0
 77
     1
 78
     8
140
2.5
141
2.5
143
0.03937007874016
147
0.625
171
     3
172
     1
178
     0
271
     2
272
     2
274
     3
278
    44
283
     0
284
     8
340
11
  0
DIMSTYLE
105
E0
102
{ACAD_REACTORS
330
DF
330
F3
330
109
330
11D
102
}
330
A
100
AcDbSymbolTableRecord
100
AcDbDimStyleTableRecord
  2
SLDDIMSTYLE0
 70
     0
 41
3.302
 44
0.0
 45
0.000000001
 73
     0
 74
     0
 77
     1
 78
    12
 79
     3
140
3.5
143
0.0393700787401575
147
0.875
148
0.000000001
170
     1
173
     1
178
     0
271
     2
272
     2
276
     2
284
    12
340
94
  0
DIMSTYLE
105
F4
102
{ACAD_REACTORS
102
}
330
A
100
AcDbSymbolTableRecord
100
AcDbDimStyleTableRecord
  2
SLDDIMSTYLE1
 70
     0
 41
3.302
 44
0.0
 45
0.000000001
 73
     0
 74
     0
 77
     1
 78
     4
 79
     1
140
3.5
143
0.0393700787401575
147
0.875
148
0.000000001
170
     1
172
     1
173
     1
178
     0
271
     2
272
     2
276
     2
284
    12
289
     0
340
94
  0
DIMSTYLE
105
10A
102
{ACAD_REACTORS
102
}
330
A
100
AcDbSymbolTableRecord
100
AcDbDimStyleTableRecord
  2
SLDDIMSTYLE2
 70
     0
 41
3.302
 44
0.0
 45
0.000000001
 73
     0
 74
     0
 77
     1
 78
     4
 79
     1
140
3.5
143
0.0393700787401575
147
0.875
148
0.000000001
170
     1
173
     1
178
     0
271
     2
272
     2
276
     2
284
    12
340
94
  0
DIMSTYLE
105
11E
330
A
100
AcDbSymbolTableRecord
100
AcDbDimStyleTableRecord
  2
SLDDIMSTYLE3
 70
     0
 41
3.302
 44
0.0
 45
0.000000001
 73
     0
 74
     0
 77
     1
 78
    12
 79
     3
140
3.5
143
0.0393700787401575
147
0.875
148
0.000000001
170
     1
172
     1
173
     1
178
     0
271
     2
272
     2
276
     2
284
    12
289
     0
340
94
  0
ENDTAB
  0
TABLE
  2
BLOCK_RECORD
  5
1
330
0
100
AcDbSymbolTable
 70
    17
  0
BLOCK_RECORD
  5
1F
102
{ACAD_XDICTIONARY
360
2F5
102
}
330
1
100
AcDbSymbolTableRecord
100
AcDbBlockTableRecord
  2
*Model_Space
340
22
  0
BLOCK_RECORD
  5
1B
330
1
100
AcDbSymbolTableRecord
100
AcDbBlockTableRecord
  2
*Paper_Space
340
1E
  0
BLOCK_RECORD
  5
23
330
1
100
AcDbSymbolTableRecord
100
AcDbBlockTableRecord
  2
*Paper_Space0
340
26
  0
BLOCK_RECORD
  5
7F
330
1
100
AcDbSymbolTableRecord
100
AcDbBlockTableRecord
  2
블럭10
340
0
102
{BLKREFS
331
D8
102
}
  0
BLOCK_RECORD
  5
E1
330
1
100
AcDbSymbolTableRecord
100
AcDbBlockTableRecord
  2
_D
340
0
  0
BLOCK_RECORD
  5
F5
330
1
100
AcDbSymbolTableRecord
100
AcDbBlockTableRecord
  2
_D_1
340
0
  0
BLOCK_RECORD
  5
10B
330
1
100
AcDbSymbolTableRecord
100
AcDbBlockTableRecord
  2
_D_2
340
0
  0
BLOCK_RECORD
  5
11F
330
1
100
AcDbSymbolTableRecord
100
AcDbBlockTableRecord
  2
_D_3
340
0
  0
BLOCK_RECORD
  5
139
330
1
100
AcDbSymbolTableRecord
100
AcDbBlockTableRecord
  2
SW_DOWELSYMBOL_0
340
0
102
{BLKREFS
331
13F
102
}
  0
BLOCK_RECORD
  5
1FB
330
1
100
AcDbSymbolTableRecord
100
AcDbBlockTableRecord
  2
_D_4
340
0
  0
BLOCK_RECORD
  5
215
330
1
100
AcDbSymbolTableRecord
100
AcDbBlockTableRecord
  2
*D8
340
0
  0
BLOCK_RECORD
  5
221
330
1
100
AcDbSymbolTableRecord
100
AcDbBlockTableRecord
  2
*D9
340
0
  0
BLOCK_RECORD
  5
22D
330
1
100
AcDbSymbolTableRecord
100
AcDbBlockTableRecord
  2
*D10
340
0
  0
BLOCK_RECORD
  5
239
330
1
100
AcDbSymbolTableRecord
100
AcDbBlockTableRecord
  2
*D11
340
0
  0
BLOCK_RECORD
  5
293
330
1
100
AcDbSymbolTableRecord
100
AcDbBlockTableRecord
  2
*D12
340
0
  0
BLOCK_RECORD
  5
29F
330
1
100
AcDbSymbolTableRecord
100
AcDbBlockTableRecord
  2
*D13
340
0
  0
BLOCK_RECORD
  5
2AB
330
1
100
AcDbSymbolTableRecord
100
AcDbBlockTableRecord
  2
*D14
340
0
  0
BLOCK_RECORD
  5
2B9
330
1
100
AcDbSymbolTableRecord
100
AcDbBlockTableRecord
  2
*D15
340
0
  0
BLOCK_RECORD
  5
2C7
330
1
100
AcDbSymbolTableRecord
100
AcDbBlockTableRecord
  2
*D16
340
0
  0
ENDTAB
  0
ENDSEC
  0
SECTION
  2
BLOCKS
  0
BLOCK
  5
20
330
1F
100
AcDbEntity
  8
0
100
AcDbBlockBegin
  2
*Model_Space
 70
     0
 10
0.0
 20
0.0
 30
0.0
  3
*Model_Space
  1
*Model_Space
  0
ENDBLK
  5
21
330
1F
100
AcDbEntity
  8
0
100
AcDbBlockEnd
  0
BLOCK
  5
1C
330
1B
100
AcDbEntity
 67
     1
  8
0
100
AcDbBlockBegin
  2
*Paper_Space
 70
     0
 10
0.0
 20
0.0
 30
0.0
  3
*Paper_Space
  1
*Paper_Space
  0
ENDBLK
  5
1D
330
1B
100
AcDbEntity
 67
     1
  8
0
100
AcDbBlockEnd
  0
BLOCK
  5
24
330
23
100
AcDbEntity
  8
0
100
AcDbBlockBegin
  2
*Paper_Space0
 70
     0
 10
0.0
 20
0.0
 30
0.0
  3
*Paper_Space0
  1
*Paper_Space0
  0
ENDBLK
  5
25
330
23
100
AcDbEntity
  8
0
100
AcDbBlockEnd
  0
BLOCK
  5
80
330
7F
100
AcDbEntity
  8
0
100
AcDbBlockBegin
  2
블럭10
 70
     2
 10
0.0
 20
0.0
 30
0.0
  3
블럭10
  1
블럭10
  0
ELLIPSE
  5
82
330
7F
100
AcDbEntity
  8
중심선
100
AcDbEllipse
 10
20.54032771741204
 20
12.0471743016438
 30
0.0
 11
6.600054785286829
 21
-1.261213355974178E-13
 31
0.0
210
0.0
220
0.0
230
1.0
 40
0.636358354079598
 41
0.9219305317359503
 42
6.513795318482858
  0
ELLIPSE
  5
83
330
7F
100
AcDbEntity
  8
중심선
100
AcDbEllipse
 10
20.54032771746488
 20
12.04717430159265
 30
0.0
 11
3.960054785062283
 21
1.540847449632565E-10
 31
0.0
210
0.0
220
0.0
230
1.0
 40
0.3939339440162632
 41
1.131841032648279
 42
5.62031148352944
  0
LINE
  5
84
330
7F
100
AcDbEntity
  8
중심선
100
AcDbLine
 10
2.268634060543552
 20
16.24717430164393
 30
0.0
 11
5.714909304380834
 21
16.24717430164393
 31
0.0
  0
LINE
  5
85
330
7F
100
AcDbEntity
  8
중심선
100
AcDbLine
 10
5.245725140726316
 20
7.84717430164391
 30
0.0
 11
8.692000384563599
 21
7.84717430164391
 31
0.0
  0
LINE
  5
86
330
7F
100
AcDbEntity
  8
중심선
100
AcDbLine
 10
15.74043728645272
 20
16.24717430164393
 30
0.0
 11
8.692000384563599
 21
7.84717430164391
 31
0.0
  0
LINE
  5
87
330
7F
100
AcDbEntity
  8
중심선
100
AcDbLine
 10
0.1404042013395286
 20
13.71084872107135
 30
0.0
 11
3.58671253028996
 21
13.71088815037384
 31
0.0
  0
LINE
  5
88
330
7F
100
AcDbEntity
  8
중심선
100
AcDbLine
 10
2.750260043222114
 20
10.84717430164391
 30
0.0
 11
6.196535287059397
 21
10.84717430164391
 31
0.0
  0
LINE
  5
89
330
7F
100
AcDbEntity
  8
중심선
100
AcDbLine
 10
12.29416204261559
 20
16.24717430164393
 30
0.0
 11
5.245725140726316
 21
7.84717430164391
 31
0.0
  0
LINE
  5
8A
330
7F
100
AcDbEntity
  8
중심선
100
AcDbLine
 10
10.72767329541681
 20
16.24717430164393
 30
0.0
 11
6.196535287059397
 21
10.84717430164391
 31
0.0
  0
LINE
  5
8B
330
7F
100
AcDbEntity
  8
중심선
100
AcDbLine
 10
7.28139805157953
 20
16.24717430164393
 30
0.0
 11
2.750260043222114
 21
10.84717430164391
 31
0.0
  0
LINE
  5
8C
330
7F
100
AcDbEntity
  8
중심선
100
AcDbLine
 10
5.714909304380834
 20
16.24717430164393
 30
0.0
 11
3.58671253028996
 21
13.71088815037384
 31
0.0
  0
LINE
  5
8D
330
7F
100
AcDbEntity
  8
중심선
100
AcDbLine
 10
2.268634060543552
 20
16.24717430164393
 30
0.0
 11
0.1404042013395286
 21
13.71084872107135
 31
0.0
  0
LINE
  5
8E
330
7F
100
AcDbEntity
  8
중심선
100
AcDbLine
 10
7.28139805157953
 20
16.24717430164393
 30
0.0
 11
10.72767329541681
 21
16.24717430164393
 31
0.0
  0
LINE
  5
8F
330
7F
100
AcDbEntity
  8
중심선
100
AcDbLine
 10
12.29416204261559
 20
16.24717430164393
 30
0.0
 11
15.74043728645272
 21
16.24717430164393
 31
0.0
  0
LINE
  5
90
330
7F
100
AcDbEntity
  8
중심선
100
AcDbLine
 10
19.22036997980202
 20
11.08717430171403
 30
0.0
 11
23.66174974927406
 21
11.08717430171406
 31
0.0
  0
LINE
  5
91
330
7F
100
AcDbEntity
  8
중심선
100
AcDbLine
 10
19.22039502424796
 20
13.00717430171391
 30
0.0
 11
19.22036997980202
 21
11.08717430171403
 31
0.0
  0
LINE
  5
92
330
7F
100
AcDbEntity
  8
중심선
100
AcDbLine
 10
19.22039502424796
 20
13.00717430171391
 30
0.0
 11
26.96566020931264
 21
13.00717430171391
 31
0.0
  0
LINE
  5
93
330
7F
100
AcDbEntity
  8
중심선
100
AcDbLine
 10
22.22332737316547
 20
13.45928029700563
 30
0.0
 11
24.52862924686651
 21
15.39360700705356
 31
0.0
  0
ATTDEF
  5
95
330
7F
100
AcDbEntity
  8
FORMAT
 62
     2
100
AcDbText
 10
4.408487351596664
 20
2.075366912832191
 30
0.0
 40
4.233333333333333
  1
E5058028
 41
0.75
  7
SLDTEXTSTYLE0
 11
4.408487351596664
 21
-0.0412997538344756
 31
0.0
100
AcDbAttributeDefinition
  3

  2
AUTOATTR0
 70
     0
 74
     1
  0
ENDBLK
  5
81
330
7F
100
AcDbEntity
  8
0
100
AcDbBlockEnd
  0
BLOCK
  5
E2
330
E1
100
AcDbEntity
  8
0
100
AcDbBlockBegin
  2
_D
 70
     0
 10
0.0
 20
0.0
 30
0.0
  3
_D
  1
_D
  0
LINE
  5
E4
330
E1
100
AcDbEntity
  8
치수문자_일반주서
 62
     0
370
    -2
100
AcDbLine
 10
35.46249999999999
 20
5.556249999999998
 30
0.0
 11
48.70165346547298
 21
5.556250000000048
 31
0.0
  0
LINE
  5
E5
330
E1
100
AcDbEntity
  8
치수문자_일반주서
 62
     0
370
    -2
100
AcDbLine
 10
35.46249999999999
 20
-5.556250000000007
 30
0.0
 11
48.70165346547302
 21
-5.556249999999959
 31
0.0
  0
LINE
  5
E6
330
E1
100
AcDbEntity
  8
치수문자_일반주서
 62
     0
370
    -2
100
AcDbLine
 10
48.70165346547298
 20
5.556250000000048
 30
0.0
 11
48.70165346547286
 21
42.69639493192237
 31
0.0
  0
LINE
  5
E7
330
E1
100
AcDbEntity
  8
치수문자_일반주서
 62
     0
370
    -2
100
AcDbLine
 10
48.70165346547299
 20
2.254250000000049
 30
0.0
 11
48.70165346547301
 21
-2.25424999999996
 31
0.0
  0
SOLID
  5
E8
330
E1
100
AcDbEntity
  8
치수문자_일반주서
 62
     0
100
AcDbTrace
 10
49.25198679880632
 20
2.25425000000005
 30
0.0
 11
48.15132013213965
 21
2.254250000000047
 31
0.0
 12
48.70165346547298
 22
5.556250000000048
 32
0.0
 13
48.70165346547298
 23
5.556250000000048
 33
0.0
  0
SOLID
  5
E9
330
E1
100
AcDbEntity
  8
치수문자_일반주서
 62
     0
100
AcDbTrace
 10
48.15132013213967
 20
-2.254249999999962
 30
0.0
 11
49.25198679880634
 21
-2.254249999999958
 31
0.0
 12
48.70165346547302
 22
-5.556249999999959
 32
0.0
 13
48.70165346547302
 23
-5.556249999999959
 33
0.0
  0
MTEXT
  5
EA
330
E1
100
AcDbEntity
  8
치수문자_일반주서
 62
     0
100
AcDbMText
 10
44.3266534654729
 20
29.13389493192236
 30
0.0
 40
3.5
 41
0.0
 71
     2
 72
     1
  1
\A1;%%c11.11 [7/16]
  7
SLDTEXTSTYLE0
 11
-3.197042680585376E-15
 21
1.0
 31
0.0
 73
     1
 44
1.0
  0
POINT
  5
EB
330
E1
100
AcDbEntity
  8
Defpoints
 62
     0
100
AcDbPoint
 10
35.39999999999999
 20
5.556249999999998
 30
0.0
  0
POINT
  5
EC
330
E1
100
AcDbEntity
  8
Defpoints
 62
     0
100
AcDbPoint
 10
35.39999999999999
 20
-5.556250000000007
 30
0.0
  0
POINT
  5
ED
330
E1
100
AcDbEntity
  8
Defpoints
 62
     0
100
AcDbPoint
 10
48.70165346547302
 20
-5.556249999999957
 30
0.0
  0
ENDBLK
  5
E3
330
E1
100
AcDbEntity
  8
0
100
AcDbBlockEnd
  0
BLOCK
  5
F6
330
F5
100
AcDbEntity
  8
0
100
AcDbBlockBegin
  2
_D_1
 70
     0
 10
0.0
 20
0.0
 30
0.0
  3
_D_1
  1
_D_1
  0
LINE
  5
F8
330
F5
100
AcDbEntity
  8
치수문자_일반주서
 62
     0
370
    -2
100
AcDbLine
 10
35.39999999999999
 20
5.578203548462223
 30
0.0
 11
35.39999999999999
 21
27.63778556994516
 31
0.0
  0
LINE
  5
F9
330
F5
100
AcDbEntity
  8
치수문자_일반주서
 62
     0
370
    -2
100
AcDbLine
 10
10.0
 20
5.429447541996832
 30
0.0
 11
10.0
 21
27.63778556994516
 31
0.0
  0
LINE
  5
FA
330
F5
100
AcDbEntity
  8
치수문자_일반주서
 62
     0
370
    -2
100
AcDbLine
 10
32.09799999999999
 20
27.63778556994516
 30
0.0
 11
13.302
 21
27.63778556994516
 31
0.0
  0
SOLID
  5
FB
330
F5
100
AcDbEntity
  8
치수문자_일반주서
 62
     0
100
AcDbTrace
 10
32.09799999999999
 20
27.08745223661183
 30
0.0
 11
32.09799999999999
 21
28.1881189032785
 31
0.0
 12
35.39999999999999
 22
27.63778556994516
 32
0.0
 13
35.39999999999999
 23
27.63778556994516
 33
0.0
  0
SOLID
  5
FC
330
F5
100
AcDbEntity
  8
치수문자_일반주서
 62
     0
100
AcDbTrace
 10
13.302
 20
28.1881189032785
 30
0.0
 11
13.302
 21
27.08745223661183
 31
0.0
 12
10.0
 22
27.63778556994516
 32
0.0
 13
10.0
 23
27.63778556994516
 33
0.0
  0
MTEXT
  5
FD
330
F5
100
AcDbEntity
  8
치수문자_일반주서
 62
     0
100
AcDbMText
 10
22.7
 20
32.01278556994517
 30
0.0
 40
3.5
 41
0.0
 71
     2
 72
     1
  1
\A1;25.4 [1]
  7
SLDTEXTSTYLE0
 73
     1
 44
1.0
  0
POINT
  5
FE
330
F5
100
AcDbEntity
  8
Defpoints
 62
     0
100
AcDbPoint
 10
35.39999999999999
 20
5.515703548462223
 30
0.0
  0
POINT
  5
FF
330
F5
100
AcDbEntity
  8
Defpoints
 62
     0
100
AcDbPoint
 10
10.0
 20
5.366947541996832
 30
0.0
  0
POINT
  5
100
330
F5
100
AcDbEntity
  8
Defpoints
 62
     0
100
AcDbPoint
 10
10.0
 20
27.63778556994516
 30
0.0
  0
ENDBLK
  5
F7
330
F5
100
AcDbEntity
  8
0
100
AcDbBlockEnd
  0
BLOCK
  5
10C
330
10B
100
AcDbEntity
  8
0
100
AcDbBlockBegin
  2
_D_2
 70
     0
 10
0.0
 20
0.0
 30
0.0
  3
_D_2
  1
_D_2
  0
LINE
  5
10E
330
10B
100
AcDbEntity
  8
치수문자_일반주서
 62
     0
370
    -2
100
AcDbLine
 10
35.39999999999999
 20
5.578203548462223
 30
0.0
 11
35.39999999999999
 21
45.63778556994518
 31
0.0
  0
LINE
  5
10F
330
10B
100
AcDbEntity
  8
치수문자_일반주서
 62
     0
370
    -2
100
AcDbLine
 10
-28.10000000000001
 20
4.5075
 30
0.0
 11
-28.10000000000001
 21
45.63778556994518
 31
0.0
  0
LINE
  5
110
330
10B
100
AcDbEntity
  8
치수문자_일반주서
 62
     0
370
    -2
100
AcDbLine
 10
32.09799999999999
 20
45.63778556994518
 30
0.0
 11
-24.79800000000001
 21
45.63778556994518
 31
0.0
  0
SOLID
  5
111
330
10B
100
AcDbEntity
  8
치수문자_일반주서
 62
     0
100
AcDbTrace
 10
32.09799999999999
 20
45.08745223661185
 30
0.0
 11
32.09799999999999
 21
46.18811890327851
 31
0.0
 12
35.39999999999999
 22
45.63778556994518
 32
0.0
 13
35.39999999999999
 23
45.63778556994518
 33
0.0
  0
SOLID
  5
112
330
10B
100
AcDbEntity
  8
치수문자_일반주서
 62
     0
100
AcDbTrace
 10
-24.79800000000001
 20
46.18811890327851
 30
0.0
 11
-24.79800000000001
 21
45.08745223661185
 31
0.0
 12
-28.10000000000001
 22
45.63778556994518
 32
0.0
 13
-28.10000000000001
 23
45.63778556994518
 33
0.0
  0
MTEXT
  5
113
330
10B
100
AcDbEntity
  8
치수문자_일반주서
 62
     0
100
AcDbMText
 10
3.649999999999991
 20
50.01278556994518
 30
0.0
 40
3.5
 41
0.0
 71
     2
 72
     1
  1
\A1;63.5 [2 1/2]
  7
SLDTEXTSTYLE0
 73
     1
 44
1.0
  0
POINT
  5
114
330
10B
100
AcDbEntity
  8
Defpoints
 62
     0
100
AcDbPoint
 10
35.39999999999999
 20
5.515703548462223
 30
0.0
  0
POINT
  5
115
330
10B
100
AcDbEntity
  8
Defpoints
 62
     0
100
AcDbPoint
 10
-28.10000000000001
 20
4.445
 30
0.0
  0
POINT
  5
116
330
10B
100
AcDbEntity
  8
Defpoints
 62
     0
100
AcDbPoint
 10
-28.10000000000001
 20
45.63778556994518
 30
0.0
  0
ENDBLK
  5
10D
330
10B
100
AcDbEntity
  8
0
100
AcDbBlockEnd
  0
BLOCK
  5
120
330
11F
100
AcDbEntity
  8
0
100
AcDbBlockBegin
  2
_D_3
 70
     0
 10
0.0
 20
0.0
 30
0.0
  3
_D_3
  1
_D_3
  0
LINE
  5
122
330
11F
100
AcDbEntity
  8
치수문자_일반주서
 62
     0
370
    -2
100
AcDbLine
 10
-27.05125
 20
5.556250000000008
 30
0.0
 11
-40.76506740101067
 21
5.556249999999956
 31
0.0
  0
LINE
  5
123
330
11F
100
AcDbEntity
  8
치수문자_일반주서
 62
     0
370
    -2
100
AcDbLine
 10
-27.05125
 20
-5.556250000000017
 30
0.0
 11
-40.76506740101063
 21
-5.55625000000007
 31
0.0
  0
LINE
  5
124
330
11F
100
AcDbEntity
  8
치수문자_일반주서
 62
     0
370
    -2
100
AcDbLine
 10
-40.76506740101067
 20
5.556249999999956
 30
0.0
 11
-40.76506740101076
 21
35.98324999999996
 31
0.0
  0
LINE
  5
125
330
11F
100
AcDbEntity
  8
치수문자_일반주서
 62
     0
370
    -2
100
AcDbLine
 10
-40.76506740101066
 20
2.254249999999956
 30
0.0
 11
-40.76506740101064
 21
-2.25425000000007
 31
0.0
  0
SOLID
  5
126
330
11F
100
AcDbEntity
  8
치수문자_일반주서
 62
     0
100
AcDbTrace
 10
-40.21473406767733
 20
2.254249999999958
 30
0.0
 11
-41.315400734344
 21
2.254249999999955
 31
0.0
 12
-40.76506740101067
 22
5.556249999999956
 32
0.0
 13
-40.76506740101067
 23
5.556249999999956
 33
0.0
  0
SOLID
  5
127
330
11F
100
AcDbEntity
  8
치수문자_일반주서
 62
     0
100
AcDbTrace
 10
-41.31540073434397
 20
-2.254250000000072
 30
0.0
 11
-40.21473406767731
 21
-2.254250000000068
 31
0.0
 12
-40.76506740101063
 22
-5.55625000000007
 32
0.0
 13
-40.76506740101063
 23
-5.55625000000007
 33
0.0
  0
MTEXT
  5
128
330
11F
100
AcDbEntity
  8
치수문자_일반주서
 62
     0
100
AcDbMText
 10
-45.14006740101072
 20
22.42074999999994
 30
0.0
 40
3.5
 41
0.0
 71
     2
 72
     1
  1
\A1;%%c11.11 [7/16]
  7
SLDTEXTSTYLE0
 11
-3.197042680585370E-15
 21
1.0
 31
0.0
 73
     1
 44
1.0
  0
POINT
  5
129
330
11F
100
AcDbEntity
  8
Defpoints
 62
     0
100
AcDbPoint
 10
-26.98875
 20
5.556250000000008
 30
0.0
  0
POINT
  5
12A
330
11F
100
AcDbEntity
  8
Defpoints
 62
     0
100
AcDbPoint
 10
-26.98875
 20
-5.556250000000017
 30
0.0
  0
POINT
  5
2D0
330
11F
100
AcDbEntity
  8
Defpoints
 62
     0
100
AcDbPoint
 10
-40.76506740101063
 20
-5.556250000000069
 30
0.0
  0
ENDBLK
  5
121
330
11F
100
AcDbEntity
  8
0
100
AcDbBlockEnd
  0
BLOCK
  5
13A
330
139
100
AcDbEntity
  8
0
100
AcDbBlockBegin
  2
SW_DOWELSYMBOL_0
 70
     0
 10
0.0
 20
0.0
 30
0.0
  3
SW_DOWELSYMBOL_0
  1
SW_DOWELSYMBOL_0
  0
CIRCLE
  5
13C
330
139
100
AcDbEntity
  8
해칭선
 62
     0
100
AcDbCircle
 10
0.0
 20
0.0
 30
0.0
 40
3.000000000000001
  0
HATCH
  5
13D
330
139
100
AcDbEntity
  8
0
  6
Continuous
 62
     0
370
     0
100
AcDbHatch
 10
0.0
 20
0.0
 30
0.0
210
0.0
220
0.0
230
1.0
  2
SOLID
 70
     1
 71
     0
 91
        1
 92
        0
 93
        3
 72
     2
 10
0.0
 20
0.0
 40
3.000000000000001
 50
0.0
 51
90.0
 73
     1
 72
     1
 10
0.0
 20
3.000000000000001
 11
0.0
 21
0.0
 72
     1
 10
0.0
 20
0.0
 11
3.000000000000001
 21
0.0
 97
        0
 75
     0
 76
     1
 98
        1
 10
0.0
 20
0.0
  0
HATCH
  5
13E
330
139
100
AcDbEntity
  8
0
  6
Continuous
 62
     0
370
     0
100
AcDbHatch
 10
0.0
 20
0.0
 30
0.0
210
0.0
220
0.0
230
1.0
  2
SOLID
 70
     1
 71
     0
 91
        1
 92
        0
 93
        3
 72
     2
 10
0.0
 20
0.0
 40
3.000000000000001
 50
180.0
 51
270.0000000000007
 73
     1
 72
     1
 10
0.0
 20
-3.000000000000001
 11
0.0
 21
0.0
 72
     1
 10
0.0
 20
0.0
 11
-3.000000000000001
 21
0.0
 97
        0
 75
     0
 76
     1
 98
        1
 10
0.0
 20
0.0
  0
ENDBLK
  5
13B
330
139
100
AcDbEntity
  8
0
100
AcDbBlockEnd
  0
BLOCK
  5
1FC
330
1FB
100
AcDbEntity
  8
0
100
AcDbBlockBegin
  2
_D_4
 70
     0
 10
0.0
 20
0.0
 30
0.0
  3
_D_4
  1
_D_4
  0
LINE
  5
1FD
330
1FB
100
AcDbEntity
  8
치수문자_일반주서
 62
     0
370
    -2
100
AcDbLine
 10
102.4375000000001
 20
36.22143424691529
 30
0.0
 11
117.3750000000001
 21
36.22143424691535
 31
0.0
  0
LINE
  5
1FE
330
1FB
100
AcDbEntity
  8
치수문자_일반주서
 62
     0
370
    -2
100
AcDbLine
 10
102.4375000000001
 20
22.22143424691529
 30
0.0
 11
117.3750000000001
 21
22.22143424691535
 31
0.0
  0
LINE
  5
1FF
330
1FB
100
AcDbEntity
  8
치수문자_일반주서
 62
     0
370
    -2
100
AcDbLine
 10
117.3750000000001
 20
36.22143424691535
 30
0.0
 11
117.3750000000001
 21
22.22143424691535
 31
0.0
  0
LINE
  5
200
330
1FB
100
AcDbEntity
  8
치수문자_일반주서
 62
     0
370
    -2
100
AcDbLine
 10
117.3750000000001
 20
39.52343424691535
 30
0.0
 11
117.375
 21
42.82543424691535
 31
0.0
  0
LINE
  5
201
330
1FB
100
AcDbEntity
  8
치수문자_일반주서
 62
     0
370
    -2
100
AcDbLine
 10
117.3750000000001
 20
18.91943424691535
 30
0.0
 11
117.3750000000001
 21
15.61743424691535
 31
0.0
  0
SOLID
  5
202
330
1FB
100
AcDbEntity
  8
치수문자_일반주서
 62
     0
100
AcDbTrace
 10
116.8246666666667
 20
39.52343424691535
 30
0.0
 11
117.9253333333334
 21
39.52343424691535
 31
0.0
 12
117.3750000000001
 22
36.22143424691535
 32
0.0
 13
117.3750000000001
 23
36.22143424691535
 33
0.0
  0
SOLID
  5
203
330
1FB
100
AcDbEntity
  8
치수문자_일반주서
 62
     0
100
AcDbTrace
 10
117.9253333333335
 20
18.91943424691535
 30
0.0
 11
116.8246666666668
 21
18.91943424691535
 31
0.0
 12
117.3750000000001
 22
22.22143424691535
 32
0.0
 13
117.3750000000001
 23
22.22143424691535
 33
0.0
  0
MTEXT
  5
204
330
1FB
100
AcDbEntity
  8
치수문자_일반주서
 62
     0
100
AcDbMText
 10
113.0000000000001
 20
29.28713862862833
 30
0.0
 40
3.5
 41
0.0
 71
     2
 72
     1
  1
\A1;%%c14.00 [0.55]
  7
SLDTEXTSTYLE0
 11
-3.045183153257572E-15
 21
1.0
 31
0.0
 73
     1
 44
1.0
  0
POINT
  5
205
330
1FB
100
AcDbEntity
  8
Defpoints
 62
     0
100
AcDbPoint
 10
102.3750000000001
 20
36.22143424691529
 30
0.0
  0
POINT
  5
206
330
1FB
100
AcDbEntity
  8
Defpoints
 62
     0
100
AcDbPoint
 10
102.3750000000001
 20
22.22143424691529
 30
0.0
  0
POINT
  5
207
330
1FB
100
AcDbEntity
  8
Defpoints
 62
     0
100
AcDbPoint
 10
117.3750000000001
 20
22.22143424691535
 30
0.0
  0
ENDBLK
  5
208
330
1FB
100
AcDbEntity
  8
0
100
AcDbBlockEnd
  0
BLOCK
  5
216
330
215
100
AcDbEntity
  8
0
100
AcDbBlockBegin
  2
*D8
 70
     1
 10
0.0
 20
0.0
 30
0.0
  3
*D8
  1
*D8
  0
LINE
  5
217
330
215
100
AcDbEntity
  8
치수문자_일반주서
 62
     0
370
    -2
100
AcDbLine
 10
103.8657751816695
 20
19.48229575403651
 30
0.0
 11
120.1921280501954
 21
-7.081888143622854
 31
0.0
  0
MTEXT
  5
218
330
215
100
AcDbEntity
  8
치수문자_일반주서
 62
     0
100
AcDbMText
 10
115.6706384014277
 20
5.288158154535728
 30
0.0
 40
3.5
 41
0.0
 71
     5
 72
     1
  1
\A1;R.50 [R0.02]
  7
SLDTEXTSTYLE0
 11
0.5236126201129557
 21
-0.8519564684057781
 31
0.0
 73
     1
 44
1.0
  0
LINE
  5
219
330
215
100
AcDbEntity
  8
치수문자_일반주서
 62
     0
370
    -2
100
AcDbLine
 10
101.875
 20
22.72143424691529
 30
0.0
 11
102.1368063100565
 21
22.29545601271239
 31
0.0
  0
SOLID
  5
21A
330
215
100
AcDbEntity
  8
치수문자_일반주서
 62
     0
100
AcDbTrace
 10
104.3346352247821
 20
19.77045723263868
 30
0.0
 11
103.3969151385569
 21
19.19413427543435
 31
0.0
 12
102.1368063100565
 22
22.29545601271239
 32
0.0
 13
102.1368063100565
 23
22.29545601271239
 33
0.0
  0
POINT
  5
21B
330
215
100
AcDbEntity
  8
Defpoints
 62
     0
100
AcDbPoint
 10
102.1368063100565
 20
22.29545601271239
 30
0.0
  0
POINT
  5
247
330
215
100
AcDbEntity
  8
Defpoints
 62
     0
100
AcDbPoint
 10
101.875
 20
22.72143424691529
 30
0.0
  0
ENDBLK
  5
21C
330
215
100
AcDbEntity
  8
0
100
AcDbBlockEnd
  0
BLOCK
  5
222
330
221
100
AcDbEntity
  8
0
100
AcDbBlockBegin
  2
*D9
 70
     1
 10
0.0
 20
0.0
 30
0.0
  3
*D9
  1
*D10
  0
LINE
  5
224
330
221
100
AcDbEntity
  8
치수문자_일반주서
 62
     0
370
    -2
100
AcDbLine
 10
19.37500000000004
 20
35.78393424691529
 30
0.0
 11
19.37500000000004
 21
70.88391841499404
 31
0.0
  0
LINE
  5
225
330
221
100
AcDbEntity
  8
치수문자_일반주서
 62
     0
370
    -2
100
AcDbLine
 10
102.3750000000001
 20
36.34643424691529
 30
0.0
 11
102.3750000000001
 21
70.88391841499404
 31
0.0
  0
LINE
  5
226
330
221
100
AcDbEntity
  8
치수문자_일반주서
 62
     0
370
    -2
100
AcDbLine
 10
22.67700000000004
 20
70.88391841499404
 30
0.0
 11
99.07300000000006
 21
70.88391841499404
 31
0.0
  0
SOLID
  5
227
330
221
100
AcDbEntity
  8
치수문자_일반주서
 62
     0
100
AcDbTrace
 10
22.67700000000004
 20
71.43425174832737
 30
0.0
 11
22.67700000000004
 21
70.33358508166071
 31
0.0
 12
19.37500000000004
 22
70.88391841499404
 32
0.0
 13
19.37500000000004
 23
70.88391841499404
 33
0.0
  0
SOLID
  5
228
330
221
100
AcDbEntity
  8
치수문자_일반주서
 62
     0
100
AcDbTrace
 10
99.07300000000006
 20
70.33358508166071
 30
0.0
 11
99.07300000000006
 21
71.43425174832737
 31
0.0
 12
102.3750000000001
 22
70.88391841499404
 32
0.0
 13
102.3750000000001
 23
70.88391841499404
 33
0.0
  0
MTEXT
  5
229
330
221
100
AcDbEntity
  8
치수문자_일반주서
 62
     0
100
AcDbMText
 10
60.87500000000005
 20
75.25891841499404
 30
0.0
 40
3.5
 41
0.0
 71
     2
 72
     1
  1
\A1;83 [3.27]
  7
SLDTEXTSTYLE0
 73
     1
 44
1.0
  0
POINT
  5
22A
330
221
100
AcDbEntity
  8
Defpoints
 62
     0
100
AcDbPoint
 10
19.37500000000004
 20
35.72143424691529
 30
0.0
  0
POINT
  5
22B
330
221
100
AcDbEntity
  8
Defpoints
 62
     0
100
AcDbPoint
 10
102.3750000000001
 20
36.28393424691529
 30
0.0
  0
POINT
  5
22C
330
221
100
AcDbEntity
  8
Defpoints
 62
     0
100
AcDbPoint
 10
102.3750000000001
 20
70.88391841499404
 30
0.0
  0
ENDBLK
  5
223
330
221
100
AcDbEntity
  8
0
100
AcDbBlockEnd
  0
BLOCK
  5
22E
330
22D
100
AcDbEntity
  8
0
100
AcDbBlockBegin
  2
*D10
 70
     1
 10
0.0
 20
0.0
 30
0.0
  3
*D10
  1
*D11
  0
LINE
  5
230
330
22D
100
AcDbEntity
  8
치수문자_일반주서
 62
     0
370
    -2
100
AcDbLine
 10
76.37504186422882
 20
28.62038676313042
 30
0.0
 11
76.37504186422882
 21
61.90091383617725
 31
0.0
  0
LINE
  5
231
330
22D
100
AcDbEntity
  8
치수문자_일반주서
 62
     0
370
    -2
100
AcDbLine
 10
102.3750000000001
 20
36.28393424691529
 30
0.0
 11
102.3750000000001
 21
61.90091383617725
 31
0.0
  0
LINE
  5
232
330
22D
100
AcDbEntity
  8
치수문자_일반주서
 62
     0
370
    -2
100
AcDbLine
 10
79.67704186422881
 20
61.90091383617725
 30
0.0
 11
99.07300000000006
 21
61.90091383617725
 31
0.0
  0
SOLID
  5
233
330
22D
100
AcDbEntity
  8
치수문자_일반주서
 62
     0
100
AcDbTrace
 10
79.67704186422881
 20
62.45124716951059
 30
0.0
 11
79.67704186422881
 21
61.35058050284392
 31
0.0
 12
76.37504186422882
 22
61.90091383617725
 32
0.0
 13
76.37504186422882
 23
61.90091383617725
 33
0.0
  0
SOLID
  5
234
330
22D
100
AcDbEntity
  8
치수문자_일반주서
 62
     0
100
AcDbTrace
 10
99.07300000000006
 20
61.35058050284392
 30
0.0
 11
99.07300000000006
 21
62.45124716951059
 31
0.0
 12
102.3750000000001
 22
61.90091383617725
 32
0.0
 13
102.3750000000001
 23
61.90091383617725
 33
0.0
  0
MTEXT
  5
235
330
22D
100
AcDbEntity
  8
치수문자_일반주서
 62
     0
100
AcDbMText
 10
89.42159572693208
 20
66.27591383617725
 30
0.0
 40
3.5
 41
0.0
 71
     2
 72
     1
  1
\A1;26 [1.02]
  7
SLDTEXTSTYLE0
 73
     1
 44
1.0
  0
POINT
  5
236
330
22D
100
AcDbEntity
  8
Defpoints
 62
     0
100
AcDbPoint
 10
76.37504186422882
 20
28.55788676313042
 30
0.0
  0
POINT
  5
237
330
22D
100
AcDbEntity
  8
Defpoints
 62
     0
100
AcDbPoint
 10
102.3750000000001
 20
36.22143424691529
 30
0.0
  0
POINT
  5
238
330
22D
100
AcDbEntity
  8
Defpoints
 62
     0
100
AcDbPoint
 10
102.3750000000001
 20
61.90091383617725
 30
0.0
  0
ENDBLK
  5
22F
330
22D
100
AcDbEntity
  8
0
100
AcDbBlockEnd
  0
BLOCK
  5
23A
330
239
100
AcDbEntity
  8
0
100
AcDbBlockBegin
  2
*D11
 70
     1
 10
0.0
 20
0.0
 30
0.0
  3
*D11
  1
*D12
  0
LINE
  5
23C
330
239
100
AcDbEntity
  8
치수문자_일반주서
 62
     0
370
    -2
100
AcDbLine
 10
19.81250000000005
 20
36.22143424691529
 30
0.0
 11
4.374999999999983
 21
36.22143424691524
 31
0.0
  0
LINE
  5
23D
330
239
100
AcDbEntity
  8
치수문자_일반주서
 62
     0
370
    -2
100
AcDbLine
 10
19.81250000000005
 20
22.22143424691529
 30
0.0
 11
4.375000000000032
 21
22.22143424691524
 31
0.0
  0
LINE
  5
23E
330
239
100
AcDbEntity
  8
치수문자_일반주서
 62
     0
370
    -2
100
AcDbLine
 10
4.374999999999983
 20
36.22143424691524
 30
0.0
 11
4.375000000000032
 21
22.22143424691524
 31
0.0
  0
LINE
  5
23F
330
239
100
AcDbEntity
  8
치수문자_일반주서
 62
     0
370
    -2
100
AcDbLine
 10
4.374999999999972
 20
39.52343424691524
 30
0.0
 11
4.37499999999996
 21
42.82543424691524
 31
0.0
  0
LINE
  5
240
330
239
100
AcDbEntity
  8
치수문자_일반주서
 62
     0
370
    -2
100
AcDbLine
 10
4.375000000000044
 20
18.91943424691524
 30
0.0
 11
4.375000000000055
 21
15.61743424691524
 31
0.0
  0
SOLID
  5
241
330
239
100
AcDbEntity
  8
치수문자_일반주서
 62
     0
100
AcDbTrace
 10
3.824666666666638
 20
39.52343424691524
 30
0.0
 11
4.925333333333305
 21
39.52343424691524
 31
0.0
 12
4.374999999999983
 22
36.22143424691524
 32
0.0
 13
4.374999999999983
 23
36.22143424691524
 33
0.0
  0
SOLID
  5
242
330
239
100
AcDbEntity
  8
치수문자_일반주서
 62
     0
100
AcDbTrace
 10
4.925333333333377
 20
18.91943424691524
 30
0.0
 11
3.82466666666671
 21
18.91943424691523
 31
0.0
 12
4.375000000000032
 22
22.22143424691524
 32
0.0
 13
4.375000000000032
 23
22.22143424691524
 33
0.0
  0
MTEXT
  5
243
330
239
100
AcDbEntity
  8
치수문자_일반주서
 62
     0
100
AcDbMText
 10
0.0000000000000071
 20
29.22143424691528
 30
0.0
 40
3.5
 41
0.0
 71
     2
 72
     1
  1
\A1;%%c14.00 [0.55]
  7
SLDTEXTSTYLE0
 11
-3.489272363107635E-15
 21
1.0
 31
0.0
 73
     1
 44
1.0
  0
POINT
  5
244
330
239
100
AcDbEntity
  8
Defpoints
 62
     0
100
AcDbPoint
 10
19.87500000000005
 20
36.22143424691529
 30
0.0
  0
POINT
  5
245
330
239
100
AcDbEntity
  8
Defpoints
 62
     0
100
AcDbPoint
 10
19.87500000000005
 20
22.22143424691529
 30
0.0
  0
POINT
  5
246
330
239
100
AcDbEntity
  8
Defpoints
 62
     0
100
AcDbPoint
 10
4.375000000000043
 20
22.22143424691524
 30
0.0
  0
ENDBLK
  5
23B
330
239
100
AcDbEntity
  8
0
100
AcDbBlockEnd
  0
BLOCK
  5
294
330
293
100
AcDbEntity
  8
0
100
AcDbBlockBegin
  2
*D12
 70
     1
 10
0.0
 20
0.0
 30
0.0
  3
*D12
  1
*D13
  0
LINE
  5
296
330
293
100
AcDbEntity
  8
치수문자_일반주서
 62
     0
370
    -2
100
AcDbLine
 10
-46.69446409233414
 20
111.6553043929761
 30
0.0
 11
-46.69446409233414
 21
146.7552885610549
 31
0.0
  0
LINE
  5
297
330
293
100
AcDbEntity
  8
치수문자_일반주서
 62
     0
370
    -2
100
AcDbLine
 10
36.30553590766587
 20
112.2178043929761
 30
0.0
 11
36.30553590766587
 21
146.7552885610549
 31
0.0
  0
LINE
  5
298
330
293
100
AcDbEntity
  8
치수문자_일반주서
 62
     0
370
    -2
100
AcDbLine
 10
-43.39246409233414
 20
146.7552885610549
 30
0.0
 11
33.00353590766587
 21
146.7552885610549
 31
0.0
  0
SOLID
  5
299
330
293
100
AcDbEntity
  8
치수문자_일반주서
 62
     0
100
AcDbTrace
 10
-43.39246409233414
 20
147.3056218943882
 30
0.0
 11
-43.39246409233414
 21
146.2049552277216
 31
0.0
 12
-46.69446409233414
 22
146.7552885610549
 32
0.0
 13
-46.69446409233414
 23
146.7552885610549
 33
0.0
  0
SOLID
  5
29A
330
293
100
AcDbEntity
  8
치수문자_일반주서
 62
     0
100
AcDbTrace
 10
33.00353590766587
 20
146.2049552277216
 30
0.0
 11
33.00353590766587
 21
147.3056218943882
 31
0.0
 12
36.30553590766587
 22
146.7552885610549
 32
0.0
 13
36.30553590766587
 23
146.7552885610549
 33
0.0
  0
MTEXT
  5
29B
330
293
100
AcDbEntity
  8
치수문자_일반주서
 62
     0
100
AcDbMText
 10
-5.194464092334137
 20
151.1302885610549
 30
0.0
 40
3.5
 41
0.0
 71
     2
 72
     1
  1
\A1;83 [3.27]
  7
SLDTEXTSTYLE0
 73
     1
 44
1.0
  0
POINT
  5
29C
330
293
100
AcDbEntity
  8
Defpoints
 62
     0
100
AcDbPoint
 10
-46.69446409233414
 20
111.5928043929761
 30
0.0
  0
POINT
  5
29D
330
293
100
AcDbEntity
  8
Defpoints
 62
     0
100
AcDbPoint
 10
36.30553590766587
 20
112.1553043929761
 30
0.0
  0
POINT
  5
29E
330
293
100
AcDbEntity
  8
Defpoints
 62
     0
100
AcDbPoint
 10
36.30553590766587
 20
146.7552885610549
 30
0.0
  0
ENDBLK
  5
295
330
293
100
AcDbEntity
  8
0
100
AcDbBlockEnd
  0
BLOCK
  5
2A0
330
29F
100
AcDbEntity
  8
0
100
AcDbBlockBegin
  2
*D13
 70
     1
 10
0.0
 20
0.0
 30
0.0
  3
*D13
  1
*D14
  0
LINE
  5
2A2
330
29F
100
AcDbEntity
  8
치수문자_일반주서
 62
     0
370
    -2
100
AcDbLine
 10
10.30557777189463
 20
104.4917569091913
 30
0.0
 11
10.30557777189463
 21
137.7722839822381
 31
0.0
  0
LINE
  5
2A3
330
29F
100
AcDbEntity
  8
치수문자_일반주서
 62
     0
370
    -2
100
AcDbLine
 10
36.30553590766587
 20
112.1553043929761
 30
0.0
 11
36.30553590766587
 21
137.7722839822381
 31
0.0
  0
LINE
  5
2A4
330
29F
100
AcDbEntity
  8
치수문자_일반주서
 62
     0
370
    -2
100
AcDbLine
 10
13.60757777189463
 20
137.7722839822381
 30
0.0
 11
33.00353590766587
 21
137.7722839822381
 31
0.0
  0
SOLID
  5
2A5
330
29F
100
AcDbEntity
  8
치수문자_일반주서
 62
     0
100
AcDbTrace
 10
13.60757777189463
 20
138.3226173155714
 30
0.0
 11
13.60757777189463
 21
137.2219506489048
 31
0.0
 12
10.30557777189463
 22
137.7722839822381
 32
0.0
 13
10.30557777189463
 23
137.7722839822381
 33
0.0
  0
SOLID
  5
2A6
330
29F
100
AcDbEntity
  8
치수문자_일반주서
 62
     0
100
AcDbTrace
 10
33.00353590766587
 20
137.2219506489048
 30
0.0
 11
33.00353590766587
 21
138.3226173155714
 31
0.0
 12
36.30553590766587
 22
137.7722839822381
 32
0.0
 13
36.30553590766587
 23
137.7722839822381
 33
0.0
  0
MTEXT
  5
2A7
330
29F
100
AcDbEntity
  8
치수문자_일반주서
 62
     0
100
AcDbMText
 10
23.3521316345979
 20
142.1472839822381
 30
0.0
 40
3.5
 41
0.0
 71
     2
 72
     1
  1
\A1;26 [1.02]
  7
SLDTEXTSTYLE0
 73
     1
 44
1.0
  0
POINT
  5
2A8
330
29F
100
AcDbEntity
  8
Defpoints
 62
     0
100
AcDbPoint
 10
10.30557777189463
 20
104.4292569091913
 30
0.0
  0
POINT
  5
2A9
330
29F
100
AcDbEntity
  8
Defpoints
 62
     0
100
AcDbPoint
 10
36.30553590766587
 20
112.0928043929761
 30
0.0
  0
POINT
  5
2AA
330
29F
100
AcDbEntity
  8
Defpoints
 62
     0
100
AcDbPoint
 10
36.30553590766587
 20
137.7722839822381
 30
0.0
  0
ENDBLK
  5
2A1
330
29F
100
AcDbEntity
  8
0
100
AcDbBlockEnd
  0
BLOCK
  5
2AC
330
2AB
100
AcDbEntity
  8
0
100
AcDbBlockBegin
  2
*D14
 70
     1
 10
0.0
 20
0.0
 30
0.0
  3
*D14
  1
*D15
  0
LINE
  5
2AE
330
2AB
100
AcDbEntity
  8
치수문자_일반주서
 62
     0
370
    -2
100
AcDbLine
 10
-46.25696409233414
 20
112.0928043929761
 30
0.0
 11
-61.6944640923342
 21
112.0928043929761
 31
0.0
  0
LINE
  5
2AF
330
2AB
100
AcDbEntity
  8
치수문자_일반주서
 62
     0
370
    -2
100
AcDbLine
 10
-46.25696409233414
 20
98.09280439297613
 30
0.0
 11
-61.69446409233415
 21
98.09280439297608
 31
0.0
  0
LINE
  5
2B0
330
2AB
100
AcDbEntity
  8
치수문자_일반주서
 62
     0
370
    -2
100
AcDbLine
 10
-61.6944640923342
 20
112.0928043929761
 30
0.0
 11
-61.69446409233415
 21
98.09280439297608
 31
0.0
  0
LINE
  5
2B1
330
2AB
100
AcDbEntity
  8
치수문자_일반주서
 62
     0
370
    -2
100
AcDbLine
 10
-61.69446409233421
 20
115.3948043929761
 30
0.0
 11
-61.69446409233423
 21
118.6968043929761
 31
0.0
  0
LINE
  5
2B2
330
2AB
100
AcDbEntity
  8
치수문자_일반주서
 62
     0
370
    -2
100
AcDbLine
 10
-61.69446409233414
 20
94.79080439297607
 30
0.0
 11
-61.69446409233412
 21
91.48880439297608
 31
0.0
  0
SOLID
  5
2B3
330
2AB
100
AcDbEntity
  8
치수문자_일반주서
 62
     0
100
AcDbTrace
 10
-62.24479742566755
 20
115.3948043929761
 30
0.0
 11
-61.14413075900088
 21
115.3948043929761
 31
0.0
 12
-61.6944640923342
 22
112.0928043929761
 32
0.0
 13
-61.6944640923342
 23
112.0928043929761
 33
0.0
  0
SOLID
  5
2B4
330
2AB
100
AcDbEntity
  8
치수문자_일반주서
 62
     0
100
AcDbTrace
 10
-61.1441307590008
 20
94.79080439297607
 30
0.0
 11
-62.24479742566747
 21
94.79080439297607
 31
0.0
 12
-61.69446409233415
 22
98.09280439297608
 32
0.0
 13
-61.69446409233415
 23
98.09280439297608
 33
0.0
  0
MTEXT
  5
2B5
330
2AB
100
AcDbEntity
  8
치수문자_일반주서
 62
     0
100
AcDbMText
 10
-66.06946409233419
 20
105.0928043929761
 30
0.0
 40
3.5
 41
0.0
 71
     2
 72
     1
  1
\A1;%%c14.00 [0.55]
  7
SLDTEXTSTYLE0
 11
-3.552713678800501E-15
 21
1.0
 31
0.0
 73
     1
 44
1.0
  0
POINT
  5
2B6
330
2AB
100
AcDbEntity
  8
Defpoints
 62
     0
100
AcDbPoint
 10
-46.19446409233414
 20
112.0928043929761
 30
0.0
  0
POINT
  5
2B7
330
2AB
100
AcDbEntity
  8
Defpoints
 62
     0
100
AcDbPoint
 10
-46.19446409233414
 20
98.09280439297613
 30
0.0
  0
POINT
  5
2B8
330
2AB
100
AcDbEntity
  8
Defpoints
 62
     0
100
AcDbPoint
 10
-61.69446409233416
 20
98.09280439297608
 30
0.0
  0
ENDBLK
  5
2AD
330
2AB
100
AcDbEntity
  8
0
100
AcDbBlockEnd
  0
BLOCK
  5
2BA
330
2B9
100
AcDbEntity
  8
0
100
AcDbBlockBegin
  2
*D15
 70
     1
 10
0.0
 20
0.0
 30
0.0
  3
*D15
  1
*D16
  0
LINE
  5
2BC
330
2B9
100
AcDbEntity
  8
치수문자_일반주서
 62
     0
370
    -2
100
AcDbLine
 10
36.36803590766588
 20
112.0928043929761
 30
0.0
 11
51.30553590766588
 21
112.0928043929762
 31
0.0
  0
LINE
  5
2BD
330
2B9
100
AcDbEntity
  8
치수문자_일반주서
 62
     0
370
    -2
100
AcDbLine
 10
36.36803590766587
 20
98.09280439297613
 30
0.0
 11
51.30553590766593
 21
98.09280439297619
 31
0.0
  0
LINE
  5
2BE
330
2B9
100
AcDbEntity
  8
치수문자_일반주서
 62
     0
370
    -2
100
AcDbLine
 10
51.30553590766588
 20
112.0928043929762
 30
0.0
 11
51.30553590766593
 21
98.09280439297619
 31
0.0
  0
LINE
  5
2BF
330
2B9
100
AcDbEntity
  8
치수문자_일반주서
 62
     0
370
    -2
100
AcDbLine
 10
51.30553590766586
 20
115.3948043929762
 30
0.0
 11
51.30553590766585
 21
118.6968043929762
 31
0.0
  0
LINE
  5
2C0
330
2B9
100
AcDbEntity
  8
치수문자_일반주서
 62
     0
370
    -2
100
AcDbLine
 10
51.30553590766594
 20
94.79080439297618
 30
0.0
 11
51.30553590766596
 21
91.48880439297619
 31
0.0
  0
SOLID
  5
2C1
330
2B9
100
AcDbEntity
  8
치수문자_일반주서
 62
     0
100
AcDbTrace
 10
50.75520257433253
 20
115.3948043929762
 30
0.0
 11
51.8558692409992
 21
115.3948043929762
 31
0.0
 12
51.30553590766588
 22
112.0928043929762
 32
0.0
 13
51.30553590766588
 23
112.0928043929762
 33
0.0
  0
SOLID
  5
2C2
330
2B9
100
AcDbEntity
  8
치수문자_일반주서
 62
     0
100
AcDbTrace
 10
51.85586924099928
 20
94.79080439297618
 30
0.0
 11
50.75520257433261
 21
94.79080439297618
 31
0.0
 12
51.30553590766593
 22
98.09280439297619
 32
0.0
 13
51.30553590766593
 23
98.09280439297619
 33
0.0
  0
MTEXT
  5
2C3
330
2B9
100
AcDbEntity
  8
치수문자_일반주서
 62
     0
100
AcDbMText
 10
46.9305359076659
 20
105.1585087746892
 30
0.0
 40
3.5
 41
0.0
 71
     2
 72
     1
  1
\A1;%%c14.00 [0.55]
  7
SLDTEXTSTYLE0
 11
-3.552713678800501E-15
 21
1.0
 31
0.0
 73
     1
 44
1.0
  0
POINT
  5
2C4
330
2B9
100
AcDbEntity
  8
Defpoints
 62
     0
100
AcDbPoint
 10
36.30553590766588
 20
112.0928043929761
 30
0.0
  0
POINT
  5
2C5
330
2B9
100
AcDbEntity
  8
Defpoints
 62
     0
100
AcDbPoint
 10
36.30553590766587
 20
98.09280439297613
 30
0.0
  0
POINT
  5
2C6
330
2B9
100
AcDbEntity
  8
Defpoints
 62
     0
100
AcDbPoint
 10
51.30553590766593
 20
98.09280439297619
 30
0.0
  0
ENDBLK
  5
2BB
330
2B9
100
AcDbEntity
  8
0
100
AcDbBlockEnd
  0
BLOCK
  5
2C8
330
2C7
100
AcDbEntity
  8
0
100
AcDbBlockBegin
  2
*D16
 70
     1
 10
0.0
 20
0.0
 30
0.0
  3
*D16
  1
*D17
  0
LINE
  5
2CA
330
2C7
100
AcDbEntity
  8
치수문자_일반주서
 62
     0
370
    -2
100
AcDbLine
 10
37.79631108933532
 20
95.35366590009735
 30
0.0
 11
54.12266395786116
 21
68.78948200243798
 31
0.0
  0
MTEXT
  5
2CB
330
2C7
100
AcDbEntity
  8
치수문자_일반주서
 62
     0
100
AcDbMText
 10
49.60117430909349
 20
81.15952830059656
 30
0.0
 40
3.5
 41
0.0
 71
     5
 72
     1
  1
\A1;R.50 [R0.02]
  7
SLDTEXTSTYLE0
 11
0.5236126201129557
 21
-0.8519564684057781
 31
0.0
 73
     1
 44
1.0
  0
LINE
  5
2CC
330
2C7
100
AcDbEntity
  8
치수문자_일반주서
 62
     0
370
    -2
100
AcDbLine
 10
35.80553590766586
 20
98.59280439297613
 30
0.0
 11
36.06734221772234
 21
98.16682615877323
 31
0.0
  0
SOLID
  5
2CD
330
2C7
100
AcDbEntity
  8
치수문자_일반주서
 62
     0
100
AcDbTrace
 10
38.26517113244797
 20
95.64182737869952
 30
0.0
 11
37.32745104622267
 21
95.06550442149519
 31
0.0
 12
36.06734221772234
 22
98.16682615877323
 32
0.0
 13
36.06734221772234
 23
98.16682615877323
 33
0.0
  0
POINT
  5
2CE
330
2C7
100
AcDbEntity
  8
Defpoints
 62
     0
100
AcDbPoint
 10
36.06734221772234
 20
98.16682615877323
 30
0.0
  0
POINT
  5
2CF
330
2C7
100
AcDbEntity
  8
Defpoints
 62
     0
100
AcDbPoint
 10
35.80553590766586
 20
98.59280439297613
 30
0.0
  0
ENDBLK
  5
2C9
330
2C7
100
AcDbEntity
  8
0
100
AcDbBlockEnd
  0
ENDSEC
  0
SECTION
  2
ENTITIES
  0
LINE
  5
96
330
1F
100
AcDbEntity
  8
0
  6
Continuous
 62
     1
370
    15
100
AcDbLine
 10
28.42383237894648
 20
-1.074242595646075
 30
0.0
 11
28.46154364836321
 21
-1.110883166070923
 31
0.0
  0
LINE
  5
97
330
1F
100
AcDbEntity
  8
0
  6
Continuous
 62
     1
370
    15
100
AcDbLine
 10
23.09177480202822
 20
-5.556250000000007
 30
0.0
 11
24.43429062421906
 21
-5.556250000000007
 31
0.0
  0
LINE
  5
98
330
1F
100
AcDbEntity
  8
0
  6
Continuous
 62
     1
370
    15
100
AcDbLine
 10
34.72774586697113
 20
-5.556250000000007
 30
0.0
 11
35.39999999999999
 21
-5.556250000000007
 31
0.0
  0
LINE
  5
99
330
1F
100
AcDbEntity
  8
0
  6
Continuous
 62
     1
370
    15
100
AcDbLine
 10
18.61549818160551
 20
5.556249999999998
 30
0.0
 11
17.27354109650132
 21
5.556249999999998
 31
0.0
  0
LINE
  5
9A
330
1F
100
AcDbEntity
  8
0
  6
Continuous
 62
     1
370
    15
100
AcDbLine
 10
24.43429062421911
 20
5.556249999999998
 30
0.0
 11
23.09177480202827
 21
5.556249999999998
 31
0.0
  0
LINE
  5
9B
330
1F
100
AcDbEntity
  8
0
  6
Continuous
 62
     1
370
    15
100
AcDbLine
 10
28.90946265072914
 20
-5.556250000000007
 30
0.0
 11
30.25334573202765
 21
-5.556250000000007
 31
0.0
  0
LINE
  5
9C
330
1F
100
AcDbEntity
  8
0
  6
Continuous
 62
     1
370
    15
100
AcDbLine
 10
12.79754308291799
 20
5.556249999999998
 30
0.0
 11
11.45453363075394
 21
5.556249999999998
 31
0.0
  0
LINE
  5
9D
330
1F
100
AcDbEntity
  8
0
  6
Continuous
 62
     1
370
    15
100
AcDbLine
 10
17.27354109650132
 20
-5.556250000000007
 30
0.0
 11
18.61549818160548
 21
-5.556250000000007
 31
0.0
  0
LINE
  5
9E
330
1F
100
AcDbEntity
  8
0
  6
Continuous
 62
     1
370
    15
100
AcDbLine
 10
35.39999999999999
 20
5.556249999999998
 30
0.0
 11
34.72774586697111
 21
5.556249999999998
 31
0.0
  0
LINE
  5
9F
330
1F
100
AcDbEntity
  8
0
  6
Continuous
 62
     1
370
    15
100
AcDbLine
 10
11.45453363075399
 20
-5.556250000000007
 30
0.0
 11
12.79754308291799
 21
-5.556250000000007
 31
0.0
  0
LINE
  5
A0
330
1F
100
AcDbEntity
  8
0
  6
Continuous
 62
     1
370
    15
100
AcDbLine
 10
30.25334573202765
 20
5.556249999999998
 30
0.0
 11
28.90946265072916
 21
5.556249999999998
 31
0.0
  0
LINE
  5
A1
330
1F
100
AcDbEntity
  8
외형선
  6
Continuous
370
    15
100
AcDbLine
 10
-26.98875000000001
 20
-5.556250000000005
 30
0.0
 11
9.00032037548242
 21
-5.556250000000005
 31
0.0
  0
LINE
  5
A2
330
1F
100
AcDbEntity
  8
외형선
  6
Continuous
370
    15
100
AcDbLine
 10
9.00032037548242
 20
5.556249999999996
 30
0.0
 11
-26.98875000000001
 21
5.556249999999996
 31
0.0
  0
LINE
  5
A3
330
1F
100
AcDbEntity
  8
외형선
  6
Continuous
370
    15
100
AcDbLine
 10
-26.98875000000001
 20
5.556249999999996
 30
0.0
 11
-28.10000000000001
 21
4.445
 31
0.0
  0
LINE
  5
A4
330
1F
100
AcDbEntity
  8
외형선
  6
Continuous
370
    15
100
AcDbLine
 10
-28.10000000000001
 20
-4.445000000000009
 30
0.0
 11
-26.98875000000001
 21
-5.556250000000005
 31
0.0
  0
SPLINE
  5
A5
330
1F
100
AcDbEntity
  8
0
  6
Continuous
 62
     1
370
    15
100
AcDbSpline
210
0.0
220
0.0
230
1.0
 70
     8
 71
     3
 72
    25
 73
    21
 74
     0
 42
0.000000001
 43
0.00000001
 40
0.0
 40
0.0
 40
0.0
 40
0.0
 40
0.0559235524518203
 40
0.1119978863166488
 40
0.1679218366846119
 40
0.2238742601880052
 40
0.2799379120107068
 40
0.3358449271141825
 40
0.3924114839393376
 40
0.4490232765477406
 40
0.5055023830817599
 40
0.5621046221144819
 40
0.6186815518520121
 40
0.6751629280978815
 40
0.7317928412313605
 40
0.7883374556005671
 40
0.8448275856182549
 40
0.901473280757593
 40
0.9579920094114153
 40
1.0
 40
1.0
 40
1.0
 40
1.0
 10
10.0
 20
4.755191875661948
 30
0.0
 10
10.31047814342221
 20
4.581323802385147
 30
0.0
 10
10.93227154327397
 20
4.233118871703638
 30
0.0
 10
11.86709228245295
 20
3.557761604719188
 30
0.0
 10
12.7994250985264
 20
2.789879432058346
 30
0.0
 10
13.73222494419182
 20
1.941191294071733
 30
0.0
 10
14.66690054489784
 20
1.04057197369103
 30
0.0
 10
15.60213827108624
 20
0.1043243565241314
 30
0.0
 10
16.54201436257347
 20
-0.836451601206841
 30
0.0
 10
17.48583688978535
 20
-1.755688319179924
 30
0.0
 10
18.42744172625921
 20
-2.626894843226942
 30
0.0
 10
19.37110846859293
 20
-3.420411628609248
 30
0.0
 10
20.31434594518504
 20
-4.116249647872438
 30
0.0
 10
21.25598460324535
 20
-4.694876555137356
 30
0.0
 10
22.20010975599988
 20
-5.137172635919131
 30
0.0
 10
23.142804665733
 20
-5.432426990540232
 30
0.0
 10
24.08457398506981
 20
-5.572827095610652
 30
0.0
 10
25.02900110068956
 20
-5.548103962492538
 30
0.0
 10
25.89060363885437
 20
-5.396614517948999
 30
0.0
 10
26.43793052884087
 20
-5.187076777027491
 30
0.0
 10
26.67128959144058
 20
-5.097737971104933
 30
0.0
  0
SPLINE
  5
A6
330
1F
100
AcDbEntity
  8
외형선
  6
Continuous
370
    15
100
AcDbSpline
210
0.0
220
0.0
230
1.0
 70
    24
 71
     3
 72
     9
 73
     5
 74
     0
 42
0.000000001
 43
0.00000001
 40
0.0
 40
0.0
 40
0.0
 40
0.0
 40
0.779303892579537
 40
1.0
 40
1.0
 40
1.0
 40
1.0
 10
10.0
 20
5.366947541996832
 30
0.0
 10
10.00000000000001
 20
5.215503140351545
 30
0.0
 10
10.00000000000002
 20
5.021170219539361
 30
0.0
 10
10.00000000000002
 20
4.840344470841726
 30
0.0
 10
10.00000000000001
 20
4.800436931982767
 30
0.0
  0
SPLINE
  5
A7
330
1F
100
AcDbEntity
  8
0
  6
Continuous
 62
     1
370
    15
100
AcDbSpline
210
0.0
220
0.0
230
1.0
 70
     8
 71
     3
 72
    28
 73
    24
 74
     0
 42
0.000000001
 43
0.00000001
 40
0.0
 40
0.0
 40
0.0
 40
0.0
 40
0.0058129379808953
 40
0.0556254291191255
 40
0.1055704080065397
 40
0.1553882467481954
 40
0.2052178716624959
 40
0.255159436326692
 40
0.3049638473102194
 40
0.3548162943140996
 40
0.4047439448041611
 40
0.4545406380421436
 40
0.5044215758263512
 40
0.5543248275004207
 40
0.6041195196514565
 40
0.6540311942165581
 40
0.7039029867431637
 40
0.7531932956202005
 40
0.8026217029497815
 40
0.8519520460524587
 40
0.9012572858718105
 40
0.9506951110026258
 40
1.0
 40
1.0
 40
1.0
 40
1.0
 10
28.90946265072914
 20
-5.548024788799223
 30
0.0
 10
28.87283019318057
 20
-5.550694143033172
 30
0.0
 10
28.52228522305976
 20
-5.576237848337164
 30
0.0
 10
27.85777256593178
 20
-5.472786945172065
 30
0.0
 10
26.91324069317918
 20
-5.229623223330814
 30
0.0
 10
25.97122958924914
 20
-4.819415997698719
 30
0.0
 10
25.02896655375891
 20
-4.274836737171796
 30
0.0
 10
24.08458322202171
 20
-3.607959542948326
 30
0.0
 10
23.14280219103112
 20
-2.835624081895944
 30
0.0
 10
22.20011042053382
 20
-1.982479538693878
 30
0.0
 10
21.25598442560091
 20
-1.073936728938799
 30
0.0
 10
20.31434599282093
 20
-0.1317676421548545
 30
0.0
 10
19.3711084558126
 20
0.8123083010043403
 30
0.0
 10
18.42744172967581
 20
1.732656883255754
 30
0.0
 10
17.48583688886827
 20
2.605472459063833
 30
0.0
 10
16.54201436281932
 20
3.40108784720754
 30
0.0
 10
15.60213827102128
 20
4.097455005185584
 30
0.0
 10
14.6669005449152
 20
4.676031540494646
 30
0.0
 10
13.73222494418718
 20
5.119185174417098
 30
0.0
 10
12.79942509852764
 20
5.42011890741472
 30
0.0
 10
11.86709228245262
 20
5.565328196027201
 30
0.0
 10
10.93227154327404
 20
5.564745483187641
 30
0.0
 10
10.31047814342222
 20
5.432820986270363
 30
0.0
 10
9.999999999999986
 20
5.36694754199683
 30
0.0
  0
SPLINE
  5
A8
330
1F
100
AcDbEntity
  8
0
  6
Continuous
 62
     1
370
    15
100
AcDbSpline
210
0.0
220
0.0
230
1.0
 70
     8
 71
     3
 72
    29
 73
    25
 74
     0
 42
0.000000001
 43
0.00000001
 40
0.0
 40
0.0
 40
0.0
 40
0.0
 40
0.0000920392246333
 40
0.0474610416544137
 40
0.0949242093445648
 40
0.1422547692821106
 40
0.1901436934773705
 40
0.2380709140285774
 40
0.2858858033064213
 40
0.3338049358549768
 40
0.3817026416986575
 40
0.4295194525016008
 40
0.4774620137859272
 40
0.5253323616232018
 40
0.5731565833194109
 40
0.6211125055598331
 40
0.6689609386981875
 40
0.7167980542740531
 40
0.7647572549905155
 40
0.8125892355800072
 40
0.8604447169229895
 40
0.9083971100271679
 40
0.9562181143747294
 40
1.0
 40
1.0
 40
1.0
 40
1.0
 10
12.797543082918
 20
5.55609843083884
 30
0.0
 10
12.79814693830427
 20
5.556148944389854
 30
0.0
 10
13.10953163059035
 20
5.58219681428785
 30
0.0
 10
13.73218385469173
 20
5.491341186495975
 30
0.0
 10
14.66691152546726
 20
5.273301012144722
 30
0.0
 10
15.60213529371279
 20
4.885248924194496
 30
0.0
 10
16.54201516530122
 20
4.362401966707322
 30
0.0
 10
17.48583667437907
 20
3.711818536917635
 30
0.0
 10
18.42744178711471
 20
2.952951801858294
 30
0.0
 10
19.37110844085141
 20
2.111108428885375
 30
0.0
 10
20.31434599519321
 20
1.208364638193296
 30
0.0
 10
21.25598443103301
 20
0.2689995770824814
 30
0.0
 10
22.20011039636514
 20
-0.675282041114543
 30
0.0
 10
23.14280228206025
 20
-1.601707865239616
 30
0.0
 10
24.08458288197581
 20
-2.483041697103634
 30
0.0
 10
25.02896782563159
 20
-3.290523974607525
 30
0.0
 10
25.97122485527294
 20
-4.00547194289114
 30
0.0
 10
26.91325837623218
 20
-4.605219161455613
 30
0.0
 10
27.85770645772369
 20
-5.071433814593102
 30
0.0
 10
28.79964036687915
 20
-5.393005589121818
 30
0.0
 10
29.74203125835763
 20
-5.560040434780632
 30
0.0
 10
30.68636958755792
 20
-5.563984601194337
 30
0.0
 10
31.6011482456486
 20
-5.42490707105028
 30
0.0
 10
32.20260664338602
 20
-5.209131515193695
 30
0.0
 10
32.49007555169129
 20
-5.106000918440206
 30
0.0
  0
SPLINE
  5
A9
330
1F
100
AcDbEntity
  8
0
  6
Continuous
 62
     1
370
    15
100
AcDbSpline
210
0.0
220
0.0
230
1.0
 70
     8
 71
     3
 72
    29
 73
    25
 74
     0
 42
0.000000001
 43
0.00000001
 40
0.0
 40
0.0
 40
0.0
 40
0.0
 40
0.0137817602796274
 40
0.0615981878101877
 40
0.1095346106667215
 40
0.1574148287520418
 40
0.205236746872713
 40
0.2531900562606032
 40
0.3010464520354886
 40
0.3488793466078263
 40
0.3968394637380814
 40
0.4446774933949135
 40
0.4925268408304923
 40
0.5404836794220615
 40
0.5883088149528578
 40
0.6361800775061077
 40
0.6841235548862773
 40
0.7319412793821994
 40
0.7798399004646163
 40
0.8277599486613348
 40
0.8755757515954407
 40
0.9235038879493567
 40
0.9713937272155521
 40
1.0
 40
1.0
 40
1.0
 40
1.0
 10
34.72774586697111
 20
-5.539861740905061
 30
0.0
 10
34.63723893670458
 20
-5.544626886678858
 30
0.0
 10
34.23271420433619
 20
-5.565924916709988
 30
0.0
 10
33.51498564995271
 20
-5.442534893760309
 30
0.0
 10
32.57092569885742
 20
-5.169651675137536
 30
0.0
 10
31.62807470508976
 20
-4.736109233289588
 30
0.0
 10
30.68635130065025
 20
-4.168713034868778
 30
0.0
 10
29.74203615301703
 20
-3.482653063726122
 30
0.0
 10
28.79963905730601
 20
-2.695358587781658
 30
0.0
 10
27.8577068096151
 20
-1.829894954946816
 30
0.0
 10
26.91325828211804
 20
-0.9145122386634991
 30
0.0
 10
25.97122488042357
 20
0.0296808518628702
 30
0.0
 10
25.02896781904207
 20
0.9727544112442783
 30
0.0
 10
24.08458288311068
 20
1.885690669864977
 30
0.0
 10
23.14280228408878
 20
2.747181424293868
 30
0.0
 10
22.20011038709804
 20
3.528630402443842
 30
0.0
 10
21.25598446608848
 20
4.20775030240503
 30
0.0
 10
20.31434586453952
 20
4.767781188144504
 30
0.0
 10
19.37110892954174
 20
5.189745677967413
 30
0.0
 10
18.4274399641502
 20
5.462332090899575
 30
0.0
 10
17.48584346791542
 20
5.58001868636254
 30
0.0
 10
16.54198975193285
 20
5.530798364177366
 30
0.0
 10
15.72515838208698
 20
5.371308893839008
 30
0.0
 10
15.22342121167615
 20
5.169871229817157
 30
0.0
 10
15.03579297831747
 20
5.094542162605793
 30
0.0
  0
LINE
  5
AA
330
1F
100
AcDbEntity
  8
0
  6
Continuous
 62
     1
370
    15
100
AcDbLine
 10
35.39999999999999
 20
-5.515703548462227
 30
0.0
 11
35.39999999999999
 21
-3.32576169655423
 31
0.0
  0
SPLINE
  5
AB
330
1F
100
AcDbEntity
  8
0
  6
Continuous
 62
     1
370
    15
100
AcDbSpline
210
0.0
220
0.0
230
1.0
 70
     8
 71
     3
 72
    25
 73
    21
 74
     0
 42
0.000000001
 43
0.00000001
 40
0.0
 40
0.0
 40
0.0
 40
0.0
 40
0.0450045558374916
 40
0.1012020801609802
 40
0.1573046917754067
 40
0.213554844187701
 40
0.2697202698500248
 40
0.3258315765333952
 40
0.3820974051172712
 40
0.4382371186540576
 40
0.4943635534965506
 40
0.5506332286579145
 40
0.6067536387124441
 40
0.6629016217820616
 40
0.719163309693302
 40
0.7752708415188644
 40
0.8314467743465301
 40
0.8876886499701685
 40
0.9437897399073365
 40
1.0
 40
1.0
 40
1.0
 40
1.0
 10
18.61549818160551
 20
5.543477626679478
 30
0.0
 10
18.86738411421031
 20
5.538717632163011
 30
0.0
 10
19.43380188833394
 20
5.528013797014393
 30
0.0
 10
20.31437383270697
 20
5.321612233894025
 30
0.0
 10
21.25597695507779
 20
4.964697114322727
 30
0.0
 10
22.20011239856815
 20
4.461615479302383
 30
0.0
 10
23.14280174611102
 20
3.830998419842261
 30
0.0
 10
24.08458302755675
 20
3.088942666672484
 30
0.0
 10
25.02896778075818
 20
2.260678069128126
 30
0.0
 10
25.97122488929668
 20
1.365472446949211
 30
0.0
 10
26.91325828485786
 20
0.4306889965585575
 30
0.0
 10
27.8577067897178
 20
-0.5138567355017535
 30
0.0
 10
28.79963913392281
 20
-1.446376039590029
 30
0.0
 10
29.7420358659633
 20
-2.336694739181207
 30
0.0
 10
30.68635237329554
 20
-3.158209562249167
 30
0.0
 10
31.62807071229818
 20
-3.891182798850297
 30
0.0
 10
32.57094062909363
 20
-4.511969869728491
 30
0.0
 10
33.51492991768205
 20
-4.999677896448524
 30
0.0
 10
34.4565445807108
 20
-5.356229404272261
 30
0.0
 10
35.08531113329898
 20
-5.462511064029774
 30
0.0
 10
35.40000000000001
 20
-5.515703548462227
 30
0.0
  0
SPLINE
  5
AC
330
1F
100
AcDbEntity
  8
0
  6
Continuous
 62
     1
370
    15
100
AcDbSpline
210
0.0
220
0.0
230
1.0
 70
     8
 71
     3
 72
    23
 73
    19
 74
     0
 42
0.000000001
 43
0.00000001
 40
0.0
 40
0.0
 40
0.0
 40
0.0
 40
0.064857417239682
 40
0.129588870032419
 40
0.1944827664074088
 40
0.2593005756156565
 40
0.324039461290625
 40
0.3889562177947333
 40
0.4537417775681537
 40
0.518495522606307
 40
0.5834214950865197
 40
0.6481821917414439
 40
0.7129582098308309
 40
0.7778797439917643
 40
0.8426229852332687
 40
0.9074286708967143
 40
0.9723321173277684
 40
1.0
 40
1.0
 40
1.0
 40
1.0
 10
35.40000000000001
 20
-3.338107167127952
 30
0.0
 10
35.08531113329875
 20
-3.077612127895355
 30
0.0
 10
34.45654458071007
 20
-2.557127976353332
 30
0.0
 10
33.51492991768484
 20
-1.675017101919912
 30
0.0
 10
32.57094062908318
 20
-0.7542244940493584
 30
0.0
 10
31.62807071233713
 20
0.1911977725976714
 30
0.0
 10
30.68635237315021
 20
1.131978803763231
 30
0.0
 10
29.7420358665069
 20
2.037564612956464
 30
0.0
 10
28.79963913189917
 20
2.886587066755502
 30
0.0
 10
27.85770679727495
 20
3.652948555201835
 30
0.0
 10
26.91325825660046
 20
4.312427963996915
 30
0.0
 10
25.97122499445724
 20
4.84978918280048
 30
0.0
 10
25.02896738778656
 20
5.247502098028346
 30
0.0
 10
24.08458449610477
 20
5.493311547424728
 30
0.0
 10
23.14279628035051
 20
5.584244694602545
 30
0.0
 10
22.2001328337521
 20
5.505681050640117
 30
0.0
 10
21.43589371763034
 20
5.340803644435193
 30
0.0
 10
20.98743500303777
 20
5.150615949556461
 30
0.0
 10
20.85339886875217
 20
5.093772314722877
 30
0.0
  0
SPLINE
  5
AD
330
1F
100
AcDbEntity
  8
0
  6
Continuous
 62
     1
370
    15
100
AcDbSpline
210
0.0
220
0.0
230
1.0
 70
     8
 71
     3
 72
    19
 73
    15
 74
     0
 42
0.000000001
 43
0.00000001
 40
0.0
 40
0.0
 40
0.0
 40
0.0
 40
0.0859011721978569
 40
0.1720339516444522
 40
0.2579357350599732
 40
0.3438812545330653
 40
0.4299976258671582
 40
0.5158733959303945
 40
0.6027622526900537
 40
0.6897205937123522
 40
0.7764751227659151
 40
0.8634187890525485
 40
0.9503235790870636
 40
0.9999999999999999
 40
0.9999999999999999
 40
0.9999999999999999
 40
0.9999999999999999
 10
10.0
 20
-0.1113894410139928
 30
0.0
 10
10.310478143383
 20
-0.4220916134880575
 30
0.0
 10
10.93227154315621
 20
-1.044333675471969
 30
0.0
 10
11.86709228292489
 20
-1.944611482597405
 30
0.0
 10
12.79942509676173
 20
-2.793047645946526
 30
0.0
 10
13.73222495078977
 20
-3.562101204662546
 30
0.0
 10
14.66690052024835
 20
-4.229540578697375
 30
0.0
 10
15.60213836324439
 20
-4.78176912011403
 30
0.0
 10
16.54201401396552
 20
-5.198701610235666
 30
0.0
 10
17.48583819017584
 20
-5.467265300556529
 30
0.0
 10
18.42743688160009
 20
-5.580962314795804
 30
0.0
 10
19.37112659091721
 20
-5.527288542633841
 30
0.0
 10
20.18007769069658
 20
-5.366993892813438
 30
0.0
 10
20.67381865012382
 20
-5.166642725347973
 30
0.0
 10
20.85339886875214
 20
-5.093772314722885
 30
0.0
  0
SPLINE
  5
AE
330
1F
100
AcDbEntity
  8
외형선
  6
Continuous
370
    15
100
AcDbSpline
210
0.0
220
0.0
230
1.0
 70
    24
 71
     3
 72
    22
 73
    18
 74
     0
 42
0.000000001
 43
0.00000001
 40
0.0
 40
0.0
 40
0.0
 40
0.0
 40
0.0821384209760332
 40
0.1492023185655236
 40
0.2182110737283421
 40
0.2852749713178054
 40
0.3542837264805945
 40
0.4213476240700551
 40
0.4903563792328409
 40
0.5574202768223105
 40
0.6264290319850905
 40
0.6934929295745511
 40
0.7625016847373373
 40
0.8295655823267982
 40
0.8985743374895865
 40
0.9656382350790489
 40
1.0
 40
1.0
 40
1.0
 40
1.0
 10
10.0
 20
3.928801482071118
 30
0.0
 10
10.00000000000001
 20
3.838220382681821
 30
0.0
 10
10.00000000000005
 20
3.673682157007373
 30
0.0
 10
9.999999999999945
 20
3.362651367284632
 30
0.0
 10
10.00000000000002
 20
3.040609905959049
 30
0.0
 10
9.999999999999966
 20
2.686988306156368
 30
0.0
 10
9.999999999999986
 20
2.319543975398667
 30
0.0
 10
9.999999999999972
 20
1.941692220124398
 30
0.0
 10
9.999999999999993
 20
1.571029634498037
 30
0.0
 10
10.00000000000001
 20
1.211344013684038
 30
0.0
 10
9.999999999999917
 20
0.8793188545101267
 30
0.0
 10
10.00000000000004
 20
0.5782927959272802
 30
0.0
 10
9.999999999999972
 20
0.3225085018383135
 30
0.0
 10
10.00000000000001
 20
0.1134663312558406
 30
0.0
 10
10.00000000000005
 20
-0.03492353995592
 30
0.0
 10
9.999999999999952
 20
-0.1197168026190494
 30
0.0
 10
9.999999999999972
 20
-0.129590998476354
 30
0.0
 10
9.999999999999986
 20
-0.132936254385304
 30
0.0
  0
SPLINE
  5
AF
330
1F
100
AcDbEntity
  8
0
  6
Continuous
 62
     1
370
    15
100
AcDbSpline
210
0.0
220
0.0
230
1.0
 70
     8
 71
     3
 72
    21
 73
    17
 74
     0
 42
0.000000001
 43
0.00000001
 40
0.0
 40
0.0
 40
0.0
 40
0.0
 40
0.0680982769490665
 40
0.1402136498413642
 40
0.2121398684078736
 40
0.2841877695852317
 40
0.3562679008890284
 40
0.4281912290905812
 40
0.5002835263970166
 40
0.5723182181872778
 40
0.6435130164554561
 40
0.7149072837814272
 40
0.7861599073845085
 40
0.8573762718682428
 40
0.9287841422426486
 40
1.0
 40
1.0
 40
1.0
 40
1.0
 10
23.09177480202823
 20
-5.552152356809088
 30
0.0
 10
22.79471851739373
 20
-5.539998652472126
 30
0.0
 10
22.18308269130563
 20
-5.514974300601181
 30
0.0
 10
21.25597014415517
 20
-5.279489101393285
 30
0.0
 10
20.31434982243603
 20
-4.900157205229132
 30
0.0
 10
19.37110742835689
 20
-4.377203097464649
 30
0.0
 10
18.42744200434656
 20
-3.730002921640812
 30
0.0
 10
17.48583681514187
 20
-2.973470775817479
 30
0.0
 10
16.54201438258384
 20
-2.133694277687472
 30
0.0
 10
15.60213826579633
 20
-1.23508192477565
 30
0.0
 10
14.66690054631273
 20
-0.3028057110051579
 30
0.0
 10
13.7322249438131
 20
0.6316455956950972
 30
0.0
 10
12.7994250986277
 20
1.550948401668738
 30
0.0
 10
11.86709228242586
 20
2.424910139946931
 30
0.0
 10
10.93227154328071
 20
3.236159479290309
 30
0.0
 10
10.31047814342446
 20
3.698128128764192
 30
0.0
 10
9.999999999999986
 20
3.928801482071117
 30
0.0
  0
LINE
  5
B0
330
1F
100
AcDbEntity
  8
0
  6
Continuous
 62
     1
370
    15
100
AcDbLine
 10
35.39999999999999
 20
-2.177596381334197
 30
0.0
 11
35.39999999999999
 21
2.177596381334293
 31
0.0
  0
SPLINE
  5
B1
330
1F
100
AcDbEntity
  8
0
  6
Continuous
 62
     1
370
    15
100
AcDbSpline
210
0.0
220
0.0
230
1.0
 70
     8
 71
     3
 72
    19
 73
    15
 74
     0
 42
0.000000001
 43
0.00000001
 40
0.0
 40
0.0
 40
0.0
 40
0.0
 40
0.0542190292390407
 40
0.1401482245633313
 40
0.2260570951042608
 40
0.3121852137418253
 40
0.398084862554515
 40
0.484026715483505
 40
0.5701426085870805
 40
0.6560225455811195
 40
0.7420071792809274
 40
0.8280927470795821
 40
0.913962823918461
 40
1.0
 40
1.0
 40
1.0
 40
1.0
 10
24.43429062421911
 20
5.537576041406102
 30
0.0
 10
24.63266933696469
 20
5.538806850064991
 30
0.0
 10
25.14544916302681
 20
5.541988309614184
 30
0.0
 10
25.97124143203127
 20
5.366790598612821
 30
0.0
 10
26.91325383970842
 20
5.037034757583593
 30
0.0
 10
27.85770797852986
 20
4.557236709582734
 30
0.0
 10
28.79963881558465
 20
3.946866031562956
 30
0.0
 10
29.74203595147934
 20
3.222738904661446
 30
0.0
 10
30.68635235043298
 20
2.407967637825017
 30
0.0
 10
31.62807071842503
 20
1.521499116139467
 30
0.0
 10
32.57094062744939
 20
0.5922197702915765
 30
0.0
 10
33.51492991811949
 20
-0.3516662558084454
 30
0.0
 10
34.4565445806013
 20
-1.292642030948053
 30
0.0
 10
35.08531113326246
 20
-1.882420503479828
 30
0.0
 10
35.40000000000001
 20
-2.177596381334198
 30
0.0
  0
SPLINE
  5
B2
330
1F
100
AcDbEntity
  8
0
  6
Continuous
 62
     1
370
    15
100
AcDbSpline
210
0.0
220
0.0
230
1.0
 70
     8
 71
     3
 72
    17
 73
    13
 74
     0
 42
0.000000001
 43
0.00000001
 40
0.0
 40
0.0
 40
0.0
 40
0.0
 40
0.1080890468979231
 40
0.2159681659634908
 40
0.3241180076808023
 40
0.4321410452532012
 40
0.5400325516938802
 40
0.6482204912830088
 40
0.7561897831032356
 40
0.8641060536259968
 40
0.9723093522305742
 40
1.0
 40
1.0
 40
1.0
 40
1.0
 10
35.40000000000001
 20
2.177596381334294
 30
0.0
 10
35.08531113116054
 20
2.460696492301278
 30
0.0
 10
34.45654457429963
 20
3.026346884309453
 30
0.0
 10
33.51492994329527
 20
3.773125300525675
 30
0.0
 10
32.57094053281642
 20
4.413934232254155
 30
0.0
 10
31.6280710710509
 20
4.927671783933454
 30
0.0
 10
30.6863510345968
 20
5.300722479132543
 30
0.0
 10
29.74204087328178
 20
5.519728088334283
 30
0.0
 10
28.79962049390663
 20
5.583868026873236
 30
0.0
 10
27.85777639957893
 20
5.475637743874885
 30
0.0
 10
27.14693407204161
 20
5.30879749718475
 30
0.0
 10
26.75180392009583
 20
5.133464898971579
 30
0.0
 10
26.67128959144061
 20
5.097737971104924
 30
0.0
  0
SPLINE
  5
B3
330
1F
100
AcDbEntity
  8
0
  6
Continuous
 62
     1
370
    15
100
AcDbSpline
210
0.0
220
0.0
230
1.0
 70
     8
 71
     3
 72
     9
 73
     5
 74
     0
 42
0.000000001
 43
0.00000001
 40
0.0
 40
0.0
 40
0.0
 40
0.0
 40
0.3590326781721181
 40
1.0
 40
1.0
 40
1.0
 40
1.0
 10
11.45453363075399
 20
-5.536903780244317
 30
0.0
 10
11.28026635005969
 20
-5.540410897023769
 30
0.0
 10
10.79488635183354
 20
-5.550179135383871
 30
0.0
 10
10.3104852664127
 20
-5.438518414935802
 30
0.0
 10
9.999999999999986
 20
-5.366947541996828
 30
0.0
  0
LINE
  5
B4
330
1F
100
AcDbEntity
  8
외형선
  6
Continuous
370
    15
100
AcDbLine
 10
10.0
 20
3.928801482071118
 30
0.0
 11
10.0
 21
4.755191875661951
 31
0.0
  0
LINE
  5
B5
330
1F
100
AcDbEntity
  8
0
  6
Continuous
 62
     1
370
    15
100
AcDbLine
 10
35.39999999999999
 20
-5.556250000000007
 30
0.0
 11
35.39999999999999
 21
-5.515703548462227
 31
0.0
  0
LINE
  5
B6
330
1F
100
AcDbEntity
  8
0
  6
Continuous
 62
     1
370
    15
100
AcDbLine
 10
35.39999999999999
 20
-3.338107167127952
 30
0.0
 11
35.39999999999999
 21
-2.177596381334197
 31
0.0
  0
LINE
  5
B7
330
1F
100
AcDbEntity
  8
0
  6
Continuous
 62
     1
370
    15
100
AcDbLine
 10
35.39999999999999
 20
5.515703548462223
 30
0.0
 11
35.39999999999999
 21
5.556249999999997
 31
0.0
  0
SPLINE
  5
B8
330
1F
100
AcDbEntity
  8
0
  6
Continuous
 62
     1
370
    15
100
AcDbSpline
210
0.0
220
0.0
230
1.0
 70
     8
 71
     3
 72
    11
 73
     7
 74
     0
 42
0.000000001
 43
0.00000001
 40
0.0
 40
0.0
 40
0.0
 40
0.0
 40
0.3242388583355553
 40
0.64784798810333
 40
0.972269214989603
 40
1.0
 40
1.0
 40
1.0
 40
1.0
 10
35.40000000000001
 20
5.515703548462223
 30
0.0
 10
35.08530456695943
 20
5.53911277271808
 30
0.0
 10
34.45652489444514
 20
5.585885756422344
 30
0.0
 10
33.51500856648686
 20
5.438510607703261
 30
0.0
 10
32.85850912361103
 20
5.275737092358931
 30
0.0
 10
32.51697056314404
 20
5.118391364613992
 30
0.0
 10
32.4900755516913
 20
5.106000918440198
 30
0.0
  0
SPLINE
  5
B9
330
1F
100
AcDbEntity
  8
0
  6
Continuous
 62
     1
370
    15
100
AcDbSpline
210
0.0
220
0.0
230
1.0
 70
     8
 71
     3
 72
    15
 73
    11
 74
     0
 42
0.000000001
 43
0.00000001
 40
0.0
 40
0.0
 40
0.0
 40
0.0
 40
0.1005422117598505
 40
0.2302000637155287
 40
0.3583461608869727
 40
0.4868512896433695
 40
0.6151014687304269
 40
0.7432863837147099
 40
0.8718159970908953
 40
1.0
 40
1.0
 40
1.0
 40
1.0
 10
17.27354109650132
 20
-5.542293890972316
 30
0.0
 10
17.02965312017786
 20
-5.538619638825827
 30
0.0
 10
16.47125056759411
 20
-5.530207121700689
 30
0.0
 10
15.6021104179655
 20
-5.329418217530206
 30
0.0
 10
14.66690799475202
 20
-4.979671411273706
 30
0.0
 10
13.73222295008988
 20
-4.48731629923409
 30
0.0
 10
12.79942563186574
 20
-3.869230223722329
 30
0.0
 10
11.86709213981987
 20
-3.14040208546194
 30
0.0
 10
10.93227157886017
 20
-2.328589988482665
 30
0.0
 10
10.31047815527361
 20
-1.734694184508672
 30
0.0
 10
9.999999999999986
 20
-1.438146059925733
 30
0.0
  0
LINE
  5
BA
330
1F
100
AcDbEntity
  8
외형선
  6
Continuous
370
    15
100
AcDbLine
 10
10.0
 20
-1.438146059925733
 30
0.0
 11
10.0
 21
-0.1113894410139931
 31
0.0
  0
LINE
  5
BB
330
1F
100
AcDbEntity
  8
0
  6
Continuous
 62
     1
370
    15
100
AcDbLine
 10
35.39999999999999
 20
3.332874041380414
 30
0.0
 11
35.39999999999999
 21
5.515703548462223
 31
0.0
  0
SPLINE
  5
BC
330
1F
100
AcDbEntity
  8
0
  6
Continuous
 62
     1
370
    15
100
AcDbSpline
210
0.0
220
0.0
230
1.0
 70
     8
 71
     3
 72
    13
 73
     9
 74
     0
 42
0.000000001
 43
0.00000001
 40
0.0
 40
0.0
 40
0.0
 40
0.0
 40
0.1851431492879837
 40
0.3707854826305295
 40
0.5559299492784553
 40
0.7411686804309154
 40
0.9267756493011863
 40
1.0
 40
1.0
 40
1.0
 40
1.0
 10
10.0
 20
-4.866581316675943
 30
0.0
 10
10.31047833899781
 20
-5.003448792312231
 30
0.0
 10
10.93227213052805
 20
-5.277552766482433
 30
0.0
 10
11.86708992867951
 20
-5.501971398264266
 30
0.0
 10
12.79943389985044
 20
-5.584429089811972
 30
0.0
 10
13.73219203692932
 20
-5.497676628141948
 30
0.0
 10
14.47891839963269
 20
-5.332661488628095
 30
0.0
 10
14.91299194494867
 20
-5.147051830706799
 30
0.0
 10
15.03579297831747
 20
-5.094542162605801
 30
0.0
  0
SPLINE
  5
BD
330
1F
100
AcDbEntity
  8
0
  6
Continuous
 62
     1
370
    15
100
AcDbSpline
210
0.0
220
0.0
230
1.0
 70
     8
 71
     3
 72
    13
 73
     9
 74
     0
 42
0.000000001
 43
0.00000001
 40
0.0
 40
0.0
 40
0.0
 40
0.0
 40
0.0841473688729413
 40
0.2671228575541686
 40
0.4503214126647846
 40
0.6337350176078473
 40
0.8166894982775179
 40
1.0
 40
1.0
 40
1.0
 40
1.0
 10
30.25334573202765
 20
5.536368384686884
 30
0.0
 10
30.39785242724981
 20
5.540732283884333
 30
0.0
 10
30.85658383953839
 20
5.554585328124628
 30
0.0
 10
31.62805399579359
 20
5.407068390488949
 30
0.0
 10
32.57094511524362
 20
5.105696122005781
 30
0.0
 10
33.51492872420541
 20
4.647610862443361
 30
0.0
 10
34.45654487944513
 20
4.063687690500834
 30
0.0
 10
35.08531123294161
 20
3.580124021270974
 30
0.0
 10
35.40000000000002
 20
3.338107167127973
 30
0.0
  0
SPLINE
  5
BE
330
1F
100
AcDbEntity
  8
외형선
  6
Continuous
370
    15
100
AcDbSpline
210
0.0
220
0.0
230
1.0
 70
    24
 71
     3
 72
    18
 73
    14
 74
     0
 42
0.000000001
 43
0.00000001
 40
0.0
 40
0.0
 40
0.0
 40
0.0
 40
0.0471498191100701
 40
0.142161848114446
 40
0.2371738771188243
 40
0.3321859061232024
 40
0.4271979351275786
 40
0.5222099641319548
 40
0.617221993136333
 40
0.712234022140711
 40
0.8072460511450902
 40
0.9022580801494698
 40
1.0
 40
1.0
 40
1.0
 40
1.0
 10
9.999999999999986
 20
-1.483401116246549
 30
0.0
 10
9.999999999999986
 20
-1.511842511768767
 30
0.0
 10
9.999999999999979
 20
-1.597596421894138
 30
0.0
 10
10.00000000000001
 20
-1.798345201840737
 30
0.0
 10
9.999999999999979
 20
-2.075874815524013
 30
0.0
 10
9.999999999999938
 20
-2.39387673280545
 30
0.0
 10
9.999999999999979
 20
-2.741008422819279
 30
0.0
 10
10.0
 20
-3.10742226937812
 30
0.0
 10
10.00000000000001
 20
-3.482968825563397
 30
0.0
 10
10.00000000000002
 20
-3.857164560173256
 30
0.0
 10
10.00000000000002
 20
-4.218115340710269
 30
0.0
 10
10.00000000000001
 20
-4.563180820420468
 30
0.0
 10
10.00000000000001
 20
-4.764497431215652
 30
0.0
 10
10.0
 20
-4.866581316675942
 30
0.0
  0
LINE
  5
BF
330
1F
100
AcDbEntity
  8
0
  6
Continuous
 62
     1
370
    15
100
AcDbLine
 10
35.39999999999999
 20
2.177596381334293
 30
0.0
 11
35.39999999999999
 21
3.338107167127972
 31
0.0
  0
LINE
  5
C0
330
1F
100
AcDbEntity
  8
외형선
  6
Continuous
370
    15
100
AcDbLine
 10
10.0
 20
-5.36694754199683
 30
0.0
 11
10.0
 21
-4.866581316675942
 31
0.0
  0
SPLINE
  5
C1
330
1F
100
AcDbEntity
  8
외형선
  6
Continuous
370
    15
100
AcDbSpline
210
0.0
220
0.0
230
1.0
 70
    24
 71
     3
 72
    23
 73
    19
 74
     0
 42
0.000000001
 43
0.00000001
 40
0.0
 40
0.0
 40
0.0
 40
0.0
 40
0.0128970852002866
 40
0.080178233488664
 40
0.1494105396353531
 40
0.2166916879237306
 40
0.2859239940704199
 40
0.3532051423587698
 40
0.422437448505483
 40
0.4897185967938607
 40
0.5589509029405503
 40
0.6262320512289248
 40
0.6954643573756109
 40
0.7627455056639473
 40
0.8319778118105916
 40
0.8992589600990093
 40
0.9684912662457418
 40
1.0
 40
1.0
 40
1.0
 40
1.0
 10
10.0
 20
-0.1353189793319432
 30
0.0
 10
10.00000000000001
 20
-0.1345811550465667
 30
0.0
 10
10.00000000000001
 20
-0.1299942699552585
 30
0.0
 10
9.999999999999993
 20
-0.0645113660966398
 30
0.0
 10
9.999999999999895
 20
0.0669660789702325
 30
0.0
 10
10.00000000000003
 20
0.2619095282177252
 30
0.0
 10
9.99999999999996
 20
0.5050041970501687
 30
0.0
 10
10.00000000000003
 20
0.7954326952285394
 30
0.0
 10
9.99999999999991
 20
1.119295963118232
 30
0.0
 10
10.00000000000002
 20
1.473376898846962
 30
0.0
 10
9.999999999999986
 20
1.841249241078521
 30
0.0
 10
9.999999999999986
 20
2.219125672406788
 30
0.0
 10
10.00000000000001
 20
2.589523641559743
 30
0.0
 10
10.00000000000002
 20
2.948563989249171
 30
0.0
 10
9.999999999999972
 20
3.279853560949456
 30
0.0
 10
10.00000000000002
 20
3.579111387805541
 30
0.0
 10
9.999999999999938
 20
3.790667679439175
 30
0.0
 10
9.999999999999993
 20
3.895890868394457
 30
0.0
 10
10.00000000000001
 20
3.928801482071113
 30
0.0
  0
SPLINE
  5
C2
330
1F
100
AcDbEntity
  8
외형선
  6
Continuous
370
    15
100
AcDbSpline
210
0.0
220
0.0
230
1.0
 70
     8
 71
     3
 72
    10
 73
     6
 74
     0
 42
0.000000001
 43
0.00000001
 40
0.0
 40
0.0
 40
0.0
 40
0.0
 40
0.5
 40
0.5
 40
1.0
 40
1.0
 40
1.0
 40
1.0
 10
10.0
 20
-0.1113894410140047
 30
0.0
 10
9.832537293277646
 20
0.0555702794642552
 30
0.0
 10
9.664961970480554
 20
0.2227178439141854
 30
0.0
 10
9.33162016624444
 20
0.5553590672126375
 30
0.0
 10
9.166739278125258
 20
0.7205610361681438
 30
0.0
 10
9.000320375482413
 20
0.8850790048209966
 30
0.0
  0
SPLINE
  5
C3
330
1F
100
AcDbEntity
  8
외형선
  6
Continuous
370
    15
100
AcDbSpline
210
0.0
220
0.0
230
1.0
 70
     8
 71
     3
 72
    10
 73
     6
 74
     0
 42
0.000000001
 43
0.00000001
 40
0.0
 40
0.0
 40
0.0
 40
0.0
 40
0.5
 40
0.5
 40
1.0
 40
1.0
 40
1.0
 40
1.0
 10
9.999999999999986
 20
3.928801482071123
 30
0.0
 10
9.832537293277639
 20
4.046885384372015
 30
0.0
 10
9.664961970480547
 20
4.159661048198539
 30
0.0
 10
9.331620166244445
 20
4.373277781695126
 30
0.0
 10
9.166739278125236
 20
4.473962967181116
 30
0.0
 10
9.000320375482406
 20
4.568798095866589
 30
0.0
  0
LINE
  5
C4
330
1F
100
AcDbEntity
  8
외형선
  6
Continuous
370
    15
100
AcDbLine
 10
9.00032037548242
 20
-5.556250000000005
 30
0.0
 11
9.00032037548242
 21
-5.022728089730186
 31
0.0
  0
LINE
  5
C5
330
1F
100
AcDbEntity
  8
외형선
  6
Continuous
370
    15
100
AcDbLine
 10
9.000320375482413
 20
-5.192951264910044
 30
0.0
 11
9.216882864028308
 21
-5.106674283859832
 31
0.0
  0
SPLINE
  5
C6
330
1F
100
AcDbEntity
  8
외형선
  6
Continuous
370
    15
100
AcDbSpline
210
0.0
220
0.0
230
1.0
 70
     8
 71
     3
 72
     9
 73
     5
 74
     0
 42
0.000000001
 43
0.00000001
 40
0.0
 40
0.0
 40
0.0
 40
0.0
 40
0.6400815392074122
 40
1.0
 40
1.0
 40
1.0
 40
1.0
 10
9.999999999999986
 20
5.366947541996829
 30
0.0
 10
9.832630276358971
 20
5.321108843919907
 30
0.0
 10
9.571148397271722
 20
5.249495002137059
 30
0.0
 10
9.310643415938511
 20
5.144473471512351
 30
0.0
 10
9.216882864028273
 20
5.106674283859825
 30
0.0
  0
LINE
  5
C7
330
1F
100
AcDbEntity
  8
외형선
  6
Continuous
370
    15
100
AcDbLine
 10
9.00032037548242
 20
5.192942037937605
 30
0.0
 11
9.00032037548242
 21
5.556249999999996
 31
0.0
  0
SPLINE
  5
C8
330
1F
100
AcDbEntity
  8
외형선
  6
Continuous
370
    15
100
AcDbSpline
210
0.0
220
0.0
230
1.0
 70
     8
 71
     3
 72
    10
 73
     6
 74
     0
 42
0.000000001
 43
0.00000001
 40
0.0
 40
0.0
 40
0.0
 40
0.0
 40
0.5
 40
0.5
 40
1.0
 40
1.0
 40
1.0
 40
1.0
 10
10.0
 20
4.755191875661939
 30
0.0
 10
9.832537293277646
 20
4.841571027367023
 30
0.0
 10
9.664961970480554
 20
4.921512998649098
 30
0.0
 10
9.33162016624444
 20
5.067613447541203
 30
0.0
 10
9.166739278125258
 20
5.133681561394987
 30
0.0
 10
9.000320375482413
 20
5.192951264910023
 30
0.0
  0
SPLINE
  5
C9
330
1F
100
AcDbEntity
  8
외형선
  6
Continuous
370
    15
100
AcDbSpline
210
0.0
220
0.0
230
1.0
 70
     8
 71
     3
 72
    10
 73
     6
 74
     0
 42
0.000000001
 43
0.00000001
 40
0.0
 40
0.0
 40
0.0
 40
0.0
 40
0.5
 40
0.5
 40
1.0
 40
1.0
 40
1.0
 40
1.0
 10
9.999999999999986
 20
-1.438146059925725
 30
0.0
 10
9.832537293277639
 20
-1.276843602710217
 30
0.0
 10
9.664961970480547
 20
-1.113553205284023
 30
0.0
 10
9.331620166244445
 20
-0.7849963076776333
 30
0.0
 10
9.166739278125236
 20
-0.6200283521701597
 30
0.0
 10
9.000320375482406
 20
-0.4539395937031673
 30
0.0
  0
LINE
  5
CA
330
1F
100
AcDbEntity
  8
외형선
  6
Continuous
370
    15
100
AcDbLine
 10
9.00032037548242
 20
-4.307888644751706
 30
0.0
 11
9.00032037548242
 21
-0.4539172170342315
 31
0.0
  0
SPLINE
  5
CB
330
1F
100
AcDbEntity
  8
외형선
  6
Continuous
370
    15
100
AcDbSpline
210
0.0
220
0.0
230
1.0
 70
     8
 71
     3
 72
    10
 73
     6
 74
     0
 42
0.000000001
 43
0.00000001
 40
0.0
 40
0.0
 40
0.0
 40
0.0
 40
0.5
 40
0.5
 40
1.0
 40
1.0
 40
1.0
 40
1.0
 10
10.0
 20
-4.866581316675947
 30
0.0
 10
9.832537293277646
 20
-4.786000747902772
 30
0.0
 10
9.664961970480554
 20
-4.698795154734916
 30
0.0
 10
9.33162016624444
 20
-4.512254380328572
 30
0.0
 10
9.166739278125258
 20
-4.413120525226849
 30
0.0
 10
9.000320375482413
 20
-4.307872260089033
 30
0.0
  0
SPLINE
  5
CC
330
1F
100
AcDbEntity
  8
외형선
  6
Continuous
370
    15
100
AcDbSpline
210
0.0
220
0.0
230
1.0
 70
     8
 71
     3
 72
    10
 73
     6
 74
     0
 42
0.000000001
 43
0.00000001
 40
0.0
 40
0.0
 40
0.0
 40
0.0
 40
0.5000000000000002
 40
0.5000000000000002
 40
1.0
 40
1.0
 40
1.0
 40
1.0
 10
9.999999999999986
 20
-5.366947541996828
 30
0.0
 10
9.832537293277653
 20
-5.32372898708221
 30
0.0
 10
9.66496197048054
 20
-5.273214253482538
 30
0.0
 10
9.331620166244445
 20
-5.158274089372734
 30
0.0
 10
9.16673927812523
 20
-5.093991319351246
 30
0.0
 10
9.000320375482406
 20
-5.022737689569726
 30
0.0
  0
LINE
  5
CD
330
1F
100
AcDbEntity
  8
외형선
  6
Continuous
370
    15
100
AcDbLine
 10
-26.98875000000001
 20
-0.0000000000000043
 30
0.0
 11
-26.98875000000001
 21
5.556249999999996
 31
0.0
  0
LINE
  5
CE
330
1F
100
AcDbEntity
  8
외형선
  6
Continuous
370
    15
100
AcDbLine
 10
-26.98875000000001
 20
-5.556250000000005
 30
0.0
 11
-26.98875000000001
 21
-0.0000000000000043
 31
0.0
  0
LINE
  5
CF
330
1F
100
AcDbEntity
  8
외형선
  6
Continuous
370
    15
100
AcDbLine
 10
9.00032037548242
 20
0.8850533931859046
 30
0.0
 11
9.00032037548242
 21
4.568810872695986
 31
0.0
  0
LINE
  5
D0
330
1F
100
AcDbEntity
  8
외형선
  6
Continuous
370
    15
100
AcDbLine
 10
-28.10000000000001
 20
-0.0000000000000043
 30
0.0
 11
-28.10000000000001
 21
4.445
 31
0.0
  0
LINE
  5
D1
330
1F
100
AcDbEntity
  8
외형선
  6
Continuous
370
    15
100
AcDbLine
 10
-28.10000000000001
 20
-4.445000000000009
 30
0.0
 11
-28.10000000000001
 21
-0.0000000000000043
 31
0.0
  0
SPLINE
  5
D2
330
1F
100
AcDbEntity
  8
외형선
  6
Continuous
370
    15
100
AcDbSpline
210
0.0
220
0.0
230
1.0
 70
    24
 71
     3
 72
    18
 73
    14
 74
     0
 42
0.000000001
 43
0.00000001
 40
0.0
 40
0.0
 40
0.0
 40
0.0
 40
0.0844377539164931
 40
0.1688755078329862
 40
0.2639645870604748
 40
0.3590536662879639
 40
0.4541427455154529
 40
0.5492318247429417
 40
0.6443209039704282
 40
0.7394099831979147
 40
0.8344990624254041
 40
0.9295881416528934
 40
1.0
 40
1.0
 40
1.0
 40
1.0
 10
10.00000000000001
 20
-4.866581316675944
 30
0.0
 10
10.00000000000001
 20
-4.778924507991349
 30
0.0
 10
10.0
 20
-4.603610890622158
 30
0.0
 10
10.00000000000001
 20
-4.293503700613345
 30
0.0
 10
9.999999999999993
 20
-3.950201401911585
 30
0.0
 10
9.99999999999993
 20
-3.578284773773176
 30
0.0
 10
9.99999999999996
 20
-3.202176787962614
 30
0.0
 10
9.999999999999979
 20
-2.832216715721373
 30
0.0
 10
9.999999999999972
 20
-2.479619980421408
 30
0.0
 10
9.999999999999945
 20
-2.152850468359425
 30
0.0
 10
9.999999999999972
 20
-1.864824138850286
 30
0.0
 10
10.00000000000001
 20
-1.635091107501035
 30
0.0
 10
9.999999999999993
 20
-1.528668347834331
 30
0.0
 10
10.0
 20
-1.483391116246549
 30
0.0
  0
SPLINE
  5
D3
330
1F
100
AcDbEntity
  8
외형선
  6
Continuous
370
    15
100
AcDbSpline
210
0.0
220
0.0
230
1.0
 70
    24
 71
     3
 72
    10
 73
     6
 74
     0
 42
0.000000001
 43
0.00000001
 40
0.0
 40
0.0
 40
0.0
 40
0.0
 40
0.0451864524389561
 40
0.7013633581246771
 40
1.0
 40
1.0
 40
1.0
 40
1.0
 10
9.999999999999993
 20
4.800436931982767
 30
0.0
 10
10.0
 20
4.808477587095665
 30
0.0
 10
10.00000000000006
 20
4.93328094224118
 30
0.0
 10
9.999999999999924
 20
5.126474129774986
 30
0.0
 10
10.0
 20
5.309654342082351
 30
0.0
 10
10.00000000000001
 20
5.366947541996841
 30
0.0
  0
LINE
  5
D4
330
1F
100
AcDbEntity
  8
중심선
 62
     1
100
AcDbLine
 10
-31.10000000000001
 20
-0.0000000000000039
 30
0.0
 11
38.39999999999999
 21
0.0000000000000046
 31
0.0
  0
LINE
  5
D5
330
1F
100
AcDbEntity
  8
참조1
100
AcDbLine
 10
6.349999999999994
 20
-0.0000000000000039
 30
0.0
 11
6.350000000000001
 21
-40.00000000000001
 31
0.0
  0
LINE
  5
D6
330
1F
100
AcDbEntity
  8
참조1
100
AcDbLine
 10
6.350000000000001
 20
-40.00000000000001
 30
0.0
 11
-15.15885681430868
 21
-40.0
 31
0.0
  0
CIRCLE
  5
D7
330
1F
100
AcDbEntity
  8
해칭선
100
AcDbCircle
 10
0.0
 20
0.0
 30
0.0
 40
3.000000000000001
  0
INSERT
  5
D8
330
1F
100
AcDbEntity
  8
0
  6
Continuous
 62
     7
100
AcDbBlockReference
 66
     1
  2
블럭10
 10
-11.3668922877557
 20
-34.00332626918726
 30
0.0
  0
ATTRIB
  5
D9
330
D8
100
AcDbEntity
  8
FORMAT
 62
     2
100
AcDbText
 10
-20.54818757649698
 20
-31.92795935635506
 30
0.0
 40
4.233333333333333
  1
E5058028 [ 6 FLUTE ]
 41
0.75
  7
SLDTEXTSTYLE0
 11
-20.54818757649698
 21
-34.04462602302173
 31
0.0
100
AcDbAttribute
  2
AUTOATTR0
 70
     0
 74
     1
  0
SEQEND
  5
DA
330
D8
100
AcDbEntity
  8
0
  6
Continuous
 62
     7
  0
HATCH
  5
DB
330
1F
100
AcDbEntity
  8
중심선
100
AcDbHatch
 10
0.0
 20
0.0
 30
0.0
210
0.0
220
0.0
230
1.0
  2
SOLID
 70
     1
 71
     0
 91
        1
 92
        0
 93
        4
 72
     1
 10
-5.651982983374863
 20
-17.75615196754332
 11
-9.098258227212145
 21
-17.75615196754332
 72
     1
 10
-9.098258227212145
 20
-17.75615196754332
 11
-11.22648808641617
 21
-20.29247754811591
 72
     1
 10
-11.22648808641617
 20
-20.29247754811591
 11
-7.780179757465737
 21
-20.29243811881342
 72
     1
 10
-7.780179757465736
 20
-20.29243811881342
 11
-5.651982983374863
 21
-17.75615196754332
 97
        0
 75
     0
 76
     1
 98
        1
 10
-3.776619355630487
 20
18.04384803245668
  0
HATCH
  5
DC
330
1F
100
AcDbEntity
  8
중심선
100
AcDbHatch
 10
0.0
 20
0.0
 30
0.0
210
0.0
220
0.0
230
1.0
  2
SOLID
 70
     1
 71
     0
 91
        1
 92
        0
 93
        4
 72
     1
 10
-0.6392189923388836
 20
-17.75615196754332
 11
-4.085494236176165
 21
-17.75615196754332
 72
     1
 10
-4.085494236176165
 20
-17.75615196754332
 11
-8.616632244533582
 21
-23.15615196754334
 72
     1
 10
-8.616632244533582
 20
-23.15615196754334
 11
-5.170357000696299
 21
-23.15615196754334
 72
     1
 10
-5.170357000696299
 20
-23.15615196754334
 11
-0.6392189923388836
 21
-17.75615196754332
 97
        0
 75
     0
 76
     1
 98
        1
 10
-3.776619355630487
 20
18.04384803245668
  0
HATCH
  5
DD
330
1F
100
AcDbEntity
  8
중심선
100
AcDbHatch
 10
0.0
 20
0.0
 30
0.0
210
0.0
220
0.0
230
1.0
  2
SOLID
 70
     1
 71
     0
 91
        1
 92
        0
 93
        4
 72
     1
 10
4.373544998696985
 20
-17.75615196754332
 11
0.9272697548598687
 21
-17.75615196754332
 72
     1
 10
0.9272697548598687
 20
-17.75615196754332
 11
-6.12116714702938
 21
-26.15615196754334
 72
     1
 10
-6.12116714702938
 20
-26.15615196754334
 11
-2.674891903192098
 21
-26.15615196754334
 72
     1
 10
-2.674891903192098
 20
-26.15615196754334
 11
4.373544998696985
 21
-17.75615196754332
 97
        0
 75
     0
 76
     1
 98
        1
 10
-3.776619355630487
 20
18.04384803245668
  0
HATCH
  5
DE
330
1F
100
AcDbEntity
  8
중심선
100
AcDbHatch
 10
0.0
 20
0.0
 30
0.0
210
0.0
220
0.0
230
1.0
  2
SOLID
 70
     1
 71
     0
 91
        1
 92
        0
 93
        6
 72
     3
 10
9.173435429709183
 20
-21.95615196759459
 11
3.960054785062283
 21
1.540882976769353E-10
 40
0.3939339440162628
 50
17.09539180608436
 51
320.0019657685081
 73
     0
 72
     1
 10
10.85643508540978
 20
-20.54404597218162
 11
13.16173695911084
 21
-18.60971926213367
 72
     3
 10
9.173435429656337
 20
-21.95615196754347
 11
6.600054785286829
 21
-1.278976924368180E-13
 40
0.636358354079598
 50
39.99873849337413
 51
368.4976242363724
 73
     1
 72
     1
 10
15.59876792155695
 20
-20.99615196747334
 11
7.85350273649226
 21
-20.99615196747334
 72
     1
 10
7.85350273649226
 20
-20.99615196747334
 11
7.853477692046326
 21
-22.91615196747323
 72
     1
 10
7.853477692046326
 20
-22.91615196747323
 11
12.29485746151836
 21
-22.9161519674732
 97
        0
 75
     0
 76
     1
 98
        1
 10
-3.776619355630487
 20
18.04384803245668
  0
DIMENSION
  5
DF
330
1F
100
AcDbEntity
  8
치수문자_일반주서
100
AcDbDimension
  2
_D
 10
48.70165346547302
 20
-5.556249999999959
 30
0.0
 11
48.7016534654729
 21
29.13389493192237
 31
0.0
 70
   160
  1
%%c<>
 71
     2
 42
11.1125
 52
-270.0
  3
SLDDIMSTYLE0
100
AcDbAlignedDimension
 13
35.39999999999999
 23
5.556249999999998
 33
0.0
 14
35.39999999999999
 24
-5.556250000000007
 34
0.0
 50
90.0000000000002
100
AcDbRotatedDimension
1001
ACAD
1000
DSTYLE
1002
{
1070
   171
1070
     6
1070
   273
1070
     5
1002
}
  0
DIMENSION
  5
F3
330
1F
100
AcDbEntity
  8
치수문자_일반주서
100
AcDbDimension
  2
_D_1
 10
10.0
 20
27.63778556994516
 30
0.0
 11
22.7
 21
27.63778556994516
 31
0.0
 70
   160
  1
<>
 71
     2
 42
25.39999999999999
  3
SLDDIMSTYLE0
100
AcDbAlignedDimension
 13
35.39999999999999
 23
5.515703548462223
 33
0.0
 14
10.0
 24
5.366947541996832
 34
0.0
100
AcDbRotatedDimension
1001
ACAD
1000
DSTYLE
1002
{
1070
   171
1070
     6
1070
   273
1070
     5
1002
}
  0
DIMENSION
  5
109
330
1F
100
AcDbEntity
  8
치수문자_일반주서
100
AcDbDimension
  2
_D_2
 10
-28.10000000000001
 20
45.63778556994518
 30
0.0
 11
3.649999999999991
 21
45.63778556994518
 31
0.0
 70
   160
  1
<>
 71
     2
 42
63.5
  3
SLDDIMSTYLE0
100
AcDbAlignedDimension
 13
35.39999999999999
 23
5.515703548462223
 33
0.0
 14
-28.10000000000001
 24
4.445
 34
0.0
100
AcDbRotatedDimension
1001
ACAD
1000
DSTYLE
1002
{
1070
   171
1070
     6
1070
   273
1070
     5
1002
}
  0
DIMENSION
  5
11D
330
1F
100
AcDbEntity
  8
치수문자_일반주서
100
AcDbDimension
  2
_D_3
 10
-40.76506740101063
 20
-5.55625000000007
 30
0.0
 11
-40.76506740101072
 21
22.42074999999996
 31
0.0
 70
   160
  1
%%c<>
 71
     2
 42
11.11250000000003
 52
-270.0
  3
SLDDIMSTYLE0
100
AcDbAlignedDimension
 13
-26.98875
 23
5.556250000000008
 33
0.0
 14
-26.98875
 24
-5.556250000000017
 34
0.0
 50
90.0000000000002
100
AcDbRotatedDimension
1001
ACAD
1000
DSTYLE
1002
{
1070
   171
1070
     6
1070
   273
1070
     5
1002
}
  0
LINE
  5
132
330
1F
100
AcDbEntity
  8
참조1
100
AcDbLine
 10
82.81348381534559
 20
7.440000000000002
 30
0.0
 11
82.81348381534559
 21
-7.440000000000002
 31
0.0
  0
LINE
  5
133
330
1F
100
AcDbEntity
  8
참조1
100
AcDbLine
 10
95.5134838153456
 20
5.440000000000002
 30
0.0
 11
82.81348381534559
 21
5.440000000000002
 31
0.0
  0
SOLID
  5
134
330
1F
100
AcDbEntity
  8
참조1
100
AcDbTrace
 10
82.81348381534559
 20
5.440000000000002
 30
0.0
 11
89.16348381534559
 21
4.424000000000002
 31
0.0
 12
89.16348381534559
 22
6.456000000000002
 32
0.0
 13
89.16348381534559
 23
6.456000000000002
 33
0.0
  0
LINE
  5
135
330
1F
100
AcDbEntity
  8
참조1
100
AcDbLine
 10
95.5134838153456
 20
-5.440000000000002
 30
0.0
 11
82.81348381534559
 21
-5.440000000000002
 31
0.0
  0
SOLID
  5
136
330
1F
100
AcDbEntity
  8
참조1
100
AcDbTrace
 10
82.81348381534559
 20
-5.440000000000002
 30
0.0
 11
89.16348381534559
 21
-6.456000000000002
 31
0.0
 12
89.16348381534559
 22
-4.424000000000002
 32
0.0
 13
89.16348381534559
 23
-4.424000000000002
 33
0.0
  0
MTEXT
  5
137
330
1F
100
AcDbEntity
  8
참조1
100
AcDbMText
 10
92.41359862590816
 20
11.06571756601608
 30
0.0
 40
3.5
 41
0.0
 71
     1
 72
     1
  1
A
  7
SLDTEXTSTYLE0
 73
     1
 44
1.0
  0
MTEXT
  5
138
330
1F
100
AcDbEntity
  8
참조1
100
AcDbMText
 10
92.41359862590816
 20
0.1857175660160727
 30
0.0
 40
3.5
 41
0.0
 71
     1
 72
     1
  1
A
  7
SLDTEXTSTYLE0
 73
     1
 44
1.0
  0
INSERT
  5
13F
330
1F
100
AcDbEntity
  8
해칭선
100
AcDbBlockReference
  2
SW_DOWELSYMBOL_0
 10
0.0
 20
0.0
 30
0.0
  0
ENDSEC
  0
SECTION
  2
OBJECTS
  0
DICTIONARY
  5
C
330
0
100
AcDbDictionary
281
     1
  3
ACAD_GROUP
350
D
  3
ACAD_IMAGE_VARS
350
163
  3
ACAD_LAYOUT
350
1A
  3
ACAD_MLINESTYLE
350
17
  3
ACAD_PLOTSETTINGS
350
19
  3
ACAD_PLOTSTYLENAME
350
E
  3
ACAD_SCALELIST
350
47
  3
APPDATA
350
161
  3
DWGPROPS
350
2F7
  0
DICTIONARY
  5
21D
330
2
100
AcDbDictionary
280
     1
281
     1
  3
ACAD_LAYERSTATES
360
21E
  0
DICTIONARY
  5
2F5
330
1F
100
AcDbDictionary
280
     1
281
     1
  3
DIM_BOUNDING_BOXES_V1
360
2F6
  0
DICTIONARY
  5
D
102
{ACAD_REACTORS
330
C
102
}
330
C
100
AcDbDictionary
281
     1
  0
RASTERVARIABLES
  5
163
102
{ACAD_REACTORS
330
C
102
}
330
C
100
AcDbRasterVariables
 90
        0
 70
     1
 71
     1
 72
     1
  0
DICTIONARY
  5
1A
102
{ACAD_REACTORS
330
C
102
}
330
C
100
AcDbDictionary
281
     1
  3
Layout1
350
1E
  3
Layout2
350
26
  3
Model
350
22
  0
DICTIONARY
  5
17
102
{ACAD_REACTORS
330
C
102
}
330
C
100
AcDbDictionary
281
     1
  3
Standard
350
18
  0
DICTIONARY
  5
19
102
{ACAD_REACTORS
330
C
102
}
330
C
100
AcDbDictionary
281
     1
  0
ACDBDICTIONARYWDFLT
  5
E
102
{ACAD_REACTORS
330
C
102
}
330
C
100
AcDbDictionary
281
     1
  3
Normal
350
F
100
AcDbDictionaryWithDefault
340
F
  0
DICTIONARY
  5
47
102
{ACAD_REACTORS
330
C
102
}
330
C
100
AcDbDictionary
281
     1
  3
A0
350
48
  3
A1
350
49
  3
A2
350
4A
  3
A3
350
4B
  3
A4
350
4C
  3
A5
350
4D
  3
A6
350
4E
  3
A7
350
4F
  3
A8
350
50
  3
A9
350
51
  3
B0
350
52
  3
B1
350
53
  3
B2
350
54
  3
B3
350
55
  3
B4
350
56
  3
B5
350
57
  3
B6
350
58
  3
B7
350
59
  3
B8
350
5A
  3
B9
350
5B
  3
C0
350
5C
  3
C1
350
5D
  3
C2
350
5E
  3
C3
350
5F
  3
C4
350
60
  3
C5
350
61
  3
C6
350
62
  3
C7
350
63
  3
C8
350
64
  3
C9
350
65
  3
D0
350
66
  3
D1
350
67
  3
D2
350
68
  0
DICTIONARY
  5
161
102
{ACAD_REACTORS
330
C
102
}
330
C
100
AcDbDictionary
281
     1
  0
XRECORD
  5
2F7
102
{ACAD_REACTORS
330
C
102
}
330
C
100
AcDbXrecord
280
     1
  1
DWGPROPS COOKIE
  2

  3

  4

  6

  7

  8
12011056
  9

300
=
301
=
302
=
303
=
304
=
305
=
306
=
307
=
308
=
309
=
 40
0.0
 41
2458316.092882778
 42
2459720.020603125
  1

 90
        0
  0
DICTIONARY
  5
21E
102
{ACAD_REACTORS
330
21D
102
}
330
21D
100
AcDbDictionary
281
     1
  0
DICTIONARY
  5
2F6
102
{ACAD_REACTORS
330
2F5
102
}
330
2F5
100
AcDbDictionary
281
     1
  0
LAYOUT
  5
1E
102
{ACAD_REACTORS
330
1A
102
}
330
1A
100
AcDbPlotSettings
  1

  2
none_device
  4

  6

 40
0.0
 41
0.0
 42
0.0
 43
0.0
 44
0.0
 45
0.0
 46
0.0
 47
0.0
 48
0.0
 49
0.0
140
0.0
141
0.0
142
1.0
143
1.0
 70
   688
 72
     1
 73
     0
 74
     5
  7

 75
    16
147
1.0
148
0.0
149
0.0
100
AcDbLayout
  1
Layout1
 70
     1
 71
     1
 10
0.0
 20
0.0
 11
420.0
 21
297.0
 12
0.0
 22
0.0
 32
0.0
 14
1.000000000000000E+20
 24
1.000000000000000E+20
 34
1.000000000000000E+20
 15
-1.000000000000000E+20
 25
-1.000000000000000E+20
 35
-1.000000000000000E+20
146
0.0
 13
0.0
 23
0.0
 33
0.0
 16
1.0
 26
0.0
 36
0.0
 17
0.0
 27
1.0
 37
0.0
 76
     0
330
1B
  0
LAYOUT
  5
26
102
{ACAD_REACTORS
330
1A
102
}
330
1A
100
AcDbPlotSettings
  1

  2
none_device
  4

  6

 40
0.0
 41
0.0
 42
0.0
 43
0.0
 44
0.0
 45
0.0
 46
0.0
 47
0.0
 48
0.0
 49
0.0
140
0.0
141
0.0
142
1.0
143
1.0
 70
   688
 72
     1
 73
     0
 74
     5
  7

 75
    16
147
1.0
148
0.0
149
0.0
100
AcDbLayout
  1
Layout2
 70
     1
 71
     2
 10
0.0
 20
0.0
 11
0.0
 21
0.0
 12
0.0
 22
0.0
 32
0.0
 14
0.0
 24
0.0
 34
0.0
 15
0.0
 25
0.0
 35
0.0
146
0.0
 13
0.0
 23
0.0
 33
0.0
 16
1.0
 26
0.0
 36
0.0
 17
0.0
 27
1.0
 37
0.0
 76
     0
330
23
  0
LAYOUT
  5
22
102
{ACAD_REACTORS
330
1A
102
}
330
1A
100
AcDbPlotSettings
  1

  2
none_device
  4
ANSI_A_(11.00_x_8.50_Inches)
  6

 40
6.35
 41
19.05
 42
6.35000508
 43
19.05000254
 44
279.4
 45
215.9
 46
82.93674126092323
 47
83.25423340328187
 48
0.0
 49
0.0
140
0.0
141
0.0
142
0.0777876962426501
143
1.0
 70
  1696
 72
     0
 73
     0
 74
     0
  7

 75
     0
147
0.0235690232323232
148
0.0
149
0.0
100
AcDbLayout
  1
Model
 70
     1
 71
     0
 10
0.0
 20
0.0
 11
420.0
 21
297.0
 12
0.0
 22
0.0
 32
0.0
 14
-45.14006740101077
 24
-40.00000000000001
 34
0.0
 15
95.5134838153456
 25
50.01278556994518
 35
0.0
146
0.0
 13
0.0
 23
0.0
 33
0.0
 16
1.0
 26
0.0
 36
0.0
 17
0.0
 27
1.0
 37
0.0
 76
     0
330
1F
331
29
  0
MLINESTYLE
  5
18
102
{ACAD_REACTORS
330
17
102
}
330
17
100
AcDbMlineStyle
  2
Standard
 70
     0
  3

 62
   256
 51
90.0
 52
90.0
 71
     2
 49
0.5
 62
   256
  6
BYLAYER
 49
-0.5
 62
   256
  6
BYLAYER
  0
ACDBPLACEHOLDER
  5
F
102
{ACAD_REACTORS
330
E
102
}
330
E
  0
SCALE
  5
48
102
{ACAD_REACTORS
330
47
102
}
330
47
100
AcDbScale
 70
     0
300
1:1
140
1.0
141
1.0
290
     1
  0
SCALE
  5
49
102
{ACAD_REACTORS
330
47
102
}
330
47
100
AcDbScale
 70
     0
300
1:2
140
1.0
141
2.0
290
     0
  0
SCALE
  5
4A
102
{ACAD_REACTORS
330
47
102
}
330
47
100
AcDbScale
 70
     0
300
1:4
140
1.0
141
4.0
290
     0
  0
SCALE
  5
4B
102
{ACAD_REACTORS
330
47
102
}
330
47
100
AcDbScale
 70
     0
300
1:5
140
1.0
141
5.0
290
     0
  0
SCALE
  5
4C
102
{ACAD_REACTORS
330
47
102
}
330
47
100
AcDbScale
 70
     0
300
1:8
140
1.0
141
8.0
290
     0
  0
SCALE
  5
4D
102
{ACAD_REACTORS
330
47
102
}
330
47
100
AcDbScale
 70
     0
300
1:10
140
1.0
141
10.0
290
     0
  0
SCALE
  5
4E
102
{ACAD_REACTORS
330
47
102
}
330
47
100
AcDbScale
 70
     0
300
1:16
140
1.0
141
16.0
290
     0
  0
SCALE
  5
4F
102
{ACAD_REACTORS
330
47
102
}
330
47
100
AcDbScale
 70
     0
300
1:20
140
1.0
141
20.0
290
     0
  0
SCALE
  5
50
102
{ACAD_REACTORS
330
47
102
}
330
47
100
AcDbScale
 70
     0
300
1:30
140
1.0
141
30.0
290
     0
  0
SCALE
  5
51
102
{ACAD_REACTORS
330
47
102
}
330
47
100
AcDbScale
 70
     0
300
1:40
140
1.0
141
40.0
290
     0
  0
SCALE
  5
52
102
{ACAD_REACTORS
330
47
102
}
330
47
100
AcDbScale
 70
     0
300
1:50
140
1.0
141
50.0
290
     0
  0
SCALE
  5
53
102
{ACAD_REACTORS
330
47
102
}
330
47
100
AcDbScale
 70
     0
300
1:100
140
1.0
141
100.0
290
     0
  0
SCALE
  5
54
102
{ACAD_REACTORS
330
47
102
}
330
47
100
AcDbScale
 70
     0
300
2:1
140
2.0
141
1.0
290
     0
  0
SCALE
  5
55
102
{ACAD_REACTORS
330
47
102
}
330
47
100
AcDbScale
 70
     0
300
4:1
140
4.0
141
1.0
290
     0
  0
SCALE
  5
56
102
{ACAD_REACTORS
330
47
102
}
330
47
100
AcDbScale
 70
     0
300
8:1
140
8.0
141
1.0
290
     0
  0
SCALE
  5
57
102
{ACAD_REACTORS
330
47
102
}
330
47
100
AcDbScale
 70
     0
300
10:1
140
10.0
141
1.0
290
     0
  0
SCALE
  5
58
102
{ACAD_REACTORS
330
47
102
}
330
47
100
AcDbScale
 70
     0
300
100:1
140
100.0
141
1.0
290
     0
  0
SCALE
  5
59
102
{ACAD_REACTORS
330
47
102
}
330
47
100
AcDbScale
 70
     0
300
1/128" = 1'-0"
140
0.0078125
141
12.0
290
     0
  0
SCALE
  5
5A
102
{ACAD_REACTORS
330
47
102
}
330
47
100
AcDbScale
 70
     0
300
1/64" = 1'-0"
140
0.015625
141
12.0
290
     0
  0
SCALE
  5
5B
102
{ACAD_REACTORS
330
47
102
}
330
47
100
AcDbScale
 70
     0
300
1/32" = 1'-0"
140
0.03125
141
12.0
290
     0
  0
SCALE
  5
5C
102
{ACAD_REACTORS
330
47
102
}
330
47
100
AcDbScale
 70
     0
300
1/16" = 1'-0"
140
0.0625
141
12.0
290
     0
  0
SCALE
  5
5D
102
{ACAD_REACTORS
330
47
102
}
330
47
100
AcDbScale
 70
     0
300
3/32" = 1'-0"
140
0.09375
141
12.0
290
     0
  0
SCALE
  5
5E
102
{ACAD_REACTORS
330
47
102
}
330
47
100
AcDbScale
 70
     0
300
1/8" = 1'-0"
140
0.125
141
12.0
290
     0
  0
SCALE
  5
5F
102
{ACAD_REACTORS
330
47
102
}
330
47
100
AcDbScale
 70
     0
300
3/16" = 1'-0"
140
0.1875
141
12.0
290
     0
  0
SCALE
  5
60
102
{ACAD_REACTORS
330
47
102
}
330
47
100
AcDbScale
 70
     0
300
1/4" = 1'-0"
140
0.25
141
12.0
290
     0
  0
SCALE
  5
61
102
{ACAD_REACTORS
330
47
102
}
330
47
100
AcDbScale
 70
     0
300
3/8" = 1'-0"
140
0.375
141
12.0
290
     0
  0
SCALE
  5
62
102
{ACAD_REACTORS
330
47
102
}
330
47
100
AcDbScale
 70
     0
300
1/2" = 1'-0"
140
0.5
141
12.0
290
     0
  0
SCALE
  5
63
102
{ACAD_REACTORS
330
47
102
}
330
47
100
AcDbScale
 70
     0
300
3/4" = 1'-0"
140
0.75
141
12.0
290
     0
  0
SCALE
  5
64
102
{ACAD_REACTORS
330
47
102
}
330
47
100
AcDbScale
 70
     0
300
1" = 1'-0"
140
1.0
141
12.0
290
     0
  0
SCALE
  5
65
102
{ACAD_REACTORS
330
47
102
}
330
47
100
AcDbScale
 70
     0
300
1-1/2" = 1'-0"
140
1.5
141
12.0
290
     0
  0
SCALE
  5
66
102
{ACAD_REACTORS
330
47
102
}
330
47
100
AcDbScale
 70
     0
300
3" = 1'-0"
140
3.0
141
12.0
290
     0
  0
SCALE
  5
67
102
{ACAD_REACTORS
330
47
102
}
330
47
100
AcDbScale
 70
     0
300
6" = 1'-0"
140
6.0
141
12.0
290
     0
  0
SCALE
  5
68
102
{ACAD_REACTORS
330
47
102
}
330
47
100
AcDbScale
 70
     0
300
1'-0" = 1'-0"
140
12.0
141
12.0
290
     0
  0
ENDSEC
  0
EOF
