  0
SECTION
  2
HEADER
  9
$ACADVER
  1
AC1015
  9
$ACADMAINTVER
 70
     6
  9
$DWGCODEPAGE
  3
ANSI_949
  9
$INSBASE
 10
0.0
 20
0.0
 30
0.0
  9
$EXTMIN
 10
-44.97381740100918
 20
-40.00000000000001
 30
0.0
  9
$EXTMAX
 10
95.5134838153456
 20
49.22482792016486
 30
0.0
  9
$LIMMIN
 10
0.0
 20
0.0
  9
$LIMMAX
 10
420.0
 20
297.0
  9
$ORTHOMODE
 70
     0
  9
$REGENMODE
 70
     1
  9
$FILLMODE
 70
     1
  9
$QTEXTMODE
 70
     0
  9
$MIRRTEXT
 70
     1
  9
$LTSCALE
 40
1.0
  9
$ATTMODE
 70
     1
  9
$TEXTSIZE
 40
3.5
  9
$TRACEWID
 40
1.0
  9
$TEXTSTYLE
  7
Standard
  9
$CLAYER
  8
0
  9
$CELTYPE
  6
ByLayer
  9
$CECOLOR
 62
   256
  9
$CELTSCALE
 40
1.0
  9
$DISPSILH
 70
     0
  9
$DIMSCALE
 40
1.0
  9
$DIMASZ
 40
3.302
  9
$DIMEXO
 40
1.0
  9
$DIMDLI
 40
3.75
  9
$DIMRND
 40
0.0
  9
$DIMDLE
 40
0.0
  9
$DIMEXE
 40
1.0
  9
$DIMTP
 40
0.0
  9
$DIMTM
 40
0.0
  9
$DIMTXT
 40
3.5
  9
$DIMCEN
 40
2.5
  9
$DIMTSZ
 40
0.0
  9
$DIMTOL
 70
     0
  9
$DIMLIM
 70
     0
  9
$DIMTIH
 70
     1
  9
$DIMTOH
 70
     1
  9
$DIMSE1
 70
     0
  9
$DIMSE2
 70
     0
  9
$DIMTAD
 70
     1
  9
$DIMZIN
 70
     0
  9
$DIMBLK
  1

  9
$DIMASO
 70
     1
  9
$DIMSHO
 70
     1
  9
$DIMPOST
  1

  9
$DIMAPOST
  1

  9
$DIMALT
 70
     0
  9
$DIMALTD
 70
     3
  9
$DIMALTF
 40
0.0393700787401575
  9
$DIMLFAC
 40
1.0
  9
$DIMTOFL
 70
     1
  9
$DIMTVP
 40
0.0
  9
$DIMTIX
 70
     0
  9
$DIMSOXD
 70
     0
  9
$DIMSAH
 70
     0
  9
$DIMBLK1
  1

  9
$DIMBLK2
  1

  9
$DIMSTYLE
  2
ISO-25
  9
$DIMCLRD
 70
     0
  9
$DIMCLRE
 70
     0
  9
$DIMCLRT
 70
     0
  9
$DIMTFAC
 40
1.0
  9
$DIMGAP
 40
1.524
  9
$DIMJUST
 70
     0
  9
$DIMSD1
 70
     0
  9
$DIMSD2
 70
     0
  9
$DIMTOLJ
 70
     0
  9
$DIMTZIN
 70
     0
  9
$DIMALTZ
 70
     0
  9
$DIMALTTZ
 70
     0
  9
$DIMUPT
 70
     0
  9
$DIMDEC
 70
     2
  9
$DIMTDEC
 70
     2
  9
$DIMALTU
 70
     2
  9
$DIMALTTD
 70
     3
  9
$DIMTXSTY
  7
Standard
  9
$DIMAUNIT
 70
     0
  9
$DIMADEC
 70
     2
  9
$DIMALTRND
 40
0.0
  9
$DIMAZIN
 70
     0
  9
$DIMDSEP
 70
    44
  9
$DIMATFIT
 70
     3
  9
$DIMFRAC
 70
     0
  9
$DIMLDRBLK
  1

  9
$DIMLUNIT
 70
     2
  9
$DIMLWD
 70
    -2
  9
$DIMLWE
 70
    -2
  9
$DIMTMOVE
 70
     0
  9
$LUNITS
 70
     2
  9
$LUPREC
 70
     2
  9
$SKETCHINC
 40
1.0
  9
$FILLETRAD
 40
10.0
  9
$AUNITS
 70
     0
  9
$AUPREC
 70
     2
  9
$MENU
  1
.
  9
$ELEVATION
 40
0.0
  9
$PELEVATION
 40
0.0
  9
$THICKNESS
 40
0.0
  9
$LIMCHECK
 70
     0
  9
$CHAMFERA
 40
0.0
  9
$CHAMFERB
 40
0.0
  9
$CHAMFERC
 40
0.0
  9
$CHAMFERD
 40
0.0
  9
$SKPOLY
 70
     0
  9
$TDCREATE
 40
2458316.467811285
  9
$TDUCREATE
 40
2458316.092811285
  9
$TDUPDATE
 40
2459720.395411342
  9
$TDUUPDATE
 40
2459720.020411342
  9
$TDINDWG
 40
0.001035162
  9
$TDUSRTIMER
 40
0.0001706944
  9
$USRTIMER
 70
     1
  9
$ANGBASE
 50
0.0
  9
$ANGDIR
 70
     0
  9
$PDMODE
 70
     0
  9
$PDSIZE
 40
-1.0
  9
$PLINEWID
 40
0.0
  9
$SPLFRAME
 70
     0
  9
$SPLINETYPE
 70
     6
  9
$SPLINESEGS
 70
     8
  9
$HANDSEED
  5
2F9
  9
$SURFTAB1
 70
     6
  9
$SURFTAB2
 70
     6
  9
$SURFTYPE
 70
     6
  9
$SURFU
 70
     6
  9
$SURFV
 70
     6
  9
$UCSBASE
  2

  9
$UCSNAME
  2

  9
$UCSORG
 10
0.0
 20
0.0
 30
0.0
  9
$UCSXDIR
 10
1.0
 20
0.0
 30
0.0
  9
$UCSYDIR
 10
0.0
 20
1.0
 30
0.0
  9
$UCSORTHOREF
  2

  9
$UCSORTHOVIEW
 70
     0
  9
$UCSORGTOP
 10
0.0
 20
0.0
 30
0.0
  9
$UCSORGBOTTOM
 10
0.0
 20
0.0
 30
0.0
  9
$UCSORGLEFT
 10
0.0
 20
0.0
 30
0.0
  9
$UCSORGRIGHT
 10
0.0
 20
0.0
 30
0.0
  9
$UCSORGFRONT
 10
0.0
 20
0.0
 30
0.0
  9
$UCSORGBACK
 10
0.0
 20
0.0
 30
0.0
  9
$PUCSBASE
  2

  9
$PUCSNAME
  2

  9
$PUCSORG
 10
0.0
 20
0.0
 30
0.0
  9
$PUCSXDIR
 10
1.0
 20
0.0
 30
0.0
  9
$PUCSYDIR
 10
0.0
 20
1.0
 30
0.0
  9
$PUCSORTHOREF
  2

  9
$PUCSORTHOVIEW
 70
     0
  9
$PUCSORGTOP
 10
0.0
 20
0.0
 30
0.0
  9
$PUCSORGBOTTOM
 10
0.0
 20
0.0
 30
0.0
  9
$PUCSORGLEFT
 10
0.0
 20
0.0
 30
0.0
  9
$PUCSORGRIGHT
 10
0.0
 20
0.0
 30
0.0
  9
$PUCSORGFRONT
 10
0.0
 20
0.0
 30
0.0
  9
$PUCSORGBACK
 10
0.0
 20
0.0
 30
0.0
  9
$USERI1
 70
     0
  9
$USERI2
 70
     0
  9
$USERI3
 70
     0
  9
$USERI4
 70
     0
  9
$USERI5
 70
     0
  9
$USERR1
 40
0.0
  9
$USERR2
 40
0.0
  9
$USERR3
 40
0.0
  9
$USERR4
 40
0.0
  9
$USERR5
 40
0.0
  9
$WORLDVIEW
 70
     1
  9
$SHADEDGE
 70
     3
  9
$SHADEDIF
 70
    70
  9
$TILEMODE
 70
     1
  9
$MAXACTVP
 70
    64
  9
$PINSBASE
 10
0.0
 20
0.0
 30
0.0
  9
$PLIMCHECK
 70
     0
  9
$PEXTMIN
 10
1.000000000000000E+20
 20
1.000000000000000E+20
 30
1.000000000000000E+20
  9
$PEXTMAX
 10
-1.000000000000000E+20
 20
-1.000000000000000E+20
 30
-1.000000000000000E+20
  9
$PLIMMIN
 10
0.0
 20
0.0
  9
$PLIMMAX
 10
0.0
 20
0.0
  9
$UNITMODE
 70
     0
  9
$VISRETAIN
 70
     1
  9
$PLINEGEN
 70
     0
  9
$PSLTSCALE
 70
     1
  9
$TREEDEPTH
 70
  3020
  9
$CMLSTYLE
  2
Standard
  9
$CMLJUST
 70
     0
  9
$CMLSCALE
 40
20.0
  9
$PROXYGRAPHICS
 70
     1
  9
$MEASUREMENT
 70
     1
  9
$CELWEIGHT
370
    -1
  9
$ENDCAPS
280
     0
  9
$JOINSTYLE
280
     0
  9
$LWDISPLAY
290
     1
  9
$INSUNITS
 70
     4
  9
$HYPERLINKBASE
  1

  9
$STYLESHEET
  1

  9
$XEDIT
290
     1
  9
$CEPSNTYPE
380
     0
  9
$PSTYLEMODE
290
     1
  9
$FINGERPRINTGUID
  2
{6C8E8380-2430-4213-AE46-E66F9A25BF31}
  9
$VERSIONGUID
  2
{FAEB1C32-E019-11D5-929B-00C0DF256EC4}
  9
$EXTNAMES
290
     1
  9
$PSVPSCALE
 40
0.0
  9
$OLESTARTUP
290
     0
  0
ENDSEC
  0
SECTION
  2
CLASSES
  0
CLASS
  1
ACDBDICTIONARYWDFLT
  2
AcDbDictionaryWithDefault
  3
ObjectDBX Classes
 90
        0
280
     0
281
     0
  0
CLASS
  1
VISUALSTYLE
  2
AcDbVisualStyle
  3
ObjectDBX Classes
 90
     4095
280
     0
281
     0
  0
CLASS
  1
MATERIAL
  2
AcDbMaterial
  3
ObjectDBX Classes
 90
     1153
280
     0
281
     0
  0
CLASS
  1
SCALE
  2
AcDbScale
  3
ObjectDBX Classes
 90
     1153
280
     0
281
     0
  0
CLASS
  1
SUN
  2
AcDbSun
  3
SCENEOE
 90
     1153
280
     0
281
     0
  0
CLASS
  1
ACDBPLACEHOLDER
  2
AcDbPlaceHolder
  3
ObjectDBX Classes
 90
        0
280
     0
281
     0
  0
CLASS
  1
LAYOUT
  2
AcDbLayout
  3
ObjectDBX Classes
 90
        0
280
     0
281
     0
  0
CLASS
  1
TABLESTYLE
  2
AcDbTableStyle
  3
ObjectDBX Classes
 90
     4095
280
     0
281
     0
  0
CLASS
  1
MLEADERSTYLE
  2
AcDbMLeaderStyle
  3
ACDB_MLEADERSTYLE_CLASS
 90
     4095
280
     0
281
     0
  0
CLASS
  1
RASTERVARIABLES
  2
AcDbRasterVariables
  3
ISM
 90
        0
280
     0
281
     0
  0
ENDSEC
  0
SECTION
  2
TABLES
  0
TABLE
  2
VPORT
  5
8
330
0
100
AcDbSymbolTable
 70
     1
  0
VPORT
  5
29
330
8
100
AcDbSymbolTableRecord
100
AcDbViewportTableRecord
  2
*Active
 70
     0
 10
0.0
 20
0.0
 11
1.0
 21
1.0
 12
1.88935843400391
 22
8.563563954778644
 13
0.0
 23
0.0
 14
10.0
 24
10.0
 15
10.0
 25
10.0
 16
0.0
 26
0.0
 36
1.0
 17
0.0
 27
0.0
 37
0.0
 40
113.9491331937436
 41
1.519944979367263
 42
50.0
 43
0.0
 44
0.0
 50
0.0
 51
0.0
 71
    16
 72
  2000
 73
     1
 74
     3
 75
     0
 76
     0
 77
     0
 78
     0
281
     0
 65
     1
110
0.0
120
0.0
130
0.0
111
1.0
121
0.0
131
0.0
112
0.0
122
1.0
132
0.0
 79
     0
146
0.0
  0
ENDTAB
  0
TABLE
  2
LTYPE
  5
5
330
0
100
AcDbSymbolTable
 70
     6
  0
LTYPE
  5
14
330
5
100
AcDbSymbolTableRecord
100
AcDbLinetypeTableRecord
  2
ByBlock
 70
     0
  3

 72
    65
 73
     0
 40
0.0
  0
LTYPE
  5
15
330
5
100
AcDbSymbolTableRecord
100
AcDbLinetypeTableRecord
  2
ByLayer
 70
     0
  3

 72
    65
 73
     0
 40
0.0
  0
LTYPE
  5
16
330
5
100
AcDbSymbolTableRecord
100
AcDbLinetypeTableRecord
  2
Continuous
 70
     0
  3
Solid line
 72
    65
 73
     0
 40
0.0
  0
LTYPE
  5
6A
330
5
100
AcDbSymbolTableRecord
100
AcDbLinetypeTableRecord
  2
HIDDEN
 70
     0
  3
Hidden __ __ __ __ __ __ __ __ __ __ __ __ __ __
 72
    65
 73
     2
 40
1.905
 49
1.27
 74
     0
 49
-0.635
 74
     0
  0
LTYPE
  5
6B
330
5
100
AcDbSymbolTableRecord
100
AcDbLinetypeTableRecord
  2
PHANTOM
 70
     0
  3
Phantom ______  __  __  ______  __  __  ______
 72
    65
 73
     6
 40
12.7
 49
6.35
 74
     0
 49
-1.27
 74
     0
 49
1.27
 74
     0
 49
-1.27
 74
     0
 49
1.27
 74
     0
 49
-1.27
 74
     0
  0
LTYPE
  5
6C
330
5
100
AcDbSymbolTableRecord
100
AcDbLinetypeTableRecord
  2
CENTER
 70
     0
  3
Center ____ _ ____ _ ____ _ ____ _ ____ _ ____
 72
    65
 73
     4
 40
10.16
 49
6.35
 74
     0
 49
-1.27
 74
     0
 49
1.27
 74
     0
 49
-1.27
 74
     0
  0
LTYPE
  5
6D
330
5
100
AcDbSymbolTableRecord
100
AcDbLinetypeTableRecord
  2
CENTERX2
 70
     0
  3
Center (2x) ________  __  ________  __  _____
 72
    65
 73
     4
 40
20.32
 49
12.7
 74
     0
 49
-2.54
 74
     0
 49
2.54
 74
     0
 49
-2.54
 74
     0
  0
LTYPE
  5
6E
330
5
100
AcDbSymbolTableRecord
100
AcDbLinetypeTableRecord
  2
DOT2
 70
     0
  3
Dot (.5x) ........................................
 72
    65
 73
     2
 40
0.635
 49
0.0
 74
     0
 49
-0.635
 74
     0
  0
ENDTAB
  0
TABLE
  2
LAYER
  5
2
102
{ACAD_XDICTIONARY
360
21E
102
}
330
0
100
AcDbSymbolTable
 70
    18
  0
LAYER
  5
10
330
2
100
AcDbSymbolTableRecord
100
AcDbLayerTableRecord
  2
0
 70
     0
 62
     7
  6
Continuous
370
    -3
390
F
  0
LAYER
  5
6F
330
2
100
AcDbSymbolTableRecord
100
AcDbLayerTableRecord
  2
FORMAT
 70
     0
 62
     2
  6
Continuous
370
    -3
390
F
  0
LAYER
  5
70
330
2
100
AcDbSymbolTableRecord
100
AcDbLayerTableRecord
  2
외형선
 70
     0
 62
     4
  6
Continuous
370
    30
390
F
  0
LAYER
  5
71
330
2
100
AcDbSymbolTableRecord
100
AcDbLayerTableRecord
  2
숨은선
 70
     0
 62
     2
  6
HIDDEN
370
    15
390
F
  0
LAYER
  5
72
330
2
100
AcDbSymbolTableRecord
100
AcDbLayerTableRecord
  2
중심선
 70
     0
 62
     1
  6
CENTERX2
370
    -3
390
F
  0
LAYER
  5
73
330
2
100
AcDbSymbolTableRecord
100
AcDbLayerTableRecord
  2
파단선
 70
     0
 62
     4
  6
Continuous
370
    -3
390
F
  0
LAYER
  5
74
330
2
100
AcDbSymbolTableRecord
100
AcDbLayerTableRecord
  2
해칭선
 70
     0
 62
   100
  6
Continuous
370
    -3
390
F
  0
LAYER
  5
75
330
2
100
AcDbSymbolTableRecord
100
AcDbLayerTableRecord
  2
가는실선
 70
     0
 62
     4
  6
Continuous
370
    -3
390
F
  0
LAYER
  5
76
330
2
100
AcDbSymbolTableRecord
100
AcDbLayerTableRecord
  2
치수_보조선
 70
     0
 62
     4
  6
Continuous
370
    -3
390
F
  0
LAYER
  5
77
330
2
100
AcDbSymbolTableRecord
100
AcDbLayerTableRecord
  2
치수문자_일반주서
 70
     0
 62
     7
  6
Continuous
370
    15
390
F
  0
LAYER
  5
78
330
2
100
AcDbSymbolTableRecord
100
AcDbLayerTableRecord
  2
개별주서
 70
     0
 62
   100
  6
Continuous
370
    30
390
F
  0
LAYER
  5
79
330
2
100
AcDbSymbolTableRecord
100
AcDbLayerTableRecord
  2
중간선
 70
     0
 62
     2
  6
Continuous
370
    15
390
F
  0
LAYER
  5
7A
330
2
100
AcDbSymbolTableRecord
100
AcDbLayerTableRecord
  2
윤곽선
 70
     0
 62
     3
  6
Continuous
370
    40
390
F
  0
LAYER
  5
7B
330
2
100
AcDbSymbolTableRecord
100
AcDbLayerTableRecord
  2
중심마크
 70
     0
 62
   100
  6
Continuous
370
    30
390
F
  0
LAYER
  5
7C
330
2
100
AcDbSymbolTableRecord
100
AcDbLayerTableRecord
  2
가상선
 70
     0
 62
     4
  6
PHANTOM
370
    -3
390
F
  0
LAYER
  5
7D
330
2
100
AcDbSymbolTableRecord
100
AcDbLayerTableRecord
  2
특수지정선
 70
     0
 62
     5
  6
CENTERX2
370
    60
390
F
  0
LAYER
  5
7E
330
2
100
AcDbSymbolTableRecord
100
AcDbLayerTableRecord
  2
참조1
 70
     0
 62
    -4
  6
Continuous
370
    -3
390
F
  0
LAYER
  5
166
330
2
100
AcDbSymbolTableRecord
100
AcDbLayerTableRecord
  2
Defpoints
 70
     0
 62
     7
  6
Continuous
290
     0
370
    -3
390
F
  0
ENDTAB
  0
TABLE
  2
STYLE
  5
3
330
0
100
AcDbSymbolTable
 70
     2
  0
STYLE
  5
11
330
3
100
AcDbSymbolTableRecord
100
AcDbTextStyleTableRecord
  2
Standard
 70
     0
 40
0.0
 41
1.0
 50
0.0
 71
     0
 42
3.5
  3
txt
  4

  0
STYLE
  5
94
330
3
100
AcDbSymbolTableRecord
100
AcDbTextStyleTableRecord
  2
SLDTEXTSTYLE0
 70
     0
 40
0.0
 41
0.75
 50
0.0
 71
     0
 42
3.5
  3
TXT
  4

  0
ENDTAB
  0
TABLE
  2
VIEW
  5
6
330
0
100
AcDbSymbolTable
 70
     0
  0
ENDTAB
  0
TABLE
  2
UCS
  5
7
330
0
100
AcDbSymbolTable
 70
     0
  0
ENDTAB
  0
TABLE
  2
APPID
  5
9
330
0
100
AcDbSymbolTable
 70
     3
  0
APPID
  5
12
330
9
100
AcDbSymbolTableRecord
100
AcDbRegAppTableRecord
  2
ACAD
 70
     0
  0
APPID
  5
172
330
9
100
AcDbSymbolTableRecord
100
AcDbRegAppTableRecord
  2
PE_URL
 70
     0
  0
APPID
  5
173
330
9
100
AcDbSymbolTableRecord
100
AcDbRegAppTableRecord
  2
ACAD_DSTYLE_DIMRADIAL_EXTENSION
 70
     0
  0
ENDTAB
  0
TABLE
  2
DIMSTYLE
  5
A
330
0
100
AcDbSymbolTable
 70
     4
100
AcDbDimStyleTable
  0
DIMSTYLE
105
27
330
A
100
AcDbSymbolTableRecord
100
AcDbDimStyleTableRecord
  2
ISO-25
 70
     0
 41
2.5
 42
0.625
 43
3.75
 44
1.25
 73
     0
 74
     0
 77
     1
 78
     8
140
2.5
141
2.5
143
0.03937007874016
147
0.625
171
     3
172
     1
178
     0
271
     2
272
     2
274
     3
278
    44
283
     0
284
     8
340
11
  0
DIMSTYLE
105
E2
102
{ACAD_REACTORS
330
E1
330
F5
330
10B
330
11F
102
}
330
A
100
AcDbSymbolTableRecord
100
AcDbDimStyleTableRecord
  2
SLDDIMSTYLE0
 70
     0
 41
3.302
 44
0.0
 45
0.000000001
 73
     0
 74
     0
 77
     1
 78
    12
 79
     3
140
3.5
143
0.0393700787401575
147
0.875
148
0.000000001
170
     1
173
     1
178
     0
271
     2
272
     2
276
     2
284
    12
340
94
  0
DIMSTYLE
105
F6
102
{ACAD_REACTORS
102
}
330
A
100
AcDbSymbolTableRecord
100
AcDbDimStyleTableRecord
  2
SLDDIMSTYLE1
 70
     0
 41
3.302
 44
0.0
 45
0.000000001
 73
     0
 74
     0
 77
     1
 78
    12
 79
     3
140
3.5
143
0.0393700787401575
147
0.875
148
0.000000001
170
     1
172
     1
173
     1
178
     0
271
     2
272
     2
276
     2
284
    12
289
     0
340
94
  0
DIMSTYLE
105
10C
102
{ACAD_REACTORS
102
}
330
A
100
AcDbSymbolTableRecord
100
AcDbDimStyleTableRecord
  2
SLDDIMSTYLE2
 70
     0
 41
3.302
 44
0.0
 45
0.000000001
 73
     0
 74
     0
 77
     1
 78
     4
 79
     1
140
3.5
143
0.0393700787401575
147
0.875
148
0.000000001
170
     1
173
     1
178
     0
271
     2
272
     2
276
     2
284
    12
340
94
  0
ENDTAB
  0
TABLE
  2
BLOCK_RECORD
  5
1
330
0
100
AcDbSymbolTable
 70
    17
  0
BLOCK_RECORD
  5
1F
102
{ACAD_XDICTIONARY
360
2F6
102
}
330
1
100
AcDbSymbolTableRecord
100
AcDbBlockTableRecord
  2
*Model_Space
340
22
  0
BLOCK_RECORD
  5
1B
330
1
100
AcDbSymbolTableRecord
100
AcDbBlockTableRecord
  2
*Paper_Space
340
1E
  0
BLOCK_RECORD
  5
23
330
1
100
AcDbSymbolTableRecord
100
AcDbBlockTableRecord
  2
*Paper_Space0
340
26
  0
BLOCK_RECORD
  5
7F
330
1
100
AcDbSymbolTableRecord
100
AcDbBlockTableRecord
  2
블럭10
340
0
102
{BLKREFS
331
DA
102
}
  0
BLOCK_RECORD
  5
E3
330
1
100
AcDbSymbolTableRecord
100
AcDbBlockTableRecord
  2
_D
340
0
  0
BLOCK_RECORD
  5
F7
330
1
100
AcDbSymbolTableRecord
100
AcDbBlockTableRecord
  2
_D_1
340
0
  0
BLOCK_RECORD
  5
10D
330
1
100
AcDbSymbolTableRecord
100
AcDbBlockTableRecord
  2
_D_2
340
0
  0
BLOCK_RECORD
  5
120
330
1
100
AcDbSymbolTableRecord
100
AcDbBlockTableRecord
  2
_D_3
340
0
  0
BLOCK_RECORD
  5
13A
330
1
100
AcDbSymbolTableRecord
100
AcDbBlockTableRecord
  2
SW_DOWELSYMBOL_0
340
0
102
{BLKREFS
331
140
102
}
  0
BLOCK_RECORD
  5
1FC
330
1
100
AcDbSymbolTableRecord
100
AcDbBlockTableRecord
  2
_D_4
340
0
  0
BLOCK_RECORD
  5
216
330
1
100
AcDbSymbolTableRecord
100
AcDbBlockTableRecord
  2
*D8
340
0
  0
BLOCK_RECORD
  5
222
330
1
100
AcDbSymbolTableRecord
100
AcDbBlockTableRecord
  2
*D9
340
0
  0
BLOCK_RECORD
  5
22E
330
1
100
AcDbSymbolTableRecord
100
AcDbBlockTableRecord
  2
*D10
340
0
  0
BLOCK_RECORD
  5
23A
330
1
100
AcDbSymbolTableRecord
100
AcDbBlockTableRecord
  2
*D11
340
0
  0
BLOCK_RECORD
  5
294
330
1
100
AcDbSymbolTableRecord
100
AcDbBlockTableRecord
  2
*D12
340
0
  0
BLOCK_RECORD
  5
2A0
330
1
100
AcDbSymbolTableRecord
100
AcDbBlockTableRecord
  2
*D13
340
0
  0
BLOCK_RECORD
  5
2AC
330
1
100
AcDbSymbolTableRecord
100
AcDbBlockTableRecord
  2
*D14
340
0
  0
BLOCK_RECORD
  5
2BA
330
1
100
AcDbSymbolTableRecord
100
AcDbBlockTableRecord
  2
*D15
340
0
  0
BLOCK_RECORD
  5
2C8
330
1
100
AcDbSymbolTableRecord
100
AcDbBlockTableRecord
  2
*D16
340
0
  0
ENDTAB
  0
ENDSEC
  0
SECTION
  2
BLOCKS
  0
BLOCK
  5
20
330
1F
100
AcDbEntity
  8
0
100
AcDbBlockBegin
  2
*Model_Space
 70
     0
 10
0.0
 20
0.0
 30
0.0
  3
*Model_Space
  1
*Model_Space
  0
ENDBLK
  5
21
330
1F
100
AcDbEntity
  8
0
100
AcDbBlockEnd
  0
BLOCK
  5
1C
330
1B
100
AcDbEntity
 67
     1
  8
0
100
AcDbBlockBegin
  2
*Paper_Space
 70
     0
 10
0.0
 20
0.0
 30
0.0
  3
*Paper_Space
  1
*Paper_Space
  0
ENDBLK
  5
1D
330
1B
100
AcDbEntity
 67
     1
  8
0
100
AcDbBlockEnd
  0
BLOCK
  5
24
330
23
100
AcDbEntity
  8
0
100
AcDbBlockBegin
  2
*Paper_Space0
 70
     0
 10
0.0
 20
0.0
 30
0.0
  3
*Paper_Space0
  1
*Paper_Space0
  0
ENDBLK
  5
25
330
23
100
AcDbEntity
  8
0
100
AcDbBlockEnd
  0
BLOCK
  5
80
330
7F
100
AcDbEntity
  8
0
100
AcDbBlockBegin
  2
블럭10
 70
     2
 10
0.0
 20
0.0
 30
0.0
  3
블럭10
  1
블럭10
  0
ELLIPSE
  5
82
330
7F
100
AcDbEntity
  8
중심선
100
AcDbEllipse
 10
20.54032771741204
 20
12.0471743016438
 30
0.0
 11
6.600054785286829
 21
-1.261213355974178E-13
 31
0.0
210
0.0
220
0.0
230
1.0
 40
0.636358354079598
 41
0.9219305317359503
 42
6.513795318482858
  0
ELLIPSE
  5
83
330
7F
100
AcDbEntity
  8
중심선
100
AcDbEllipse
 10
20.54032771746488
 20
12.04717430159265
 30
0.0
 11
3.960054785062283
 21
1.540847449632565E-10
 31
0.0
210
0.0
220
0.0
230
1.0
 40
0.3939339440162632
 41
1.131841032648279
 42
5.62031148352944
  0
LINE
  5
84
330
7F
100
AcDbEntity
  8
중심선
100
AcDbLine
 10
2.268634060543552
 20
16.24717430164393
 30
0.0
 11
5.714909304380834
 21
16.24717430164393
 31
0.0
  0
LINE
  5
85
330
7F
100
AcDbEntity
  8
중심선
100
AcDbLine
 10
5.245725140726316
 20
7.84717430164391
 30
0.0
 11
8.692000384563599
 21
7.84717430164391
 31
0.0
  0
LINE
  5
86
330
7F
100
AcDbEntity
  8
중심선
100
AcDbLine
 10
15.74043728645272
 20
16.24717430164393
 30
0.0
 11
8.692000384563599
 21
7.84717430164391
 31
0.0
  0
LINE
  5
87
330
7F
100
AcDbEntity
  8
중심선
100
AcDbLine
 10
0.1404042013395286
 20
13.71084872107135
 30
0.0
 11
3.58671253028996
 21
13.71088815037384
 31
0.0
  0
LINE
  5
88
330
7F
100
AcDbEntity
  8
중심선
100
AcDbLine
 10
2.750260043222114
 20
10.84717430164391
 30
0.0
 11
6.196535287059397
 21
10.84717430164391
 31
0.0
  0
LINE
  5
89
330
7F
100
AcDbEntity
  8
중심선
100
AcDbLine
 10
12.29416204261559
 20
16.24717430164393
 30
0.0
 11
5.245725140726316
 21
7.84717430164391
 31
0.0
  0
LINE
  5
8A
330
7F
100
AcDbEntity
  8
중심선
100
AcDbLine
 10
10.72767329541681
 20
16.24717430164393
 30
0.0
 11
6.196535287059397
 21
10.84717430164391
 31
0.0
  0
LINE
  5
8B
330
7F
100
AcDbEntity
  8
중심선
100
AcDbLine
 10
7.28139805157953
 20
16.24717430164393
 30
0.0
 11
2.750260043222114
 21
10.84717430164391
 31
0.0
  0
LINE
  5
8C
330
7F
100
AcDbEntity
  8
중심선
100
AcDbLine
 10
5.714909304380834
 20
16.24717430164393
 30
0.0
 11
3.58671253028996
 21
13.71088815037384
 31
0.0
  0
LINE
  5
8D
330
7F
100
AcDbEntity
  8
중심선
100
AcDbLine
 10
2.268634060543552
 20
16.24717430164393
 30
0.0
 11
0.1404042013395286
 21
13.71084872107135
 31
0.0
  0
LINE
  5
8E
330
7F
100
AcDbEntity
  8
중심선
100
AcDbLine
 10
7.28139805157953
 20
16.24717430164393
 30
0.0
 11
10.72767329541681
 21
16.24717430164393
 31
0.0
  0
LINE
  5
8F
330
7F
100
AcDbEntity
  8
중심선
100
AcDbLine
 10
12.29416204261559
 20
16.24717430164393
 30
0.0
 11
15.74043728645272
 21
16.24717430164393
 31
0.0
  0
LINE
  5
90
330
7F
100
AcDbEntity
  8
중심선
100
AcDbLine
 10
19.22036997980202
 20
11.08717430171403
 30
0.0
 11
23.66174974927406
 21
11.08717430171406
 31
0.0
  0
LINE
  5
91
330
7F
100
AcDbEntity
  8
중심선
100
AcDbLine
 10
19.22039502424796
 20
13.00717430171391
 30
0.0
 11
19.22036997980202
 21
11.08717430171403
 31
0.0
  0
LINE
  5
92
330
7F
100
AcDbEntity
  8
중심선
100
AcDbLine
 10
19.22039502424796
 20
13.00717430171391
 30
0.0
 11
26.96566020931264
 21
13.00717430171391
 31
0.0
  0
LINE
  5
93
330
7F
100
AcDbEntity
  8
중심선
100
AcDbLine
 10
22.22332737316547
 20
13.45928029700563
 30
0.0
 11
24.52862924686651
 21
15.39360700705356
 31
0.0
  0
ATTDEF
  5
95
330
7F
100
AcDbEntity
  8
FORMAT
 62
     2
100
AcDbText
 10
4.408487351596664
 20
2.075366912832191
 30
0.0
 40
4.233333333333333
  1
E5058024
 41
0.75
  7
SLDTEXTSTYLE0
 11
4.408487351596664
 21
-0.0412997538344756
 31
0.0
100
AcDbAttributeDefinition
  3

  2
AUTOATTR0
 70
     0
 74
     1
  0
ENDBLK
  5
81
330
7F
100
AcDbEntity
  8
0
100
AcDbBlockEnd
  0
BLOCK
  5
E4
330
E3
100
AcDbEntity
  8
0
100
AcDbBlockBegin
  2
_D
 70
     0
 10
0.0
 20
0.0
 30
0.0
  3
_D
  1
_D
  0
LINE
  5
E6
330
E3
100
AcDbEntity
  8
치수문자_일반주서
 62
     0
370
    -2
100
AcDbLine
 10
32.2875000000016
 20
4.762499999999997
 30
0.0
 11
45.52665346547459
 21
4.762500000000045
 31
0.0
  0
LINE
  5
E7
330
E3
100
AcDbEntity
  8
치수문자_일반주서
 62
     0
370
    -2
100
AcDbLine
 10
32.2875000000016
 20
-4.762500000000006
 30
0.0
 11
45.52665346547462
 21
-4.762499999999957
 31
0.0
  0
LINE
  5
E8
330
E3
100
AcDbEntity
  8
치수문자_일반주서
 62
     0
370
    -2
100
AcDbLine
 10
45.52665346547459
 20
4.762500000000045
 30
0.0
 11
45.52665346547446
 21
38.09690994164774
 31
0.0
  0
LINE
  5
E9
330
E3
100
AcDbEntity
  8
치수문자_일반주서
 62
     0
370
    -2
100
AcDbLine
 10
45.5266534654746
 20
1.460500000000046
 30
0.0
 11
45.52665346547461
 21
-1.460499999999957
 31
0.0
  0
SOLID
  5
EA
330
E3
100
AcDbEntity
  8
치수문자_일반주서
 62
     0
100
AcDbTrace
 10
46.07698679880794
 20
1.460500000000048
 30
0.0
 11
44.97632013214127
 21
1.460500000000044
 31
0.0
 12
45.52665346547459
 22
4.762500000000045
 32
0.0
 13
45.52665346547459
 23
4.762500000000045
 33
0.0
  0
SOLID
  5
EB
330
E3
100
AcDbEntity
  8
치수문자_일반주서
 62
     0
100
AcDbTrace
 10
44.97632013214128
 20
-1.460499999999959
 30
0.0
 11
46.07698679880794
 21
-1.460499999999955
 31
0.0
 12
45.52665346547462
 22
-4.762499999999957
 32
0.0
 13
45.52665346547462
 23
-4.762499999999957
 33
0.0
  0
MTEXT
  5
EC
330
E3
100
AcDbEntity
  8
치수문자_일반주서
 62
     0
100
AcDbMText
 10
41.15165346547451
 20
24.97190994164772
 30
0.0
 40
3.5
 41
0.0
 71
     2
 72
     1
  1
\A1;%%c9.53 [3/8]
  7
SLDTEXTSTYLE0
 11
-3.729883127349606E-15
 21
1.0
 31
0.0
 73
     1
 44
1.0
  0
POINT
  5
ED
330
E3
100
AcDbEntity
  8
Defpoints
 62
     0
100
AcDbPoint
 10
32.2250000000016
 20
4.762499999999997
 30
0.0
  0
POINT
  5
EE
330
E3
100
AcDbEntity
  8
Defpoints
 62
     0
100
AcDbPoint
 10
32.2250000000016
 20
-4.762500000000006
 30
0.0
  0
POINT
  5
EF
330
E3
100
AcDbEntity
  8
Defpoints
 62
     0
100
AcDbPoint
 10
45.52665346547462
 20
-4.762499999999956
 30
0.0
  0
ENDBLK
  5
E5
330
E3
100
AcDbEntity
  8
0
100
AcDbBlockEnd
  0
BLOCK
  5
F8
330
F7
100
AcDbEntity
  8
0
100
AcDbBlockBegin
  2
_D_1
 70
     0
 10
0.0
 20
0.0
 30
0.0
  3
_D_1
  1
_D_1
  0
LINE
  5
FA
330
F7
100
AcDbEntity
  8
치수문자_일반주서
 62
     0
370
    -2
100
AcDbLine
 10
32.2250000000016
 20
4.790245898681905
 30
0.0
 11
32.2250000000016
 21
26.84982792016485
 31
0.0
  0
LINE
  5
FB
330
F7
100
AcDbEntity
  8
치수문자_일반주서
 62
     0
370
    -2
100
AcDbLine
 10
10.0000000000016
 20
4.52450031628366
 30
0.0
 11
10.0000000000016
 21
26.84982792016485
 31
0.0
  0
LINE
  5
FC
330
F7
100
AcDbEntity
  8
치수문자_일반주서
 62
     0
370
    -2
100
AcDbLine
 10
28.9230000000016
 20
26.84982792016485
 30
0.0
 11
13.30200000000159
 21
26.84982792016485
 31
0.0
  0
SOLID
  5
FD
330
F7
100
AcDbEntity
  8
치수문자_일반주서
 62
     0
100
AcDbTrace
 10
28.9230000000016
 20
26.29949458683151
 30
0.0
 11
28.9230000000016
 21
27.40016125349818
 31
0.0
 12
32.2250000000016
 22
26.84982792016485
 32
0.0
 13
32.2250000000016
 23
26.84982792016485
 33
0.0
  0
SOLID
  5
FE
330
F7
100
AcDbEntity
  8
치수문자_일반주서
 62
     0
100
AcDbTrace
 10
13.30200000000159
 20
27.40016125349818
 30
0.0
 11
13.30200000000159
 21
26.29949458683151
 31
0.0
 12
10.0000000000016
 22
26.84982792016485
 32
0.0
 13
10.0000000000016
 23
26.84982792016485
 33
0.0
  0
MTEXT
  5
FF
330
F7
100
AcDbEntity
  8
치수문자_일반주서
 62
     0
100
AcDbMText
 10
21.1125000000016
 20
31.22482792016485
 30
0.0
 40
3.5
 41
0.0
 71
     2
 72
     1
  1
\A1;22.23 [7/8]
  7
SLDTEXTSTYLE0
 73
     1
 44
1.0
  0
POINT
  5
100
330
F7
100
AcDbEntity
  8
Defpoints
 62
     0
100
AcDbPoint
 10
32.2250000000016
 20
4.727745898681905
 30
0.0
  0
POINT
  5
101
330
F7
100
AcDbEntity
  8
Defpoints
 62
     0
100
AcDbPoint
 10
10.0000000000016
 20
4.46200031628366
 30
0.0
  0
POINT
  5
102
330
F7
100
AcDbEntity
  8
Defpoints
 62
     0
100
AcDbPoint
 10
10.0000000000016
 20
26.84982792016485
 30
0.0
  0
ENDBLK
  5
F9
330
F7
100
AcDbEntity
  8
0
100
AcDbBlockEnd
  0
BLOCK
  5
10E
330
10D
100
AcDbEntity
  8
0
100
AcDbBlockBegin
  2
_D_2
 70
     0
 10
0.0
 20
0.0
 30
0.0
  3
_D_2
  1
_D_2
  0
LINE
  5
110
330
10D
100
AcDbEntity
  8
치수문자_일반주서
 62
     0
370
    -2
100
AcDbLine
 10
32.2250000000016
 20
4.790245898681905
 30
0.0
 11
32.2250000000016
 21
44.84982792016486
 31
0.0
  0
LINE
  5
111
330
10D
100
AcDbEntity
  8
치수문자_일반주서
 62
     0
370
    -2
100
AcDbLine
 10
-31.2749999999984
 20
3.872499999999999
 30
0.0
 11
-31.2749999999984
 21
44.84982792016486
 31
0.0
  0
LINE
  5
112
330
10D
100
AcDbEntity
  8
치수문자_일반주서
 62
     0
370
    -2
100
AcDbLine
 10
28.9230000000016
 20
44.84982792016486
 30
0.0
 11
-27.9729999999984
 21
44.84982792016486
 31
0.0
  0
SOLID
  5
113
330
10D
100
AcDbEntity
  8
치수문자_일반주서
 62
     0
100
AcDbTrace
 10
28.9230000000016
 20
44.29949458683153
 30
0.0
 11
28.9230000000016
 21
45.4001612534982
 31
0.0
 12
32.2250000000016
 22
44.84982792016486
 32
0.0
 13
32.2250000000016
 23
44.84982792016486
 33
0.0
  0
SOLID
  5
114
330
10D
100
AcDbEntity
  8
치수문자_일반주서
 62
     0
100
AcDbTrace
 10
-27.9729999999984
 20
45.4001612534982
 30
0.0
 11
-27.9729999999984
 21
44.29949458683153
 31
0.0
 12
-31.2749999999984
 22
44.84982792016486
 32
0.0
 13
-31.2749999999984
 23
44.84982792016486
 33
0.0
  0
MTEXT
  5
115
330
10D
100
AcDbEntity
  8
치수문자_일반주서
 62
     0
100
AcDbMText
 10
0.4750000000016037
 20
49.22482792016486
 30
0.0
 40
3.5
 41
0.0
 71
     2
 72
     1
  1
\A1;63.5 [2 1/2]
  7
SLDTEXTSTYLE0
 73
     1
 44
1.0
  0
POINT
  5
116
330
10D
100
AcDbEntity
  8
Defpoints
 62
     0
100
AcDbPoint
 10
32.2250000000016
 20
4.727745898681905
 30
0.0
  0
POINT
  5
117
330
10D
100
AcDbEntity
  8
Defpoints
 62
     0
100
AcDbPoint
 10
-31.2749999999984
 20
3.809999999999999
 30
0.0
  0
POINT
  5
118
330
10D
100
AcDbEntity
  8
Defpoints
 62
     0
100
AcDbPoint
 10
-31.2749999999984
 20
44.84982792016486
 30
0.0
  0
ENDBLK
  5
10F
330
10D
100
AcDbEntity
  8
0
100
AcDbBlockEnd
  0
BLOCK
  5
121
330
120
100
AcDbEntity
  8
0
100
AcDbBlockBegin
  2
_D_3
 70
     0
 10
0.0
 20
0.0
 30
0.0
  3
_D_3
  1
_D_3
  0
LINE
  5
123
330
120
100
AcDbEntity
  8
치수문자_일반주서
 62
     0
370
    -2
100
AcDbLine
 10
-30.3849999999984
 20
4.762499999999998
 30
0.0
 11
-40.59881740100906
 21
4.76249999999996
 31
0.0
  0
LINE
  5
124
330
120
100
AcDbEntity
  8
치수문자_일반주서
 62
     0
370
    -2
100
AcDbLine
 10
-30.3849999999984
 20
-4.762500000000007
 30
0.0
 11
-40.59881740100903
 21
-4.762500000000045
 31
0.0
  0
LINE
  5
125
330
120
100
AcDbEntity
  8
치수문자_일반주서
 62
     0
370
    -2
100
AcDbLine
 10
-40.59881740100906
 20
4.76249999999996
 30
0.0
 11
-40.59881740100918
 21
34.53324999999997
 31
0.0
  0
LINE
  5
126
330
120
100
AcDbEntity
  8
치수문자_일반주서
 62
     0
370
    -2
100
AcDbLine
 10
-40.59881740100905
 20
1.460499999999961
 30
0.0
 11
-40.59881740100904
 21
-1.460500000000046
 31
0.0
  0
SOLID
  5
127
330
120
100
AcDbEntity
  8
치수문자_일반주서
 62
     0
100
AcDbTrace
 10
-40.04848406767572
 20
1.460499999999963
 30
0.0
 11
-41.14915073434238
 21
1.460499999999959
 31
0.0
 12
-40.59881740100906
 22
4.76249999999996
 32
0.0
 13
-40.59881740100906
 23
4.76249999999996
 33
0.0
  0
SOLID
  5
128
330
120
100
AcDbEntity
  8
치수문자_일반주서
 62
     0
100
AcDbTrace
 10
-41.14915073434238
 20
-1.460500000000048
 30
0.0
 11
-40.04848406767571
 21
-1.460500000000044
 31
0.0
 12
-40.59881740100903
 22
-4.762500000000045
 32
0.0
 13
-40.59881740100903
 23
-4.762500000000045
 33
0.0
  0
MTEXT
  5
129
330
120
100
AcDbEntity
  8
치수문자_일반주서
 62
     0
100
AcDbMText
 10
-44.97381740100913
 20
21.40824999999995
 30
0.0
 40
3.5
 41
0.0
 71
     2
 72
     1
  1
\A1;%%c9.53 [3/8]
  7
SLDTEXTSTYLE0
 11
-3.729883127349605E-15
 21
1.0
 31
0.0
 73
     1
 44
1.0
  0
POINT
  5
12A
330
120
100
AcDbEntity
  8
Defpoints
 62
     0
100
AcDbPoint
 10
-30.3224999999984
 20
4.762499999999998
 30
0.0
  0
POINT
  5
12B
330
120
100
AcDbEntity
  8
Defpoints
 62
     0
100
AcDbPoint
 10
-30.3224999999984
 20
-4.762500000000007
 30
0.0
  0
POINT
  5
2D1
330
120
100
AcDbEntity
  8
Defpoints
 62
     0
100
AcDbPoint
 10
-40.59881740100903
 20
-4.762500000000045
 30
0.0
  0
ENDBLK
  5
122
330
120
100
AcDbEntity
  8
0
100
AcDbBlockEnd
  0
BLOCK
  5
13B
330
13A
100
AcDbEntity
  8
0
100
AcDbBlockBegin
  2
SW_DOWELSYMBOL_0
 70
     0
 10
0.0
 20
0.0
 30
0.0
  3
SW_DOWELSYMBOL_0
  1
SW_DOWELSYMBOL_0
  0
CIRCLE
  5
13D
330
13A
100
AcDbEntity
  8
해칭선
 62
     0
100
AcDbCircle
 10
0.0
 20
0.0
 30
0.0
 40
3.000000000000001
  0
HATCH
  5
13E
330
13A
100
AcDbEntity
  8
0
  6
Continuous
 62
     0
370
     0
100
AcDbHatch
 10
0.0
 20
0.0
 30
0.0
210
0.0
220
0.0
230
1.0
  2
SOLID
 70
     1
 71
     0
 91
        1
 92
        0
 93
        3
 72
     2
 10
0.0
 20
0.0
 40
3.000000000000001
 50
0.0
 51
90.0
 73
     1
 72
     1
 10
0.0
 20
3.000000000000001
 11
0.0
 21
0.0
 72
     1
 10
0.0
 20
0.0
 11
3.000000000000001
 21
0.0
 97
        0
 75
     0
 76
     1
 98
        1
 10
0.0
 20
0.0
  0
HATCH
  5
13F
330
13A
100
AcDbEntity
  8
0
  6
Continuous
 62
     0
370
     0
100
AcDbHatch
 10
0.0
 20
0.0
 30
0.0
210
0.0
220
0.0
230
1.0
  2
SOLID
 70
     1
 71
     0
 91
        1
 92
        0
 93
        3
 72
     2
 10
0.0
 20
0.0
 40
3.000000000000001
 50
180.0
 51
270.0000000000007
 73
     1
 72
     1
 10
0.0
 20
-3.000000000000001
 11
0.0
 21
0.0
 72
     1
 10
0.0
 20
0.0
 11
-3.000000000000001
 21
0.0
 97
        0
 75
     0
 76
     1
 98
        1
 10
0.0
 20
0.0
  0
ENDBLK
  5
13C
330
13A
100
AcDbEntity
  8
0
100
AcDbBlockEnd
  0
BLOCK
  5
1FD
330
1FC
100
AcDbEntity
  8
0
100
AcDbBlockBegin
  2
_D_4
 70
     0
 10
0.0
 20
0.0
 30
0.0
  3
_D_4
  1
_D_4
  0
LINE
  5
1FE
330
1FC
100
AcDbEntity
  8
치수문자_일반주서
 62
     0
370
    -2
100
AcDbLine
 10
102.4375000000001
 20
36.22143424691529
 30
0.0
 11
117.3750000000001
 21
36.22143424691535
 31
0.0
  0
LINE
  5
1FF
330
1FC
100
AcDbEntity
  8
치수문자_일반주서
 62
     0
370
    -2
100
AcDbLine
 10
102.4375000000001
 20
22.22143424691529
 30
0.0
 11
117.3750000000001
 21
22.22143424691535
 31
0.0
  0
LINE
  5
200
330
1FC
100
AcDbEntity
  8
치수문자_일반주서
 62
     0
370
    -2
100
AcDbLine
 10
117.3750000000001
 20
36.22143424691535
 30
0.0
 11
117.3750000000001
 21
22.22143424691535
 31
0.0
  0
LINE
  5
201
330
1FC
100
AcDbEntity
  8
치수문자_일반주서
 62
     0
370
    -2
100
AcDbLine
 10
117.3750000000001
 20
39.52343424691535
 30
0.0
 11
117.375
 21
42.82543424691535
 31
0.0
  0
LINE
  5
202
330
1FC
100
AcDbEntity
  8
치수문자_일반주서
 62
     0
370
    -2
100
AcDbLine
 10
117.3750000000001
 20
18.91943424691535
 30
0.0
 11
117.3750000000001
 21
15.61743424691535
 31
0.0
  0
SOLID
  5
203
330
1FC
100
AcDbEntity
  8
치수문자_일반주서
 62
     0
100
AcDbTrace
 10
116.8246666666667
 20
39.52343424691535
 30
0.0
 11
117.9253333333334
 21
39.52343424691535
 31
0.0
 12
117.3750000000001
 22
36.22143424691535
 32
0.0
 13
117.3750000000001
 23
36.22143424691535
 33
0.0
  0
SOLID
  5
204
330
1FC
100
AcDbEntity
  8
치수문자_일반주서
 62
     0
100
AcDbTrace
 10
117.9253333333335
 20
18.91943424691535
 30
0.0
 11
116.8246666666668
 21
18.91943424691535
 31
0.0
 12
117.3750000000001
 22
22.22143424691535
 32
0.0
 13
117.3750000000001
 23
22.22143424691535
 33
0.0
  0
MTEXT
  5
205
330
1FC
100
AcDbEntity
  8
치수문자_일반주서
 62
     0
100
AcDbMText
 10
113.0000000000001
 20
29.28713862862833
 30
0.0
 40
3.5
 41
0.0
 71
     2
 72
     1
  1
\A1;%%c14.00 [0.55]
  7
SLDTEXTSTYLE0
 11
-3.045183153257572E-15
 21
1.0
 31
0.0
 73
     1
 44
1.0
  0
POINT
  5
206
330
1FC
100
AcDbEntity
  8
Defpoints
 62
     0
100
AcDbPoint
 10
102.3750000000001
 20
36.22143424691529
 30
0.0
  0
POINT
  5
207
330
1FC
100
AcDbEntity
  8
Defpoints
 62
     0
100
AcDbPoint
 10
102.3750000000001
 20
22.22143424691529
 30
0.0
  0
POINT
  5
208
330
1FC
100
AcDbEntity
  8
Defpoints
 62
     0
100
AcDbPoint
 10
117.3750000000001
 20
22.22143424691535
 30
0.0
  0
ENDBLK
  5
209
330
1FC
100
AcDbEntity
  8
0
100
AcDbBlockEnd
  0
BLOCK
  5
217
330
216
100
AcDbEntity
  8
0
100
AcDbBlockBegin
  2
*D8
 70
     1
 10
0.0
 20
0.0
 30
0.0
  3
*D8
  1
*D8
  0
LINE
  5
218
330
216
100
AcDbEntity
  8
치수문자_일반주서
 62
     0
370
    -2
100
AcDbLine
 10
103.8657751816695
 20
19.48229575403651
 30
0.0
 11
119.6194267469468
 21
-6.150060756304035
 31
0.0
  0
MTEXT
  5
219
330
216
100
AcDbEntity
  8
치수문자_일반주서
 62
     0
100
AcDbMText
 10
115.6706384014277
 20
5.288158154535728
 30
0.0
 40
3.5
 41
0.0
 71
     5
 72
     1
  1
\A1;R.5 [R0.02]
  7
SLDTEXTSTYLE0
 11
0.5236126201129557
 21
-0.8519564684057781
 31
0.0
 73
     1
 44
1.0
  0
LINE
  5
21A
330
216
100
AcDbEntity
  8
치수문자_일반주서
 62
     0
370
    -2
100
AcDbLine
 10
101.875
 20
22.72143424691529
 30
0.0
 11
102.1368063100565
 21
22.29545601271239
 31
0.0
  0
SOLID
  5
21B
330
216
100
AcDbEntity
  8
치수문자_일반주서
 62
     0
100
AcDbTrace
 10
104.3346352247821
 20
19.77045723263868
 30
0.0
 11
103.3969151385569
 21
19.19413427543435
 31
0.0
 12
102.1368063100565
 22
22.29545601271239
 32
0.0
 13
102.1368063100565
 23
22.29545601271239
 33
0.0
  0
POINT
  5
21C
330
216
100
AcDbEntity
  8
Defpoints
 62
     0
100
AcDbPoint
 10
102.1368063100565
 20
22.29545601271239
 30
0.0
  0
POINT
  5
248
330
216
100
AcDbEntity
  8
Defpoints
 62
     0
100
AcDbPoint
 10
101.875
 20
22.72143424691529
 30
0.0
  0
ENDBLK
  5
21D
330
216
100
AcDbEntity
  8
0
100
AcDbBlockEnd
  0
BLOCK
  5
223
330
222
100
AcDbEntity
  8
0
100
AcDbBlockBegin
  2
*D9
 70
     1
 10
0.0
 20
0.0
 30
0.0
  3
*D9
  1
*D10
  0
LINE
  5
225
330
222
100
AcDbEntity
  8
치수문자_일반주서
 62
     0
370
    -2
100
AcDbLine
 10
19.37500000000004
 20
35.78393424691529
 30
0.0
 11
19.37500000000004
 21
70.88391841499404
 31
0.0
  0
LINE
  5
226
330
222
100
AcDbEntity
  8
치수문자_일반주서
 62
     0
370
    -2
100
AcDbLine
 10
102.3750000000001
 20
36.34643424691529
 30
0.0
 11
102.3750000000001
 21
70.88391841499404
 31
0.0
  0
LINE
  5
227
330
222
100
AcDbEntity
  8
치수문자_일반주서
 62
     0
370
    -2
100
AcDbLine
 10
22.67700000000004
 20
70.88391841499404
 30
0.0
 11
99.07300000000006
 21
70.88391841499404
 31
0.0
  0
SOLID
  5
228
330
222
100
AcDbEntity
  8
치수문자_일반주서
 62
     0
100
AcDbTrace
 10
22.67700000000004
 20
71.43425174832737
 30
0.0
 11
22.67700000000004
 21
70.33358508166071
 31
0.0
 12
19.37500000000004
 22
70.88391841499404
 32
0.0
 13
19.37500000000004
 23
70.88391841499404
 33
0.0
  0
SOLID
  5
229
330
222
100
AcDbEntity
  8
치수문자_일반주서
 62
     0
100
AcDbTrace
 10
99.07300000000006
 20
70.33358508166071
 30
0.0
 11
99.07300000000006
 21
71.43425174832737
 31
0.0
 12
102.3750000000001
 22
70.88391841499404
 32
0.0
 13
102.3750000000001
 23
70.88391841499404
 33
0.0
  0
MTEXT
  5
22A
330
222
100
AcDbEntity
  8
치수문자_일반주서
 62
     0
100
AcDbMText
 10
60.87500000000005
 20
75.25891841499404
 30
0.0
 40
3.5
 41
0.0
 71
     2
 72
     1
  1
\A1;83 [3.27]
  7
SLDTEXTSTYLE0
 73
     1
 44
1.0
  0
POINT
  5
22B
330
222
100
AcDbEntity
  8
Defpoints
 62
     0
100
AcDbPoint
 10
19.37500000000004
 20
35.72143424691529
 30
0.0
  0
POINT
  5
22C
330
222
100
AcDbEntity
  8
Defpoints
 62
     0
100
AcDbPoint
 10
102.3750000000001
 20
36.28393424691529
 30
0.0
  0
POINT
  5
22D
330
222
100
AcDbEntity
  8
Defpoints
 62
     0
100
AcDbPoint
 10
102.3750000000001
 20
70.88391841499404
 30
0.0
  0
ENDBLK
  5
224
330
222
100
AcDbEntity
  8
0
100
AcDbBlockEnd
  0
BLOCK
  5
22F
330
22E
100
AcDbEntity
  8
0
100
AcDbBlockBegin
  2
*D10
 70
     1
 10
0.0
 20
0.0
 30
0.0
  3
*D10
  1
*D11
  0
LINE
  5
231
330
22E
100
AcDbEntity
  8
치수문자_일반주서
 62
     0
370
    -2
100
AcDbLine
 10
76.37504186422882
 20
28.62038676313042
 30
0.0
 11
76.37504186422882
 21
61.90091383617725
 31
0.0
  0
LINE
  5
232
330
22E
100
AcDbEntity
  8
치수문자_일반주서
 62
     0
370
    -2
100
AcDbLine
 10
102.3750000000001
 20
36.28393424691529
 30
0.0
 11
102.3750000000001
 21
61.90091383617725
 31
0.0
  0
LINE
  5
233
330
22E
100
AcDbEntity
  8
치수문자_일반주서
 62
     0
370
    -2
100
AcDbLine
 10
79.67704186422881
 20
61.90091383617725
 30
0.0
 11
99.07300000000006
 21
61.90091383617725
 31
0.0
  0
SOLID
  5
234
330
22E
100
AcDbEntity
  8
치수문자_일반주서
 62
     0
100
AcDbTrace
 10
79.67704186422881
 20
62.45124716951059
 30
0.0
 11
79.67704186422881
 21
61.35058050284392
 31
0.0
 12
76.37504186422882
 22
61.90091383617725
 32
0.0
 13
76.37504186422882
 23
61.90091383617725
 33
0.0
  0
SOLID
  5
235
330
22E
100
AcDbEntity
  8
치수문자_일반주서
 62
     0
100
AcDbTrace
 10
99.07300000000006
 20
61.35058050284392
 30
0.0
 11
99.07300000000006
 21
62.45124716951059
 31
0.0
 12
102.3750000000001
 22
61.90091383617725
 32
0.0
 13
102.3750000000001
 23
61.90091383617725
 33
0.0
  0
MTEXT
  5
236
330
22E
100
AcDbEntity
  8
치수문자_일반주서
 62
     0
100
AcDbMText
 10
89.42159572693208
 20
66.27591383617725
 30
0.0
 40
3.5
 41
0.0
 71
     2
 72
     1
  1
\A1;26 [1.02]
  7
SLDTEXTSTYLE0
 73
     1
 44
1.0
  0
POINT
  5
237
330
22E
100
AcDbEntity
  8
Defpoints
 62
     0
100
AcDbPoint
 10
76.37504186422882
 20
28.55788676313042
 30
0.0
  0
POINT
  5
238
330
22E
100
AcDbEntity
  8
Defpoints
 62
     0
100
AcDbPoint
 10
102.3750000000001
 20
36.22143424691529
 30
0.0
  0
POINT
  5
239
330
22E
100
AcDbEntity
  8
Defpoints
 62
     0
100
AcDbPoint
 10
102.3750000000001
 20
61.90091383617725
 30
0.0
  0
ENDBLK
  5
230
330
22E
100
AcDbEntity
  8
0
100
AcDbBlockEnd
  0
BLOCK
  5
23B
330
23A
100
AcDbEntity
  8
0
100
AcDbBlockBegin
  2
*D11
 70
     1
 10
0.0
 20
0.0
 30
0.0
  3
*D11
  1
*D12
  0
LINE
  5
23D
330
23A
100
AcDbEntity
  8
치수문자_일반주서
 62
     0
370
    -2
100
AcDbLine
 10
19.81250000000005
 20
36.22143424691529
 30
0.0
 11
4.374999999999983
 21
36.22143424691524
 31
0.0
  0
LINE
  5
23E
330
23A
100
AcDbEntity
  8
치수문자_일반주서
 62
     0
370
    -2
100
AcDbLine
 10
19.81250000000005
 20
22.22143424691529
 30
0.0
 11
4.375000000000032
 21
22.22143424691524
 31
0.0
  0
LINE
  5
23F
330
23A
100
AcDbEntity
  8
치수문자_일반주서
 62
     0
370
    -2
100
AcDbLine
 10
4.374999999999983
 20
36.22143424691524
 30
0.0
 11
4.375000000000032
 21
22.22143424691524
 31
0.0
  0
LINE
  5
240
330
23A
100
AcDbEntity
  8
치수문자_일반주서
 62
     0
370
    -2
100
AcDbLine
 10
4.374999999999972
 20
39.52343424691524
 30
0.0
 11
4.37499999999996
 21
42.82543424691524
 31
0.0
  0
LINE
  5
241
330
23A
100
AcDbEntity
  8
치수문자_일반주서
 62
     0
370
    -2
100
AcDbLine
 10
4.375000000000044
 20
18.91943424691524
 30
0.0
 11
4.375000000000055
 21
15.61743424691524
 31
0.0
  0
SOLID
  5
242
330
23A
100
AcDbEntity
  8
치수문자_일반주서
 62
     0
100
AcDbTrace
 10
3.824666666666638
 20
39.52343424691524
 30
0.0
 11
4.925333333333305
 21
39.52343424691524
 31
0.0
 12
4.374999999999983
 22
36.22143424691524
 32
0.0
 13
4.374999999999983
 23
36.22143424691524
 33
0.0
  0
SOLID
  5
243
330
23A
100
AcDbEntity
  8
치수문자_일반주서
 62
     0
100
AcDbTrace
 10
4.925333333333377
 20
18.91943424691524
 30
0.0
 11
3.82466666666671
 21
18.91943424691523
 31
0.0
 12
4.375000000000032
 22
22.22143424691524
 32
0.0
 13
4.375000000000032
 23
22.22143424691524
 33
0.0
  0
MTEXT
  5
244
330
23A
100
AcDbEntity
  8
치수문자_일반주서
 62
     0
100
AcDbMText
 10
0.0000000000000071
 20
29.22143424691528
 30
0.0
 40
3.5
 41
0.0
 71
     2
 72
     1
  1
\A1;%%c14.00 [0.55]
  7
SLDTEXTSTYLE0
 11
-3.489272363107635E-15
 21
1.0
 31
0.0
 73
     1
 44
1.0
  0
POINT
  5
245
330
23A
100
AcDbEntity
  8
Defpoints
 62
     0
100
AcDbPoint
 10
19.87500000000005
 20
36.22143424691529
 30
0.0
  0
POINT
  5
246
330
23A
100
AcDbEntity
  8
Defpoints
 62
     0
100
AcDbPoint
 10
19.87500000000005
 20
22.22143424691529
 30
0.0
  0
POINT
  5
247
330
23A
100
AcDbEntity
  8
Defpoints
 62
     0
100
AcDbPoint
 10
4.375000000000043
 20
22.22143424691524
 30
0.0
  0
ENDBLK
  5
23C
330
23A
100
AcDbEntity
  8
0
100
AcDbBlockEnd
  0
BLOCK
  5
295
330
294
100
AcDbEntity
  8
0
100
AcDbBlockBegin
  2
*D12
 70
     1
 10
0.0
 20
0.0
 30
0.0
  3
*D12
  1
*D13
  0
LINE
  5
297
330
294
100
AcDbEntity
  8
치수문자_일반주서
 62
     0
370
    -2
100
AcDbLine
 10
-74.27187932848776
 20
108.2675141592229
 30
0.0
 11
-74.27187932848776
 21
143.3674983273016
 31
0.0
  0
LINE
  5
298
330
294
100
AcDbEntity
  8
치수문자_일반주서
 62
     0
370
    -2
100
AcDbLine
 10
8.728120671512258
 20
108.8300141592229
 30
0.0
 11
8.728120671512258
 21
143.3674983273016
 31
0.0
  0
LINE
  5
299
330
294
100
AcDbEntity
  8
치수문자_일반주서
 62
     0
370
    -2
100
AcDbLine
 10
-70.96987932848776
 20
143.3674983273016
 30
0.0
 11
5.426120671512258
 21
143.3674983273016
 31
0.0
  0
SOLID
  5
29A
330
294
100
AcDbEntity
  8
치수문자_일반주서
 62
     0
100
AcDbTrace
 10
-70.96987932848776
 20
143.917831660635
 30
0.0
 11
-70.96987932848776
 21
142.8171649939683
 31
0.0
 12
-74.27187932848776
 22
143.3674983273016
 32
0.0
 13
-74.27187932848776
 23
143.3674983273016
 33
0.0
  0
SOLID
  5
29B
330
294
100
AcDbEntity
  8
치수문자_일반주서
 62
     0
100
AcDbTrace
 10
5.426120671512258
 20
142.8171649939683
 30
0.0
 11
5.426120671512258
 21
143.917831660635
 31
0.0
 12
8.728120671512258
 22
143.3674983273016
 32
0.0
 13
8.728120671512258
 23
143.3674983273016
 33
0.0
  0
MTEXT
  5
29C
330
294
100
AcDbEntity
  8
치수문자_일반주서
 62
     0
100
AcDbMText
 10
-32.77187932848775
 20
147.7424983273016
 30
0.0
 40
3.5
 41
0.0
 71
     2
 72
     1
  1
\A1;83 [3.27]
  7
SLDTEXTSTYLE0
 73
     1
 44
1.0
  0
POINT
  5
29D
330
294
100
AcDbEntity
  8
Defpoints
 62
     0
100
AcDbPoint
 10
-74.27187932848776
 20
108.2050141592229
 30
0.0
  0
POINT
  5
29E
330
294
100
AcDbEntity
  8
Defpoints
 62
     0
100
AcDbPoint
 10
8.728120671512258
 20
108.7675141592229
 30
0.0
  0
POINT
  5
29F
330
294
100
AcDbEntity
  8
Defpoints
 62
     0
100
AcDbPoint
 10
8.728120671512258
 20
143.3674983273016
 30
0.0
  0
ENDBLK
  5
296
330
294
100
AcDbEntity
  8
0
100
AcDbBlockEnd
  0
BLOCK
  5
2A1
330
2A0
100
AcDbEntity
  8
0
100
AcDbBlockBegin
  2
*D13
 70
     1
 10
0.0
 20
0.0
 30
0.0
  3
*D13
  1
*D14
  0
LINE
  5
2A3
330
2A0
100
AcDbEntity
  8
치수문자_일반주서
 62
     0
370
    -2
100
AcDbLine
 10
-17.27183746425898
 20
101.103966675438
 30
0.0
 11
-17.27183746425898
 21
134.3844937484849
 31
0.0
  0
LINE
  5
2A4
330
2A0
100
AcDbEntity
  8
치수문자_일반주서
 62
     0
370
    -2
100
AcDbLine
 10
8.728120671512258
 20
108.7675141592229
 30
0.0
 11
8.728120671512258
 21
134.3844937484849
 31
0.0
  0
LINE
  5
2A5
330
2A0
100
AcDbEntity
  8
치수문자_일반주서
 62
     0
370
    -2
100
AcDbLine
 10
-13.96983746425898
 20
134.3844937484849
 30
0.0
 11
5.426120671512258
 21
134.3844937484849
 31
0.0
  0
SOLID
  5
2A6
330
2A0
100
AcDbEntity
  8
치수문자_일반주서
 62
     0
100
AcDbTrace
 10
-13.96983746425898
 20
134.9348270818182
 30
0.0
 11
-13.96983746425898
 21
133.8341604151515
 31
0.0
 12
-17.27183746425898
 22
134.3844937484849
 32
0.0
 13
-17.27183746425898
 23
134.3844937484849
 33
0.0
  0
SOLID
  5
2A7
330
2A0
100
AcDbEntity
  8
치수문자_일반주서
 62
     0
100
AcDbTrace
 10
5.426120671512258
 20
133.8341604151515
 30
0.0
 11
5.426120671512258
 21
134.9348270818182
 31
0.0
 12
8.728120671512258
 22
134.3844937484849
 32
0.0
 13
8.728120671512258
 23
134.3844937484849
 33
0.0
  0
MTEXT
  5
2A8
330
2A0
100
AcDbEntity
  8
치수문자_일반주서
 62
     0
100
AcDbMText
 10
-4.225283601555716
 20
138.7594937484849
 30
0.0
 40
3.5
 41
0.0
 71
     2
 72
     1
  1
\A1;26 [1.02]
  7
SLDTEXTSTYLE0
 73
     1
 44
1.0
  0
POINT
  5
2A9
330
2A0
100
AcDbEntity
  8
Defpoints
 62
     0
100
AcDbPoint
 10
-17.27183746425898
 20
101.041466675438
 30
0.0
  0
POINT
  5
2AA
330
2A0
100
AcDbEntity
  8
Defpoints
 62
     0
100
AcDbPoint
 10
8.728120671512258
 20
108.7050141592229
 30
0.0
  0
POINT
  5
2AB
330
2A0
100
AcDbEntity
  8
Defpoints
 62
     0
100
AcDbPoint
 10
8.728120671512258
 20
134.3844937484849
 30
0.0
  0
ENDBLK
  5
2A2
330
2A0
100
AcDbEntity
  8
0
100
AcDbBlockEnd
  0
BLOCK
  5
2AD
330
2AC
100
AcDbEntity
  8
0
100
AcDbBlockBegin
  2
*D14
 70
     1
 10
0.0
 20
0.0
 30
0.0
  3
*D14
  1
*D15
  0
LINE
  5
2AF
330
2AC
100
AcDbEntity
  8
치수문자_일반주서
 62
     0
370
    -2
100
AcDbLine
 10
-73.83437932848776
 20
108.7050141592229
 30
0.0
 11
-89.2718793284878
 21
108.7050141592228
 31
0.0
  0
LINE
  5
2B0
330
2AC
100
AcDbEntity
  8
치수문자_일반주서
 62
     0
370
    -2
100
AcDbLine
 10
-73.83437932848776
 20
94.7050141592229
 30
0.0
 11
-89.27187932848776
 21
94.70501415922284
 31
0.0
  0
LINE
  5
2B1
330
2AC
100
AcDbEntity
  8
치수문자_일반주서
 62
     0
370
    -2
100
AcDbLine
 10
-89.2718793284878
 20
108.7050141592228
 30
0.0
 11
-89.27187932848776
 21
94.70501415922284
 31
0.0
  0
LINE
  5
2B2
330
2AC
100
AcDbEntity
  8
치수문자_일반주서
 62
     0
370
    -2
100
AcDbLine
 10
-89.27187932848781
 20
112.0070141592228
 30
0.0
 11
-89.27187932848783
 21
115.3090141592228
 31
0.0
  0
LINE
  5
2B3
330
2AC
100
AcDbEntity
  8
치수문자_일반주서
 62
     0
370
    -2
100
AcDbLine
 10
-89.27187932848774
 20
91.40301415922283
 30
0.0
 11
-89.27187932848773
 21
88.10101415922284
 31
0.0
  0
SOLID
  5
2B4
330
2AC
100
AcDbEntity
  8
치수문자_일반주서
 62
     0
100
AcDbTrace
 10
-89.82221266182114
 20
112.0070141592228
 30
0.0
 11
-88.72154599515449
 21
112.0070141592228
 31
0.0
 12
-89.2718793284878
 22
108.7050141592228
 32
0.0
 13
-89.2718793284878
 23
108.7050141592228
 33
0.0
  0
SOLID
  5
2B5
330
2AC
100
AcDbEntity
  8
치수문자_일반주서
 62
     0
100
AcDbTrace
 10
-88.72154599515441
 20
91.40301415922283
 30
0.0
 11
-89.82221266182107
 21
91.40301415922283
 31
0.0
 12
-89.27187932848776
 22
94.70501415922284
 32
0.0
 13
-89.27187932848776
 23
94.70501415922284
 33
0.0
  0
MTEXT
  5
2B6
330
2AC
100
AcDbEntity
  8
치수문자_일반주서
 62
     0
100
AcDbMText
 10
-93.64687932848778
 20
101.7050141592229
 30
0.0
 40
3.5
 41
0.0
 71
     2
 72
     1
  1
\A1;%%c14.00 [0.55]
  7
SLDTEXTSTYLE0
 11
-3.045183153257572E-15
 21
1.0
 31
0.0
 73
     1
 44
1.0
  0
POINT
  5
2B7
330
2AC
100
AcDbEntity
  8
Defpoints
 62
     0
100
AcDbPoint
 10
-73.77187932848776
 20
108.7050141592229
 30
0.0
  0
POINT
  5
2B8
330
2AC
100
AcDbEntity
  8
Defpoints
 62
     0
100
AcDbPoint
 10
-73.77187932848776
 20
94.7050141592229
 30
0.0
  0
POINT
  5
2B9
330
2AC
100
AcDbEntity
  8
Defpoints
 62
     0
100
AcDbPoint
 10
-89.27187932848777
 20
94.70501415922284
 30
0.0
  0
ENDBLK
  5
2AE
330
2AC
100
AcDbEntity
  8
0
100
AcDbBlockEnd
  0
BLOCK
  5
2BB
330
2BA
100
AcDbEntity
  8
0
100
AcDbBlockBegin
  2
*D15
 70
     1
 10
0.0
 20
0.0
 30
0.0
  3
*D15
  1
*D16
  0
LINE
  5
2BD
330
2BA
100
AcDbEntity
  8
치수문자_일반주서
 62
     0
370
    -2
100
AcDbLine
 10
8.790620671512272
 20
108.7050141592229
 30
0.0
 11
23.72812067151226
 21
108.705014159223
 31
0.0
  0
LINE
  5
2BE
330
2BA
100
AcDbEntity
  8
치수문자_일반주서
 62
     0
370
    -2
100
AcDbLine
 10
8.790620671512258
 20
94.7050141592229
 30
0.0
 11
23.72812067151231
 21
94.70501415922296
 31
0.0
  0
LINE
  5
2BF
330
2BA
100
AcDbEntity
  8
치수문자_일반주서
 62
     0
370
    -2
100
AcDbLine
 10
23.72812067151226
 20
108.705014159223
 30
0.0
 11
23.72812067151231
 21
94.70501415922296
 31
0.0
  0
LINE
  5
2C0
330
2BA
100
AcDbEntity
  8
치수문자_일반주서
 62
     0
370
    -2
100
AcDbLine
 10
23.72812067151225
 20
112.007014159223
 30
0.0
 11
23.72812067151224
 21
115.309014159223
 31
0.0
  0
LINE
  5
2C1
330
2BA
100
AcDbEntity
  8
치수문자_일반주서
 62
     0
370
    -2
100
AcDbLine
 10
23.72812067151232
 20
91.40301415922295
 30
0.0
 11
23.72812067151233
 21
88.10101415922296
 31
0.0
  0
SOLID
  5
2C2
330
2BA
100
AcDbEntity
  8
치수문자_일반주서
 62
     0
100
AcDbTrace
 10
23.17778733817892
 20
112.007014159223
 30
0.0
 11
24.27845400484559
 21
112.007014159223
 31
0.0
 12
23.72812067151226
 22
108.705014159223
 32
0.0
 13
23.72812067151226
 23
108.705014159223
 33
0.0
  0
SOLID
  5
2C3
330
2BA
100
AcDbEntity
  8
치수문자_일반주서
 62
     0
100
AcDbTrace
 10
24.27845400484566
 20
91.40301415922295
 30
0.0
 11
23.17778733817899
 21
91.40301415922295
 31
0.0
 12
23.72812067151231
 22
94.70501415922296
 32
0.0
 13
23.72812067151231
 23
94.70501415922296
 33
0.0
  0
MTEXT
  5
2C4
330
2BA
100
AcDbEntity
  8
치수문자_일반주서
 62
     0
100
AcDbMText
 10
19.35312067151229
 20
101.7707185409359
 30
0.0
 40
3.5
 41
0.0
 71
     2
 72
     1
  1
\A1;%%c14.00 [0.55]
  7
SLDTEXTSTYLE0
 11
-3.552713678800501E-15
 21
1.0
 31
0.0
 73
     1
 44
1.0
  0
POINT
  5
2C5
330
2BA
100
AcDbEntity
  8
Defpoints
 62
     0
100
AcDbPoint
 10
8.728120671512272
 20
108.7050141592229
 30
0.0
  0
POINT
  5
2C6
330
2BA
100
AcDbEntity
  8
Defpoints
 62
     0
100
AcDbPoint
 10
8.728120671512258
 20
94.7050141592229
 30
0.0
  0
POINT
  5
2C7
330
2BA
100
AcDbEntity
  8
Defpoints
 62
     0
100
AcDbPoint
 10
23.72812067151231
 20
94.70501415922296
 30
0.0
  0
ENDBLK
  5
2BC
330
2BA
100
AcDbEntity
  8
0
100
AcDbBlockEnd
  0
BLOCK
  5
2C9
330
2C8
100
AcDbEntity
  8
0
100
AcDbBlockBegin
  2
*D16
 70
     1
 10
0.0
 20
0.0
 30
0.0
  3
*D16
  1
*D17
  0
LINE
  5
2CB
330
2C8
100
AcDbEntity
  8
치수문자_일반주서
 62
     0
370
    -2
100
AcDbLine
 10
10.21889585318171
 20
91.96587566634412
 30
0.0
 11
25.972547418459
 21
66.33351915600356
 31
0.0
  0
MTEXT
  5
2CC
330
2C8
100
AcDbEntity
  8
치수문자_일반주서
 62
     0
100
AcDbMText
 10
22.02375907293987
 20
77.77173806684333
 30
0.0
 40
3.5
 41
0.0
 71
     5
 72
     1
  1
\A1;R.5 [R0.02]
  7
SLDTEXTSTYLE0
 11
0.5236126201129557
 21
-0.8519564684057781
 31
0.0
 73
     1
 44
1.0
  0
LINE
  5
2CD
330
2C8
100
AcDbEntity
  8
치수문자_일반주서
 62
     0
370
    -2
100
AcDbLine
 10
8.228120671512244
 20
95.2050141592229
 30
0.0
 11
8.489926981568729
 21
94.77903592502
 31
0.0
  0
SOLID
  5
2CE
330
2C8
100
AcDbEntity
  8
치수문자_일반주서
 62
     0
100
AcDbTrace
 10
10.68775589629436
 20
92.25403714494628
 30
0.0
 11
9.750035810069061
 21
91.67771418774196
 31
0.0
 12
8.489926981568729
 22
94.77903592502
 32
0.0
 13
8.489926981568729
 23
94.77903592502
 33
0.0
  0
POINT
  5
2CF
330
2C8
100
AcDbEntity
  8
Defpoints
 62
     0
100
AcDbPoint
 10
8.489926981568729
 20
94.77903592502
 30
0.0
  0
POINT
  5
2D0
330
2C8
100
AcDbEntity
  8
Defpoints
 62
     0
100
AcDbPoint
 10
8.228120671512244
 20
95.2050141592229
 30
0.0
  0
ENDBLK
  5
2CA
330
2C8
100
AcDbEntity
  8
0
100
AcDbBlockEnd
  0
ENDSEC
  0
SECTION
  2
ENTITIES
  0
LINE
  5
96
330
1F
100
AcDbEntity
  8
0
  6
Continuous
 62
     1
370
    15
100
AcDbLine
 10
11.28532909596055
 20
-0.9216029234282093
 30
0.0
 11
11.31740930094273
 21
-0.9524359358279798
 31
0.0
  0
LINE
  5
97
330
1F
100
AcDbEntity
  8
외형선
  6
Continuous
370
    15
100
AcDbLine
 10
13.25841941997421
 20
0.9286710217700535
 30
0.0
 11
13.23417360750647
 21
0.952859244901377
 31
0.0
  0
LINE
  5
98
330
1F
100
AcDbEntity
  8
외형선
  6
Continuous
370
    15
100
AcDbLine
 10
28.22052737155807
 20
0.9278763958704863
 30
0.0
 11
28.19615702998655
 21
0.9527130592896556
 31
0.0
  0
LINE
  5
99
330
1F
100
AcDbEntity
  8
0
  6
Continuous
 62
     1
370
    15
100
AcDbLine
 10
16.68692998647757
 20
-4.762500000000006
 30
0.0
 11
17.83932636552208
 21
-4.762500000000006
 31
0.0
  0
LINE
  5
9A
330
1F
100
AcDbEntity
  8
0
  6
Continuous
 62
     1
370
    15
100
AcDbLine
 10
32.2250000000016
 20
4.762499999999997
 30
0.0
 11
31.64878536231938
 21
4.762499999999997
 31
0.0
  0
LINE
  5
9B
330
1F
100
AcDbEntity
  8
0
  6
Continuous
 62
     1
370
    15
100
AcDbLine
 10
26.66223863049493
 20
-4.762500000000006
 30
0.0
 11
27.81364686719769
 21
-4.762500000000006
 31
0.0
  0
LINE
  5
9C
330
1F
100
AcDbEntity
  8
0
  6
Continuous
 62
     1
370
    15
100
AcDbLine
 10
12.85142561993861
 20
4.762499999999997
 30
0.0
 11
11.70073335307827
 21
4.762499999999997
 31
0.0
  0
LINE
  5
9D
330
1F
100
AcDbEntity
  8
0
  6
Continuous
 62
     1
370
    15
100
AcDbLine
 10
22.82601283355242
 20
4.762499999999997
 30
0.0
 11
21.67437740291815
 21
4.762499999999997
 31
0.0
  0
LINE
  5
9E
330
1F
100
AcDbEntity
  8
0
  6
Continuous
 62
     1
370
    15
100
AcDbLine
 10
21.67437740291811
 20
-4.762500000000006
 30
0.0
 11
22.82601283355238
 21
-4.762500000000006
 31
0.0
  0
LINE
  5
9F
330
1F
100
AcDbEntity
  8
0
  6
Continuous
 62
     1
370
    15
100
AcDbLine
 10
31.64878536231938
 20
-4.762500000000006
 30
0.0
 11
32.2250000000016
 21
-4.762500000000006
 31
0.0
  0
LINE
  5
A0
330
1F
100
AcDbEntity
  8
0
  6
Continuous
 62
     1
370
    15
100
AcDbLine
 10
17.8393263655221
 20
4.762499999999997
 30
0.0
 11
16.68692998647758
 21
4.762499999999997
 31
0.0
  0
LINE
  5
A1
330
1F
100
AcDbEntity
  8
0
  6
Continuous
 62
     1
370
    15
100
AcDbLine
 10
11.70073335307831
 20
-4.762500000000006
 30
0.0
 11
12.8514256199386
 21
-4.762500000000006
 31
0.0
  0
LINE
  5
A2
330
1F
100
AcDbEntity
  8
0
  6
Continuous
 62
     1
370
    15
100
AcDbLine
 10
27.81364686719768
 20
4.762499999999997
 30
0.0
 11
26.66223863049497
 21
4.762499999999997
 31
0.0
  0
LINE
  5
A3
330
1F
100
AcDbEntity
  8
외형선
  6
Continuous
370
    15
100
AcDbLine
 10
-30.3224999999984
 20
-4.762500000000005
 30
0.0
 11
9.000237136642447
 21
-4.762500000000005
 31
0.0
  0
LINE
  5
A4
330
1F
100
AcDbEntity
  8
외형선
  6
Continuous
370
    15
100
AcDbLine
 10
9.000237136642447
 20
4.762499999999996
 30
0.0
 11
-30.3224999999984
 21
4.762499999999996
 31
0.0
  0
LINE
  5
A5
330
1F
100
AcDbEntity
  8
외형선
  6
Continuous
370
    15
100
AcDbLine
 10
-30.3224999999984
 20
4.762499999999997
 30
0.0
 11
-31.2749999999984
 21
3.809999999999999
 31
0.0
  0
LINE
  5
A6
330
1F
100
AcDbEntity
  8
외형선
  6
Continuous
370
    15
100
AcDbLine
 10
-31.2749999999984
 20
-3.810000000000008
 30
0.0
 11
-30.3224999999984
 21
-4.762500000000006
 31
0.0
  0
SPLINE
  5
A7
330
1F
100
AcDbEntity
  8
0
  6
Continuous
 62
     1
370
    15
100
AcDbSpline
210
0.0
220
0.0
230
1.0
 70
     8
 71
     3
 72
    25
 73
    21
 74
     0
 42
0.000000001
 43
0.00000001
 40
0.0
 40
0.0
 40
0.0
 40
0.0
 40
0.054232467928985
 40
0.1086856751446734
 40
0.1629418303639799
 40
0.217291786845312
 40
0.2716688203919962
 40
0.3259138720183248
 40
0.3822911030026672
 40
0.4384613665553483
 40
0.4947314869674612
 40
0.5510405827158783
 40
0.6071993513931028
 40
0.6635714071495418
 40
0.719760914321866
 40
0.7759938011658255
 40
0.8323362547051312
 40
0.8884895414750811
 40
0.9448452913252784
 40
1.0
 40
1.0
 40
1.0
 40
1.0
 10
10.00000000000152
 20
4.291897390698031
 30
0.0
 10
10.26609480442429
 20
4.164442919676634
 30
0.0
 10
10.79936748360698
 20
3.909015207050555
 30
0.0
 10
11.60215559373242
 20
3.385317218507216
 30
0.0
 10
12.40207110506984
 20
2.772076669646403
 30
0.0
 10
13.20339099464229
 20
2.079755957649765
 30
0.0
 10
14.00514603877426
 20
1.330013372741738
 30
0.0
 10
14.8143032202252
 20
0.5302927250141838
 30
0.0
 10
15.63624182178807
 20
-0.2901616743741203
 30
0.0
 10
16.46437089667325
 20
-1.11549275697371
 30
0.0
 10
17.29405382325385
 20
-1.904850675531267
 30
0.0
 10
18.12433659682402
 20
-2.636117049028617
 30
0.0
 10
18.95232882227787
 20
-3.290142888601129
 30
0.0
 10
19.78358640987815
 20
-3.841442775419621
 30
0.0
 10
20.61202526484434
 20
-4.278885391373192
 30
0.0
 10
21.44112381929139
 20
-4.585801488948279
 30
0.0
 10
22.27192901960728
 20
-4.754522241574593
 30
0.0
 10
23.09983804940521
 20
-4.776959884330797
 30
0.0
 10
23.9256399962703
 20
-4.665715317551773
 30
0.0
 10
24.47322756100749
 20
-4.474734804955732
 30
0.0
 10
24.74407240378278
 20
-4.380273041690454
 30
0.0
  0
LINE
  5
A8
330
1F
100
AcDbEntity
  8
외형선
  6
Continuous
370
    15
100
AcDbLine
 10
10.0000000000016
 20
4.46200031628366
 30
0.0
 11
10.0000000000016
 21
4.336519759769974
 31
0.0
  0
SPLINE
  5
A9
330
1F
100
AcDbEntity
  8
0
  6
Continuous
 62
     1
370
    15
100
AcDbSpline
210
0.0
220
0.0
230
1.0
 70
     8
 71
     3
 72
    28
 73
    24
 74
     0
 42
0.000000001
 43
0.00000001
 40
0.0
 40
0.0
 40
0.0
 40
0.0
 40
0.014559115650726
 40
0.0644357899714995
 40
0.1141691298065893
 40
0.163914089946401
 40
0.2137828344200704
 40
0.2634724209614783
 40
0.3133293996378326
 40
0.363089423637023
 40
0.4128110613177658
 40
0.4626942347551852
 40
0.5123886721917337
 40
0.5622161328303643
 40
0.6120091045110426
 40
0.6617137136693492
 40
0.7116014666238307
 40
0.7596024714140412
 40
0.8077202659316327
 40
0.8558141001744216
 40
0.9038249304437083
 40
0.952010130421174
 40
0.9999999999999999
 40
0.9999999999999999
 40
0.9999999999999999
 40
0.9999999999999999
 10
26.66223863049494
 20
-4.747577857585571
 30
0.0
 10
26.58147071583487
 20
-4.751884053465948
 30
0.0
 10
26.22400776888641
 20
-4.770942431734286
 30
0.0
 10
25.58828469791652
 20
-4.659150589804127
 30
0.0
 10
24.75970039455776
 20
-4.411628977823978
 30
0.0
 10
23.93084837028489
 20
-4.019561710820226
 30
0.0
 10
23.09984290591528
 20
-3.510495030945085
 30
0.0
 10
22.27192771532894
 20
-2.891442421279373
 30
0.0
 10
21.44112416851736
 20
-2.188192627668455
 30
0.0
 10
20.61202517143613
 20
-1.417076389593342
 30
0.0
 10
19.78358643499214
 20
-0.6020567488112603
 30
0.0
 10
18.95232881556837
 20
0.2276844506257285
 30
0.0
 10
18.12433659862437
 20
1.054898552793951
 30
0.0
 10
17.29405382277126
 20
1.84696263935097
 30
0.0
 10
16.4643708968023
 20
2.583976302249556
 30
0.0
 10
15.63624182175336
 20
3.244398383420921
 30
0.0
 10
14.81430322023404
 20
3.79732470084905
 30
0.0
 10
14.00514603877167
 20
4.236122639680377
 30
0.0
 10
13.20339099464242
 20
4.548375784806244
 30
0.0
 10
12.40207110506891
 20
4.733459229699636
 30
0.0
 10
11.6021555937315
 20
4.782426046857913
 30
0.0
 10
10.79936748360569
 20
4.705685726449885
 30
0.0
 10
10.26609480442286
 20
4.543118729149241
 30
0.0
 10
10.0
 20
4.462000316297842
 30
0.0
  0
LINE
  5
AA
330
1F
100
AcDbEntity
  8
0
  6
Continuous
 62
     1
370
    15
100
AcDbLine
 10
32.2250000000016
 20
-1.866511184000742
 30
0.0
 11
32.2250000000016
 21
1.866511184000822
 31
0.0
  0
SPLINE
  5
AB
330
1F
100
AcDbEntity
  8
0
  6
Continuous
 62
     1
370
    15
100
AcDbSpline
210
0.0
220
0.0
230
1.0
 70
     8
 71
     3
 72
    19
 73
    15
 74
     0
 42
0.000000001
 43
0.00000001
 40
0.0
 40
0.0
 40
0.0
 40
0.0
 40
0.0291213263406044
 40
0.1175302753187612
 40
0.2057197753620838
 40
0.2938886745473305
 40
0.3823116818190214
 40
0.4704056170667062
 40
0.5587715509052452
 40
0.6470135230965816
 40
0.7351462573708364
 40
0.8235867322091821
 40
0.9116944718961294
 40
1.0
 40
1.0
 40
1.0
 40
1.0
 10
22.82601283355241
 20
4.746557367235921
 30
0.0
 10
22.91713786535943
 20
4.750966830322157
 30
0.0
 10
23.28490786152805
 20
4.768762908854844
 30
0.0
 10
23.93087903168685
 20
4.652448803380017
 30
0.0
 10
24.75968170370141
 20
4.399328631314775
 30
0.0
 10
25.58832889751293
 20
4.00247155811607
 30
0.0
 10
26.4194731112948
 20
3.489175547730069
 30
0.0
 10
27.24741141734898
 20
2.866550593646946
 30
0.0
 10
28.07799570841486
 20
2.16017969723817
 30
0.0
 10
28.90734836054364
 20
1.38738688450057
 30
0.0
 10
29.73564130159852
 20
0.5707648679047925
 30
0.0
 10
30.56695437636578
 20
-0.2582476965359355
 30
0.0
 10
31.39501651517034
 20
-1.087744570108647
 30
0.0
 10
31.94813212706567
 20
-1.606728357182646
 30
0.0
 10
32.22500000000159
 20
-1.866511184000742
 30
0.0
  0
SPLINE
  5
AC
330
1F
100
AcDbEntity
  8
0
  6
Continuous
 62
     1
370
    15
100
AcDbSpline
210
0.0
220
0.0
230
1.0
 70
     8
 71
     3
 72
    17
 73
    13
 74
     0
 42
0.000000001
 43
0.00000001
 40
0.0
 40
0.0
 40
0.0
 40
0.0
 40
0.1109442689457677
 40
0.2216400427883085
 40
0.3327538545376184
 40
0.4434810307880951
 40
0.5543454500981172
 40
0.6653656108959195
 40
0.7760440412781483
 40
0.8871359073298962
 40
0.99790852002923
 40
1.0
 40
1.0
 40
1.0
 40
1.0
 10
32.22500000000161
 20
1.866511184000823
 30
0.0
 10
31.94813212936728
 20
2.115400153820896
 30
0.0
 10
31.39501652206993
 20
2.612620627168866
 30
0.0
 10
30.56695434879621
 20
3.26666145510669
 30
0.0
 10
29.73564140527565
 20
3.82286827709082
 30
0.0
 10
28.9073479748262
 20
4.264720490152854
 30
0.0
 10
28.07799715096514
 20
4.577015287242499
 30
0.0
 10
27.24740603244515
 20
4.74964955051513
 30
0.0
 10
26.41949316980563
 20
4.782919373805427
 30
0.0
 10
25.58825381062572
 20
4.656168371580405
 30
0.0
 10
25.03062907217874
 20
4.514556026711858
 30
0.0
 10
24.74928596167021
 20
4.382716160950659
 30
0.0
 10
24.74407240378282
 20
4.380273041690447
 30
0.0
  0
SPLINE
  5
AD
330
1F
100
AcDbEntity
  8
0
  6
Continuous
 62
     1
370
    15
100
AcDbSpline
210
0.0
220
0.0
230
1.0
 70
     8
 71
     3
 72
    10
 73
     6
 74
     0
 42
0.000000001
 43
0.00000001
 40
0.0
 40
0.0
 40
0.0
 40
0.0
 40
0.0577740184793206
 40
0.5298438340042705
 40
1.0
 40
1.0
 40
1.0
 40
1.0
 10
11.70073335307831
 20
-4.755262349603114
 30
0.0
 10
11.66800993212932
 20
-4.757589469158578
 30
0.0
 10
11.36790439552798
 20
-4.778931414550431
 30
0.0
 10
10.79927859661342
 20
-4.698262668044831
 30
0.0
 10
10.26606521557002
 20
-4.540647728870864
 30
0.0
 10
10.0
 20
-4.462000316297837
 30
0.0
  0
SPLINE
  5
AE
330
1F
100
AcDbEntity
  8
0
  6
Continuous
 62
     1
370
    15
100
AcDbSpline
210
0.0
220
0.0
230
1.0
 70
     8
 71
     3
 72
    19
 73
    15
 74
     0
 42
0.000000001
 43
0.00000001
 40
0.0
 40
0.0
 40
0.0
 40
0.0
 40
0.0819499222894488
 40
0.1642334006216571
 40
0.2462191164435637
 40
0.3283465740380132
 40
0.4105149474064655
 40
0.4924838847446245
 40
0.5776747284309365
 40
0.6625528265316468
 40
0.7475818169332794
 40
0.8326697024194124
 40
0.9175304307749058
 40
1.0
 40
1.0
 40
1.0
 40
1.0
 10
10.0000000000015
 20
0.3582777865155211
 30
0.0
 10
10.26609480449888
 20
0.0910905743781805
 30
0.0
 10
10.79936748383109
 20
-0.4443713665977577
 30
0.0
 10
11.60215559283303
 20
-1.234098440397474
 30
0.0
 10
12.40207110843098
 20
-1.992131465664662
 30
0.0
 10
13.20339098206582
 20
-2.692032196219376
 30
0.0
 10
14.00514608568698
 20
-3.315700985000228
 30
0.0
 10
14.81430304272077
 20
-3.853955658555565
 30
0.0
 10
15.63624251227662
 20
-4.282820805794059
 30
0.0
 10
16.46436833160741
 20
-4.588886589531237
 30
0.0
 10
17.29406341826137
 20
-4.755804085889513
 30
0.0
 10
18.12430080263492
 20
-4.776435251819167
 30
0.0
 10
18.94365430483213
 20
-4.663609443679885
 30
0.0
 10
19.48878102302951
 20
-4.473263807708736
 30
0.0
 10
19.75744943677675
 20
-4.379451014512351
 30
0.0
  0
SPLINE
  5
AF
330
1F
100
AcDbEntity
  8
0
  6
Continuous
 62
     1
370
    15
100
AcDbSpline
210
0.0
220
0.0
230
1.0
 70
     8
 71
     3
 72
    22
 73
    18
 74
     0
 42
0.000000001
 43
0.00000001
 40
0.0
 40
0.0
 40
0.0
 40
0.0
 40
0.0199829592019541
 40
0.0910005205246698
 40
0.161963296851214
 40
0.2331566171884639
 40
0.3040805732963903
 40
0.3751943802655496
 40
0.4462589645557493
 40
0.5171974377562263
 40
0.5883972939852955
 40
0.6569043811461903
 40
0.7255781507352583
 40
0.7942177241936104
 40
0.8627388342891168
 40
0.931508805025117
 40
1.0
 40
1.0
 40
1.0
 40
1.0
 10
21.67437740291812
 20
-4.747903219590119
 30
0.0
 10
21.59654459904477
 20
-4.752173343794011
 30
0.0
 10
21.24210131590597
 20
-4.77161908860748
 30
0.0
 10
20.61200988530204
 20
-4.661274496978352
 30
0.0
 10
19.78359054486754
 20
-4.415265532895245
 30
0.0
 10
18.95232771756053
 20
-4.026324092991548
 30
0.0
 10
18.12433689324676
 20
-3.5161510629535
 30
0.0
 10
17.29405374379466
 20
-2.900751941464396
 30
0.0
 10
16.46437091791537
 20
-2.197525521399995
 30
0.0
 10
15.63624181606994
 20
-1.425612065714755
 30
0.0
 10
14.81430322169508
 20
-0.623881496439745
 30
0.0
 10
14.00514603838552
 20
0.1908443731269494
 30
0.0
 10
13.20339099474594
 20
0.9875623995845423
 30
0.0
 10
12.40207110504126
 20
1.757541901916599
 30
0.0
 10
11.6021555937389
 20
2.477742874527018
 30
0.0
 10
10.79936748360387
 20
3.132144834202345
 30
0.0
 10
10.26609480442224
 20
3.492868077531759
 30
0.0
 10
10.0
 20
3.672863386932575
 30
0.0
  0
SPLINE
  5
B0
330
1F
100
AcDbEntity
  8
외형선
  6
Continuous
370
    15
100
AcDbSpline
210
0.0
220
0.0
230
1.0
 70
    24
 71
     3
 72
    22
 73
    18
 74
     0
 42
0.000000001
 43
0.00000001
 40
0.0
 40
0.0
 40
0.0
 40
0.0
 40
0.054504537796079
 40
0.1099934010307199
 40
0.1784160632482546
 40
0.2488229873053818
 40
0.3172456495228533
 40
0.3876525735799118
 40
0.4560752357973832
 40
0.5264821598544422
 40
0.5949048220719151
 40
0.6653117461289724
 40
0.7337344083464314
 40
0.8041413324034772
 40
0.8725639946209547
 40
0.942970918678034
 40
1.0
 40
1.0
 40
1.0
 40
1.0
 10
10.0000000000016
 20
3.67286338692219
 30
0.0
 10
10.00000000000161
 20
3.617532503199384
 30
0.0
 10
10.00000000000162
 20
3.505871486909756
 30
0.0
 10
10.00000000000159
 20
3.291883062248878
 30
0.0
 10
10.00000000000159
 20
3.034484016555364
 30
0.0
 10
10.0000000000016
 20
2.735333112647192
 30
0.0
 10
10.00000000000157
 20
2.418110288692402
 30
0.0
 10
10.00000000000162
 20
2.097280274874278
 30
0.0
 10
10.00000000000163
 20
1.776210474582678
 30
0.0
 10
10.00000000000158
 20
1.469748745423235
 30
0.0
 10
10.00000000000158
 20
1.18106785119922
 30
0.0
 10
10.0000000000016
 20
0.9234967871290941
 30
0.0
 10
10.00000000000154
 20
0.6998277431598894
 30
0.0
 10
10.00000000000162
 20
0.5199062457613525
 30
0.0
 10
10.00000000000162
 20
0.3874976144922512
 30
0.0
 10
10.00000000000166
 20
0.3063360547915181
 30
0.0
 10
10.00000000000163
 20
0.2953761203175929
 30
0.0
 10
10.00000000000161
 20
0.2904714233087859
 30
0.0
  0
LINE
  5
B1
330
1F
100
AcDbEntity
  8
0
  6
Continuous
 62
     1
370
    15
100
AcDbLine
 10
32.2250000000016
 20
-4.727745898681908
 30
0.0
 11
32.2250000000016
 21
-2.861234714681103
 31
0.0
  0
SPLINE
  5
B2
330
1F
100
AcDbEntity
  8
0
  6
Continuous
 62
     1
370
    15
100
AcDbSpline
210
0.0
220
0.0
230
1.0
 70
     8
 71
     3
 72
    25
 73
    21
 74
     0
 42
0.000000001
 43
0.00000001
 40
0.0
 40
0.0
 40
0.0
 40
0.0
 40
0.0198217008513102
 40
0.0773809364370392
 40
0.1351587779774403
 40
0.1927495186036585
 40
0.2503847206879552
 40
0.3081322218019195
 40
0.3656858387745678
 40
0.4234469677779795
 40
0.4810647219490792
 40
0.5386690167494402
 40
0.5964393306025281
 40
0.6539946484416408
 40
0.711727673920949
 40
0.7693797102608285
 40
0.8269603770674928
 40
0.8847421031857708
 40
0.9423064400213345
 40
1.0
 40
1.0
 40
1.0
 40
1.0
 10
17.8393263655221
 20
4.746209620449983
 30
0.0
 10
17.93444744975587
 20
4.750655505559303
 30
0.0
 10
18.30578584438353
 20
4.768011571803632
 30
0.0
 10
18.95227309980769
 20
4.649729282739623
 30
0.0
 10
19.78360132966768
 20
4.395452821493078
 30
0.0
 10
20.61202119717369
 20
3.99719347516694
 30
0.0
 10
21.44112518204749
 20
3.480730565126406
 30
0.0
 10
22.27192764684632
 20
2.859950019332733
 30
0.0
 10
23.09984217166973
 20
2.149470918499115
 30
0.0
 10
23.9308513863286
 20
1.377655442921573
 30
0.0
 10
24.75968910089874
 20
0.5617817273544325
 30
0.0
 10
25.5883269090434
 20
-0.2714340951052716
 30
0.0
 10
26.41947364248926
 20
-1.093409114692702
 30
0.0
 10
27.24741127474458
 20
-1.886524994195909
 30
0.0
 10
28.07799574661684
 20
-2.619090521821575
 30
0.0
 10
28.90734835032893
 20
-3.273677549400641
 30
0.0
 10
29.73564130434417
 20
-3.830716058829976
 30
0.0
 10
30.56695437563568
 20
-4.267018130507425
 30
0.0
 10
31.39501651535302
 20
-4.586449337053898
 30
0.0
 10
31.94813212712662
 20
-4.680611854226725
 30
0.0
 10
32.22500000000159
 20
-4.727745898681908
 30
0.0
  0
SPLINE
  5
B3
330
1F
100
AcDbEntity
  8
0
  6
Continuous
 62
     1
370
    15
100
AcDbSpline
210
0.0
220
0.0
230
1.0
 70
     8
 71
     3
 72
    23
 73
    19
 74
     0
 42
0.000000001
 43
0.00000001
 40
0.0
 40
0.0
 40
0.0
 40
0.0
 40
0.0665683375326907
 40
0.1329875740251563
 40
0.1996576399542724
 40
0.2660957183942373
 40
0.3326161448671258
 40
0.3992300187260299
 40
0.4656388488646476
 40
0.5322957470238863
 40
0.5987610880605814
 40
0.6652419588710431
 40
0.7318882593106455
 40
0.7982951269450779
 40
0.8649257031696224
 40
0.9314267058383957
 40
0.9978764077146784
 40
1.0
 40
1.0
 40
1.0
 40
1.0
 10
32.2250000000016
 20
-2.861234714681103
 30
0.0
 10
31.94813212712725
 20
-2.631885970864825
 30
0.0
 10
31.39501651535487
 20
-2.17370218295116
 30
0.0
 10
30.56695437562838
 20
-1.394680612281204
 30
0.0
 10
29.73564130437159
 20
-0.5837535463092196
 30
0.0
 10
28.90734835022689
 20
0.2502373833474442
 30
0.0
 10
28.07799574699849
 20
1.074688543521413
 30
0.0
 10
27.24741127332003
 20
1.86543145540299
 30
0.0
 10
26.41947364779584
 20
2.603019360474611
 30
0.0
 10
25.5883268891788
 20
3.258147034447034
 30
0.0
 10
24.75968917479593
 20
3.81719363660963
 30
0.0
 10
23.93085111015444
 20
4.260084305997075
 30
0.0
 10
23.09984320365025
 20
4.573532092308576
 30
0.0
 10
22.2719238057007
 20
4.748642386322559
 30
0.0
 10
21.44113956098264
 20
4.783419787150006
 30
0.0
 10
20.61196767342582
 20
4.65867206434153
 30
0.0
 10
20.05157250030159
 20
4.5165993030322
 30
0.0
 10
19.76628430207321
 20
4.383570673270789
 30
0.0
 10
19.75744943677677
 20
4.379451014512345
 30
0.0
  0
SPLINE
  5
B4
330
1F
100
AcDbEntity
  8
0
  6
Continuous
 62
     1
370
    15
100
AcDbSpline
210
0.0
220
0.0
230
1.0
 70
     8
 71
     3
 72
    28
 73
    24
 74
     0
 42
0.000000001
 43
0.00000001
 40
0.0
 40
0.0
 40
0.0
 40
0.0
 40
0.020846941491787
 40
0.0683464807665822
 40
0.1157307309202062
 40
0.1649774868147866
 40
0.214043452088629
 40
0.2631966445337066
 40
0.3123838827954973
 40
0.3614398070418581
 40
0.4106820422606123
 40
0.4597648172610509
 40
0.5088854853623479
 40
0.5581018623909134
 40
0.6071529980702468
 40
0.6563809897199165
 40
0.7054867875141404
 40
0.75458111431045
 40
0.8038169339183152
 40
0.8528695191925847
 40
0.902073559093496
 40
0.9512085745008022
 40
1.0
 40
1.0
 40
1.0
 40
1.0
 10
12.85142561993861
 20
4.745910392118897
 30
0.0
 10
12.96871544520383
 20
4.749719610392655
 30
0.0
 10
13.35324891692504
 20
4.762208092867922
 30
0.0
 10
14.00518576667271
 20
4.640813321642734
 30
0.0
 10
14.81429211848435
 20
4.385625941643049
 30
0.0
 10
15.63624483226767
 20
3.992254353617537
 30
0.0
 10
16.46437008979163
 20
3.473618007098779
 30
0.0
 10
17.29405403942914
 20
2.850460370994866
 30
0.0
 10
18.12433654045956
 20
2.142064996471331
 30
0.0
 10
18.95232883222381
 20
1.365768366693211
 30
0.0
 10
19.78358642671628
 20
0.5523489114811054
 30
0.0
 10
20.61202518785981
 20
-0.2812171267111686
 30
0.0
 10
21.44112411097944
 20
-1.105310441886049
 30
0.0
 10
22.27192792918211
 20
-1.894089916275913
 30
0.0
 10
23.09984210990427
 20
-2.629175124491318
 30
0.0
 10
23.9308513500809
 20
-3.281073315184404
 30
0.0
 10
24.75968930688975
 20
-3.835858816887832
 30
0.0
 10
25.58832612037657
 20
-4.274388312883015
 30
0.0
 10
26.41947659581348
 20
-4.582347715984868
 30
0.0
 10
27.24740028379847
 20
-4.75354081730088
 30
0.0
 10
28.07803688720396
 20
-4.777641354920505
 30
0.0
 10
28.90560467802158
 20
-4.66731224994809
 30
0.0
 10
29.45616603623123
 20
-4.476294510893378
 30
0.0
 10
29.73048085093457
 20
-4.381120748854873
 30
0.0
  0
SPLINE
  5
B5
330
1F
100
AcDbEntity
  8
0
  6
Continuous
 62
     1
370
    15
100
AcDbSpline
210
0.0
220
0.0
230
1.0
 70
     8
 71
     3
 72
    29
 73
    25
 74
     0
 42
0.000000001
 43
0.00000001
 40
0.0
 40
0.0
 40
0.0
 40
0.0
 40
0.0150428677125017
 40
0.0641015854914371
 40
0.1133455714425636
 40
0.1624182063008512
 40
0.2115516652384295
 40
0.2607541464830956
 40
0.3098051778988102
 40
0.3590394378437327
 40
0.408132209459224
 40
0.4572364517092576
 40
0.5064628839439534
 40
0.5555124658106511
 40
0.6047272837921642
 40
0.6538463958782188
 40
0.7029276160637707
 40
0.7521682914163503
 40
0.8012226616983857
 40
0.8504083418361645
 40
0.8995599772357129
 40
0.9486243882271569
 40
0.9978695841123609
 40
1.0
 40
1.0
 40
1.0
 40
1.0
 10
31.64878536231938
 20
-4.74716643450618
 30
0.0
 10
31.56410001131522
 20
-4.751542872652359
 30
0.0
 10
31.20323362792241
 20
-4.770192017837759
 30
0.0
 10
30.56701654446214
 20
-4.65647748420722
 30
0.0
 10
29.73562468507059
 20
-4.407909846591853
 30
0.0
 10
28.90735280285358
 20
-4.014184118148533
 30
0.0
 10
28.07799455093577
 20
-3.502234623063642
 30
0.0
 10
27.24741159428031
 20
-2.884886455546456
 30
0.0
 10
26.41947355624655
 20
-2.177323952724127
 30
0.0
 10
25.58832693350452
 20
-1.407687908748905
 30
0.0
 10
24.75968908918161
 20
-0.592658225839409
 30
0.0
 10
23.93085140879843
 20
0.2400902379924523
 30
0.0
 10
23.09984209343829
 20
1.062983433820407
 30
0.0
 10
22.27192793650842
 20
1.857843410284576
 30
0.0
 10
21.44112409813911
 20
2.592698527207477
 30
0.0
 10
20.61202523177449
 20
3.251040113450474
 30
0.0
 10
19.78358626377238
 20
3.811380717683224
 30
0.0
 10
18.95232944129983
 20
4.254453919865153
 30
0.0
 10
18.12433427468318
 20
4.571090017659318
 30
0.0
 10
17.29406251913112
 20
4.747104970273083
 30
0.0
 10
16.46433849376341
 20
4.783895604744578
 30
0.0
 10
15.63636270259326
 20
4.661047620883094
 30
0.0
 10
15.06932920589541
 20
4.518493358338163
 30
0.0
 10
14.78052917259093
 20
4.384408152908892
 30
0.0
 10
14.76855337010271
 20
4.378847980638693
 30
0.0
  0
LINE
  5
B6
330
1F
100
AcDbEntity
  8
0
  6
Continuous
 62
     1
370
    15
100
AcDbLine
 10
32.2250000000016
 20
4.727745898681905
 30
0.0
 11
32.2250000000016
 21
4.762499999999997
 31
0.0
  0
SPLINE
  5
B7
330
1F
100
AcDbEntity
  8
0
  6
Continuous
 62
     1
370
    15
100
AcDbSpline
210
0.0
220
0.0
230
1.0
 70
     8
 71
     3
 72
    11
 73
     7
 74
     0
 42
0.000000001
 43
0.00000001
 40
0.0
 40
0.0
 40
0.0
 40
0.0
 40
0.3327743773455259
 40
0.6648034002528681
 40
0.998086316718245
 40
1.0
 40
1.0
 40
1.0
 40
1.0
 10
32.2250000000016
 20
4.727745898681905
 30
0.0
 10
31.94812037236705
 20
4.74811923794516
 30
0.0
 10
31.39498127740279
 20
4.788820283875307
 30
0.0
 10
30.5670951803529
 20
4.651362596855794
 30
0.0
 10
30.0105470900315
 20
4.512749701163278
 30
0.0
 10
29.73207071071198
 20
4.381867970574606
 30
0.0
 10
29.73048085093456
 20
4.381120748854864
 30
0.0
  0
SPLINE
  5
B8
330
1F
100
AcDbEntity
  8
0
  6
Continuous
 62
     1
370
    15
100
AcDbSpline
210
0.0
220
0.0
230
1.0
 70
     8
 71
     3
 72
    16
 73
    12
 74
     0
 42
0.000000001
 43
0.00000001
 40
0.0
 40
0.0
 40
0.0
 40
0.0
 40
0.0333015744777885
 40
0.1571430562578666
 40
0.2814408498263526
 40
0.4010377174170288
 40
0.5209255723656276
 40
0.6407537291094594
 40
0.7603750773651804
 40
0.8804308763369239
 40
1.0
 40
1.0
 40
1.0
 40
1.0
 10
16.68692998647757
 20
-4.748326158130635
 30
0.0
 10
16.61267138071069
 20
-4.75252314747224
 30
0.0
 10
16.26226079362453
 20
-4.772327848678223
 30
0.0
 10
15.63630939471636
 20
-4.662988310874979
 30
0.0
 10
14.81428584919926
 20
-4.42301138389679
 30
0.0
 10
14.00515062976941
 20
-4.044801173059709
 30
0.0
 10
13.2033897638769
 20
-3.560941285571387
 30
0.0
 10
12.40207143399891
 20
-2.975883145595817
 30
0.0
 10
11.60215550571334
 20
-2.304692319117664
 30
0.0
 10
10.79936750553927
 20
-1.573538612924181
 30
0.0
 10
10.26609481172416
 20
-1.05024989287247
 30
0.0
 10
10.00000000000001
 20
-0.7891369293652919
 30
0.0
  0
LINE
  5
B9
330
1F
100
AcDbEntity
  8
외형선
  6
Continuous
370
    15
100
AcDbLine
 10
10.0000000000016
 20
-0.789136929361489
 30
0.0
 11
10.00000000000161
 21
0.3582777865154251
 31
0.0
  0
LINE
  5
BA
330
1F
100
AcDbEntity
  8
0
  6
Continuous
 62
     1
370
    15
100
AcDbLine
 10
32.2250000000016
 20
-2.861234714681103
 30
0.0
 11
32.2250000000016
 21
-1.866511184000742
 31
0.0
  0
LINE
  5
BB
330
1F
100
AcDbEntity
  8
외형선
  6
Continuous
370
    15
100
AcDbLine
 10
10.0000000000016
 20
3.67286338692219
 30
0.0
 11
10.00000000000161
 21
4.291897390697993
 31
0.0
  0
LINE
  5
BC
330
1F
100
AcDbEntity
  8
0
  6
Continuous
 62
     1
370
    15
100
AcDbLine
 10
32.2250000000016
 20
-4.762500000000006
 30
0.0
 11
32.2250000000016
 21
-4.727745898681908
 31
0.0
  0
LINE
  5
BD
330
1F
100
AcDbEntity
  8
0
  6
Continuous
 62
     1
370
    15
100
AcDbLine
 10
32.2250000000016
 20
2.846319906725468
 30
0.0
 11
32.2250000000016
 21
4.727745898681905
 31
0.0
  0
SPLINE
  5
BE
330
1F
100
AcDbEntity
  8
0
  6
Continuous
 62
     1
370
    15
100
AcDbSpline
210
0.0
220
0.0
230
1.0
 70
     8
 71
     3
 72
    13
 73
     9
 74
     0
 42
0.000000001
 43
0.00000001
 40
0.0
 40
0.0
 40
0.0
 40
0.0
 40
0.1676558692024686
 40
0.3359941384208805
 40
0.5037232352192813
 40
0.671742312037359
 40
0.8398450957030215
 40
0.9999999999999999
 40
0.9999999999999999
 40
0.9999999999999999
 40
0.9999999999999999
 10
10.00000000000152
 20
-3.933619604182521
 30
0.0
 10
10.26609454262454
 20
-4.07336209774366
 30
0.0
 10
10.79936669714214
 20
-4.353415870678732
 30
0.0
 10
11.60215874976816
 20
-4.619298091694988
 30
0.0
 10
12.40205931074176
 20
-4.764647492265795
 30
0.0
 10
13.20343512577639
 20
-4.770144200901429
 30
0.0
 10
13.99298588189729
 20
-4.653617008138035
 30
0.0
 10
14.51423777951827
 20
-4.468947228693181
 30
0.0
 10
14.76855337010272
 20
-4.378847980638704
 30
0.0
  0
SPLINE
  5
BF
330
1F
100
AcDbEntity
  8
0
  6
Continuous
 62
     1
370
    15
100
AcDbSpline
210
0.0
220
0.0
230
1.0
 70
     8
 71
     3
 72
    13
 73
     9
 74
     0
 42
0.000000001
 43
0.00000001
 40
0.0
 40
0.0
 40
0.0
 40
0.0
 40
0.0599232480669636
 40
0.247930677714779
 40
0.4357053661907848
 40
0.6241357235170707
 40
0.8118571587849024
 40
0.9999999999999999
 40
0.9999999999999999
 40
0.9999999999999999
 40
0.9999999999999999
 10
27.81364686719768
 20
4.746820379969221
 30
0.0
 10
27.90182182903223
 20
4.751229791226549
 30
0.0
 10
28.26664314213406
 20
4.769473600709827
 30
0.0
 10
28.90737415532019
 20
4.654638909763753
 30
0.0
 10
29.73563436821268
 20
4.403208045333106
 30
0.0
 10
30.56695622007445
 20
4.00831116290071
 30
0.0
 10
31.39501605376169
 20
3.498819704650774
 30
0.0
 10
31.94813197314789
 20
3.073921838238335
 30
0.0
 10
32.22500000000159
 20
2.861234714681117
 30
0.0
  0
SPLINE
  5
C0
330
1F
100
AcDbEntity
  8
외형선
  6
Continuous
370
    15
100
AcDbSpline
210
0.0
220
0.0
230
1.0
 70
    24
 71
     3
 72
    22
 73
    18
 74
     0
 42
0.000000001
 43
0.00000001
 40
0.0
 40
0.0
 40
0.0
 40
0.0
 40
0.0336035912774524
 40
0.1043848624485918
 40
0.1751661336196639
 40
0.245947404790736
 40
0.3167286759618082
 40
0.3875099471328805
 40
0.4582912183039526
 40
0.5290724894750248
 40
0.599853760646084
 40
0.6706350318171431
 40
0.741416302988229
 40
0.8121975741593147
 40
0.8829788453303885
 40
0.9537601165014624
 40
1.0
 40
1.0
 40
1.0
 40
1.0
 10
10.0000000000016
 20
-0.6687079734880532
 30
0.0
 10
10.0000000000016
 20
-0.666727403229983
 30
0.0
 10
10.00000000000162
 20
-0.6605750383755415
 30
0.0
 10
10.00000000000158
 20
-0.707704187554365
 30
0.0
 10
10.00000000000162
 20
-0.807662885468333
 30
0.0
 10
10.00000000000162
 20
-0.9594838190115778
 30
0.0
 10
10.00000000000162
 20
-1.157076875831445
 30
0.0
 10
10.00000000000158
 20
-1.394073418046865
 30
0.0
 10
10.0000000000016
 20
-1.664986281203054
 30
0.0
 10
10.00000000000159
 20
-1.960985320551117
 30
0.0
 10
10.0000000000016
 20
-2.274526250923091
 30
0.0
 10
10.0000000000016
 20
-2.596203165816129
 30
0.0
 10
10.00000000000162
 20
-2.916983071944888
 30
0.0
 10
10.00000000000166
 20
-3.228183125694144
 30
0.0
 10
10.00000000000162
 20
-3.519628655321907
 30
0.0
 10
10.00000000000159
 20
-3.75590952485059
 30
0.0
 10
10.00000000000161
 20
-3.883287366576907
 30
0.0
 10
10.00000000000162
 20
-3.933619604182572
 30
0.0
  0
LINE
  5
C1
330
1F
100
AcDbEntity
  8
0
  6
Continuous
 62
     1
370
    15
100
AcDbLine
 10
32.2250000000016
 20
1.866511184000822
 30
0.0
 11
32.2250000000016
 21
2.861234714681116
 31
0.0
  0
LINE
  5
C2
330
1F
100
AcDbEntity
  8
외형선
  6
Continuous
370
    15
100
AcDbLine
 10
10.0000000000016
 20
-4.462000316283656
 30
0.0
 11
10.00000000000161
 21
-3.933619604182571
 31
0.0
  0
SPLINE
  5
C3
330
1F
100
AcDbEntity
  8
외형선
  6
Continuous
370
    15
100
AcDbSpline
210
0.0
220
0.0
230
1.0
 70
    24
 71
     3
 72
    22
 73
    18
 74
     0
 42
0.000000001
 43
0.00000001
 40
0.0
 40
0.0
 40
0.0
 40
0.0
 40
0.125
 40
0.125
 40
0.25
 40
0.25
 40
0.375
 40
0.375
 40
0.5
 40
0.5
 40
0.625
 40
0.625
 40
0.75
 40
0.75
 40
0.875
 40
0.875
 40
1.0
 40
1.0
 40
1.0
 40
1.0
 10
10.00000000000161
 20
-3.933619604182497
 30
0.0
 10
10.0000000000016
 20
-3.808218717764413
 30
0.0
 10
10.00000000000162
 20
-3.655763473475628
 30
0.0
 10
10.0000000000016
 20
-3.303248358297972
 30
0.0
 10
10.0000000000016
 20
-3.103192883731722
 30
0.0
 10
10.0000000000016
 20
-2.681569261354149
 30
0.0
 10
10.0000000000016
 20
-2.460554486199309
 30
0.0
 10
10.00000000000161
 20
-2.035244607838179
 30
0.0
 10
10.0000000000016
 20
-1.831577302090893
 30
0.0
 10
10.0000000000016
 20
-1.471190509265547
 30
0.0
 10
10.0000000000016
 20
-1.314578767520497
 30
0.0
 10
10.00000000000161
 20
-1.057766459909479
 30
0.0
 10
10.00000000000161
 20
-0.9572639441035626
 30
0.0
 10
10.00000000000162
 20
-0.805300916609868
 30
0.0
 10
10.00000000000161
 20
-0.7535350616183115
 30
0.0
 10
10.00000000000161
 20
-0.6853819037847507
 30
0.0
 10
10.0000000000016
 20
-0.668847146924578
 30
0.0
 10
10.0000000000016
 20
-0.6636000745926235
 30
0.0
  0
SPLINE
  5
C4
330
1F
100
AcDbEntity
  8
외형선
  6
Continuous
370
    15
100
AcDbSpline
210
0.0
220
0.0
230
1.0
 70
     8
 71
     3
 72
    10
 73
     6
 74
     0
 42
0.000000001
 43
0.00000001
 40
0.0
 40
0.0
 40
0.0
 40
0.0
 40
0.5
 40
0.5
 40
1.0
 40
1.0
 40
1.0
 40
1.0
 10
10.00000000000152
 20
-3.933619604182521
 30
0.0
 10
9.832810414833808
 20
-3.839591592255919
 30
0.0
 10
9.665019762450314
 20
-3.738194141420091
 30
0.0
 10
9.33100782995314
 20
-3.522350549042055
 30
0.0
 10
9.16584698250626
 20
-3.408167335891521
 30
0.0
 10
9.00023713664244
 20
-3.287878715242197
 30
0.0
  0
SPLINE
  5
C5
330
1F
100
AcDbEntity
  8
외형선
  6
Continuous
370
    15
100
AcDbSpline
210
0.0
220
0.0
230
1.0
 70
     8
 71
     3
 72
    10
 73
     6
 74
     0
 42
0.000000001
 43
0.00000001
 40
0.0
 40
0.0
 40
0.0
 40
0.0
 40
0.5
 40
0.5
 40
1.0
 40
1.0
 40
1.0
 40
1.0
 10
10.00000000000151
 20
-0.7891369293667705
 30
0.0
 10
9.832810414833794
 20
-0.6246474139917945
 30
0.0
 10
9.665019762450306
 20
-0.4585058737961684
 30
0.0
 10
9.331007829953133
 20
-0.1256653249823458
 30
0.0
 10
9.165846982506281
 20
0.0406761287352258
 30
0.0
 10
9.000237136642447
 20
0.2067882611408569
 30
0.0
  0
LINE
  5
C6
330
1F
100
AcDbEntity
  8
외형선
  6
Continuous
370
    15
100
AcDbLine
 10
9.000237136642447
 20
-4.762500000000005
 30
0.0
 11
9.000237136642447
 21
-4.017151604216697
 31
0.0
  0
SPLINE
  5
C7
330
1F
100
AcDbEntity
  8
외형선
  6
Continuous
370
    15
100
AcDbSpline
210
0.0
220
0.0
230
1.0
 70
     8
 71
     3
 72
     9
 73
     5
 74
     0
 42
0.000000001
 43
0.00000001
 40
0.0
 40
0.0
 40
0.0
 40
0.0
 40
0.6371839669577251
 40
1.0
 40
1.0
 40
1.0
 40
1.0
 10
9.00023713664244
 20
-4.627803438455395
 30
0.0
 10
9.166014057076424
 20
-4.585298850875248
 30
0.0
 10
9.426185261988412
 20
-4.518591918836316
 30
0.0
 10
9.687454729251925
 20
-4.413637334903723
 30
0.0
 10
9.782247480919553
 20
-4.375558129111696
 30
0.0
  0
LINE
  5
C8
330
1F
100
AcDbEntity
  8
외형선
  6
Continuous
370
    15
100
AcDbLine
 10
10.00000000000151
 20
4.462000316298367
 30
0.0
 11
9.782247480919525
 21
4.375558129111689
 31
0.0
  0
LINE
  5
C9
330
1F
100
AcDbEntity
  8
외형선
  6
Continuous
370
    15
100
AcDbLine
 10
9.000237136642447
 20
4.627799838288251
 30
0.0
 11
9.000237136642447
 21
4.762499999999996
 31
0.0
  0
SPLINE
  5
CA
330
1F
100
AcDbEntity
  8
외형선
  6
Continuous
370
    15
100
AcDbSpline
210
0.0
220
0.0
230
1.0
 70
     8
 71
     3
 72
    10
 73
     6
 74
     0
 42
0.000000001
 43
0.00000001
 40
0.0
 40
0.0
 40
0.0
 40
0.0
 40
0.5
 40
0.5
 40
1.0
 40
1.0
 40
1.0
 40
1.0
 10
10.00000000000152
 20
4.291897390698031
 30
0.0
 10
9.832810414833808
 20
4.364191932357581
 30
0.0
 10
9.665019762450314
 20
4.428654320548631
 30
0.0
 10
9.33100782995314
 20
4.540867676866873
 30
0.0
 10
9.16584698250626
 20
4.588539468575763
 30
0.0
 10
9.00023713664244
 20
4.62780343845538
 30
0.0
  0
SPLINE
  5
CB
330
1F
100
AcDbEntity
  8
외형선
  6
Continuous
370
    15
100
AcDbSpline
210
0.0
220
0.0
230
1.0
 70
     8
 71
     3
 72
    10
 73
     6
 74
     0
 42
0.000000001
 43
0.00000001
 40
0.0
 40
0.0
 40
0.0
 40
0.0
 40
0.5
 40
0.5
 40
1.0
 40
1.0
 40
1.0
 40
1.0
 10
10.00000000000151
 20
3.672863386931614
 30
0.0
 10
9.832810414833794
 20
3.779043041836462
 30
0.0
 10
9.665019762450306
 20
3.878573029130989
 30
0.0
 10
9.331007829953133
 20
4.062705007193189
 30
0.0
 10
9.165846982506281
 20
4.147146491866983
 30
0.0
 10
9.000237136642447
 20
4.223950361079943
 30
0.0
  0
SPLINE
  5
CC
330
1F
100
AcDbEntity
  8
외형선
  6
Continuous
370
    15
100
AcDbSpline
210
0.0
220
0.0
230
1.0
 70
     8
 71
     3
 72
    10
 73
     6
 74
     0
 42
0.000000001
 43
0.00000001
 40
0.0
 40
0.0
 40
0.0
 40
0.0
 40
0.5
 40
0.5
 40
1.0
 40
1.0
 40
1.0
 40
1.0
 10
10.00000000000152
 20
0.3582777865155145
 30
0.0
 10
9.832810414833808
 20
0.5246003401016683
 30
0.0
 10
9.665019762450314
 20
0.6904601791285461
 30
0.0
 10
9.33100782995314
 20
1.018517127824827
 30
0.0
 10
9.16584698250626
 20
1.180372132684251
 30
0.0
 10
9.00023713664244
 20
1.339924723213191
 30
0.0
  0
LINE
  5
CD
330
1F
100
AcDbEntity
  8
외형선
  6
Continuous
370
    15
100
AcDbLine
 10
9.000237136642447
 20
-3.287889744580947
 30
0.0
 11
9.000237136642447
 21
0.2068077829744195
 31
0.0
  0
SPLINE
  5
CE
330
1F
100
AcDbEntity
  8
외형선
  6
Continuous
370
    15
100
AcDbSpline
210
0.0
220
0.0
230
1.0
 70
     8
 71
     3
 72
    10
 73
     6
 74
     0
 42
0.000000001
 43
0.00000001
 40
0.0
 40
0.0
 40
0.0
 40
0.0
 40
0.5
 40
0.5
 40
1.0
 40
1.0
 40
1.0
 40
1.0
 10
10.00000000000151
 20
-4.462000316298362
 30
0.0
 10
9.832810414833794
 20
-4.403690455828233
 30
0.0
 10
9.665019762450306
 20
-4.337078902927133
 30
0.0
 10
9.331007829953133
 20
-4.188370332175506
 30
0.0
 10
9.165846982506281
 20
-4.10647036313173
 30
0.0
 10
9.000237136642447
 20
-4.017162099939056
 30
0.0
  0
LINE
  5
CF
330
1F
100
AcDbEntity
  8
외형선
  6
Continuous
370
    15
100
AcDbLine
 10
-30.3224999999984
 20
-0.0000000000000043
 30
0.0
 11
-30.3224999999984
 21
4.762499999999993
 31
0.0
  0
LINE
  5
D0
330
1F
100
AcDbEntity
  8
외형선
  6
Continuous
370
    15
100
AcDbLine
 10
-30.3224999999984
 20
-4.762499999999993
 30
0.0
 11
-30.3224999999984
 21
-0.0000000000000043
 31
0.0
  0
LINE
  5
D1
330
1F
100
AcDbEntity
  8
외형선
  6
Continuous
370
    15
100
AcDbLine
 10
9.000237136642447
 20
1.339910093707312
 30
0.0
 11
9.000237136642447
 21
4.223959387191147
 31
0.0
  0
LINE
  5
D2
330
1F
100
AcDbEntity
  8
외형선
  6
Continuous
370
    15
100
AcDbLine
 10
-31.2749999999984
 20
-0.0000000000000043
 30
0.0
 11
-31.2749999999984
 21
3.809999999999999
 31
0.0
  0
LINE
  5
D3
330
1F
100
AcDbEntity
  8
외형선
  6
Continuous
370
    15
100
AcDbLine
 10
-31.2749999999984
 20
-3.810000000000008
 30
0.0
 11
-31.2749999999984
 21
-0.0000000000000043
 31
0.0
  0
SPLINE
  5
D4
330
1F
100
AcDbEntity
  8
외형선
  6
Continuous
370
    15
100
AcDbSpline
210
0.0
220
0.0
230
1.0
 70
    24
 71
     3
 72
    21
 73
    17
 74
     0
 42
0.000000001
 43
0.00000001
 40
0.0
 40
0.0
 40
0.0
 40
0.0
 40
0.064251760496748
 40
0.1339369103938794
 40
0.2036220602910109
 40
0.2733072101881447
 40
0.3429923600852787
 40
0.4126775099824106
 40
0.4823626598795425
 40
0.5520478097766748
 40
0.6217329596738069
 40
0.6914181095709329
 40
0.761103259468059
 40
0.8307884093651997
 40
0.9004735592623406
 40
1.0
 40
1.0
 40
1.0
 40
1.0
 10
10.0000000000016
 20
0.2895755425562495
 30
0.0
 10
10.0000000000016
 20
0.2972033001640177
 30
0.0
 10
10.00000000000161
 20
0.3131038494924613
 30
0.0
 10
10.0000000000016
 20
0.4043273707861449
 30
0.0
 10
10.00000000000161
 20
0.5430551296236715
 30
0.0
 10
10.0000000000016
 20
0.7307539388131618
 30
0.0
 10
10.0000000000016
 20
0.9587162840067297
 30
0.0
 10
10.0000000000016
 20
1.222463377211141
 30
0.0
 10
10.00000000000161
 20
1.513110993071484
 30
0.0
 10
10.0000000000016
 20
1.823395254561762
 30
0.0
 10
10.00000000000162
 20
2.143910644488773
 30
0.0
 10
10.00000000000161
 20
2.465722239994908
 30
0.0
 10
10.00000000000159
 20
2.780129457936703
 30
0.0
 10
10.00000000000162
 20
3.076575277540647
 30
0.0
 10
10.0000000000016
 20
3.390986799908766
 30
0.0
 10
10.0000000000016
 20
3.568471115798762
 30
0.0
 10
10.0000000000016
 20
3.672863386925235
 30
0.0
  0
LINE
  5
D5
330
1F
100
AcDbEntity
  8
외형선
  6
Continuous
370
    15
100
AcDbLine
 10
10.00000000000161
 20
4.336519759769974
 30
0.0
 11
10.0000000000016
 21
4.462000316288439
 31
0.0
  0
LINE
  5
D6
330
1F
100
AcDbEntity
  8
중심선
 62
     1
100
AcDbLine
 10
-34.2749999999984
 20
-0.0000000000000039
 30
0.0
 11
35.2250000000016
 21
0.0000000000000046
 31
0.0
  0
LINE
  5
D7
330
1F
100
AcDbEntity
  8
참조1
100
AcDbLine
 10
6.349999999999994
 20
-0.0000000000000039
 30
0.0
 11
6.350000000000001
 21
-40.00000000000001
 31
0.0
  0
LINE
  5
D8
330
1F
100
AcDbEntity
  8
참조1
100
AcDbLine
 10
6.350000000000001
 20
-40.00000000000001
 30
0.0
 11
-15.15885681430868
 21
-40.0
 31
0.0
  0
CIRCLE
  5
D9
330
1F
100
AcDbEntity
  8
해칭선
100
AcDbCircle
 10
0.0
 20
0.0
 30
0.0
 40
3.000000000000001
  0
INSERT
  5
DA
330
1F
100
AcDbEntity
  8
0
  6
Continuous
 62
     7
100
AcDbBlockReference
 66
     1
  2
블럭10
 10
-12.49588933237161
 20
-28.7988183178675
 30
0.0
  0
ATTRIB
  5
DB
330
DA
100
AcDbEntity
  8
FORMAT
 62
     2
100
AcDbText
 10
-21.67718462111289
 20
-26.7234514050353
 30
0.0
 40
4.233333333333333
  1
E5058024 [ 6 FLUTE ]
 41
0.75
  7
SLDTEXTSTYLE0
 11
-21.67718462111289
 21
-28.84011807170197
 31
0.0
100
AcDbAttribute
  2
AUTOATTR0
 70
     0
 74
     1
  0
SEQEND
  5
DC
330
DA
100
AcDbEntity
  8
0
  6
Continuous
 62
     7
  0
HATCH
  5
DD
330
1F
100
AcDbEntity
  8
중심선
100
AcDbHatch
 10
0.0
 20
0.0
 30
0.0
210
0.0
220
0.0
230
1.0
  2
SOLID
 70
     1
 71
     0
 91
        1
 92
        0
 93
        4
 72
     1
 10
-6.780980027990777
 20
-12.55164401622356
 11
-10.22725527182806
 21
-12.55164401622356
 72
     1
 10
-10.22725527182806
 20
-12.55164401622356
 11
-12.35548513103208
 21
-15.08796959679616
 72
     1
 10
-12.35548513103208
 20
-15.08796959679616
 11
-8.909176802081651
 21
-15.08793016749367
 72
     1
 10
-8.90917680208165
 20
-15.08793016749367
 11
-6.780980027990775
 21
-12.55164401622356
 97
        0
 75
     0
 76
     1
 98
        1
 10
-4.905616400246402
 20
23.24835598377643
  0
HATCH
  5
DE
330
1F
100
AcDbEntity
  8
중심선
100
AcDbHatch
 10
0.0
 20
0.0
 30
0.0
210
0.0
220
0.0
230
1.0
  2
SOLID
 70
     1
 71
     0
 91
        1
 92
        0
 93
        4
 72
     1
 10
-1.768216036954798
 20
-12.55164401622356
 11
-5.21449128079208
 21
-12.55164401622356
 72
     1
 10
-5.21449128079208
 20
-12.55164401622356
 11
-9.745629289149496
 21
-17.95164401622358
 72
     1
 10
-9.745629289149496
 20
-17.95164401622358
 11
-6.299354045312214
 21
-17.95164401622358
 72
     1
 10
-6.299354045312214
 20
-17.95164401622358
 11
-1.768216036954798
 21
-12.55164401622356
 97
        0
 75
     0
 76
     1
 98
        1
 10
-4.905616400246402
 20
23.24835598377643
  0
HATCH
  5
DF
330
1F
100
AcDbEntity
  8
중심선
100
AcDbHatch
 10
0.0
 20
0.0
 30
0.0
210
0.0
220
0.0
230
1.0
  2
SOLID
 70
     1
 71
     0
 91
        1
 92
        0
 93
        4
 72
     1
 10
3.244547954081071
 20
-12.55164401622356
 11
-0.2017272897560458
 21
-12.55164401622356
 72
     1
 10
-0.2017272897560458
 20
-12.55164401622356
 11
-7.250164191645295
 21
-20.95164401622358
 72
     1
 10
-7.250164191645295
 20
-20.95164401622358
 11
-3.803888947808012
 21
-20.95164401622358
 72
     1
 10
-3.803888947808012
 20
-20.95164401622358
 11
3.244547954081071
 21
-12.55164401622356
 97
        0
 75
     0
 76
     1
 98
        1
 10
-4.905616400246402
 20
23.24835598377643
  0
HATCH
  5
E0
330
1F
100
AcDbEntity
  8
중심선
100
AcDbHatch
 10
0.0
 20
0.0
 30
0.0
210
0.0
220
0.0
230
1.0
  2
SOLID
 70
     1
 71
     0
 91
        1
 92
        0
 93
        6
 72
     3
 10
8.044438385093269
 20
-16.75164401627484
 11
3.960054785062283
 21
1.540882976769353E-10
 40
0.3939339440162628
 50
17.09539180608436
 51
320.0019657685081
 73
     0
 72
     1
 10
9.727438040793865
 20
-15.33953802086187
 11
12.03273991449493
 21
-13.40521131081392
 72
     3
 10
8.044438385040422
 20
-16.75164401622371
 11
6.600054785286829
 21
-1.278976924368180E-13
 40
0.636358354079598
 50
39.99873849337413
 51
368.4976242363724
 73
     1
 72
     1
 10
14.46977087694103
 20
-15.79164401615358
 11
6.724505691876345
 21
-15.79164401615358
 72
     1
 10
6.724505691876345
 20
-15.79164401615358
 11
6.724480647430411
 21
-17.71164401615348
 72
     1
 10
6.724480647430411
 20
-17.71164401615348
 11
11.16586041690245
 21
-17.71164401615345
 97
        0
 75
     0
 76
     1
 98
        1
 10
-4.905616400246402
 20
23.24835598377643
  0
DIMENSION
  5
E1
330
1F
100
AcDbEntity
  8
치수문자_일반주서
100
AcDbDimension
  2
_D
 10
45.52665346547462
 20
-4.762499999999957
 30
0.0
 11
45.52665346547451
 21
24.97190994164774
 31
0.0
 70
   160
  1
%%c<>
 71
     2
 42
9.525000000000002
 52
-270.0
  3
SLDDIMSTYLE0
100
AcDbAlignedDimension
 13
32.2250000000016
 23
4.762499999999997
 33
0.0
 14
32.2250000000016
 24
-4.762500000000006
 34
0.0
 50
90.0000000000002
100
AcDbRotatedDimension
1001
ACAD
1000
DSTYLE
1002
{
1070
   171
1070
     6
1070
   273
1070
     5
1002
}
  0
DIMENSION
  5
F5
330
1F
100
AcDbEntity
  8
치수문자_일반주서
100
AcDbDimension
  2
_D_1
 10
10.0000000000016
 20
26.84982792016485
 30
0.0
 11
21.1125000000016
 21
26.84982792016485
 31
0.0
 70
   160
  1
<>
 71
     2
 42
22.225
  3
SLDDIMSTYLE0
100
AcDbAlignedDimension
 13
32.2250000000016
 23
4.727745898681905
 33
0.0
 14
10.0000000000016
 24
4.46200031628366
 34
0.0
100
AcDbRotatedDimension
1001
ACAD
1000
DSTYLE
1002
{
1070
   171
1070
     6
1070
   273
1070
     5
1002
}
  0
DIMENSION
  5
10B
330
1F
100
AcDbEntity
  8
치수문자_일반주서
100
AcDbDimension
  2
_D_2
 10
-31.2749999999984
 20
44.84982792016486
 30
0.0
 11
0.4750000000016037
 21
44.84982792016486
 31
0.0
 70
   160
  1
<>
 71
     2
 42
63.5
  3
SLDDIMSTYLE0
100
AcDbAlignedDimension
 13
32.2250000000016
 23
4.727745898681905
 33
0.0
 14
-31.2749999999984
 24
3.809999999999999
 34
0.0
100
AcDbRotatedDimension
1001
ACAD
1000
DSTYLE
1002
{
1070
   171
1070
     6
1070
   273
1070
     5
1002
}
  0
DIMENSION
  5
11F
330
1F
100
AcDbEntity
  8
치수문자_일반주서
100
AcDbDimension
  2
_D_3
 10
-40.59881740100903
 20
-4.762500000000045
 30
0.0
 11
-40.59881740100913
 21
21.40824999999996
 31
0.0
 70
   160
  1
%%c<>
 71
     2
 42
9.525000000000006
 52
-270.0
  3
SLDDIMSTYLE0
100
AcDbAlignedDimension
 13
-30.3224999999984
 23
4.762499999999998
 33
0.0
 14
-30.3224999999984
 24
-4.762500000000007
 34
0.0
 50
90.0000000000002
100
AcDbRotatedDimension
1001
ACAD
1000
DSTYLE
1002
{
1070
   171
1070
     6
1070
   273
1070
     5
1002
}
  0
LINE
  5
133
330
1F
100
AcDbEntity
  8
참조1
100
AcDbLine
 10
82.81348381534559
 20
7.440000000000002
 30
0.0
 11
82.81348381534559
 21
-7.440000000000002
 31
0.0
  0
LINE
  5
134
330
1F
100
AcDbEntity
  8
참조1
100
AcDbLine
 10
95.5134838153456
 20
5.440000000000002
 30
0.0
 11
82.81348381534559
 21
5.440000000000002
 31
0.0
  0
SOLID
  5
135
330
1F
100
AcDbEntity
  8
참조1
100
AcDbTrace
 10
82.81348381534559
 20
5.440000000000002
 30
0.0
 11
89.16348381534559
 21
4.424000000000002
 31
0.0
 12
89.16348381534559
 22
6.456000000000002
 32
0.0
 13
89.16348381534559
 23
6.456000000000002
 33
0.0
  0
LINE
  5
136
330
1F
100
AcDbEntity
  8
참조1
100
AcDbLine
 10
95.5134838153456
 20
-5.440000000000002
 30
0.0
 11
82.81348381534559
 21
-5.440000000000002
 31
0.0
  0
SOLID
  5
137
330
1F
100
AcDbEntity
  8
참조1
100
AcDbTrace
 10
82.81348381534559
 20
-5.440000000000002
 30
0.0
 11
89.16348381534559
 21
-6.456000000000002
 31
0.0
 12
89.16348381534559
 22
-4.424000000000002
 32
0.0
 13
89.16348381534559
 23
-4.424000000000002
 33
0.0
  0
MTEXT
  5
138
330
1F
100
AcDbEntity
  8
참조1
100
AcDbMText
 10
92.41359862590816
 20
11.06571756601608
 30
0.0
 40
3.5
 41
0.0
 71
     1
 72
     1
  1
A
  7
SLDTEXTSTYLE0
 73
     1
 44
1.0
  0
MTEXT
  5
139
330
1F
100
AcDbEntity
  8
참조1
100
AcDbMText
 10
92.41359862590816
 20
0.1857175660160727
 30
0.0
 40
3.5
 41
0.0
 71
     1
 72
     1
  1
A
  7
SLDTEXTSTYLE0
 73
     1
 44
1.0
  0
INSERT
  5
140
330
1F
100
AcDbEntity
  8
해칭선
100
AcDbBlockReference
  2
SW_DOWELSYMBOL_0
 10
0.0
 20
0.0
 30
0.0
  0
ENDSEC
  0
SECTION
  2
OBJECTS
  0
DICTIONARY
  5
C
330
0
100
AcDbDictionary
281
     1
  3
ACAD_GROUP
350
D
  3
ACAD_IMAGE_VARS
350
164
  3
ACAD_LAYOUT
350
1A
  3
ACAD_MLINESTYLE
350
17
  3
ACAD_PLOTSETTINGS
350
19
  3
ACAD_PLOTSTYLENAME
350
E
  3
ACAD_SCALELIST
350
47
  3
APPDATA
350
162
  3
DWGPROPS
350
2F8
  0
DICTIONARY
  5
21E
330
2
100
AcDbDictionary
280
     1
281
     1
  3
ACAD_LAYERSTATES
360
21F
  0
DICTIONARY
  5
2F6
330
1F
100
AcDbDictionary
280
     1
281
     1
  3
DIM_BOUNDING_BOXES_V1
360
2F7
  0
DICTIONARY
  5
D
102
{ACAD_REACTORS
330
C
102
}
330
C
100
AcDbDictionary
281
     1
  0
RASTERVARIABLES
  5
164
102
{ACAD_REACTORS
330
C
102
}
330
C
100
AcDbRasterVariables
 90
        0
 70
     1
 71
     1
 72
     1
  0
DICTIONARY
  5
1A
102
{ACAD_REACTORS
330
C
102
}
330
C
100
AcDbDictionary
281
     1
  3
Layout1
350
1E
  3
Layout2
350
26
  3
Model
350
22
  0
DICTIONARY
  5
17
102
{ACAD_REACTORS
330
C
102
}
330
C
100
AcDbDictionary
281
     1
  3
Standard
350
18
  0
DICTIONARY
  5
19
102
{ACAD_REACTORS
330
C
102
}
330
C
100
AcDbDictionary
281
     1
  0
ACDBDICTIONARYWDFLT
  5
E
102
{ACAD_REACTORS
330
C
102
}
330
C
100
AcDbDictionary
281
     1
  3
Normal
350
F
100
AcDbDictionaryWithDefault
340
F
  0
DICTIONARY
  5
47
102
{ACAD_REACTORS
330
C
102
}
330
C
100
AcDbDictionary
281
     1
  3
A0
350
48
  3
A1
350
49
  3
A2
350
4A
  3
A3
350
4B
  3
A4
350
4C
  3
A5
350
4D
  3
A6
350
4E
  3
A7
350
4F
  3
A8
350
50
  3
A9
350
51
  3
B0
350
52
  3
B1
350
53
  3
B2
350
54
  3
B3
350
55
  3
B4
350
56
  3
B5
350
57
  3
B6
350
58
  3
B7
350
59
  3
B8
350
5A
  3
B9
350
5B
  3
C0
350
5C
  3
C1
350
5D
  3
C2
350
5E
  3
C3
350
5F
  3
C4
350
60
  3
C5
350
61
  3
C6
350
62
  3
C7
350
63
  3
C8
350
64
  3
C9
350
65
  3
D0
350
66
  3
D1
350
67
  3
D2
350
68
  0
DICTIONARY
  5
162
102
{ACAD_REACTORS
330
C
102
}
330
C
100
AcDbDictionary
281
     1
  0
XRECORD
  5
2F8
102
{ACAD_REACTORS
330
C
102
}
330
C
100
AcDbXrecord
280
     1
  1
DWGPROPS COOKIE
  2

  3

  4

  6

  7

  8
12011056
  9

300
=
301
=
302
=
303
=
304
=
305
=
306
=
307
=
308
=
309
=
 40
0.0
 41
2458316.092811285
 42
2459720.020411342
  1

 90
        0
  0
DICTIONARY
  5
21F
102
{ACAD_REACTORS
330
21E
102
}
330
21E
100
AcDbDictionary
281
     1
  0
DICTIONARY
  5
2F7
102
{ACAD_REACTORS
330
2F6
102
}
330
2F6
100
AcDbDictionary
281
     1
  0
LAYOUT
  5
1E
102
{ACAD_REACTORS
330
1A
102
}
330
1A
100
AcDbPlotSettings
  1

  2
none_device
  4

  6

 40
0.0
 41
0.0
 42
0.0
 43
0.0
 44
0.0
 45
0.0
 46
0.0
 47
0.0
 48
0.0
 49
0.0
140
0.0
141
0.0
142
1.0
143
1.0
 70
   688
 72
     1
 73
     0
 74
     5
  7

 75
    16
147
1.0
148
0.0
149
0.0
100
AcDbLayout
  1
Layout1
 70
     1
 71
     1
 10
0.0
 20
0.0
 11
420.0
 21
297.0
 12
0.0
 22
0.0
 32
0.0
 14
1.000000000000000E+20
 24
1.000000000000000E+20
 34
1.000000000000000E+20
 15
-1.000000000000000E+20
 25
-1.000000000000000E+20
 35
-1.000000000000000E+20
146
0.0
 13
0.0
 23
0.0
 33
0.0
 16
1.0
 26
0.0
 36
0.0
 17
0.0
 27
1.0
 37
0.0
 76
     0
330
1B
  0
LAYOUT
  5
26
102
{ACAD_REACTORS
330
1A
102
}
330
1A
100
AcDbPlotSettings
  1

  2
none_device
  4

  6

 40
0.0
 41
0.0
 42
0.0
 43
0.0
 44
0.0
 45
0.0
 46
0.0
 47
0.0
 48
0.0
 49
0.0
140
0.0
141
0.0
142
1.0
143
1.0
 70
   688
 72
     1
 73
     0
 74
     5
  7

 75
    16
147
1.0
148
0.0
149
0.0
100
AcDbLayout
  1
Layout2
 70
     1
 71
     2
 10
0.0
 20
0.0
 11
0.0
 21
0.0
 12
0.0
 22
0.0
 32
0.0
 14
0.0
 24
0.0
 34
0.0
 15
0.0
 25
0.0
 35
0.0
146
0.0
 13
0.0
 23
0.0
 33
0.0
 16
1.0
 26
0.0
 36
0.0
 17
0.0
 27
1.0
 37
0.0
 76
     0
330
23
  0
LAYOUT
  5
22
102
{ACAD_REACTORS
330
1A
102
}
330
1A
100
AcDbPlotSettings
  1

  2
none_device
  4
ANSI_A_(11.00_x_8.50_Inches)
  6

 40
6.35
 41
19.05
 42
6.35000508
 43
19.05000254
 44
279.4
 45
215.9
 46
83.1504950804024
 47
84.03817281803886
 48
0.0
 49
0.0
140
0.0
141
0.0
142
0.0776995882146761
143
1.0
 70
  1696
 72
     0
 73
     0
 74
     0
  7

 75
     0
147
0.0235690232323232
148
0.0
149
0.0
100
AcDbLayout
  1
Model
 70
     1
 71
     0
 10
0.0
 20
0.0
 11
420.0
 21
297.0
 12
0.0
 22
0.0
 32
0.0
 14
-44.97381740100918
 24
-40.00000000000001
 34
0.0
 15
95.5134838153456
 25
49.22482792016486
 35
0.0
146
0.0
 13
0.0
 23
0.0
 33
0.0
 16
1.0
 26
0.0
 36
0.0
 17
0.0
 27
1.0
 37
0.0
 76
     0
330
1F
331
29
  0
MLINESTYLE
  5
18
102
{ACAD_REACTORS
330
17
102
}
330
17
100
AcDbMlineStyle
  2
Standard
 70
     0
  3

 62
   256
 51
90.0
 52
90.0
 71
     2
 49
0.5
 62
   256
  6
BYLAYER
 49
-0.5
 62
   256
  6
BYLAYER
  0
ACDBPLACEHOLDER
  5
F
102
{ACAD_REACTORS
330
E
102
}
330
E
  0
SCALE
  5
48
102
{ACAD_REACTORS
330
47
102
}
330
47
100
AcDbScale
 70
     0
300
1:1
140
1.0
141
1.0
290
     1
  0
SCALE
  5
49
102
{ACAD_REACTORS
330
47
102
}
330
47
100
AcDbScale
 70
     0
300
1:2
140
1.0
141
2.0
290
     0
  0
SCALE
  5
4A
102
{ACAD_REACTORS
330
47
102
}
330
47
100
AcDbScale
 70
     0
300
1:4
140
1.0
141
4.0
290
     0
  0
SCALE
  5
4B
102
{ACAD_REACTORS
330
47
102
}
330
47
100
AcDbScale
 70
     0
300
1:5
140
1.0
141
5.0
290
     0
  0
SCALE
  5
4C
102
{ACAD_REACTORS
330
47
102
}
330
47
100
AcDbScale
 70
     0
300
1:8
140
1.0
141
8.0
290
     0
  0
SCALE
  5
4D
102
{ACAD_REACTORS
330
47
102
}
330
47
100
AcDbScale
 70
     0
300
1:10
140
1.0
141
10.0
290
     0
  0
SCALE
  5
4E
102
{ACAD_REACTORS
330
47
102
}
330
47
100
AcDbScale
 70
     0
300
1:16
140
1.0
141
16.0
290
     0
  0
SCALE
  5
4F
102
{ACAD_REACTORS
330
47
102
}
330
47
100
AcDbScale
 70
     0
300
1:20
140
1.0
141
20.0
290
     0
  0
SCALE
  5
50
102
{ACAD_REACTORS
330
47
102
}
330
47
100
AcDbScale
 70
     0
300
1:30
140
1.0
141
30.0
290
     0
  0
SCALE
  5
51
102
{ACAD_REACTORS
330
47
102
}
330
47
100
AcDbScale
 70
     0
300
1:40
140
1.0
141
40.0
290
     0
  0
SCALE
  5
52
102
{ACAD_REACTORS
330
47
102
}
330
47
100
AcDbScale
 70
     0
300
1:50
140
1.0
141
50.0
290
     0
  0
SCALE
  5
53
102
{ACAD_REACTORS
330
47
102
}
330
47
100
AcDbScale
 70
     0
300
1:100
140
1.0
141
100.0
290
     0
  0
SCALE
  5
54
102
{ACAD_REACTORS
330
47
102
}
330
47
100
AcDbScale
 70
     0
300
2:1
140
2.0
141
1.0
290
     0
  0
SCALE
  5
55
102
{ACAD_REACTORS
330
47
102
}
330
47
100
AcDbScale
 70
     0
300
4:1
140
4.0
141
1.0
290
     0
  0
SCALE
  5
56
102
{ACAD_REACTORS
330
47
102
}
330
47
100
AcDbScale
 70
     0
300
8:1
140
8.0
141
1.0
290
     0
  0
SCALE
  5
57
102
{ACAD_REACTORS
330
47
102
}
330
47
100
AcDbScale
 70
     0
300
10:1
140
10.0
141
1.0
290
     0
  0
SCALE
  5
58
102
{ACAD_REACTORS
330
47
102
}
330
47
100
AcDbScale
 70
     0
300
100:1
140
100.0
141
1.0
290
     0
  0
SCALE
  5
59
102
{ACAD_REACTORS
330
47
102
}
330
47
100
AcDbScale
 70
     0
300
1/128" = 1'-0"
140
0.0078125
141
12.0
290
     0
  0
SCALE
  5
5A
102
{ACAD_REACTORS
330
47
102
}
330
47
100
AcDbScale
 70
     0
300
1/64" = 1'-0"
140
0.015625
141
12.0
290
     0
  0
SCALE
  5
5B
102
{ACAD_REACTORS
330
47
102
}
330
47
100
AcDbScale
 70
     0
300
1/32" = 1'-0"
140
0.03125
141
12.0
290
     0
  0
SCALE
  5
5C
102
{ACAD_REACTORS
330
47
102
}
330
47
100
AcDbScale
 70
     0
300
1/16" = 1'-0"
140
0.0625
141
12.0
290
     0
  0
SCALE
  5
5D
102
{ACAD_REACTORS
330
47
102
}
330
47
100
AcDbScale
 70
     0
300
3/32" = 1'-0"
140
0.09375
141
12.0
290
     0
  0
SCALE
  5
5E
102
{ACAD_REACTORS
330
47
102
}
330
47
100
AcDbScale
 70
     0
300
1/8" = 1'-0"
140
0.125
141
12.0
290
     0
  0
SCALE
  5
5F
102
{ACAD_REACTORS
330
47
102
}
330
47
100
AcDbScale
 70
     0
300
3/16" = 1'-0"
140
0.1875
141
12.0
290
     0
  0
SCALE
  5
60
102
{ACAD_REACTORS
330
47
102
}
330
47
100
AcDbScale
 70
     0
300
1/4" = 1'-0"
140
0.25
141
12.0
290
     0
  0
SCALE
  5
61
102
{ACAD_REACTORS
330
47
102
}
330
47
100
AcDbScale
 70
     0
300
3/8" = 1'-0"
140
0.375
141
12.0
290
     0
  0
SCALE
  5
62
102
{ACAD_REACTORS
330
47
102
}
330
47
100
AcDbScale
 70
     0
300
1/2" = 1'-0"
140
0.5
141
12.0
290
     0
  0
SCALE
  5
63
102
{ACAD_REACTORS
330
47
102
}
330
47
100
AcDbScale
 70
     0
300
3/4" = 1'-0"
140
0.75
141
12.0
290
     0
  0
SCALE
  5
64
102
{ACAD_REACTORS
330
47
102
}
330
47
100
AcDbScale
 70
     0
300
1" = 1'-0"
140
1.0
141
12.0
290
     0
  0
SCALE
  5
65
102
{ACAD_REACTORS
330
47
102
}
330
47
100
AcDbScale
 70
     0
300
1-1/2" = 1'-0"
140
1.5
141
12.0
290
     0
  0
SCALE
  5
66
102
{ACAD_REACTORS
330
47
102
}
330
47
100
AcDbScale
 70
     0
300
3" = 1'-0"
140
3.0
141
12.0
290
     0
  0
SCALE
  5
67
102
{ACAD_REACTORS
330
47
102
}
330
47
100
AcDbScale
 70
     0
300
6" = 1'-0"
140
6.0
141
12.0
290
     0
  0
SCALE
  5
68
102
{ACAD_REACTORS
330
47
102
}
330
47
100
AcDbScale
 70
     0
300
1'-0" = 1'-0"
140
12.0
141
12.0
290
     0
  0
ENDSEC
  0
EOF
