  0
SECTION
  2
HEADER
  9
$ACADVER
  1
AC1015
  9
$ACADMAINTVER
 70
     6
  9
$DWGCODEPAGE
  3
ANSI_949
  9
$INSBASE
 10
0.0
 20
0.0
 30
0.0
  9
$EXTMIN
 10
-44.25756740100967
 20
-40.00000000000001
 30
0.0
  9
$EXTMAX
 10
95.5134838153456
 20
48.43687027038455
 30
0.0
  9
$LIMMIN
 10
0.0
 20
0.0
  9
$LIMMAX
 10
420.0
 20
297.0
  9
$ORTHOMODE
 70
     0
  9
$REGENMODE
 70
     1
  9
$FILLMODE
 70
     1
  9
$QTEXTMODE
 70
     0
  9
$MIRRTEXT
 70
     1
  9
$LTSCALE
 40
1.0
  9
$ATTMODE
 70
     1
  9
$TEXTSIZE
 40
3.5
  9
$TRACEWID
 40
1.0
  9
$TEXTSTYLE
  7
Standard
  9
$CLAYER
  8
0
  9
$CELTYPE
  6
ByLayer
  9
$CECOLOR
 62
   256
  9
$CELTSCALE
 40
1.0
  9
$DISPSILH
 70
     0
  9
$DIMSCALE
 40
1.0
  9
$DIMASZ
 40
3.302
  9
$DIMEXO
 40
1.0
  9
$DIMDLI
 40
3.75
  9
$DIMRND
 40
0.0
  9
$DIMDLE
 40
0.0
  9
$DIMEXE
 40
1.0
  9
$DIMTP
 40
0.0
  9
$DIMTM
 40
0.0
  9
$DIMTXT
 40
3.5
  9
$DIMCEN
 40
2.5
  9
$DIMTSZ
 40
0.0
  9
$DIMTOL
 70
     0
  9
$DIMLIM
 70
     0
  9
$DIMTIH
 70
     1
  9
$DIMTOH
 70
     1
  9
$DIMSE1
 70
     0
  9
$DIMSE2
 70
     0
  9
$DIMTAD
 70
     1
  9
$DIMZIN
 70
     0
  9
$DIMBLK
  1

  9
$DIMASO
 70
     1
  9
$DIMSHO
 70
     1
  9
$DIMPOST
  1

  9
$DIMAPOST
  1

  9
$DIMALT
 70
     0
  9
$DIMALTD
 70
     3
  9
$DIMALTF
 40
0.0393700787401575
  9
$DIMLFAC
 40
1.0
  9
$DIMTOFL
 70
     1
  9
$DIMTVP
 40
0.0
  9
$DIMTIX
 70
     0
  9
$DIMSOXD
 70
     0
  9
$DIMSAH
 70
     0
  9
$DIMBLK1
  1

  9
$DIMBLK2
  1

  9
$DIMSTYLE
  2
ISO-25
  9
$DIMCLRD
 70
     0
  9
$DIMCLRE
 70
     0
  9
$DIMCLRT
 70
     0
  9
$DIMTFAC
 40
1.0
  9
$DIMGAP
 40
1.524
  9
$DIMJUST
 70
     0
  9
$DIMSD1
 70
     0
  9
$DIMSD2
 70
     0
  9
$DIMTOLJ
 70
     0
  9
$DIMTZIN
 70
     0
  9
$DIMALTZ
 70
     0
  9
$DIMALTTZ
 70
     0
  9
$DIMUPT
 70
     0
  9
$DIMDEC
 70
     2
  9
$DIMTDEC
 70
     2
  9
$DIMALTU
 70
     2
  9
$DIMALTTD
 70
     3
  9
$DIMTXSTY
  7
Standard
  9
$DIMAUNIT
 70
     0
  9
$DIMADEC
 70
     2
  9
$DIMALTRND
 40
0.0
  9
$DIMAZIN
 70
     0
  9
$DIMDSEP
 70
    44
  9
$DIMATFIT
 70
     3
  9
$DIMFRAC
 70
     0
  9
$DIMLDRBLK
  1

  9
$DIMLUNIT
 70
     2
  9
$DIMLWD
 70
    -2
  9
$DIMLWE
 70
    -2
  9
$DIMTMOVE
 70
     0
  9
$LUNITS
 70
     2
  9
$LUPREC
 70
     2
  9
$SKETCHINC
 40
1.0
  9
$FILLETRAD
 40
10.0
  9
$AUNITS
 70
     0
  9
$AUPREC
 70
     2
  9
$MENU
  1
.
  9
$ELEVATION
 40
0.0
  9
$PELEVATION
 40
0.0
  9
$THICKNESS
 40
0.0
  9
$LIMCHECK
 70
     0
  9
$CHAMFERA
 40
0.0
  9
$CHAMFERB
 40
0.0
  9
$CHAMFERC
 40
0.0
  9
$CHAMFERD
 40
0.0
  9
$SKPOLY
 70
     0
  9
$TDCREATE
 40
2458316.467740313
  9
$TDUCREATE
 40
2458316.092740313
  9
$TDUPDATE
 40
2459720.395193796
  9
$TDUUPDATE
 40
2459720.020193796
  9
$TDINDWG
 40
0.0010741088
  9
$TDUSRTIMER
 40
0.0001169444
  9
$USRTIMER
 70
     1
  9
$ANGBASE
 50
0.0
  9
$ANGDIR
 70
     0
  9
$PDMODE
 70
     0
  9
$PDSIZE
 40
-1.0
  9
$PLINEWID
 40
0.0
  9
$SPLFRAME
 70
     0
  9
$SPLINETYPE
 70
     6
  9
$SPLINESEGS
 70
     8
  9
$HANDSEED
  5
2FE
  9
$SURFTAB1
 70
     6
  9
$SURFTAB2
 70
     6
  9
$SURFTYPE
 70
     6
  9
$SURFU
 70
     6
  9
$SURFV
 70
     6
  9
$UCSBASE
  2

  9
$UCSNAME
  2

  9
$UCSORG
 10
0.0
 20
0.0
 30
0.0
  9
$UCSXDIR
 10
1.0
 20
0.0
 30
0.0
  9
$UCSYDIR
 10
0.0
 20
1.0
 30
0.0
  9
$UCSORTHOREF
  2

  9
$UCSORTHOVIEW
 70
     0
  9
$UCSORGTOP
 10
0.0
 20
0.0
 30
0.0
  9
$UCSORGBOTTOM
 10
0.0
 20
0.0
 30
0.0
  9
$UCSORGLEFT
 10
0.0
 20
0.0
 30
0.0
  9
$UCSORGRIGHT
 10
0.0
 20
0.0
 30
0.0
  9
$UCSORGFRONT
 10
0.0
 20
0.0
 30
0.0
  9
$UCSORGBACK
 10
0.0
 20
0.0
 30
0.0
  9
$PUCSBASE
  2

  9
$PUCSNAME
  2

  9
$PUCSORG
 10
0.0
 20
0.0
 30
0.0
  9
$PUCSXDIR
 10
1.0
 20
0.0
 30
0.0
  9
$PUCSYDIR
 10
0.0
 20
1.0
 30
0.0
  9
$PUCSORTHOREF
  2

  9
$PUCSORTHOVIEW
 70
     0
  9
$PUCSORGTOP
 10
0.0
 20
0.0
 30
0.0
  9
$PUCSORGBOTTOM
 10
0.0
 20
0.0
 30
0.0
  9
$PUCSORGLEFT
 10
0.0
 20
0.0
 30
0.0
  9
$PUCSORGRIGHT
 10
0.0
 20
0.0
 30
0.0
  9
$PUCSORGFRONT
 10
0.0
 20
0.0
 30
0.0
  9
$PUCSORGBACK
 10
0.0
 20
0.0
 30
0.0
  9
$USERI1
 70
     0
  9
$USERI2
 70
     0
  9
$USERI3
 70
     0
  9
$USERI4
 70
     0
  9
$USERI5
 70
     0
  9
$USERR1
 40
0.0
  9
$USERR2
 40
0.0
  9
$USERR3
 40
0.0
  9
$USERR4
 40
0.0
  9
$USERR5
 40
0.0
  9
$WORLDVIEW
 70
     1
  9
$SHADEDGE
 70
     3
  9
$SHADEDIF
 70
    70
  9
$TILEMODE
 70
     1
  9
$MAXACTVP
 70
    64
  9
$PINSBASE
 10
0.0
 20
0.0
 30
0.0
  9
$PLIMCHECK
 70
     0
  9
$PEXTMIN
 10
1.000000000000000E+20
 20
1.000000000000000E+20
 30
1.000000000000000E+20
  9
$PEXTMAX
 10
-1.000000000000000E+20
 20
-1.000000000000000E+20
 30
-1.000000000000000E+20
  9
$PLIMMIN
 10
0.0
 20
0.0
  9
$PLIMMAX
 10
0.0
 20
0.0
  9
$UNITMODE
 70
     0
  9
$VISRETAIN
 70
     1
  9
$PLINEGEN
 70
     0
  9
$PSLTSCALE
 70
     1
  9
$TREEDEPTH
 70
  3020
  9
$CMLSTYLE
  2
Standard
  9
$CMLJUST
 70
     0
  9
$CMLSCALE
 40
20.0
  9
$PROXYGRAPHICS
 70
     1
  9
$MEASUREMENT
 70
     1
  9
$CELWEIGHT
370
    -1
  9
$ENDCAPS
280
     0
  9
$JOINSTYLE
280
     0
  9
$LWDISPLAY
290
     1
  9
$INSUNITS
 70
     4
  9
$HYPERLINKBASE
  1

  9
$STYLESHEET
  1

  9
$XEDIT
290
     1
  9
$CEPSNTYPE
380
     0
  9
$PSTYLEMODE
290
     1
  9
$FINGERPRINTGUID
  2
{6D0499AB-7E10-4645-92D6-8B2F9041EC91}
  9
$VERSIONGUID
  2
{FAEB1C32-E019-11D5-929B-00C0DF256EC4}
  9
$EXTNAMES
290
     1
  9
$PSVPSCALE
 40
0.0
  9
$OLESTARTUP
290
     0
  0
ENDSEC
  0
SECTION
  2
CLASSES
  0
CLASS
  1
ACDBDICTIONARYWDFLT
  2
AcDbDictionaryWithDefault
  3
ObjectDBX Classes
 90
        0
280
     0
281
     0
  0
CLASS
  1
VISUALSTYLE
  2
AcDbVisualStyle
  3
ObjectDBX Classes
 90
     4095
280
     0
281
     0
  0
CLASS
  1
MATERIAL
  2
AcDbMaterial
  3
ObjectDBX Classes
 90
     1153
280
     0
281
     0
  0
CLASS
  1
SCALE
  2
AcDbScale
  3
ObjectDBX Classes
 90
     1153
280
     0
281
     0
  0
CLASS
  1
SUN
  2
AcDbSun
  3
SCENEOE
 90
     1153
280
     0
281
     0
  0
CLASS
  1
ACDBPLACEHOLDER
  2
AcDbPlaceHolder
  3
ObjectDBX Classes
 90
        0
280
     0
281
     0
  0
CLASS
  1
LAYOUT
  2
AcDbLayout
  3
ObjectDBX Classes
 90
        0
280
     0
281
     0
  0
CLASS
  1
TABLESTYLE
  2
AcDbTableStyle
  3
ObjectDBX Classes
 90
     4095
280
     0
281
     0
  0
CLASS
  1
MLEADERSTYLE
  2
AcDbMLeaderStyle
  3
ACDB_MLEADERSTYLE_CLASS
 90
     4095
280
     0
281
     0
  0
CLASS
  1
RASTERVARIABLES
  2
AcDbRasterVariables
  3
ISM
 90
        0
280
     0
281
     0
  0
ENDSEC
  0
SECTION
  2
TABLES
  0
TABLE
  2
VPORT
  5
8
330
0
100
AcDbSymbolTable
 70
     1
  0
VPORT
  5
29
330
8
100
AcDbSymbolTableRecord
100
AcDbViewportTableRecord
  2
*Active
 70
     0
 10
0.0
 20
0.0
 11
1.0
 21
1.0
 12
5.010623676911205
 22
8.108848242183072
 13
0.0
 23
0.0
 14
10.0
 24
10.0
 15
10.0
 25
10.0
 16
0.0
 26
0.0
 36
1.0
 17
0.0
 27
0.0
 37
0.0
 40
113.1156967818426
 41
1.519944979367263
 42
50.0
 43
0.0
 44
0.0
 50
0.0
 51
0.0
 71
    16
 72
  2000
 73
     1
 74
     3
 75
     0
 76
     0
 77
     0
 78
     0
281
     0
 65
     1
110
0.0
120
0.0
130
0.0
111
1.0
121
0.0
131
0.0
112
0.0
122
1.0
132
0.0
 79
     0
146
0.0
  0
ENDTAB
  0
TABLE
  2
LTYPE
  5
5
330
0
100
AcDbSymbolTable
 70
     6
  0
LTYPE
  5
14
330
5
100
AcDbSymbolTableRecord
100
AcDbLinetypeTableRecord
  2
ByBlock
 70
     0
  3

 72
    65
 73
     0
 40
0.0
  0
LTYPE
  5
15
330
5
100
AcDbSymbolTableRecord
100
AcDbLinetypeTableRecord
  2
ByLayer
 70
     0
  3

 72
    65
 73
     0
 40
0.0
  0
LTYPE
  5
16
330
5
100
AcDbSymbolTableRecord
100
AcDbLinetypeTableRecord
  2
Continuous
 70
     0
  3
Solid line
 72
    65
 73
     0
 40
0.0
  0
LTYPE
  5
6A
330
5
100
AcDbSymbolTableRecord
100
AcDbLinetypeTableRecord
  2
HIDDEN
 70
     0
  3
Hidden __ __ __ __ __ __ __ __ __ __ __ __ __ __
 72
    65
 73
     2
 40
1.905
 49
1.27
 74
     0
 49
-0.635
 74
     0
  0
LTYPE
  5
6B
330
5
100
AcDbSymbolTableRecord
100
AcDbLinetypeTableRecord
  2
PHANTOM
 70
     0
  3
Phantom ______  __  __  ______  __  __  ______
 72
    65
 73
     6
 40
12.7
 49
6.35
 74
     0
 49
-1.27
 74
     0
 49
1.27
 74
     0
 49
-1.27
 74
     0
 49
1.27
 74
     0
 49
-1.27
 74
     0
  0
LTYPE
  5
6C
330
5
100
AcDbSymbolTableRecord
100
AcDbLinetypeTableRecord
  2
CENTER
 70
     0
  3
Center ____ _ ____ _ ____ _ ____ _ ____ _ ____
 72
    65
 73
     4
 40
10.16
 49
6.35
 74
     0
 49
-1.27
 74
     0
 49
1.27
 74
     0
 49
-1.27
 74
     0
  0
LTYPE
  5
6D
330
5
100
AcDbSymbolTableRecord
100
AcDbLinetypeTableRecord
  2
CENTERX2
 70
     0
  3
Center (2x) ________  __  ________  __  _____
 72
    65
 73
     4
 40
20.32
 49
12.7
 74
     0
 49
-2.54
 74
     0
 49
2.54
 74
     0
 49
-2.54
 74
     0
  0
LTYPE
  5
6E
330
5
100
AcDbSymbolTableRecord
100
AcDbLinetypeTableRecord
  2
DOT2
 70
     0
  3
Dot (.5x) ........................................
 72
    65
 73
     2
 40
0.635
 49
0.0
 74
     0
 49
-0.635
 74
     0
  0
ENDTAB
  0
TABLE
  2
LAYER
  5
2
102
{ACAD_XDICTIONARY
360
223
102
}
330
0
100
AcDbSymbolTable
 70
    18
  0
LAYER
  5
10
330
2
100
AcDbSymbolTableRecord
100
AcDbLayerTableRecord
  2
0
 70
     0
 62
     7
  6
Continuous
370
    -3
390
F
  0
LAYER
  5
6F
330
2
100
AcDbSymbolTableRecord
100
AcDbLayerTableRecord
  2
FORMAT
 70
     0
 62
     2
  6
Continuous
370
    -3
390
F
  0
LAYER
  5
70
330
2
100
AcDbSymbolTableRecord
100
AcDbLayerTableRecord
  2
외형선
 70
     0
 62
     4
  6
Continuous
370
    30
390
F
  0
LAYER
  5
71
330
2
100
AcDbSymbolTableRecord
100
AcDbLayerTableRecord
  2
숨은선
 70
     0
 62
     2
  6
HIDDEN
370
    15
390
F
  0
LAYER
  5
72
330
2
100
AcDbSymbolTableRecord
100
AcDbLayerTableRecord
  2
중심선
 70
     0
 62
     1
  6
CENTERX2
370
    -3
390
F
  0
LAYER
  5
73
330
2
100
AcDbSymbolTableRecord
100
AcDbLayerTableRecord
  2
파단선
 70
     0
 62
     4
  6
Continuous
370
    -3
390
F
  0
LAYER
  5
74
330
2
100
AcDbSymbolTableRecord
100
AcDbLayerTableRecord
  2
해칭선
 70
     0
 62
   100
  6
Continuous
370
    -3
390
F
  0
LAYER
  5
75
330
2
100
AcDbSymbolTableRecord
100
AcDbLayerTableRecord
  2
가는실선
 70
     0
 62
     4
  6
Continuous
370
    -3
390
F
  0
LAYER
  5
76
330
2
100
AcDbSymbolTableRecord
100
AcDbLayerTableRecord
  2
치수_보조선
 70
     0
 62
     4
  6
Continuous
370
    -3
390
F
  0
LAYER
  5
77
330
2
100
AcDbSymbolTableRecord
100
AcDbLayerTableRecord
  2
치수문자_일반주서
 70
     0
 62
     7
  6
Continuous
370
    15
390
F
  0
LAYER
  5
78
330
2
100
AcDbSymbolTableRecord
100
AcDbLayerTableRecord
  2
개별주서
 70
     0
 62
   100
  6
Continuous
370
    30
390
F
  0
LAYER
  5
79
330
2
100
AcDbSymbolTableRecord
100
AcDbLayerTableRecord
  2
중간선
 70
     0
 62
     2
  6
Continuous
370
    15
390
F
  0
LAYER
  5
7A
330
2
100
AcDbSymbolTableRecord
100
AcDbLayerTableRecord
  2
윤곽선
 70
     0
 62
     3
  6
Continuous
370
    40
390
F
  0
LAYER
  5
7B
330
2
100
AcDbSymbolTableRecord
100
AcDbLayerTableRecord
  2
중심마크
 70
     0
 62
   100
  6
Continuous
370
    30
390
F
  0
LAYER
  5
7C
330
2
100
AcDbSymbolTableRecord
100
AcDbLayerTableRecord
  2
가상선
 70
     0
 62
     4
  6
PHANTOM
370
    -3
390
F
  0
LAYER
  5
7D
330
2
100
AcDbSymbolTableRecord
100
AcDbLayerTableRecord
  2
특수지정선
 70
     0
 62
     5
  6
CENTERX2
370
    60
390
F
  0
LAYER
  5
7E
330
2
100
AcDbSymbolTableRecord
100
AcDbLayerTableRecord
  2
참조1
 70
     0
 62
    -4
  6
Continuous
370
    -3
390
F
  0
LAYER
  5
16B
330
2
100
AcDbSymbolTableRecord
100
AcDbLayerTableRecord
  2
Defpoints
 70
     0
 62
     7
  6
Continuous
290
     0
370
    -3
390
F
  0
ENDTAB
  0
TABLE
  2
STYLE
  5
3
330
0
100
AcDbSymbolTable
 70
     2
  0
STYLE
  5
11
330
3
100
AcDbSymbolTableRecord
100
AcDbTextStyleTableRecord
  2
Standard
 70
     0
 40
0.0
 41
1.0
 50
0.0
 71
     0
 42
3.5
  3
txt
  4

  0
STYLE
  5
94
330
3
100
AcDbSymbolTableRecord
100
AcDbTextStyleTableRecord
  2
SLDTEXTSTYLE0
 70
     0
 40
0.0
 41
0.75
 50
0.0
 71
     0
 42
3.5
  3
TXT
  4

  0
ENDTAB
  0
TABLE
  2
VIEW
  5
6
330
0
100
AcDbSymbolTable
 70
     0
  0
ENDTAB
  0
TABLE
  2
UCS
  5
7
330
0
100
AcDbSymbolTable
 70
     0
  0
ENDTAB
  0
TABLE
  2
APPID
  5
9
330
0
100
AcDbSymbolTable
 70
     3
  0
APPID
  5
12
330
9
100
AcDbSymbolTableRecord
100
AcDbRegAppTableRecord
  2
ACAD
 70
     0
  0
APPID
  5
177
330
9
100
AcDbSymbolTableRecord
100
AcDbRegAppTableRecord
  2
PE_URL
 70
     0
  0
APPID
  5
178
330
9
100
AcDbSymbolTableRecord
100
AcDbRegAppTableRecord
  2
ACAD_DSTYLE_DIMRADIAL_EXTENSION
 70
     0
  0
ENDTAB
  0
TABLE
  2
DIMSTYLE
  5
A
330
0
100
AcDbSymbolTable
 70
     4
100
AcDbDimStyleTable
  0
DIMSTYLE
105
27
330
A
100
AcDbSymbolTableRecord
100
AcDbDimStyleTableRecord
  2
ISO-25
 70
     0
 41
2.5
 42
0.625
 43
3.75
 44
1.25
 73
     0
 74
     0
 77
     1
 78
     8
140
2.5
141
2.5
143
0.03937007874016
147
0.625
171
     3
172
     1
178
     0
271
     2
272
     2
274
     3
278
    44
283
     0
284
     8
340
11
  0
DIMSTYLE
105
E7
102
{ACAD_REACTORS
330
E6
330
FA
330
110
330
124
102
}
330
A
100
AcDbSymbolTableRecord
100
AcDbDimStyleTableRecord
  2
SLDDIMSTYLE0
 70
     0
 41
3.302
 44
0.0
 45
0.000000001
 73
     0
 74
     0
 77
     1
 78
    12
 79
     3
140
3.5
143
0.0393700787401575
147
0.875
148
0.000000001
170
     1
173
     1
178
     0
271
     2
272
     2
276
     2
284
    12
340
94
  0
DIMSTYLE
105
FB
102
{ACAD_REACTORS
102
}
330
A
100
AcDbSymbolTableRecord
100
AcDbDimStyleTableRecord
  2
SLDDIMSTYLE1
 70
     0
 41
3.302
 44
0.0
 45
0.000000001
 73
     0
 74
     0
 77
     1
 78
    12
 79
     3
140
3.5
143
0.0393700787401575
147
0.875
148
0.000000001
170
     1
172
     1
173
     1
178
     0
271
     2
272
     2
276
     2
284
    12
289
     0
340
94
  0
DIMSTYLE
105
111
102
{ACAD_REACTORS
102
}
330
A
100
AcDbSymbolTableRecord
100
AcDbDimStyleTableRecord
  2
SLDDIMSTYLE2
 70
     0
 41
3.302
 44
0.0
 45
0.000000001
 73
     0
 74
     0
 77
     1
 78
     4
 79
     1
140
3.5
143
0.0393700787401575
147
0.875
148
0.000000001
170
     1
173
     1
178
     0
271
     2
272
     2
276
     2
284
    12
340
94
  0
ENDTAB
  0
TABLE
  2
BLOCK_RECORD
  5
1
330
0
100
AcDbSymbolTable
 70
    17
  0
BLOCK_RECORD
  5
1F
102
{ACAD_XDICTIONARY
360
2FB
102
}
330
1
100
AcDbSymbolTableRecord
100
AcDbBlockTableRecord
  2
*Model_Space
340
22
  0
BLOCK_RECORD
  5
1B
330
1
100
AcDbSymbolTableRecord
100
AcDbBlockTableRecord
  2
*Paper_Space
340
1E
  0
BLOCK_RECORD
  5
23
330
1
100
AcDbSymbolTableRecord
100
AcDbBlockTableRecord
  2
*Paper_Space0
340
26
  0
BLOCK_RECORD
  5
7F
330
1
100
AcDbSymbolTableRecord
100
AcDbBlockTableRecord
  2
블럭10
340
0
102
{BLKREFS
331
DF
102
}
  0
BLOCK_RECORD
  5
E8
330
1
100
AcDbSymbolTableRecord
100
AcDbBlockTableRecord
  2
_D
340
0
  0
BLOCK_RECORD
  5
FC
330
1
100
AcDbSymbolTableRecord
100
AcDbBlockTableRecord
  2
_D_1
340
0
  0
BLOCK_RECORD
  5
112
330
1
100
AcDbSymbolTableRecord
100
AcDbBlockTableRecord
  2
_D_2
340
0
  0
BLOCK_RECORD
  5
125
330
1
100
AcDbSymbolTableRecord
100
AcDbBlockTableRecord
  2
_D_3
340
0
  0
BLOCK_RECORD
  5
13F
330
1
100
AcDbSymbolTableRecord
100
AcDbBlockTableRecord
  2
SW_DOWELSYMBOL_0
340
0
102
{BLKREFS
331
145
102
}
  0
BLOCK_RECORD
  5
201
330
1
100
AcDbSymbolTableRecord
100
AcDbBlockTableRecord
  2
_D_4
340
0
  0
BLOCK_RECORD
  5
21B
330
1
100
AcDbSymbolTableRecord
100
AcDbBlockTableRecord
  2
*D8
340
0
  0
BLOCK_RECORD
  5
227
330
1
100
AcDbSymbolTableRecord
100
AcDbBlockTableRecord
  2
*D9
340
0
  0
BLOCK_RECORD
  5
233
330
1
100
AcDbSymbolTableRecord
100
AcDbBlockTableRecord
  2
*D10
340
0
  0
BLOCK_RECORD
  5
23F
330
1
100
AcDbSymbolTableRecord
100
AcDbBlockTableRecord
  2
*D11
340
0
  0
BLOCK_RECORD
  5
299
330
1
100
AcDbSymbolTableRecord
100
AcDbBlockTableRecord
  2
*D12
340
0
  0
BLOCK_RECORD
  5
2A5
330
1
100
AcDbSymbolTableRecord
100
AcDbBlockTableRecord
  2
*D13
340
0
  0
BLOCK_RECORD
  5
2B1
330
1
100
AcDbSymbolTableRecord
100
AcDbBlockTableRecord
  2
*D14
340
0
  0
BLOCK_RECORD
  5
2BF
330
1
100
AcDbSymbolTableRecord
100
AcDbBlockTableRecord
  2
*D15
340
0
  0
BLOCK_RECORD
  5
2CD
330
1
100
AcDbSymbolTableRecord
100
AcDbBlockTableRecord
  2
*D16
340
0
  0
ENDTAB
  0
ENDSEC
  0
SECTION
  2
BLOCKS
  0
BLOCK
  5
20
330
1F
100
AcDbEntity
  8
0
100
AcDbBlockBegin
  2
*Model_Space
 70
     0
 10
0.0
 20
0.0
 30
0.0
  3
*Model_Space
  1
*Model_Space
  0
ENDBLK
  5
21
330
1F
100
AcDbEntity
  8
0
100
AcDbBlockEnd
  0
BLOCK
  5
1C
330
1B
100
AcDbEntity
 67
     1
  8
0
100
AcDbBlockBegin
  2
*Paper_Space
 70
     0
 10
0.0
 20
0.0
 30
0.0
  3
*Paper_Space
  1
*Paper_Space
  0
ENDBLK
  5
1D
330
1B
100
AcDbEntity
 67
     1
  8
0
100
AcDbBlockEnd
  0
BLOCK
  5
24
330
23
100
AcDbEntity
  8
0
100
AcDbBlockBegin
  2
*Paper_Space0
 70
     0
 10
0.0
 20
0.0
 30
0.0
  3
*Paper_Space0
  1
*Paper_Space0
  0
ENDBLK
  5
25
330
23
100
AcDbEntity
  8
0
100
AcDbBlockEnd
  0
BLOCK
  5
80
330
7F
100
AcDbEntity
  8
0
100
AcDbBlockBegin
  2
블럭10
 70
     2
 10
0.0
 20
0.0
 30
0.0
  3
블럭10
  1
블럭10
  0
ELLIPSE
  5
82
330
7F
100
AcDbEntity
  8
중심선
100
AcDbEllipse
 10
20.54032771741204
 20
12.0471743016438
 30
0.0
 11
6.600054785286829
 21
-1.261213355974178E-13
 31
0.0
210
0.0
220
0.0
230
1.0
 40
0.636358354079598
 41
0.9219305317359503
 42
6.513795318482858
  0
ELLIPSE
  5
83
330
7F
100
AcDbEntity
  8
중심선
100
AcDbEllipse
 10
20.54032771746488
 20
12.04717430159265
 30
0.0
 11
3.960054785062283
 21
1.540847449632565E-10
 31
0.0
210
0.0
220
0.0
230
1.0
 40
0.3939339440162632
 41
1.131841032648279
 42
5.62031148352944
  0
LINE
  5
84
330
7F
100
AcDbEntity
  8
중심선
100
AcDbLine
 10
2.268634060543552
 20
16.24717430164393
 30
0.0
 11
5.714909304380834
 21
16.24717430164393
 31
0.0
  0
LINE
  5
85
330
7F
100
AcDbEntity
  8
중심선
100
AcDbLine
 10
5.245725140726316
 20
7.84717430164391
 30
0.0
 11
8.692000384563599
 21
7.84717430164391
 31
0.0
  0
LINE
  5
86
330
7F
100
AcDbEntity
  8
중심선
100
AcDbLine
 10
15.74043728645272
 20
16.24717430164393
 30
0.0
 11
8.692000384563599
 21
7.84717430164391
 31
0.0
  0
LINE
  5
87
330
7F
100
AcDbEntity
  8
중심선
100
AcDbLine
 10
0.1404042013395286
 20
13.71084872107135
 30
0.0
 11
3.58671253028996
 21
13.71088815037384
 31
0.0
  0
LINE
  5
88
330
7F
100
AcDbEntity
  8
중심선
100
AcDbLine
 10
2.750260043222114
 20
10.84717430164391
 30
0.0
 11
6.196535287059397
 21
10.84717430164391
 31
0.0
  0
LINE
  5
89
330
7F
100
AcDbEntity
  8
중심선
100
AcDbLine
 10
12.29416204261559
 20
16.24717430164393
 30
0.0
 11
5.245725140726316
 21
7.84717430164391
 31
0.0
  0
LINE
  5
8A
330
7F
100
AcDbEntity
  8
중심선
100
AcDbLine
 10
10.72767329541681
 20
16.24717430164393
 30
0.0
 11
6.196535287059397
 21
10.84717430164391
 31
0.0
  0
LINE
  5
8B
330
7F
100
AcDbEntity
  8
중심선
100
AcDbLine
 10
7.28139805157953
 20
16.24717430164393
 30
0.0
 11
2.750260043222114
 21
10.84717430164391
 31
0.0
  0
LINE
  5
8C
330
7F
100
AcDbEntity
  8
중심선
100
AcDbLine
 10
5.714909304380834
 20
16.24717430164393
 30
0.0
 11
3.58671253028996
 21
13.71088815037384
 31
0.0
  0
LINE
  5
8D
330
7F
100
AcDbEntity
  8
중심선
100
AcDbLine
 10
2.268634060543552
 20
16.24717430164393
 30
0.0
 11
0.1404042013395286
 21
13.71084872107135
 31
0.0
  0
LINE
  5
8E
330
7F
100
AcDbEntity
  8
중심선
100
AcDbLine
 10
7.28139805157953
 20
16.24717430164393
 30
0.0
 11
10.72767329541681
 21
16.24717430164393
 31
0.0
  0
LINE
  5
8F
330
7F
100
AcDbEntity
  8
중심선
100
AcDbLine
 10
12.29416204261559
 20
16.24717430164393
 30
0.0
 11
15.74043728645272
 21
16.24717430164393
 31
0.0
  0
LINE
  5
90
330
7F
100
AcDbEntity
  8
중심선
100
AcDbLine
 10
19.22036997980202
 20
11.08717430171403
 30
0.0
 11
23.66174974927406
 21
11.08717430171406
 31
0.0
  0
LINE
  5
91
330
7F
100
AcDbEntity
  8
중심선
100
AcDbLine
 10
19.22039502424796
 20
13.00717430171391
 30
0.0
 11
19.22036997980202
 21
11.08717430171403
 31
0.0
  0
LINE
  5
92
330
7F
100
AcDbEntity
  8
중심선
100
AcDbLine
 10
19.22039502424796
 20
13.00717430171391
 30
0.0
 11
26.96566020931264
 21
13.00717430171391
 31
0.0
  0
LINE
  5
93
330
7F
100
AcDbEntity
  8
중심선
100
AcDbLine
 10
22.22332737316547
 20
13.45928029700563
 30
0.0
 11
24.52862924686651
 21
15.39360700705356
 31
0.0
  0
ATTDEF
  5
95
330
7F
100
AcDbEntity
  8
FORMAT
 62
     2
100
AcDbText
 10
4.408487351596664
 20
2.075366912832191
 30
0.0
 40
4.233333333333333
  1
E5058020
 41
0.75
  7
SLDTEXTSTYLE0
 11
4.408487351596664
 21
-0.0412997538344756
 31
0.0
100
AcDbAttributeDefinition
  3

  2
AUTOATTR0
 70
     0
 74
     1
  0
ENDBLK
  5
81
330
7F
100
AcDbEntity
  8
0
100
AcDbBlockEnd
  0
BLOCK
  5
E9
330
E8
100
AcDbEntity
  8
0
100
AcDbBlockBegin
  2
_D
 70
     0
 10
0.0
 20
0.0
 30
0.0
  3
_D
  1
_D
  0
LINE
  5
EB
330
E8
100
AcDbEntity
  8
치수문자_일반주서
 62
     0
370
    -2
100
AcDbLine
 10
32.28750000000114
 20
3.968749999999998
 30
0.0
 11
44.83561671491861
 21
3.968750000000043
 31
0.0
  0
LINE
  5
EC
330
E8
100
AcDbEntity
  8
치수문자_일반주서
 62
     0
370
    -2
100
AcDbLine
 10
32.28750000000114
 20
-3.968750000000006
 30
0.0
 11
44.83561671491864
 21
-3.968749999999961
 31
0.0
  0
LINE
  5
ED
330
E8
100
AcDbEntity
  8
치수문자_일반주서
 62
     0
370
    -2
100
AcDbLine
 10
44.83561671491861
 20
3.968750000000043
 30
0.0
 11
44.83561671491849
 21
38.57275000000004
 31
0.0
  0
LINE
  5
EE
330
E8
100
AcDbEntity
  8
치수문자_일반주서
 62
     0
370
    -2
100
AcDbLine
 10
44.83561671491859
 20
7.270750000000042
 30
0.0
 11
44.83561671491858
 21
10.57275000000004
 31
0.0
  0
LINE
  5
EF
330
E8
100
AcDbEntity
  8
치수문자_일반주서
 62
     0
370
    -2
100
AcDbLine
 10
44.83561671491865
 20
-7.270749999999961
 30
0.0
 11
44.83561671491866
 21
-10.57274999999996
 31
0.0
  0
SOLID
  5
F0
330
E8
100
AcDbEntity
  8
치수문자_일반주서
 62
     0
100
AcDbTrace
 10
44.28528338158526
 20
7.27075000000004
 30
0.0
 11
45.38595004825193
 21
7.270750000000044
 31
0.0
 12
44.83561671491861
 22
3.968750000000043
 32
0.0
 13
44.83561671491861
 23
3.968750000000043
 33
0.0
  0
SOLID
  5
F1
330
E8
100
AcDbEntity
  8
치수문자_일반주서
 62
     0
100
AcDbTrace
 10
45.38595004825198
 20
-7.270749999999959
 30
0.0
 11
44.28528338158532
 21
-7.270749999999962
 31
0.0
 12
44.83561671491864
 22
-3.968749999999961
 32
0.0
 13
44.83561671491864
 23
-3.968749999999961
 33
0.0
  0
MTEXT
  5
F2
330
E8
100
AcDbEntity
  8
치수문자_일반주서
 62
     0
100
AcDbMText
 10
40.46061671491854
 20
24.57275000000002
 30
0.0
 40
3.5
 41
0.0
 71
     2
 72
     1
  1
\A1;%%c7.94 [5/16]
  7
SLDTEXTSTYLE0
 11
-3.580687802255621E-15
 21
1.0
 31
0.0
 73
     1
 44
1.0
  0
POINT
  5
F3
330
E8
100
AcDbEntity
  8
Defpoints
 62
     0
100
AcDbPoint
 10
32.22500000000114
 20
3.968749999999997
 30
0.0
  0
POINT
  5
F4
330
E8
100
AcDbEntity
  8
Defpoints
 62
     0
100
AcDbPoint
 10
32.22500000000114
 20
-3.968750000000006
 30
0.0
  0
POINT
  5
F5
330
E8
100
AcDbEntity
  8
Defpoints
 62
     0
100
AcDbPoint
 10
44.83561671491864
 20
-3.968749999999959
 30
0.0
  0
ENDBLK
  5
EA
330
E8
100
AcDbEntity
  8
0
100
AcDbBlockEnd
  0
BLOCK
  5
FD
330
FC
100
AcDbEntity
  8
0
100
AcDbBlockBegin
  2
_D_1
 70
     0
 10
0.0
 20
0.0
 30
0.0
  3
_D_1
  1
_D_1
  0
LINE
  5
FF
330
FC
100
AcDbEntity
  8
치수문자_일반주서
 62
     0
370
    -2
100
AcDbLine
 10
32.22500000000114
 20
4.002288248901587
 30
0.0
 11
32.22500000000114
 21
26.06187027038452
 31
0.0
  0
LINE
  5
100
330
FC
100
AcDbEntity
  8
치수문자_일반주서
 62
     0
370
    -2
100
AcDbLine
 10
10.00000000000114
 20
3.914621902860246
 30
0.0
 11
10.00000000000114
 21
26.06187027038452
 31
0.0
  0
LINE
  5
101
330
FC
100
AcDbEntity
  8
치수문자_일반주서
 62
     0
370
    -2
100
AcDbLine
 10
28.92300000000114
 20
26.06187027038452
 30
0.0
 11
13.30200000000114
 21
26.06187027038452
 31
0.0
  0
SOLID
  5
102
330
FC
100
AcDbEntity
  8
치수문자_일반주서
 62
     0
100
AcDbTrace
 10
28.92300000000114
 20
25.51153693705119
 30
0.0
 11
28.92300000000114
 21
26.61220360371786
 31
0.0
 12
32.22500000000114
 22
26.06187027038452
 32
0.0
 13
32.22500000000114
 23
26.06187027038452
 33
0.0
  0
SOLID
  5
103
330
FC
100
AcDbEntity
  8
치수문자_일반주서
 62
     0
100
AcDbTrace
 10
13.30200000000114
 20
26.61220360371786
 30
0.0
 11
13.30200000000114
 21
25.51153693705119
 31
0.0
 12
10.00000000000114
 22
26.06187027038452
 32
0.0
 13
10.00000000000114
 23
26.06187027038452
 33
0.0
  0
MTEXT
  5
104
330
FC
100
AcDbEntity
  8
치수문자_일반주서
 62
     0
100
AcDbMText
 10
21.11250000000114
 20
30.43687027038452
 30
0.0
 40
3.5
 41
0.0
 71
     2
 72
     1
  1
\A1;22.23 [7/8]
  7
SLDTEXTSTYLE0
 73
     1
 44
1.0
  0
POINT
  5
105
330
FC
100
AcDbEntity
  8
Defpoints
 62
     0
100
AcDbPoint
 10
32.22500000000114
 20
3.939788248901587
 30
0.0
  0
POINT
  5
106
330
FC
100
AcDbEntity
  8
Defpoints
 62
     0
100
AcDbPoint
 10
10.00000000000114
 20
3.852121902860246
 30
0.0
  0
POINT
  5
107
330
FC
100
AcDbEntity
  8
Defpoints
 62
     0
100
AcDbPoint
 10
10.00000000000114
 20
26.06187027038452
 30
0.0
  0
ENDBLK
  5
FE
330
FC
100
AcDbEntity
  8
0
100
AcDbBlockEnd
  0
BLOCK
  5
113
330
112
100
AcDbEntity
  8
0
100
AcDbBlockBegin
  2
_D_2
 70
     0
 10
0.0
 20
0.0
 30
0.0
  3
_D_2
  1
_D_2
  0
LINE
  5
115
330
112
100
AcDbEntity
  8
치수문자_일반주서
 62
     0
370
    -2
100
AcDbLine
 10
32.22500000000114
 20
4.002288248901587
 30
0.0
 11
32.22500000000114
 21
44.06187027038455
 31
0.0
  0
LINE
  5
116
330
112
100
AcDbEntity
  8
치수문자_일반주서
 62
     0
370
    -2
100
AcDbLine
 10
-31.27499999999886
 20
3.237499999999999
 30
0.0
 11
-31.27499999999886
 21
44.06187027038455
 31
0.0
  0
LINE
  5
117
330
112
100
AcDbEntity
  8
치수문자_일반주서
 62
     0
370
    -2
100
AcDbLine
 10
28.92300000000114
 20
44.06187027038455
 30
0.0
 11
-27.97299999999886
 21
44.06187027038455
 31
0.0
  0
SOLID
  5
118
330
112
100
AcDbEntity
  8
치수문자_일반주서
 62
     0
100
AcDbTrace
 10
28.92300000000114
 20
43.51153693705121
 30
0.0
 11
28.92300000000114
 21
44.61220360371788
 31
0.0
 12
32.22500000000114
 22
44.06187027038455
 32
0.0
 13
32.22500000000114
 23
44.06187027038455
 33
0.0
  0
SOLID
  5
119
330
112
100
AcDbEntity
  8
치수문자_일반주서
 62
     0
100
AcDbTrace
 10
-27.97299999999886
 20
44.61220360371788
 30
0.0
 11
-27.97299999999886
 21
43.51153693705121
 31
0.0
 12
-31.27499999999886
 22
44.06187027038455
 32
0.0
 13
-31.27499999999886
 23
44.06187027038455
 33
0.0
  0
MTEXT
  5
11A
330
112
100
AcDbEntity
  8
치수문자_일반주서
 62
     0
100
AcDbMText
 10
0.4750000000011383
 20
48.43687027038455
 30
0.0
 40
3.5
 41
0.0
 71
     2
 72
     1
  1
\A1;63.5 [2 1/2]
  7
SLDTEXTSTYLE0
 73
     1
 44
1.0
  0
POINT
  5
11B
330
112
100
AcDbEntity
  8
Defpoints
 62
     0
100
AcDbPoint
 10
32.22500000000114
 20
3.939788248901587
 30
0.0
  0
POINT
  5
11C
330
112
100
AcDbEntity
  8
Defpoints
 62
     0
100
AcDbPoint
 10
-31.27499999999886
 20
3.174999999999999
 30
0.0
  0
POINT
  5
11D
330
112
100
AcDbEntity
  8
Defpoints
 62
     0
100
AcDbPoint
 10
-31.27499999999886
 20
44.06187027038455
 30
0.0
  0
ENDBLK
  5
114
330
112
100
AcDbEntity
  8
0
100
AcDbBlockEnd
  0
BLOCK
  5
126
330
125
100
AcDbEntity
  8
0
100
AcDbBlockBegin
  2
_D_3
 70
     0
 10
0.0
 20
0.0
 30
0.0
  3
_D_3
  1
_D_3
  0
LINE
  5
128
330
125
100
AcDbEntity
  8
치수문자_일반주서
 62
     0
370
    -2
100
AcDbLine
 10
-30.54374999999885
 20
3.968749999999988
 30
0.0
 11
-39.88256740100954
 21
3.968749999999954
 31
0.0
  0
LINE
  5
129
330
125
100
AcDbEntity
  8
치수문자_일반주서
 62
     0
370
    -2
100
AcDbLine
 10
-30.54374999999885
 20
-3.968749999999998
 30
0.0
 11
-39.88256740100951
 21
-3.968750000000032
 31
0.0
  0
LINE
  5
12A
330
125
100
AcDbEntity
  8
치수문자_일반주서
 62
     0
370
    -2
100
AcDbLine
 10
-39.88256740100954
 20
3.968749999999954
 30
0.0
 11
-39.88256740100966
 21
38.57274999999996
 31
0.0
  0
LINE
  5
12B
330
125
100
AcDbEntity
  8
치수문자_일반주서
 62
     0
370
    -2
100
AcDbLine
 10
-39.88256740100955
 20
7.270749999999953
 30
0.0
 11
-39.88256740100957
 21
10.57274999999995
 31
0.0
  0
LINE
  5
12C
330
125
100
AcDbEntity
  8
치수문자_일반주서
 62
     0
370
    -2
100
AcDbLine
 10
-39.8825674010095
 20
-7.270750000000032
 30
0.0
 11
-39.88256740100948
 21
-10.57275000000003
 31
0.0
  0
SOLID
  5
12D
330
125
100
AcDbEntity
  8
치수문자_일반주서
 62
     0
100
AcDbTrace
 10
-40.43290073434289
 20
7.270749999999952
 30
0.0
 11
-39.33223406767622
 21
7.270749999999955
 31
0.0
 12
-39.88256740100954
 22
3.968749999999954
 32
0.0
 13
-39.88256740100954
 23
3.968749999999954
 33
0.0
  0
SOLID
  5
12E
330
125
100
AcDbEntity
  8
치수문자_일반주서
 62
     0
100
AcDbTrace
 10
-39.33223406767616
 20
-7.27075000000003
 30
0.0
 11
-40.43290073434283
 21
-7.270750000000033
 31
0.0
 12
-39.88256740100951
 22
-3.968750000000032
 32
0.0
 13
-39.88256740100951
 23
-3.968750000000032
 33
0.0
  0
MTEXT
  5
12F
330
125
100
AcDbEntity
  8
치수문자_일반주서
 62
     0
100
AcDbMText
 10
-44.25756740100961
 20
24.57274999999994
 30
0.0
 40
3.5
 41
0.0
 71
     2
 72
     1
  1
\A1;%%c7.94 [5/16]
  7
SLDTEXTSTYLE0
 11
-3.580687802255629E-15
 21
1.0
 31
0.0
 73
     1
 44
1.0
  0
POINT
  5
130
330
125
100
AcDbEntity
  8
Defpoints
 62
     0
100
AcDbPoint
 10
-30.48124999999885
 20
3.968749999999989
 30
0.0
  0
POINT
  5
131
330
125
100
AcDbEntity
  8
Defpoints
 62
     0
100
AcDbPoint
 10
-30.48124999999885
 20
-3.968749999999997
 30
0.0
  0
POINT
  5
2D6
330
125
100
AcDbEntity
  8
Defpoints
 62
     0
100
AcDbPoint
 10
-39.8825674010095
 20
-3.968750000000032
 30
0.0
  0
ENDBLK
  5
127
330
125
100
AcDbEntity
  8
0
100
AcDbBlockEnd
  0
BLOCK
  5
140
330
13F
100
AcDbEntity
  8
0
100
AcDbBlockBegin
  2
SW_DOWELSYMBOL_0
 70
     0
 10
0.0
 20
0.0
 30
0.0
  3
SW_DOWELSYMBOL_0
  1
SW_DOWELSYMBOL_0
  0
CIRCLE
  5
142
330
13F
100
AcDbEntity
  8
해칭선
 62
     0
100
AcDbCircle
 10
0.0
 20
0.0
 30
0.0
 40
3.000000000000001
  0
HATCH
  5
143
330
13F
100
AcDbEntity
  8
0
  6
Continuous
 62
     0
370
     0
100
AcDbHatch
 10
0.0
 20
0.0
 30
0.0
210
0.0
220
0.0
230
1.0
  2
SOLID
 70
     1
 71
     0
 91
        1
 92
        0
 93
        3
 72
     2
 10
0.0
 20
0.0
 40
3.000000000000001
 50
0.0
 51
90.0
 73
     1
 72
     1
 10
0.0
 20
3.000000000000001
 11
0.0
 21
0.0
 72
     1
 10
0.0
 20
0.0
 11
3.000000000000001
 21
0.0
 97
        0
 75
     0
 76
     1
 98
        1
 10
0.0
 20
0.0
  0
HATCH
  5
144
330
13F
100
AcDbEntity
  8
0
  6
Continuous
 62
     0
370
     0
100
AcDbHatch
 10
0.0
 20
0.0
 30
0.0
210
0.0
220
0.0
230
1.0
  2
SOLID
 70
     1
 71
     0
 91
        1
 92
        0
 93
        3
 72
     2
 10
0.0
 20
0.0
 40
3.000000000000001
 50
180.0
 51
270.0000000000007
 73
     1
 72
     1
 10
0.0
 20
-3.000000000000001
 11
0.0
 21
0.0
 72
     1
 10
0.0
 20
0.0
 11
-3.000000000000001
 21
0.0
 97
        0
 75
     0
 76
     1
 98
        1
 10
0.0
 20
0.0
  0
ENDBLK
  5
141
330
13F
100
AcDbEntity
  8
0
100
AcDbBlockEnd
  0
BLOCK
  5
202
330
201
100
AcDbEntity
  8
0
100
AcDbBlockBegin
  2
_D_4
 70
     0
 10
0.0
 20
0.0
 30
0.0
  3
_D_4
  1
_D_4
  0
LINE
  5
203
330
201
100
AcDbEntity
  8
치수문자_일반주서
 62
     0
370
    -2
100
AcDbLine
 10
102.4375000000001
 20
36.22143424691529
 30
0.0
 11
117.3750000000001
 21
36.22143424691535
 31
0.0
  0
LINE
  5
204
330
201
100
AcDbEntity
  8
치수문자_일반주서
 62
     0
370
    -2
100
AcDbLine
 10
102.4375000000001
 20
22.22143424691529
 30
0.0
 11
117.3750000000001
 21
22.22143424691535
 31
0.0
  0
LINE
  5
205
330
201
100
AcDbEntity
  8
치수문자_일반주서
 62
     0
370
    -2
100
AcDbLine
 10
117.3750000000001
 20
36.22143424691535
 30
0.0
 11
117.3750000000001
 21
22.22143424691535
 31
0.0
  0
LINE
  5
206
330
201
100
AcDbEntity
  8
치수문자_일반주서
 62
     0
370
    -2
100
AcDbLine
 10
117.3750000000001
 20
39.52343424691535
 30
0.0
 11
117.375
 21
42.82543424691535
 31
0.0
  0
LINE
  5
207
330
201
100
AcDbEntity
  8
치수문자_일반주서
 62
     0
370
    -2
100
AcDbLine
 10
117.3750000000001
 20
18.91943424691535
 30
0.0
 11
117.3750000000001
 21
15.61743424691535
 31
0.0
  0
SOLID
  5
208
330
201
100
AcDbEntity
  8
치수문자_일반주서
 62
     0
100
AcDbTrace
 10
116.8246666666667
 20
39.52343424691535
 30
0.0
 11
117.9253333333334
 21
39.52343424691535
 31
0.0
 12
117.3750000000001
 22
36.22143424691535
 32
0.0
 13
117.3750000000001
 23
36.22143424691535
 33
0.0
  0
SOLID
  5
209
330
201
100
AcDbEntity
  8
치수문자_일반주서
 62
     0
100
AcDbTrace
 10
117.9253333333335
 20
18.91943424691535
 30
0.0
 11
116.8246666666668
 21
18.91943424691535
 31
0.0
 12
117.3750000000001
 22
22.22143424691535
 32
0.0
 13
117.3750000000001
 23
22.22143424691535
 33
0.0
  0
MTEXT
  5
20A
330
201
100
AcDbEntity
  8
치수문자_일반주서
 62
     0
100
AcDbMText
 10
113.0000000000001
 20
29.28713862862833
 30
0.0
 40
3.5
 41
0.0
 71
     2
 72
     1
  1
\A1;%%c14.00 [0.55]
  7
SLDTEXTSTYLE0
 11
-3.045183153257572E-15
 21
1.0
 31
0.0
 73
     1
 44
1.0
  0
POINT
  5
20B
330
201
100
AcDbEntity
  8
Defpoints
 62
     0
100
AcDbPoint
 10
102.3750000000001
 20
36.22143424691529
 30
0.0
  0
POINT
  5
20C
330
201
100
AcDbEntity
  8
Defpoints
 62
     0
100
AcDbPoint
 10
102.3750000000001
 20
22.22143424691529
 30
0.0
  0
POINT
  5
20D
330
201
100
AcDbEntity
  8
Defpoints
 62
     0
100
AcDbPoint
 10
117.3750000000001
 20
22.22143424691535
 30
0.0
  0
ENDBLK
  5
20E
330
201
100
AcDbEntity
  8
0
100
AcDbBlockEnd
  0
BLOCK
  5
21C
330
21B
100
AcDbEntity
  8
0
100
AcDbBlockBegin
  2
*D8
 70
     1
 10
0.0
 20
0.0
 30
0.0
  3
*D8
  1
*D8
  0
LINE
  5
21D
330
21B
100
AcDbEntity
  8
치수문자_일반주서
 62
     0
370
    -2
100
AcDbLine
 10
103.8657751816695
 20
19.48229575403651
 30
0.0
 11
119.6194267469468
 21
-6.150060756304035
 31
0.0
  0
MTEXT
  5
21E
330
21B
100
AcDbEntity
  8
치수문자_일반주서
 62
     0
100
AcDbMText
 10
115.6706384014277
 20
5.288158154535728
 30
0.0
 40
3.5
 41
0.0
 71
     5
 72
     1
  1
\A1;R.5 [R0.02]
  7
SLDTEXTSTYLE0
 11
0.5236126201129557
 21
-0.8519564684057781
 31
0.0
 73
     1
 44
1.0
  0
LINE
  5
21F
330
21B
100
AcDbEntity
  8
치수문자_일반주서
 62
     0
370
    -2
100
AcDbLine
 10
101.875
 20
22.72143424691529
 30
0.0
 11
102.1368063100565
 21
22.29545601271239
 31
0.0
  0
SOLID
  5
220
330
21B
100
AcDbEntity
  8
치수문자_일반주서
 62
     0
100
AcDbTrace
 10
104.3346352247821
 20
19.77045723263868
 30
0.0
 11
103.3969151385569
 21
19.19413427543435
 31
0.0
 12
102.1368063100565
 22
22.29545601271239
 32
0.0
 13
102.1368063100565
 23
22.29545601271239
 33
0.0
  0
POINT
  5
221
330
21B
100
AcDbEntity
  8
Defpoints
 62
     0
100
AcDbPoint
 10
102.1368063100565
 20
22.29545601271239
 30
0.0
  0
POINT
  5
24D
330
21B
100
AcDbEntity
  8
Defpoints
 62
     0
100
AcDbPoint
 10
101.875
 20
22.72143424691529
 30
0.0
  0
ENDBLK
  5
222
330
21B
100
AcDbEntity
  8
0
100
AcDbBlockEnd
  0
BLOCK
  5
228
330
227
100
AcDbEntity
  8
0
100
AcDbBlockBegin
  2
*D9
 70
     1
 10
0.0
 20
0.0
 30
0.0
  3
*D9
  1
*D10
  0
LINE
  5
22A
330
227
100
AcDbEntity
  8
치수문자_일반주서
 62
     0
370
    -2
100
AcDbLine
 10
19.37500000000004
 20
35.78393424691529
 30
0.0
 11
19.37500000000004
 21
70.88391841499404
 31
0.0
  0
LINE
  5
22B
330
227
100
AcDbEntity
  8
치수문자_일반주서
 62
     0
370
    -2
100
AcDbLine
 10
102.3750000000001
 20
36.34643424691529
 30
0.0
 11
102.3750000000001
 21
70.88391841499404
 31
0.0
  0
LINE
  5
22C
330
227
100
AcDbEntity
  8
치수문자_일반주서
 62
     0
370
    -2
100
AcDbLine
 10
22.67700000000004
 20
70.88391841499404
 30
0.0
 11
99.07300000000006
 21
70.88391841499404
 31
0.0
  0
SOLID
  5
22D
330
227
100
AcDbEntity
  8
치수문자_일반주서
 62
     0
100
AcDbTrace
 10
22.67700000000004
 20
71.43425174832737
 30
0.0
 11
22.67700000000004
 21
70.33358508166071
 31
0.0
 12
19.37500000000004
 22
70.88391841499404
 32
0.0
 13
19.37500000000004
 23
70.88391841499404
 33
0.0
  0
SOLID
  5
22E
330
227
100
AcDbEntity
  8
치수문자_일반주서
 62
     0
100
AcDbTrace
 10
99.07300000000006
 20
70.33358508166071
 30
0.0
 11
99.07300000000006
 21
71.43425174832737
 31
0.0
 12
102.3750000000001
 22
70.88391841499404
 32
0.0
 13
102.3750000000001
 23
70.88391841499404
 33
0.0
  0
MTEXT
  5
22F
330
227
100
AcDbEntity
  8
치수문자_일반주서
 62
     0
100
AcDbMText
 10
60.87500000000005
 20
75.25891841499404
 30
0.0
 40
3.5
 41
0.0
 71
     2
 72
     1
  1
\A1;83 [3.27]
  7
SLDTEXTSTYLE0
 73
     1
 44
1.0
  0
POINT
  5
230
330
227
100
AcDbEntity
  8
Defpoints
 62
     0
100
AcDbPoint
 10
19.37500000000004
 20
35.72143424691529
 30
0.0
  0
POINT
  5
231
330
227
100
AcDbEntity
  8
Defpoints
 62
     0
100
AcDbPoint
 10
102.3750000000001
 20
36.28393424691529
 30
0.0
  0
POINT
  5
232
330
227
100
AcDbEntity
  8
Defpoints
 62
     0
100
AcDbPoint
 10
102.3750000000001
 20
70.88391841499404
 30
0.0
  0
ENDBLK
  5
229
330
227
100
AcDbEntity
  8
0
100
AcDbBlockEnd
  0
BLOCK
  5
234
330
233
100
AcDbEntity
  8
0
100
AcDbBlockBegin
  2
*D10
 70
     1
 10
0.0
 20
0.0
 30
0.0
  3
*D10
  1
*D11
  0
LINE
  5
236
330
233
100
AcDbEntity
  8
치수문자_일반주서
 62
     0
370
    -2
100
AcDbLine
 10
76.37504186422882
 20
28.62038676313042
 30
0.0
 11
76.37504186422882
 21
61.90091383617725
 31
0.0
  0
LINE
  5
237
330
233
100
AcDbEntity
  8
치수문자_일반주서
 62
     0
370
    -2
100
AcDbLine
 10
102.3750000000001
 20
36.28393424691529
 30
0.0
 11
102.3750000000001
 21
61.90091383617725
 31
0.0
  0
LINE
  5
238
330
233
100
AcDbEntity
  8
치수문자_일반주서
 62
     0
370
    -2
100
AcDbLine
 10
79.67704186422881
 20
61.90091383617725
 30
0.0
 11
99.07300000000006
 21
61.90091383617725
 31
0.0
  0
SOLID
  5
239
330
233
100
AcDbEntity
  8
치수문자_일반주서
 62
     0
100
AcDbTrace
 10
79.67704186422881
 20
62.45124716951059
 30
0.0
 11
79.67704186422881
 21
61.35058050284392
 31
0.0
 12
76.37504186422882
 22
61.90091383617725
 32
0.0
 13
76.37504186422882
 23
61.90091383617725
 33
0.0
  0
SOLID
  5
23A
330
233
100
AcDbEntity
  8
치수문자_일반주서
 62
     0
100
AcDbTrace
 10
99.07300000000006
 20
61.35058050284392
 30
0.0
 11
99.07300000000006
 21
62.45124716951059
 31
0.0
 12
102.3750000000001
 22
61.90091383617725
 32
0.0
 13
102.3750000000001
 23
61.90091383617725
 33
0.0
  0
MTEXT
  5
23B
330
233
100
AcDbEntity
  8
치수문자_일반주서
 62
     0
100
AcDbMText
 10
89.42159572693208
 20
66.27591383617725
 30
0.0
 40
3.5
 41
0.0
 71
     2
 72
     1
  1
\A1;26 [1.02]
  7
SLDTEXTSTYLE0
 73
     1
 44
1.0
  0
POINT
  5
23C
330
233
100
AcDbEntity
  8
Defpoints
 62
     0
100
AcDbPoint
 10
76.37504186422882
 20
28.55788676313042
 30
0.0
  0
POINT
  5
23D
330
233
100
AcDbEntity
  8
Defpoints
 62
     0
100
AcDbPoint
 10
102.3750000000001
 20
36.22143424691529
 30
0.0
  0
POINT
  5
23E
330
233
100
AcDbEntity
  8
Defpoints
 62
     0
100
AcDbPoint
 10
102.3750000000001
 20
61.90091383617725
 30
0.0
  0
ENDBLK
  5
235
330
233
100
AcDbEntity
  8
0
100
AcDbBlockEnd
  0
BLOCK
  5
240
330
23F
100
AcDbEntity
  8
0
100
AcDbBlockBegin
  2
*D11
 70
     1
 10
0.0
 20
0.0
 30
0.0
  3
*D11
  1
*D12
  0
LINE
  5
242
330
23F
100
AcDbEntity
  8
치수문자_일반주서
 62
     0
370
    -2
100
AcDbLine
 10
19.81250000000005
 20
36.22143424691529
 30
0.0
 11
4.374999999999983
 21
36.22143424691524
 31
0.0
  0
LINE
  5
243
330
23F
100
AcDbEntity
  8
치수문자_일반주서
 62
     0
370
    -2
100
AcDbLine
 10
19.81250000000005
 20
22.22143424691529
 30
0.0
 11
4.375000000000032
 21
22.22143424691524
 31
0.0
  0
LINE
  5
244
330
23F
100
AcDbEntity
  8
치수문자_일반주서
 62
     0
370
    -2
100
AcDbLine
 10
4.374999999999983
 20
36.22143424691524
 30
0.0
 11
4.375000000000032
 21
22.22143424691524
 31
0.0
  0
LINE
  5
245
330
23F
100
AcDbEntity
  8
치수문자_일반주서
 62
     0
370
    -2
100
AcDbLine
 10
4.374999999999972
 20
39.52343424691524
 30
0.0
 11
4.37499999999996
 21
42.82543424691524
 31
0.0
  0
LINE
  5
246
330
23F
100
AcDbEntity
  8
치수문자_일반주서
 62
     0
370
    -2
100
AcDbLine
 10
4.375000000000044
 20
18.91943424691524
 30
0.0
 11
4.375000000000055
 21
15.61743424691524
 31
0.0
  0
SOLID
  5
247
330
23F
100
AcDbEntity
  8
치수문자_일반주서
 62
     0
100
AcDbTrace
 10
3.824666666666638
 20
39.52343424691524
 30
0.0
 11
4.925333333333305
 21
39.52343424691524
 31
0.0
 12
4.374999999999983
 22
36.22143424691524
 32
0.0
 13
4.374999999999983
 23
36.22143424691524
 33
0.0
  0
SOLID
  5
248
330
23F
100
AcDbEntity
  8
치수문자_일반주서
 62
     0
100
AcDbTrace
 10
4.925333333333377
 20
18.91943424691524
 30
0.0
 11
3.82466666666671
 21
18.91943424691523
 31
0.0
 12
4.375000000000032
 22
22.22143424691524
 32
0.0
 13
4.375000000000032
 23
22.22143424691524
 33
0.0
  0
MTEXT
  5
249
330
23F
100
AcDbEntity
  8
치수문자_일반주서
 62
     0
100
AcDbMText
 10
0.0000000000000071
 20
29.22143424691528
 30
0.0
 40
3.5
 41
0.0
 71
     2
 72
     1
  1
\A1;%%c14.00 [0.55]
  7
SLDTEXTSTYLE0
 11
-3.489272363107635E-15
 21
1.0
 31
0.0
 73
     1
 44
1.0
  0
POINT
  5
24A
330
23F
100
AcDbEntity
  8
Defpoints
 62
     0
100
AcDbPoint
 10
19.87500000000005
 20
36.22143424691529
 30
0.0
  0
POINT
  5
24B
330
23F
100
AcDbEntity
  8
Defpoints
 62
     0
100
AcDbPoint
 10
19.87500000000005
 20
22.22143424691529
 30
0.0
  0
POINT
  5
24C
330
23F
100
AcDbEntity
  8
Defpoints
 62
     0
100
AcDbPoint
 10
4.375000000000043
 20
22.22143424691524
 30
0.0
  0
ENDBLK
  5
241
330
23F
100
AcDbEntity
  8
0
100
AcDbBlockEnd
  0
BLOCK
  5
29A
330
299
100
AcDbEntity
  8
0
100
AcDbBlockBegin
  2
*D12
 70
     1
 10
0.0
 20
0.0
 30
0.0
  3
*D12
  1
*D13
  0
LINE
  5
29C
330
299
100
AcDbEntity
  8
치수문자_일반주서
 62
     0
370
    -2
100
AcDbLine
 10
-36.59519423093056
 20
111.6126358342188
 30
0.0
 11
-36.59519423093056
 21
146.7126200022976
 31
0.0
  0
LINE
  5
29D
330
299
100
AcDbEntity
  8
치수문자_일반주서
 62
     0
370
    -2
100
AcDbLine
 10
46.40480576906945
 20
112.1751358342188
 30
0.0
 11
46.40480576906945
 21
146.7126200022976
 31
0.0
  0
LINE
  5
29E
330
299
100
AcDbEntity
  8
치수문자_일반주서
 62
     0
370
    -2
100
AcDbLine
 10
-33.29319423093056
 20
146.7126200022976
 30
0.0
 11
43.10280576906946
 21
146.7126200022976
 31
0.0
  0
SOLID
  5
29F
330
299
100
AcDbEntity
  8
치수문자_일반주서
 62
     0
100
AcDbTrace
 10
-33.29319423093056
 20
147.2629533356309
 30
0.0
 11
-33.29319423093056
 21
146.1622866689642
 31
0.0
 12
-36.59519423093056
 22
146.7126200022976
 32
0.0
 13
-36.59519423093056
 23
146.7126200022976
 33
0.0
  0
SOLID
  5
2A0
330
299
100
AcDbEntity
  8
치수문자_일반주서
 62
     0
100
AcDbTrace
 10
43.10280576906946
 20
146.1622866689642
 30
0.0
 11
43.10280576906946
 21
147.2629533356309
 31
0.0
 12
46.40480576906945
 22
146.7126200022976
 32
0.0
 13
46.40480576906945
 23
146.7126200022976
 33
0.0
  0
MTEXT
  5
2A1
330
299
100
AcDbEntity
  8
치수문자_일반주서
 62
     0
100
AcDbMText
 10
4.904805769069448
 20
151.0876200022976
 30
0.0
 40
3.5
 41
0.0
 71
     2
 72
     1
  1
\A1;83 [3.27]
  7
SLDTEXTSTYLE0
 73
     1
 44
1.0
  0
POINT
  5
2A2
330
299
100
AcDbEntity
  8
Defpoints
 62
     0
100
AcDbPoint
 10
-36.59519423093056
 20
111.5501358342188
 30
0.0
  0
POINT
  5
2A3
330
299
100
AcDbEntity
  8
Defpoints
 62
     0
100
AcDbPoint
 10
46.40480576906945
 20
112.1126358342188
 30
0.0
  0
POINT
  5
2A4
330
299
100
AcDbEntity
  8
Defpoints
 62
     0
100
AcDbPoint
 10
46.40480576906945
 20
146.7126200022976
 30
0.0
  0
ENDBLK
  5
29B
330
299
100
AcDbEntity
  8
0
100
AcDbBlockEnd
  0
BLOCK
  5
2A6
330
2A5
100
AcDbEntity
  8
0
100
AcDbBlockBegin
  2
*D13
 70
     1
 10
0.0
 20
0.0
 30
0.0
  3
*D13
  1
*D14
  0
LINE
  5
2A8
330
2A5
100
AcDbEntity
  8
치수문자_일반주서
 62
     0
370
    -2
100
AcDbLine
 10
20.40484763329822
 20
104.4490883504339
 30
0.0
 11
20.40484763329822
 21
137.7296154234808
 31
0.0
  0
LINE
  5
2A9
330
2A5
100
AcDbEntity
  8
치수문자_일반주서
 62
     0
370
    -2
100
AcDbLine
 10
46.40480576906945
 20
112.1126358342188
 30
0.0
 11
46.40480576906945
 21
137.7296154234808
 31
0.0
  0
LINE
  5
2AA
330
2A5
100
AcDbEntity
  8
치수문자_일반주서
 62
     0
370
    -2
100
AcDbLine
 10
23.70684763329822
 20
137.7296154234808
 30
0.0
 11
43.10280576906946
 21
137.7296154234808
 31
0.0
  0
SOLID
  5
2AB
330
2A5
100
AcDbEntity
  8
치수문자_일반주서
 62
     0
100
AcDbTrace
 10
23.70684763329822
 20
138.2799487568141
 30
0.0
 11
23.70684763329822
 21
137.1792820901474
 31
0.0
 12
20.40484763329822
 22
137.7296154234808
 32
0.0
 13
20.40484763329822
 23
137.7296154234808
 33
0.0
  0
SOLID
  5
2AC
330
2A5
100
AcDbEntity
  8
치수문자_일반주서
 62
     0
100
AcDbTrace
 10
43.10280576906946
 20
137.1792820901474
 30
0.0
 11
43.10280576906946
 21
138.2799487568141
 31
0.0
 12
46.40480576906945
 22
137.7296154234808
 32
0.0
 13
46.40480576906945
 23
137.7296154234808
 33
0.0
  0
MTEXT
  5
2AD
330
2A5
100
AcDbEntity
  8
치수문자_일반주서
 62
     0
100
AcDbMText
 10
33.45140149600148
 20
142.1046154234808
 30
0.0
 40
3.5
 41
0.0
 71
     2
 72
     1
  1
\A1;26 [1.02]
  7
SLDTEXTSTYLE0
 73
     1
 44
1.0
  0
POINT
  5
2AE
330
2A5
100
AcDbEntity
  8
Defpoints
 62
     0
100
AcDbPoint
 10
20.40484763329822
 20
104.3865883504339
 30
0.0
  0
POINT
  5
2AF
330
2A5
100
AcDbEntity
  8
Defpoints
 62
     0
100
AcDbPoint
 10
46.40480576906945
 20
112.0501358342188
 30
0.0
  0
POINT
  5
2B0
330
2A5
100
AcDbEntity
  8
Defpoints
 62
     0
100
AcDbPoint
 10
46.40480576906945
 20
137.7296154234808
 30
0.0
  0
ENDBLK
  5
2A7
330
2A5
100
AcDbEntity
  8
0
100
AcDbBlockEnd
  0
BLOCK
  5
2B2
330
2B1
100
AcDbEntity
  8
0
100
AcDbBlockBegin
  2
*D14
 70
     1
 10
0.0
 20
0.0
 30
0.0
  3
*D14
  1
*D15
  0
LINE
  5
2B4
330
2B1
100
AcDbEntity
  8
치수문자_일반주서
 62
     0
370
    -2
100
AcDbLine
 10
-36.15769423093055
 20
112.0501358342188
 30
0.0
 11
-51.59519423093062
 21
112.0501358342188
 31
0.0
  0
LINE
  5
2B5
330
2B1
100
AcDbEntity
  8
치수문자_일반주서
 62
     0
370
    -2
100
AcDbLine
 10
-36.15769423093055
 20
98.0501358342188
 30
0.0
 11
-51.59519423093057
 21
98.05013583421875
 31
0.0
  0
LINE
  5
2B6
330
2B1
100
AcDbEntity
  8
치수문자_일반주서
 62
     0
370
    -2
100
AcDbLine
 10
-51.59519423093062
 20
112.0501358342188
 30
0.0
 11
-51.59519423093057
 21
98.05013583421875
 31
0.0
  0
LINE
  5
2B7
330
2B1
100
AcDbEntity
  8
치수문자_일반주서
 62
     0
370
    -2
100
AcDbLine
 10
-51.59519423093063
 20
115.3521358342188
 30
0.0
 11
-51.59519423093064
 21
118.6541358342187
 31
0.0
  0
LINE
  5
2B8
330
2B1
100
AcDbEntity
  8
치수문자_일반주서
 62
     0
370
    -2
100
AcDbLine
 10
-51.59519423093055
 20
94.74813583421874
 30
0.0
 11
-51.59519423093054
 21
91.44613583421875
 31
0.0
  0
SOLID
  5
2B9
330
2B1
100
AcDbEntity
  8
치수문자_일반주서
 62
     0
100
AcDbTrace
 10
-52.14552756426396
 20
115.3521358342188
 30
0.0
 11
-51.0448608975973
 21
115.3521358342188
 31
0.0
 12
-51.59519423093062
 22
112.0501358342188
 32
0.0
 13
-51.59519423093062
 23
112.0501358342188
 33
0.0
  0
SOLID
  5
2BA
330
2B1
100
AcDbEntity
  8
치수문자_일반주서
 62
     0
100
AcDbTrace
 10
-51.04486089759722
 20
94.74813583421874
 30
0.0
 11
-52.14552756426389
 21
94.74813583421874
 31
0.0
 12
-51.59519423093057
 22
98.05013583421875
 32
0.0
 13
-51.59519423093057
 23
98.05013583421875
 33
0.0
  0
MTEXT
  5
2BB
330
2B1
100
AcDbEntity
  8
치수문자_일반주서
 62
     0
100
AcDbMText
 10
-55.97019423093059
 20
105.0501358342188
 30
0.0
 40
3.5
 41
0.0
 71
     2
 72
     1
  1
\A1;%%c14.00 [0.55]
  7
SLDTEXTSTYLE0
 11
-3.552713678800501E-15
 21
1.0
 31
0.0
 73
     1
 44
1.0
  0
POINT
  5
2BC
330
2B1
100
AcDbEntity
  8
Defpoints
 62
     0
100
AcDbPoint
 10
-36.09519423093055
 20
112.0501358342188
 30
0.0
  0
POINT
  5
2BD
330
2B1
100
AcDbEntity
  8
Defpoints
 62
     0
100
AcDbPoint
 10
-36.09519423093055
 20
98.0501358342188
 30
0.0
  0
POINT
  5
2BE
330
2B1
100
AcDbEntity
  8
Defpoints
 62
     0
100
AcDbPoint
 10
-51.59519423093057
 20
98.05013583421875
 30
0.0
  0
ENDBLK
  5
2B3
330
2B1
100
AcDbEntity
  8
0
100
AcDbBlockEnd
  0
BLOCK
  5
2C0
330
2BF
100
AcDbEntity
  8
0
100
AcDbBlockBegin
  2
*D15
 70
     1
 10
0.0
 20
0.0
 30
0.0
  3
*D15
  1
*D16
  0
LINE
  5
2C2
330
2BF
100
AcDbEntity
  8
치수문자_일반주서
 62
     0
370
    -2
100
AcDbLine
 10
46.46730576906947
 20
112.0501358342188
 30
0.0
 11
61.40480576906946
 21
112.0501358342189
 31
0.0
  0
LINE
  5
2C3
330
2BF
100
AcDbEntity
  8
치수문자_일반주서
 62
     0
370
    -2
100
AcDbLine
 10
46.46730576906945
 20
98.0501358342188
 30
0.0
 11
61.40480576906951
 21
98.05013583421886
 31
0.0
  0
LINE
  5
2C4
330
2BF
100
AcDbEntity
  8
치수문자_일반주서
 62
     0
370
    -2
100
AcDbLine
 10
61.40480576906946
 20
112.0501358342189
 30
0.0
 11
61.40480576906951
 21
98.05013583421886
 31
0.0
  0
LINE
  5
2C5
330
2BF
100
AcDbEntity
  8
치수문자_일반주서
 62
     0
370
    -2
100
AcDbLine
 10
61.40480576906945
 20
115.3521358342189
 30
0.0
 11
61.40480576906943
 21
118.6541358342189
 31
0.0
  0
LINE
  5
2C6
330
2BF
100
AcDbEntity
  8
치수문자_일반주서
 62
     0
370
    -2
100
AcDbLine
 10
61.40480576906953
 20
94.74813583421886
 30
0.0
 11
61.40480576906954
 21
91.44613583421886
 31
0.0
  0
SOLID
  5
2C7
330
2BF
100
AcDbEntity
  8
치수문자_일반주서
 62
     0
100
AcDbTrace
 10
60.85447243573611
 20
115.3521358342189
 30
0.0
 11
61.95513910240278
 21
115.3521358342189
 31
0.0
 12
61.40480576906946
 22
112.0501358342189
 32
0.0
 13
61.40480576906946
 23
112.0501358342189
 33
0.0
  0
SOLID
  5
2C8
330
2BF
100
AcDbEntity
  8
치수문자_일반주서
 62
     0
100
AcDbTrace
 10
61.95513910240286
 20
94.74813583421886
 30
0.0
 11
60.85447243573619
 21
94.74813583421886
 31
0.0
 12
61.40480576906951
 22
98.05013583421886
 32
0.0
 13
61.40480576906951
 23
98.05013583421886
 33
0.0
  0
MTEXT
  5
2C9
330
2BF
100
AcDbEntity
  8
치수문자_일반주서
 62
     0
100
AcDbMText
 10
57.02980576906948
 20
105.1158402159318
 30
0.0
 40
3.5
 41
0.0
 71
     2
 72
     1
  1
\A1;%%c14.00 [0.55]
  7
SLDTEXTSTYLE0
 11
-3.552713678800501E-15
 21
1.0
 31
0.0
 73
     1
 44
1.0
  0
POINT
  5
2CA
330
2BF
100
AcDbEntity
  8
Defpoints
 62
     0
100
AcDbPoint
 10
46.40480576906947
 20
112.0501358342188
 30
0.0
  0
POINT
  5
2CB
330
2BF
100
AcDbEntity
  8
Defpoints
 62
     0
100
AcDbPoint
 10
46.40480576906945
 20
98.0501358342188
 30
0.0
  0
POINT
  5
2CC
330
2BF
100
AcDbEntity
  8
Defpoints
 62
     0
100
AcDbPoint
 10
61.40480576906951
 20
98.05013583421886
 30
0.0
  0
ENDBLK
  5
2C1
330
2BF
100
AcDbEntity
  8
0
100
AcDbBlockEnd
  0
BLOCK
  5
2CE
330
2CD
100
AcDbEntity
  8
0
100
AcDbBlockBegin
  2
*D16
 70
     1
 10
0.0
 20
0.0
 30
0.0
  3
*D16
  1
*D17
  0
LINE
  5
2D0
330
2CD
100
AcDbEntity
  8
치수문자_일반주서
 62
     0
370
    -2
100
AcDbLine
 10
47.8955809507389
 20
95.31099734134003
 30
0.0
 11
63.6492325160162
 21
69.67864083099947
 31
0.0
  0
MTEXT
  5
2D1
330
2CD
100
AcDbEntity
  8
치수문자_일반주서
 62
     0
100
AcDbMText
 10
59.70044417049708
 20
81.11685974183924
 30
0.0
 40
3.5
 41
0.0
 71
     5
 72
     1
  1
\A1;R.5 [R0.02]
  7
SLDTEXTSTYLE0
 11
0.5236126201129557
 21
-0.8519564684057781
 31
0.0
 73
     1
 44
1.0
  0
LINE
  5
2D2
330
2CD
100
AcDbEntity
  8
치수문자_일반주서
 62
     0
370
    -2
100
AcDbLine
 10
45.90480576906944
 20
98.5501358342188
 30
0.0
 11
46.16661207912593
 21
98.1241576000159
 31
0.0
  0
SOLID
  5
2D3
330
2CD
100
AcDbEntity
  8
치수문자_일반주서
 62
     0
100
AcDbTrace
 10
48.36444099385155
 20
95.59915881994219
 30
0.0
 11
47.42672090762625
 21
95.02283586273786
 31
0.0
 12
46.16661207912593
 22
98.1241576000159
 32
0.0
 13
46.16661207912593
 23
98.1241576000159
 33
0.0
  0
POINT
  5
2D4
330
2CD
100
AcDbEntity
  8
Defpoints
 62
     0
100
AcDbPoint
 10
46.16661207912593
 20
98.1241576000159
 30
0.0
  0
POINT
  5
2D5
330
2CD
100
AcDbEntity
  8
Defpoints
 62
     0
100
AcDbPoint
 10
45.90480576906944
 20
98.5501358342188
 30
0.0
  0
ENDBLK
  5
2CF
330
2CD
100
AcDbEntity
  8
0
100
AcDbBlockEnd
  0
ENDSEC
  0
SECTION
  2
ENTITIES
  0
LINE
  5
96
330
1F
100
AcDbEntity
  8
외형선
  6
Continuous
370
    15
100
AcDbLine
 10
28.89879722024273
 20
0.7637420014621508
 30
0.0
 11
28.86750211999406
 21
0.7940543583895907
 31
0.0
  0
LINE
  5
97
330
1F
100
AcDbEntity
  8
0
  6
Continuous
 62
     1
370
    15
100
AcDbLine
 10
27.20112819659933
 20
-0.7264573483701519
 30
0.0
 11
27.27021802997196
 21
-0.7937107182667115
 31
0.0
  0
LINE
  5
98
330
1F
100
AcDbEntity
  8
0
  6
Continuous
 62
     1
370
    15
100
AcDbLine
 10
10.62490906101533
 20
-0.7733530970662295
 30
0.0
 11
10.64604175098914
 21
-0.7939908830284332
 31
0.0
  0
LINE
  5
99
330
1F
100
AcDbEntity
  8
외형선
  6
Continuous
370
    15
100
AcDbLine
 10
12.33252148181434
 20
0.7070801381348983
 30
0.0
 11
12.24319723696345
 21
0.7938993471480386
 31
0.0
  0
LINE
  5
9A
330
1F
100
AcDbEntity
  8
0
  6
Continuous
 62
     1
370
    15
100
AcDbLine
 10
27.58888502890183
 20
-3.968750000000006
 30
0.0
 11
28.54944395858058
 21
-3.968750000000006
 31
0.0
  0
LINE
  5
9B
330
1F
100
AcDbEntity
  8
0
  6
Continuous
 62
     1
370
    15
100
AcDbLine
 10
16.08089652249941
 20
3.968749999999997
 30
0.0
 11
15.12088644420306
 21
3.968749999999997
 31
0.0
  0
LINE
  5
9C
330
1F
100
AcDbEntity
  8
0
  6
Continuous
 62
     1
370
    15
100
AcDbLine
 10
10.96436818875705
 20
-3.968750000000006
 30
0.0
 11
11.92476076944823
 21
-3.968750000000006
 31
0.0
  0
LINE
  5
9D
330
1F
100
AcDbEntity
  8
0
  6
Continuous
 62
     1
370
    15
100
AcDbLine
 10
24.39273528972306
 20
3.968749999999997
 30
0.0
 11
23.43279468758261
 21
3.968749999999997
 31
0.0
  0
LINE
  5
9E
330
1F
100
AcDbEntity
  8
0
  6
Continuous
 62
     1
370
    15
100
AcDbLine
 10
23.43279468758257
 20
-3.968750000000006
 30
0.0
 11
24.39273528972302
 21
-3.968750000000006
 31
0.0
  0
LINE
  5
9F
330
1F
100
AcDbEntity
  8
0
  6
Continuous
 62
     1
370
    15
100
AcDbLine
 10
11.9247607694482
 20
3.968749999999997
 30
0.0
 11
10.96436818875701
 21
3.968749999999997
 31
0.0
  0
LINE
  5
A0
330
1F
100
AcDbEntity
  8
0
  6
Continuous
 62
     1
370
    15
100
AcDbLine
 10
19.27668540711093
 20
-3.968750000000006
 30
0.0
 11
20.23657896472413
 21
-3.968750000000006
 31
0.0
  0
LINE
  5
A1
330
1F
100
AcDbEntity
  8
0
  6
Continuous
 62
     1
370
    15
100
AcDbLine
 10
32.22500000000114
 20
3.968749999999997
 30
0.0
 11
31.74476943241835
 21
3.968749999999997
 31
0.0
  0
LINE
  5
A2
330
1F
100
AcDbEntity
  8
0
  6
Continuous
 62
     1
370
    15
100
AcDbLine
 10
31.74476943241834
 20
-3.968750000000006
 30
0.0
 11
32.22500000000114
 21
-3.968750000000006
 31
0.0
  0
LINE
  5
A3
330
1F
100
AcDbEntity
  8
0
  6
Continuous
 62
     1
370
    15
100
AcDbLine
 10
20.23657896472417
 20
3.968749999999997
 30
0.0
 11
19.27668540711094
 21
3.968749999999997
 31
0.0
  0
LINE
  5
A4
330
1F
100
AcDbEntity
  8
0
  6
Continuous
 62
     1
370
    15
100
AcDbLine
 10
15.12088644420309
 20
-3.968750000000006
 30
0.0
 11
16.08089652249941
 21
-3.968750000000006
 31
0.0
  0
LINE
  5
A5
330
1F
100
AcDbEntity
  8
0
  6
Continuous
 62
     1
370
    15
100
AcDbLine
 10
28.54944395858058
 20
3.968749999999997
 30
0.0
 11
27.58888502890185
 21
3.968749999999997
 31
0.0
  0
LINE
  5
A6
330
1F
100
AcDbEntity
  8
외형선
  6
Continuous
370
    15
100
AcDbLine
 10
-30.48124999999886
 20
-3.968750000000004
 30
0.0
 11
9.000016381540636
 21
-3.968750000000004
 31
0.0
  0
LINE
  5
A7
330
1F
100
AcDbEntity
  8
외형선
  6
Continuous
370
    15
100
AcDbLine
 10
9.000016381540636
 20
3.968749999999996
 30
0.0
 11
-30.48124999999886
 21
3.968749999999996
 31
0.0
  0
LINE
  5
A8
330
1F
100
AcDbEntity
  8
외형선
  6
Continuous
370
    15
100
AcDbLine
 10
-30.48124999999886
 20
3.968749999999996
 30
0.0
 11
-31.27499999999886
 21
3.174999999999999
 31
0.0
  0
LINE
  5
A9
330
1F
100
AcDbEntity
  8
외형선
  6
Continuous
370
    15
100
AcDbLine
 10
-31.27499999999886
 20
-3.175000000000008
 30
0.0
 11
-30.48124999999886
 21
-3.968750000000004
 31
0.0
  0
SPLINE
  5
AA
330
1F
100
AcDbEntity
  8
0
  6
Continuous
 62
     1
370
    15
100
AcDbSpline
210
0.0
220
0.0
230
1.0
 70
     8
 71
     3
 72
    27
 73
    23
 74
     0
 42
0.000000001
 43
0.00000001
 40
0.0
 40
0.0
 40
0.0
 40
0.0
 40
0.0340431833978319
 40
0.0909196888906326
 40
0.1479371325445583
 40
0.2048715430944382
 40
0.2563865289292349
 40
0.3080702342130031
 40
0.3596470496077594
 40
0.4111783695635287
 40
0.4628798433092975
 40
0.5144203590967454
 40
0.5659828209335178
 40
0.6176757232507215
 40
0.6691947280893517
 40
0.7208030749034241
 40
0.7724610887374714
 40
0.8239734159775103
 40
0.8756361239590308
 40
0.9272391949344785
 40
0.9787596918063084
 40
1.0
 40
1.0
 40
1.0
 40
1.0
 10
11.9247607694482
 20
3.94936397080489
 30
0.0
 10
12.08434712600703
 20
3.951383644348144
 30
0.0
 10
12.51055702888121
 20
3.956777619643209
 30
0.0
 10
13.20357792510679
 20
3.785151118804266
 30
0.0
 10
14.00572118053291
 20
3.460362390348351
 30
0.0
 10
14.78180171081963
 20
3.002564932264795
 30
0.0
 10
15.53132730817692
 20
2.451983209075813
 30
0.0
 10
16.25830395110862
 20
1.839543481692461
 30
0.0
 10
16.98378182503913
 20
1.164584014363171
 30
0.0
 10
17.70860919397993
 20
0.4498664729890826
 30
0.0
 10
18.43585265881396
 20
-0.2771252078081768
 30
0.0
 10
19.16081037235557
 20
-0.9974291467272575
 30
0.0
 10
19.88607843284884
 20
-1.683991702283289
 30
0.0
 10
20.61320363410219
 20
-2.312674482192952
 30
0.0
 10
21.33786234761392
 20
-2.866593084549012
 30
0.0
 10
22.06378554001807
 20
-3.323542235187241
 30
0.0
 10
22.79042412182849
 20
-3.669681129892655
 30
0.0
 10
23.51499626458128
 20
-3.893747031500193
 30
0.0
 10
24.2416954388461
 20
-3.989221278770485
 30
0.0
 10
24.96756736218586
 20
-3.944663030157131
 30
0.0
 10
25.54961938075805
 20
-3.824911099201732
 30
0.0
 10
25.8911907005225
 20
-3.6790381474193
 30
0.0
 10
25.9909020780339
 20
-3.636454967502691
 30
0.0
  0
SPLINE
  5
AB
330
1F
100
AcDbEntity
  8
0
  6
Continuous
 62
     1
370
    15
100
AcDbSpline
210
0.0
220
0.0
230
1.0
 70
     8
 71
     3
 72
    27
 73
    23
 74
     0
 42
0.000000001
 43
0.00000001
 40
0.0
 40
0.0
 40
0.0
 40
0.0
 40
0.0316006190309947
 40
0.0831591745693973
 40
0.134854020185963
 40
0.1863744086536403
 40
0.2379773710511923
 40
0.2896399703293337
 40
0.3411521891824098
 40
0.392810094322956
 40
0.4444183325480313
 40
0.4959372289856475
 40
0.5476300225359411
 40
0.5991923758802623
 40
0.6507327832214358
 40
0.7024341481822592
 40
0.7539653597111032
 40
0.8055420665832074
 40
0.8572256631194167
 40
0.9087405405616567
 40
0.9656748313159956
 40
1.0
 40
1.0
 40
1.0
 40
1.0
 10
27.58888502890183
 20
-3.953037150528531
 30
0.0
 10
27.44078811208916
 20
-3.954403414837227
 30
0.0
 10
27.0510610201504
 20
-3.957998832130904
 30
0.0
 10
26.41941342549681
 20
-3.814853420389252
 30
0.0
 10
25.69221816155946
 20
-3.545359851750992
 30
0.0
 10
24.96755023052208
 20
-3.1506998429961
 30
0.0
 10
24.24170003869386
 20
-2.653098252356616
 30
0.0
 10
23.51499503556395
 20
-2.067543643525873
 30
0.0
 10
22.79042445177721
 20
-1.410834225800352
 30
0.0
 10
22.0637854516203
 20
-0.7093600609560471
 30
0.0
 10
21.33786237114185
 20
0.0164518116671508
 30
0.0
 10
20.61320362815272
 20
0.7432841029143382
 30
0.0
 10
19.88607843303883
 20
1.442529174386816
 30
0.0
 10
19.16081037751837
 20
2.095665560192729
 30
0.0
 10
18.43585263795181
 20
2.679027621472465
 30
0.0
 10
17.70860927242668
 20
3.171274941867599
 30
0.0
 10
16.98378153315247
 20
3.559645574740161
 30
0.0
 10
16.25830504261255
 20
3.828184397316742
 30
0.0
 10
15.5313232309457
 20
3.970398789852367
 30
0.0
 10
14.78181754475893
 20
3.9750472691042
 30
0.0
 10
14.11209837483792
 20
3.870687253813269
 30
0.0
 10
13.68380066862024
 20
3.698274901727668
 30
0.0
 10
13.52270623409943
 20
3.633425919441699
 30
0.0
  0
LINE
  5
AC
330
1F
100
AcDbEntity
  8
0
  6
Continuous
 62
     1
370
    15
100
AcDbLine
 10
32.22500000000114
 20
-1.555425986667286
 30
0.0
 11
32.22500000000114
 21
1.555425986667352
 31
0.0
  0
SPLINE
  5
AD
330
1F
100
AcDbEntity
  8
0
  6
Continuous
 62
     1
370
    15
100
AcDbSpline
210
0.0
220
0.0
230
1.0
 70
     8
 71
     3
 72
    12
 73
     8
 74
     0
 42
0.000000001
 43
0.00000001
 40
0.0
 40
0.0
 40
0.0
 40
0.0
 40
0.2273239979544791
 40
0.4550588287273123
 40
0.6822313832516645
 40
0.9093755568334024
 40
1.0
 40
1.0
 40
1.0
 40
1.0
 10
10.00000000000114
 20
-3.51143221099038
 30
0.0
 10
10.26681550782943
 20
-3.621914893640588
 30
0.0
 10
10.80092872760021
 20
-3.843079929509448
 30
0.0
 10
11.60322107647198
 20
-3.982386188013376
 30
0.0
 10
12.40347318773117
 20
-3.961485812627049
 30
0.0
 10
13.04272191569272
 20
-3.841135678998142
 30
0.0
 10
13.4161953360118
 20
-3.679517744077488
 30
0.0
 10
13.52270623409946
 20
-3.633425919441704
 30
0.0
  0
SPLINE
  5
AE
330
1F
100
AcDbEntity
  8
0
  6
Continuous
 62
     1
370
    15
100
AcDbSpline
210
0.0
220
0.0
230
1.0
 70
     8
 71
     3
 72
    18
 73
    14
 74
     0
 42
0.000000001
 43
0.00000001
 40
0.0
 40
0.0
 40
0.0
 40
0.0
 40
0.0734067928166447
 40
0.1659310275262924
 40
0.25876856566145
 40
0.3513613437015161
 40
0.4439268832611696
 40
0.5367750599378069
 40
0.6293145796346403
 40
0.7219479714690293
 40
0.8147594864560033
 40
0.9072723492820596
 40
1.0
 40
1.0
 40
1.0
 40
1.0
 10
24.39273528972306
 20
3.957836155956386
 30
0.0
 10
24.58445643265427
 20
3.954213202511951
 30
0.0
 10
25.0178289452575
 20
3.94602376438711
 30
0.0
 10
25.69220749691951
 20
3.775804712468828
 30
0.0
 10
26.41938560492857
 20
3.483028604227981
 30
0.0
 10
27.14459317966809
 20
3.069262089156947
 30
0.0
 10
27.86959474255244
 20
2.553729029549815
 30
0.0
 10
28.59682910993732
 20
1.954772579123752
 30
0.0
 10
29.32162599210568
 20
1.288442744670859
 30
0.0
 10
30.04716140290789
 20
0.5795971624008647
 30
0.0
 10
30.7741157103857
 20
-0.1460071960181228
 30
0.0
 10
31.4987097525222
 20
-0.8732614919582148
 30
0.0
 10
31.98271618103614
 20
-1.327862117382041
 30
0.0
 10
32.22500000000115
 20
-1.555425986667286
 30
0.0
  0
SPLINE
  5
AF
330
1F
100
AcDbEntity
  8
0
  6
Continuous
 62
     1
370
    15
100
AcDbSpline
210
0.0
220
0.0
230
1.0
 70
     8
 71
     3
 72
    16
 73
    12
 74
     0
 42
0.000000001
 43
0.00000001
 40
0.0
 40
0.0
 40
0.0
 40
0.0
 40
0.1165031336506473
 40
0.2327364075315212
 40
0.3493449083522424
 40
0.4657296150264383
 40
0.5819963806323222
 40
0.6986509432447301
 40
0.8149504002380517
 40
0.9312840796914398
 40
1.0
 40
1.0
 40
1.0
 40
1.0
 10
32.22500000000112
 20
1.555425986667351
 30
0.0
 10
31.98271618295824
 20
1.77297345063052
 30
0.0
 10
31.49870975828406
 20
2.207564466716031
 30
0.0
 10
30.77411568736957
 20
2.773839149249422
 30
0.0
 10
30.0471614894661
 20
3.249230872280672
 30
0.0
 10
29.32162566981646
 20
3.616540691310803
 30
0.0
 10
28.59683031317154
 20
3.863143998846966
 30
0.0
 10
27.86959024096598
 20
3.981759801862509
 30
0.0
 10
27.14460992317069
 20
3.962527215715512
 30
0.0
 10
26.51884242957642
 20
3.84922385569409
 30
0.0
 10
26.1338604559656
 20
3.694069610977647
 30
0.0
 10
25.99090207803392
 20
3.636454967502681
 30
0.0
  0
SPLINE
  5
B0
330
1F
100
AcDbEntity
  8
0
  6
Continuous
 62
     1
370
    15
100
AcDbSpline
210
0.0
220
0.0
230
1.0
 70
     8
 71
     3
 72
    14
 73
    10
 74
     0
 42
0.000000001
 43
0.00000001
 40
0.0
 40
0.0
 40
0.0
 40
0.0
 40
0.0613689819646891
 40
0.2177839285486871
 40
0.3744269905800642
 40
0.530682855576625
 40
0.6869582442469306
 40
0.8436204311352449
 40
0.9999999999999999
 40
0.9999999999999999
 40
0.9999999999999999
 40
0.9999999999999999
 10
15.12088644420309
 20
-3.952489710811237
 30
0.0
 10
15.01624671615252
 20
-3.956201301795825
 30
0.0
 10
14.64490519593257
 20
-3.969372855892234
 30
0.0
 10
14.0057313562465
 20
-3.833282203156866
 30
0.0
 10
13.20360201608429
 20
-3.540515979426675
 30
0.0
 10
12.40345338793746
 20
-3.094816965127874
 30
0.0
 10
11.60322637160848
 20
-2.524765954846625
 30
0.0
 10
10.80092740524008
 20
-1.856168706098358
 30
0.0
 10
10.26681506730734
 20
-1.351209299672449
 30
0.0
 10
9.999999999999993
 20
-1.098957538302393
 30
0.0
  0
SPLINE
  5
B1
330
1F
100
AcDbEntity
  8
외형선
  6
Continuous
370
    15
100
AcDbSpline
210
0.0
220
0.0
230
1.0
 70
    24
 71
     3
 72
    21
 73
    17
 74
     0
 42
0.000000001
 43
0.00000001
 40
0.0
 40
0.0
 40
0.0
 40
0.0
 40
0.0470379660936982
 40
0.1218158869398202
 40
0.1965938077859422
 40
0.2713717286320687
 40
0.3461496494781952
 40
0.4209275703243212
 40
0.4957054911704472
 40
0.5704834120165689
 40
0.6452613328626907
 40
0.7200392537088202
 40
0.7948171745549499
 40
0.8695950954010756
 40
0.9443730162472009
 40
0.9999999999999999
 40
0.9999999999999999
 40
0.9999999999999999
 40
0.9999999999999999
 10
10.00000000000112
 20
-0.9235147069640129
 30
0.0
 10
10.00000000000112
 20
-0.9231839681528213
 30
0.0
 10
10.00000000000112
 20
-0.922327442138272
 30
0.0
 10
10.00000000000113
 20
-0.9724464887290091
 30
0.0
 10
10.00000000000113
 20
-1.065275833968039
 30
0.0
 10
10.00000000000112
 20
-1.201707208775806
 30
0.0
 10
10.00000000000112
 20
-1.373889382917672
 30
0.0
 10
10.00000000000113
 20
-1.578994697954362
 30
0.0
 10
10.00000000000112
 20
-1.809827661077376
 30
0.0
 10
10.00000000000114
 20
-2.060826914646262
 30
0.0
 10
10.00000000000111
 20
-2.324199540345044
 30
0.0
 10
10.00000000000115
 20
-2.592796247358523
 30
0.0
 10
10.00000000000114
 20
-2.859094623894325
 30
0.0
 10
10.00000000000114
 20
-3.114687350704794
 30
0.0
 10
10.00000000000117
 20
-3.334563426261432
 30
0.0
 10
10.00000000000115
 20
-3.458545165109877
 30
0.0
 10
10.00000000000114
 20
-3.511432210990383
 30
0.0
  0
SPLINE
  5
B2
330
1F
100
AcDbEntity
  8
0
  6
Continuous
 62
     1
370
    15
100
AcDbSpline
210
0.0
220
0.0
230
1.0
 70
     8
 71
     3
 72
    23
 73
    19
 74
     0
 42
0.000000001
 43
0.00000001
 40
0.0
 40
0.0
 40
0.0
 40
0.0
 40
0.067660750709671
 40
0.1354437817643832
 40
0.2030594568275557
 40
0.2706666845824792
 40
0.3384414408850157
 40
0.4061174984730708
 40
0.4673516644955526
 40
0.5287863817669984
 40
0.5900940425498555
 40
0.6513476244036582
 40
0.7128034624603373
 40
0.7740679750962144
 40
0.835358574277707
 40
0.896804223759716
 40
0.9580431670396111
 40
1.0
 40
1.0
 40
1.0
 40
1.0
 10
10.00000000000114
 20
3.357469923217922
 30
0.0
 10
10.26681503875566
 20
3.201855925461016
 30
0.0
 10
10.80092731953112
 20
2.890346695507157
 30
0.0
 10
11.60322671481836
 20
2.270576097194664
 30
0.0
 10
12.40345210459654
 20
1.567207325873757
 30
0.0
 10
13.20360681195097
 20
0.7974558623919705
 30
0.0
 10
14.00571341887894
 20
-0.0024788370355923
 30
0.0
 10
14.78180357065269
 20
-0.7783471828488672
 30
0.0
 10
15.53132682710554
 20
-1.501079388958613
 30
0.0
 10
16.25830408807589
 20
-2.147374620403015
 30
0.0
 10
16.98378175797523
 20
-2.723580234751443
 30
0.0
 10
17.70860932563293
 20
-3.209256400553857
 30
0.0
 10
18.43585219831132
 20
-3.586502695333348
 30
0.0
 10
19.16081207663983
 20
-3.84511937705255
 30
0.0
 10
19.88607206422956
 20
-3.976226165490372
 30
0.0
 10
20.61322743437339
 20
-3.970246220709178
 30
0.0
 10
21.26143978557077
 20
-3.8615647053796
 30
0.0
 10
21.66865892324669
 20
-3.702666634014953
 30
0.0
 10
21.83422408453739
 20
-3.638062634889532
 30
0.0
  0
SPLINE
  5
B3
330
1F
100
AcDbEntity
  8
0
  6
Continuous
 62
     1
370
    15
100
AcDbSpline
210
0.0
220
0.0
230
1.0
 70
     8
 71
     3
 72
    25
 73
    21
 74
     0
 42
0.000000001
 43
0.00000001
 40
0.0
 40
0.0
 40
0.0
 40
0.0
 40
0.0478414250190339
 40
0.1019373925531929
 40
0.1559813490768485
 40
0.2099317472105408
 40
0.2640642497585738
 40
0.3180601558045179
 40
0.3720330800769938
 40
0.4261745585744867
 40
0.4801378530262436
 40
0.5341487900334866
 40
0.5882716615023271
 40
0.6422178509589003
 40
0.7018392300265862
 40
0.761547560871302
 40
0.8211083021045962
 40
0.8806764852632223
 40
0.9403921060144969
 40
1.0
 40
1.0
 40
1.0
 40
1.0
 10
23.43279468758258
 20
-3.962116227800573
 30
0.0
 10
23.2188479129997
 20
-3.954736610911217
 30
0.0
 10
22.76298405991701
 20
-3.939012603872481
 30
0.0
 10
22.06380922740312
 20
-3.753780870740102
 30
0.0
 10
21.33785601606661
 20
-3.448582729678579
 30
0.0
 10
20.6132053359523
 20
-3.023982842707949
 30
0.0
 10
19.88607797730474
 20
-2.501317643997741
 30
0.0
 10
19.1608104948305
 20
-1.893599020987925
 30
0.0
 10
18.43585262359867
 20
-1.222255429122725
 30
0.0
 10
17.70860921194931
 20
-0.5126200172734926
 30
0.0
 10
16.98378178842173
 20
0.2167840522247871
 30
0.0
 10
16.25830407989695
 20
0.9381296496839909
 30
0.0
 10
15.53132682928373
 20
1.626698101711122
 30
0.0
 10
14.7818035700012
 20
2.285255610592023
 30
0.0
 10
14.00571341906093
 20
2.879754254103757
 30
0.0
 10
13.20360681190188
 20
3.375909756198065
 30
0.0
 10
12.403452104609
 20
3.736715255821172
 30
0.0
 10
11.60322671481413
 20
3.942527494366158
 30
0.0
 10
10.80092731953103
 20
3.999460843905645
 30
0.0
 10
10.26681503875487
 20
3.901205314433478
 30
0.0
 10
10.0
 20
3.852121902859605
 30
0.0
  0
SPLINE
  5
B4
330
1F
100
AcDbEntity
  8
외형선
  6
Continuous
370
    15
100
AcDbSpline
210
0.0
220
0.0
230
1.0
 70
    24
 71
     3
 72
    10
 73
     6
 74
     0
 42
0.000000001
 43
0.00000001
 40
0.0
 40
0.0
 40
0.0
 40
0.0
 40
0.4300043834139828
 40
0.8669017143079045
 40
1.0
 40
1.0
 40
1.0
 40
1.0
 10
10.00000000000114
 20
3.852121902848473
 30
0.0
 10
10.00000000000114
 20
3.786333974168097
 30
0.0
 10
10.00000000000112
 20
3.653703539796735
 30
0.0
 10
10.00000000000109
 20
3.501772170437658
 30
0.0
 10
10.00000000000113
 20
3.420768095846659
 30
0.0
 10
10.00000000000112
 20
3.40185303203141
 30
0.0
  0
LINE
  5
B5
330
1F
100
AcDbEntity
  8
0
  6
Continuous
 62
     1
370
    15
100
AcDbLine
 10
32.22500000000114
 20
-3.939788248901593
 30
0.0
 11
32.22500000000114
 21
-2.384362262234253
 31
0.0
  0
SPLINE
  5
B6
330
1F
100
AcDbEntity
  8
0
  6
Continuous
 62
     1
370
    15
100
AcDbSpline
210
0.0
220
0.0
230
1.0
 70
     8
 71
     3
 72
    24
 73
    20
 74
     0
 42
0.000000001
 43
0.00000001
 40
0.0
 40
0.0
 40
0.0
 40
0.0
 40
0.0314176283455656
 40
0.0918648143807183
 40
0.1524168252475467
 40
0.2130271103688108
 40
0.2734664615856166
 40
0.3340822543444305
 40
0.3946280750761847
 40
0.455077011712085
 40
0.5157306391403587
 40
0.5762243572483812
 40
0.6367002796169233
 40
0.6973608575325133
 40
0.7578197803220389
 40
0.8183400326747085
 40
0.8789766583775362
 40
0.9394181654110974
 40
1.0
 40
1.0
 40
1.0
 40
1.0
 10
20.23657896472416
 20
3.952161881919213
 30
0.0
 10
20.36228685403363
 20
3.955144718949374
 30
0.0
 10
20.72985539837396
 20
3.963866503009255
 30
0.0
 10
21.33785224110967
 20
3.833857897718013
 30
0.0
 10
22.0637881597522
 20
3.576237172919011
 30
0.0
 10
22.79042377049753
 20
3.193302142342913
 30
0.0
 10
23.51499506098032
 20
2.704012652774762
 30
0.0
 10
24.24170062172724
 20
2.125881066567686
 30
0.0
 10
24.96754787828729
 20
1.476398251649201
 30
0.0
 10
25.69222698579816
 20
0.7761680200896136
 30
0.0
 10
26.41938039076869
 20
0.0528717101552922
 30
0.0
 10
27.14459457465089
 20
-0.674316041936494
 30
0.0
 10
27.86959436750335
 20
-1.379192969788277
 30
0.0
 10
28.59682921018458
 20
-2.03587479726475
 30
0.0
 10
29.32162596525421
 20
-2.626922704749144
 30
0.0
 10
30.04716141011948
 20
-3.13008904580132
 30
0.0
 10
30.77411570846812
 20
-3.525659621777933
 30
0.0
 10
31.49870975300225
 20
-3.814315958095185
 30
0.0
 10
31.9827161811963
 20
-3.897931834201842
 30
0.0
 10
32.22500000000115
 20
-3.939788248901593
 30
0.0
  0
SPLINE
  5
B7
330
1F
100
AcDbEntity
  8
0
  6
Continuous
 62
     1
370
    15
100
AcDbSpline
210
0.0
220
0.0
230
1.0
 70
     8
 71
     3
 72
    22
 73
    18
 74
     0
 42
0.000000001
 43
0.00000001
 40
0.0
 40
0.0
 40
0.0
 40
0.0
 40
0.0698977499581784
 40
0.1396335936214759
 40
0.2095945601462552
 40
0.2794212581169985
 40
0.349177195627964
 40
0.4191657975947872
 40
0.4889413487792505
 40
0.5587374322265101
 40
0.6287180149012821
 40
0.6984624306471201
 40
0.768318628750705
 40
0.8382555587648464
 40
0.9079889151026678
 40
0.9779194905474098
 40
1.0
 40
1.0
 40
1.0
 40
1.0
 10
32.22500000000112
 20
-2.384362262234253
 30
0.0
 10
31.98271618119827
 20
-2.183300889605601
 30
0.0
 10
31.49870975300822
 20
-1.781643868951813
 30
0.0
 10
30.77411570844421
 20
-1.09626687221001
 30
0.0
 10
30.04716141020926
 20
-0.3827054983151647
 30
0.0
 10
29.32162596491985
 20
0.3466418652271462
 30
0.0
 10
28.59682921143293
 20
1.064899369077003
 30
0.0
 10
27.86959436283313
 20
1.745136412227906
 30
0.0
 10
27.14459459202166
 20
2.369470997767947
 30
0.0
 10
26.41938032584019
 20
2.914339975164743
 30
0.0
 10
25.69222722848037
 20
3.360725373127661
 30
0.0
 10
24.9675469754553
 20
3.696788743019012
 30
0.0
 10
24.24170399916286
 20
3.908074514621001
 30
0.0
 10
23.51498245610683
 20
3.991527501081772
 30
0.0
 10
22.79047071419029
 20
3.933101952736489
 30
0.0
 10
22.22937296288897
 20
3.811924548123268
 30
0.0
 10
21.9106985048778
 20
3.67171068442794
 30
0.0
 10
21.83422408453741
 20
3.638062634889523
 30
0.0
  0
SPLINE
  5
B8
330
1F
100
AcDbEntity
  8
0
  6
Continuous
 62
     1
370
    15
100
AcDbSpline
210
0.0
220
0.0
230
1.0
 70
     8
 71
     3
 72
     9
 73
     5
 74
     0
 42
0.000000001
 43
0.00000001
 40
0.0
 40
0.0
 40
0.0
 40
0.0
 40
0.1695852796814641
 40
1.0
 40
1.0
 40
1.0
 40
1.0
 10
10.96436818875705
 20
-3.955635217156838
 30
0.0
 10
10.90980898797177
 20
-3.959811120027647
 30
0.0
 10
10.58808766352805
 20
-3.98443532608287
 30
0.0
 10
10.26680109551699
 20
-3.912149290708199
 30
0.0
 10
10.0
 20
-3.852121902859606
 30
0.0
  0
SPLINE
  5
B9
330
1F
100
AcDbEntity
  8
0
  6
Continuous
 62
     1
370
    15
100
AcDbSpline
210
0.0
220
0.0
230
1.0
 70
     8
 71
     3
 72
    28
 73
    24
 74
     0
 42
0.000000001
 43
0.00000001
 40
0.0
 40
0.0
 40
0.0
 40
0.0
 40
0.01261871273413
 40
0.0641942577139407
 40
0.1157243083753859
 40
0.1674245086356854
 40
0.218963754902302
 40
0.2705249466776786
 40
0.3222165757205402
 40
0.3737343115681862
 40
0.4253413871906465
 40
0.4769981286097079
 40
0.5285091870232419
 40
0.5801706224741525
 40
0.6317724223879401
 40
0.6832916502320346
 40
0.7349853312949407
 40
0.786542725349954
 40
0.8380849525086086
 40
0.8897845573107831
 40
0.9413122961221922
 40
0.9928923046990106
 40
1.0
 40
1.0
 40
1.0
 40
1.0
 10
16.0808965224994
 20
3.956497912091743
 30
0.0
 10
16.14011693046952
 20
3.960197836480096
 30
0.0
 10
16.44138459629696
 20
3.97902019219199
 30
0.0
 10
16.98378480254901
 20
3.88146634700352
 30
0.0
 10
17.70860839340753
 20
3.660937410205737
 30
0.0
 10
18.43585287300621
 20
3.308840915877476
 30
0.0
 10
19.16081031453547
 20
2.84802489833088
 30
0.0
 10
19.88607845018542
 20
2.291430364684053
 30
0.0
 10
20.61320362275605
 20
1.660456673665111
 30
0.0
 10
21.33786237561838
 20
0.9714717777497679
 30
0.0
 10
22.06378543907994
 20
0.2515434101720582
 30
0.0
 10
22.79042449744387
 20
-0.4759886739614022
 30
0.0
 10
23.5149948657656
 20
-1.19014682152589
 30
0.0
 10
24.24170067411685
 20
-1.862077682901869
 30
0.0
 10
24.96754786397587
 20
-2.472891997474748
 30
0.0
 10
25.69222699079018
 20
-3.002174408854182
 30
0.0
 10
26.41938038514532
 20
-3.429443442268903
 30
0.0
 10
27.14459459209974
 20
-3.743897286665854
 30
0.0
 10
27.869594303248
 20
-3.932356969916238
 30
0.0
 10
28.59682945021863
 20
-3.992591414543329
 30
0.0
 10
29.32162507252329
 20
-3.908179551335329
 30
0.0
 10
29.83824280192004
 20
-3.785969364695082
 30
0.0
 10
30.11364873392333
 20
-3.659344845923584
 30
0.0
 10
30.14700327532505
 20
-3.644009291154971
 30
0.0
  0
SPLINE
  5
BA
330
1F
100
AcDbEntity
  8
0
  6
Continuous
 62
     1
370
    15
100
AcDbSpline
210
0.0
220
0.0
230
1.0
 70
     8
 71
     3
 72
    28
 73
    24
 74
     0
 42
0.000000001
 43
0.00000001
 40
0.0
 40
0.0
 40
0.0
 40
0.0
 40
0.0175035422982583
 40
0.0690153694207246
 40
0.1206934882134824
 40
0.1722724267543044
 40
0.2237990966140622
 40
0.275497628899197
 40
0.3270387868056376
 40
0.3785951112937962
 40
0.4302877199625513
 40
0.4818058790315561
 40
0.5334066084572832
 40
0.5850669721829828
 40
0.6365769619909033
 40
0.6882326317821332
 40
0.739838636807087
 40
0.7913553039105942
 40
0.8430458606018744
 40
0.8946059827316122
 40
0.9461441598078534
 40
0.9978432875387602
 40
1.0
 40
1.0
 40
1.0
 40
1.0
 10
31.74476943241835
 20
-3.953882490345507
 30
0.0
 10
31.66265007203864
 20
-3.957962072128414
 30
0.0
 10
31.33885858477124
 20
-3.974047607217924
 30
0.0
 10
30.77416272760721
 20
-3.865963742420962
 30
0.0
 10
30.0471488208389
 20
-3.633061889181949
 30
0.0
 10
29.32162933164548
 20
-3.269536720496891
 30
0.0
 10
28.5968283051289
 20
-2.798570195219347
 30
0.0
 10
27.86959460945632
 20
-2.23568204297346
 30
0.0
 10
27.14459451015004
 20
-1.596484009478972
 30
0.0
 10
26.41938040712436
 20
-0.9040719882690418
 30
0.0
 10
25.6922269851002
 20
-0.1836575618748421
 30
0.0
 10
24.96754786481916
 20
0.5457304482024259
 30
0.0
 10
24.2417006764417
 20
1.255434001785845
 30
0.0
 10
23.51499485562095
 20
1.922512160891649
 30
0.0
 10
22.79042453561618
 20
2.527685635484563
 30
0.0
 10
22.0637852961093
 20
3.046505813497298
 30
0.0
 10
21.3378629082126
 20
3.464436301141842
 30
0.0
 10
20.61320163602914
 20
3.76758036437936
 30
0.0
 10
19.88608588512432
 20
3.943191453576812
 30
0.0
 10
19.160782652859
 20
3.991565247197776
 30
0.0
 10
18.43595620295832
 20
3.892725892248221
 30
0.0
 10
17.94037775299721
 20
3.772301265651256
 30
0.0
 10
17.68802983272166
 20
3.65356561008114
 30
0.0
 10
17.67792430094861
 20
3.648810718744417
 30
0.0
  0
LINE
  5
BB
330
1F
100
AcDbEntity
  8
0
  6
Continuous
 62
     1
370
    15
100
AcDbLine
 10
32.22500000000114
 20
2.382038719042308
 30
0.0
 11
32.22500000000114
 21
3.939788248901587
 31
0.0
  0
SPLINE
  5
BC
330
1F
100
AcDbEntity
  8
0
  6
Continuous
 62
     1
370
    15
100
AcDbSpline
210
0.0
220
0.0
230
1.0
 70
     8
 71
     3
 72
    17
 73
    13
 74
     0
 42
0.000000001
 43
0.00000001
 40
0.0
 40
0.0
 40
0.0
 40
0.0
 40
0.104288579335536
 40
0.2087656349047991
 40
0.3129847371049704
 40
0.4171908190863689
 40
0.5216551204053523
 40
0.6259672929257678
 40
0.720350286231341
 40
0.815042398259646
 40
0.909538672367867
 40
1.0
 40
1.0
 40
1.0
 40
1.0
 10
10.00000000000115
 20
-0.1539622877724889
 30
0.0
 10
10.26681503765962
 20
-0.4201863872657338
 30
0.0
 10
10.80092731624098
 20
-0.9531157215397076
 30
0.0
 10
11.60322672799317
 20
-1.710278491803363
 30
0.0
 10
12.40345205533283
 20
-2.400005504206539
 30
0.0
 10
13.20360699605029
 20
-2.992003209256897
 30
0.0
 10
14.00571273031575
 20
-3.461717088370687
 30
0.0
 10
14.78180603284044
 20
-3.781061525764549
 30
0.0
 10
15.53131859455974
 20
-3.953420576475008
 30
0.0
 10
16.25833500076241
 20
-3.985324395511004
 30
0.0
 10
16.97356018939734
 20
-3.895433301570402
 30
0.0
 10
17.44657595894274
 20
-3.729813888415203
 30
0.0
 10
17.6779243009486
 20
-3.648810718744426
 30
0.0
  0
SPLINE
  5
BD
330
1F
100
AcDbEntity
  8
0
  6
Continuous
 62
     1
370
    15
100
AcDbSpline
210
0.0
220
0.0
230
1.0
 70
     8
 71
     3
 72
    13
 73
     9
 74
     0
 42
0.000000001
 43
0.00000001
 40
0.0
 40
0.0
 40
0.0
 40
0.0
 40
0.0129786625558413
 40
0.2101582023391385
 40
0.4075377611515196
 40
0.6052968577156259
 40
0.802419598095499
 40
1.0
 40
1.0
 40
1.0
 40
1.0
 10
28.54944395858058
 20
3.964683166641006
 30
0.0
 10
28.56536335609148
 20
3.96602397704623
 30
0.0
 10
28.82313968310643
 20
3.987735174423241
 30
0.0
 10
29.32156565630181
 20
3.90624458839372
 30
0.0
 10
30.04717760747806
 20
3.712135825556827
 30
0.0
 10
30.77411140153236
 20
3.379001063718811
 30
0.0
 10
31.49871083120323
 20
2.941217528516586
 30
0.0
 10
31.98271654087431
 20
2.570124112946113
 30
0.0
 10
32.22500000000115
 20
2.384362262234264
 30
0.0
  0
SPLINE
  5
BE
330
1F
100
AcDbEntity
  8
0
  6
Continuous
 62
     1
370
    15
100
AcDbSpline
210
0.0
220
0.0
230
1.0
 70
     8
 71
     3
 72
    10
 73
     6
 74
     0
 42
0.000000001
 43
0.00000001
 40
0.0
 40
0.0
 40
0.0
 40
0.0
 40
0.3495368432339886
 40
0.6982640435932601
 40
1.0
 40
1.0
 40
1.0
 40
1.0
 10
32.22500000000112
 20
3.939788248901587
 30
0.0
 10
31.98271926726845
 20
3.955647579335769
 30
0.0
 10
31.49871900407046
 20
3.98732950475226
 30
0.0
 10
30.80734557874725
 20
3.882648077093634
 30
0.0
 10
30.35625469524606
 20
3.719629926917815
 30
0.0
 10
30.14700327532505
 20
3.644009291154963
 30
0.0
  0
SPLINE
  5
BF
330
1F
100
AcDbEntity
  8
0
  6
Continuous
 62
     1
370
    15
100
AcDbSpline
210
0.0
220
0.0
230
1.0
 70
     8
 71
     3
 72
    20
 73
    16
 74
     0
 42
0.000000001
 43
0.00000001
 40
0.0
 40
0.0
 40
0.0
 40
0.0
 40
0.012501251639578
 40
0.0906579917363534
 40
0.169058810673296
 40
0.2472016060856716
 40
0.3254133914013527
 40
0.4037872660005196
 40
0.4819052921293894
 40
0.5682414077061548
 40
0.654703435812764
 40
0.740951743372335
 40
0.8272108273838356
 40
0.9136834118080792
 40
1.0
 40
1.0
 40
1.0
 40
1.0
 10
19.27668540711094
 20
-3.959856991918735
 30
0.0
 10
19.23804332489615
 20
-3.962689572349715
 30
0.0
 10
18.95781429894714
 20
-3.983231199756967
 30
0.0
 10
18.4359081657862
 20
-3.893529801219053
 30
0.0
 10
17.70859436496032
 20
-3.685984326869064
 30
0.0
 10
16.98378576471027
 20
-3.34223933274302
 30
0.0
 10
16.25830301173614
 20
-2.890456089225357
 30
0.0
 10
15.53132711375213
 20
-2.342718452636405
 30
0.0
 10
14.78180348492244
 20
-1.693463925718855
 30
0.0
 10
14.00571344285364
 20
-0.9590616469013283
 30
0.0
 10
13.20360680554048
 20
-0.1631266931501568
 30
0.0
 10
12.40345210631126
 20
0.6415023784123143
 30
0.0
 10
11.60322671435885
 20
1.41786741991268
 30
0.0
 10
10.80092731964473
 20
2.143265696205735
 30
0.0
 10
10.26681503879274
 20
2.549987206200263
 30
0.0
 10
9.999999999999993
 20
2.753164364557172
 30
0.0
  0
SPLINE
  5
C0
330
1F
100
AcDbEntity
  8
외형선
  6
Continuous
370
    15
100
AcDbSpline
210
0.0
220
0.0
230
1.0
 70
    24
 71
     3
 72
    21
 73
    17
 74
     0
 42
0.000000001
 43
0.00000001
 40
0.0
 40
0.0
 40
0.0
 40
0.0
 40
0.1037828883471657
 40
0.173383742455193
 40
0.2429845965632202
 40
0.3125854506711883
 40
0.3821863047791562
 40
0.4517871588871283
 40
0.5213880129951005
 40
0.5909888671030722
 40
0.6605897212110439
 40
0.7301905753190117
 40
0.7997914294269793
 40
0.8693922835349545
 40
0.9389931376429297
 40
0.9999999999999999
 40
0.9999999999999999
 40
0.9999999999999999
 40
0.9999999999999999
 10
10.00000000000114
 20
2.753164364550245
 30
0.0
 10
10.00000000000114
 20
2.673745508506658
 30
0.0
 10
10.00000000000112
 20
2.541065269002384
 30
0.0
 10
10.00000000000114
 20
2.292651255615634
 30
0.0
 10
10.00000000000108
 20
2.057776379084582
 30
0.0
 10
10.00000000000115
 20
1.803390085293863
 30
0.0
 10
10.00000000000112
 20
1.538358833597456
 30
0.0
 10
10.00000000000112
 20
1.269625973068278
 30
0.0
 10
10.00000000000113
 20
1.004882610590233
 30
0.0
 10
10.00000000000113
 20
0.7519533597907873
 30
0.0
 10
10.00000000000112
 20
0.5173713512069057
 30
0.0
 10
10.00000000000113
 20
0.3088063441745192
 30
0.0
 10
10.00000000000112
 20
0.1306282539535402
 30
0.0
 10
10.00000000000114
 20
-0.0092840564974397
 30
0.0
 10
10.00000000000114
 20
-0.1095582549342061
 30
0.0
 10
10.00000000000114
 20
-0.1398247898006982
 30
0.0
 10
10.00000000000115
 20
-0.1539622877724947
 30
0.0
  0
LINE
  5
C1
330
1F
100
AcDbEntity
  8
0
  6
Continuous
 62
     1
370
    15
100
AcDbLine
 10
32.22500000000114
 20
-2.384362262234253
 30
0.0
 11
32.22500000000114
 21
-1.555425986667286
 31
0.0
  0
LINE
  5
C2
330
1F
100
AcDbEntity
  8
외형선
  6
Continuous
370
    15
100
AcDbLine
 10
10.00000000000114
 20
-3.852121902848475
 30
0.0
 11
10.00000000000114
 21
-3.511432210990383
 31
0.0
  0
LINE
  5
C3
330
1F
100
AcDbEntity
  8
0
  6
Continuous
 62
     1
370
    15
100
AcDbLine
 10
32.22500000000114
 20
3.939788248901587
 30
0.0
 11
32.22500000000114
 21
3.968749999999996
 31
0.0
  0
LINE
  5
C4
330
1F
100
AcDbEntity
  8
외형선
  6
Continuous
370
    15
100
AcDbLine
 10
10.00000000000114
 20
2.753164364550245
 30
0.0
 11
10.00000000000114
 21
3.357469923217927
 31
0.0
  0
LINE
  5
C5
330
1F
100
AcDbEntity
  8
0
  6
Continuous
 62
     1
370
    15
100
AcDbLine
 10
32.22500000000114
 20
-3.968750000000005
 30
0.0
 11
32.22500000000114
 21
-3.939788248901593
 31
0.0
  0
LINE
  5
C6
330
1F
100
AcDbEntity
  8
0
  6
Continuous
 62
     1
370
    15
100
AcDbLine
 10
32.22500000000114
 20
1.555425986667352
 30
0.0
 11
32.22500000000114
 21
2.384362262234264
 31
0.0
  0
LINE
  5
C7
330
1F
100
AcDbEntity
  8
외형선
  6
Continuous
370
    15
100
AcDbLine
 10
10.00000000000114
 20
-1.09895753829819
 30
0.0
 11
10.00000000000114
 21
-0.1539622877724833
 31
0.0
  0
SPLINE
  5
C8
330
1F
100
AcDbEntity
  8
외형선
  6
Continuous
370
    15
100
AcDbSpline
210
0.0
220
0.0
230
1.0
 70
    24
 71
     3
 72
    22
 73
    18
 74
     0
 42
0.000000001
 43
0.00000001
 40
0.0
 40
0.0
 40
0.0
 40
0.0
 40
0.125
 40
0.125
 40
0.25
 40
0.25
 40
0.375
 40
0.375
 40
0.5
 40
0.5
 40
0.625
 40
0.625
 40
0.75
 40
0.75
 40
0.875
 40
0.875
 40
1.0
 40
1.0
 40
1.0
 40
1.0
 10
10.00000000000114
 20
-0.1588185128476487
 30
0.0
 10
10.00000000000113
 20
-0.1316725085125469
 30
0.0
 10
10.00000000000113
 20
-0.0676613826844778
 30
0.0
 10
10.00000000000112
 20
0.1350602307116475
 30
0.0
 10
10.00000000000113
 20
0.273556277293683
 30
0.0
 10
10.00000000000114
 20
0.5938157917122101
 30
0.0
 10
10.00000000000114
 20
0.7745487983765511
 30
0.0
 10
10.00000000000114
 20
1.135075169687991
 30
0.0
 10
10.00000000000114
 20
1.314312138194618
 30
0.0
 10
10.00000000000114
 20
1.643242477003338
 30
0.0
 10
10.00000000000114
 20
1.793097518027577
 30
0.0
 10
10.00000000000114
 20
2.055819984274529
 30
0.0
 10
10.00000000000114
 20
2.169010139512938
 30
0.0
 10
10.00000000000115
 20
2.362757221463897
 30
0.0
 10
10.00000000000114
 20
2.439688451645244
 30
0.0
 10
10.00000000000114
 20
2.600334643396872
 30
0.0
 10
10.00000000000113
 20
2.680535831689888
 30
0.0
 10
10.00000000000114
 20
2.753164364556556
 30
0.0
  0
SPLINE
  5
C9
330
1F
100
AcDbEntity
  8
외형선
  6
Continuous
370
    15
100
AcDbSpline
210
0.0
220
0.0
230
1.0
 70
     8
 71
     3
 72
     8
 73
     4
 74
     0
 42
0.000000001
 43
0.00000001
 40
0.0
 40
0.0
 40
0.0
 40
0.0
 40
1.0
 40
1.0
 40
1.0
 40
1.0
 10
10.00000000000114
 20
-0.1539622877724809
 30
0.0
 10
9.664986187156572
 20
0.179820188249267
 30
0.0
 10
9.335265332136409
 20
0.513472476286282
 30
0.0
 10
9.000016381540636
 20
0.8400148641408959
 30
0.0
  0
SPLINE
  5
CA
330
1F
100
AcDbEntity
  8
외형선
  6
Continuous
370
    15
100
AcDbSpline
210
0.0
220
0.0
230
1.0
 70
     8
 71
     3
 72
     8
 73
     4
 74
     0
 42
0.000000001
 43
0.00000001
 40
0.0
 40
0.0
 40
0.0
 40
0.0
 40
1.0
 40
1.0
 40
1.0
 40
1.0
 10
10.00000000000115
 20
2.753164364556349
 30
0.0
 10
9.664986187156586
 20
2.993753547887664
 30
0.0
 10
9.335265332136423
 20
3.203872607201392
 30
0.0
 10
9.000016381540636
 20
3.379104858450443
 30
0.0
  0
SPLINE
  5
CB
330
1F
100
AcDbEntity
  8
외형선
  6
Continuous
370
    15
100
AcDbSpline
210
0.0
220
0.0
230
1.0
 70
     8
 71
     3
 72
     8
 73
     4
 74
     0
 42
0.000000001
 43
0.00000001
 40
0.0
 40
0.0
 40
0.0
 40
0.0
 40
1.0
 40
1.0
 40
1.0
 40
1.0
 10
10.00000000000114
 20
-3.511432210990379
 30
0.0
 10
9.664986187156572
 20
-3.355763271526472
 30
0.0
 10
9.335265332136409
 20
-3.163675298404358
 30
0.0
 10
9.000016381540636
 20
-2.93916116936824
 30
0.0
  0
SPLINE
  5
CC
330
1F
100
AcDbEntity
  8
외형선
  6
Continuous
370
    15
100
AcDbSpline
210
0.0
220
0.0
230
1.0
 70
     8
 71
     3
 72
     8
 73
     4
 74
     0
 42
0.000000001
 43
0.00000001
 40
0.0
 40
0.0
 40
0.0
 40
0.0
 40
1.0
 40
1.0
 40
1.0
 40
1.0
 10
10.00000000000115
 20
-3.852121902859879
 30
0.0
 10
9.664986187156586
 20
-3.771738569463849
 30
0.0
 10
9.335265332136423
 20
-3.650925274994503
 30
0.0
 10
9.000016381540636
 20
-3.492181117716669
 30
0.0
  0
LINE
  5
CD
330
1F
100
AcDbEntity
  8
외형선
  6
Continuous
370
    15
100
AcDbLine
 10
9.000016381540636
 20
-3.968750000000004
 30
0.0
 11
9.000016381540636
 21
-3.492178720106777
 31
0.0
  0
LINE
  5
CE
330
1F
100
AcDbEntity
  8
외형선
  6
Continuous
370
    15
100
AcDbLine
 10
9.000016381540636
 20
-3.779176033509184
 30
0.0
 11
9.366766190311978
 21
-3.64556371997001
 31
0.0
  0
SPLINE
  5
CF
330
1F
100
AcDbEntity
  8
외형선
  6
Continuous
370
    15
100
AcDbSpline
210
0.0
220
0.0
230
1.0
 70
     8
 71
     3
 72
     9
 73
     5
 74
     0
 42
0.000000001
 43
0.00000001
 40
0.0
 40
0.0
 40
0.0
 40
0.0
 40
0.7885649033462444
 40
1.0
 40
1.0
 40
1.0
 40
1.0
 10
10.00000000000115
 20
3.852121902859877
 30
0.0
 10
9.8336525197115
 20
3.809635175630194
 30
0.0
 10
9.622702882485981
 20
3.755756633674557
 30
0.0
 10
9.411435524555719
 20
3.664795992028189
 30
0.0
 10
9.36676619031195
 20
3.645563719970001
 30
0.0
  0
LINE
  5
D0
330
1F
100
AcDbEntity
  8
외형선
  6
Continuous
370
    15
100
AcDbLine
 10
9.000016381540636
 20
3.779174260630653
 30
0.0
 11
9.000016381540636
 21
3.968749999999996
 31
0.0
  0
SPLINE
  5
D1
330
1F
100
AcDbEntity
  8
외형선
  6
Continuous
370
    15
100
AcDbSpline
210
0.0
220
0.0
230
1.0
 70
     8
 71
     3
 72
     8
 73
     4
 74
     0
 42
0.000000001
 43
0.00000001
 40
0.0
 40
0.0
 40
0.0
 40
0.0
 40
1.0
 40
1.0
 40
1.0
 40
1.0
 10
10.00000000000114
 20
3.357469923217921
 30
0.0
 10
9.664986187156572
 20
3.535583459775765
 30
0.0
 10
9.335265332136409
 20
3.677147774690667
 30
0.0
 10
9.000016381540636
 20
3.779176033509167
 30
0.0
  0
LINE
  5
D2
330
1F
100
AcDbEntity
  8
외형선
  6
Continuous
370
    15
100
AcDbLine
 10
9.000016381540636
 20
0.8400091900388237
 30
0.0
 11
9.000016381540636
 21
3.379107505084234
 31
0.0
  0
SPLINE
  5
D3
330
1F
100
AcDbEntity
  8
외형선
  6
Continuous
370
    15
100
AcDbSpline
210
0.0
220
0.0
230
1.0
 70
     8
 71
     3
 72
     8
 73
     4
 74
     0
 42
0.000000001
 43
0.00000001
 40
0.0
 40
0.0
 40
0.0
 40
0.0
 40
1.0
 40
1.0
 40
1.0
 40
1.0
 10
10.00000000000115
 20
-1.09895753830349
 30
0.0
 10
9.664986187156586
 20
-0.7779850215761464
 30
0.0
 10
9.335265332136423
 20
-0.4470526677930759
 30
0.0
 10
9.000016381540636
 20
-0.1130762592661936
 30
0.0
  0
LINE
  5
D4
330
1F
100
AcDbEntity
  8
외형선
  6
Continuous
370
    15
100
AcDbLine
 10
-30.48124999999886
 20
-0.0000000000000043
 30
0.0
 11
-30.48124999999886
 21
3.968749999999996
 31
0.0
  0
LINE
  5
D5
330
1F
100
AcDbEntity
  8
외형선
  6
Continuous
370
    15
100
AcDbLine
 10
-30.48124999999886
 20
-3.968750000000004
 30
0.0
 11
-30.48124999999886
 21
-0.0000000000000043
 31
0.0
  0
LINE
  5
D6
330
1F
100
AcDbEntity
  8
외형선
  6
Continuous
370
    15
100
AcDbLine
 10
9.000016381540636
 20
-2.9391650705918
 30
0.0
 11
9.000016381540636
 21
-0.1130712150225106
 31
0.0
  0
LINE
  5
D7
330
1F
100
AcDbEntity
  8
외형선
  6
Continuous
370
    15
100
AcDbLine
 10
-31.27499999999886
 20
-0.0000000000000043
 30
0.0
 11
-31.27499999999886
 21
3.174999999999999
 31
0.0
  0
LINE
  5
D8
330
1F
100
AcDbEntity
  8
외형선
  6
Continuous
370
    15
100
AcDbLine
 10
-31.27499999999886
 20
-3.175000000000008
 30
0.0
 11
-31.27499999999886
 21
-0.0000000000000043
 31
0.0
  0
SPLINE
  5
D9
330
1F
100
AcDbEntity
  8
외형선
  6
Continuous
370
    15
100
AcDbSpline
210
0.0
220
0.0
230
1.0
 70
    24
 71
     3
 72
    20
 73
    16
 74
     0
 42
0.000000001
 43
0.00000001
 40
0.0
 40
0.0
 40
0.0
 40
0.0
 40
0.1344646931617722
 40
0.2090364860972761
 40
0.2836082790327799
 40
0.3581800719682836
 40
0.4327518649037874
 40
0.5073236578392937
 40
0.5818954507748
 40
0.6564672437103058
 40
0.7310390366458118
 40
0.8056108295813146
 40
0.8801826225168174
 40
0.9547544154522721
 40
1.0
 40
1.0
 40
1.0
 40
1.0
 10
10.00000000000114
 20
-3.511432210990379
 30
0.0
 10
10.00000000000112
 20
-3.377743544680307
 30
0.0
 10
10.00000000000109
 20
-3.169913456503423
 30
0.0
 10
10.00000000000114
 20
-2.841583509382397
 30
0.0
 10
10.00000000000117
 20
-2.575624189227987
 30
0.0
 10
10.00000000000117
 20
-2.307001565837086
 30
0.0
 10
10.00000000000112
 20
-2.044072830654474
 30
0.0
 10
10.00000000000113
 20
-1.79446830977163
 30
0.0
 10
10.00000000000112
 20
-1.564658498619219
 30
0.0
 10
10.00000000000114
 20
-1.36206970456813
 30
0.0
 10
10.00000000000112
 20
-1.19141657955468
 30
0.0
 10
10.00000000000117
 20
-1.058313457307689
 30
0.0
 10
10.00000000000117
 20
-0.9674100336299036
 30
0.0
 10
10.00000000000115
 20
-0.9207899408034681
 30
0.0
 10
10.00000000000113
 20
-0.9228461120934323
 30
0.0
 10
10.00000000000114
 20
-0.9236225660093742
 30
0.0
  0
SPLINE
  5
DA
330
1F
100
AcDbEntity
  8
외형선
  6
Continuous
370
    15
100
AcDbSpline
210
0.0
220
0.0
230
1.0
 70
    24
 71
     3
 72
    10
 73
     6
 74
     0
 42
0.000000001
 43
0.00000001
 40
0.0
 40
0.0
 40
0.0
 40
0.0
 40
0.1625364081141141
 40
0.7510060373716065
 40
1.0
 40
1.0
 40
1.0
 40
1.0
 10
10.00000000000114
 20
3.40186303203141
 30
0.0
 10
10.00000000000114
 20
3.425036433152767
 30
0.0
 10
10.00000000000115
 20
3.532110068841543
 30
0.0
 10
10.00000000000105
 20
3.685718599520896
 30
0.0
 10
10.00000000000112
 20
3.813985651958625
 30
0.0
 10
10.00000000000114
 20
3.852121902860246
 30
0.0
  0
LINE
  5
DB
330
1F
100
AcDbEntity
  8
중심선
 62
     1
100
AcDbLine
 10
-34.27499999999887
 20
-0.0000000000000039
 30
0.0
 11
35.22500000000114
 21
0.0000000000000046
 31
0.0
  0
LINE
  5
DC
330
1F
100
AcDbEntity
  8
참조1
100
AcDbLine
 10
6.349999999999994
 20
-0.0000000000000039
 30
0.0
 11
6.350000000000001
 21
-40.00000000000001
 31
0.0
  0
LINE
  5
DD
330
1F
100
AcDbEntity
  8
참조1
100
AcDbLine
 10
6.350000000000001
 20
-40.00000000000001
 30
0.0
 11
-15.15885681430868
 21
-40.0
 31
0.0
  0
CIRCLE
  5
DE
330
1F
100
AcDbEntity
  8
해칭선
100
AcDbCircle
 10
0.0
 20
0.0
 30
0.0
 40
3.000000000000001
  0
INSERT
  5
DF
330
1F
100
AcDbEntity
  8
0
  6
Continuous
 62
     7
100
AcDbBlockReference
 66
     1
  2
블럭10
 10
-13.01050103462178
 20
-29.34996912243955
 30
0.0
  0
ATTRIB
  5
E0
330
DF
100
AcDbEntity
  8
FORMAT
 62
     2
100
AcDbText
 10
-22.19179632336305
 20
-27.27460220960735
 30
0.0
 40
4.233333333333333
  1
E5058020 [ 6 FLUTE ]
 41
0.75
  7
SLDTEXTSTYLE0
 11
-22.19179632336305
 21
-29.39126887627402
 31
0.0
100
AcDbAttribute
  2
AUTOATTR0
 70
     0
 74
     1
  0
SEQEND
  5
E1
330
DF
100
AcDbEntity
  8
0
  6
Continuous
 62
     7
  0
HATCH
  5
E2
330
1F
100
AcDbEntity
  8
중심선
100
AcDbHatch
 10
0.0
 20
0.0
 30
0.0
210
0.0
220
0.0
230
1.0
  2
SOLID
 70
     1
 71
     0
 91
        1
 92
        0
 93
        4
 72
     1
 10
-7.295591730240941
 20
-13.10279482079561
 11
-10.74186697407822
 21
-13.10279482079561
 72
     1
 10
-10.74186697407822
 20
-13.10279482079561
 11
-12.87009683328225
 21
-15.6391204013682
 72
     1
 10
-12.87009683328225
 20
-15.6391204013682
 11
-9.423788504331815
 21
-15.63908097206571
 72
     1
 10
-9.423788504331814
 20
-15.63908097206571
 11
-7.29559173024094
 21
-13.10279482079561
 97
        0
 75
     0
 76
     1
 98
        1
 10
-5.420228102496566
 20
22.69720517920439
  0
HATCH
  5
E3
330
1F
100
AcDbEntity
  8
중심선
100
AcDbHatch
 10
0.0
 20
0.0
 30
0.0
210
0.0
220
0.0
230
1.0
  2
SOLID
 70
     1
 71
     0
 91
        1
 92
        0
 93
        4
 72
     1
 10
-2.282827739204962
 20
-13.10279482079561
 11
-5.729102983042244
 21
-13.10279482079561
 72
     1
 10
-5.729102983042244
 20
-13.10279482079561
 11
-10.26024099139966
 21
-18.50279482079563
 72
     1
 10
-10.26024099139966
 20
-18.50279482079563
 11
-6.813965747562378
 21
-18.50279482079563
 72
     1
 10
-6.813965747562378
 20
-18.50279482079563
 11
-2.282827739204961
 21
-13.10279482079561
 97
        0
 75
     0
 76
     1
 98
        1
 10
-5.420228102496566
 20
22.69720517920439
  0
HATCH
  5
E4
330
1F
100
AcDbEntity
  8
중심선
100
AcDbHatch
 10
0.0
 20
0.0
 30
0.0
210
0.0
220
0.0
230
1.0
  2
SOLID
 70
     1
 71
     0
 91
        1
 92
        0
 93
        4
 72
     1
 10
2.729936251830907
 20
-13.10279482079561
 11
-0.71633899200621
 21
-13.10279482079561
 72
     1
 10
-0.71633899200621
 20
-13.10279482079561
 11
-7.764775893895459
 21
-21.50279482079563
 72
     1
 10
-7.764775893895459
 20
-21.50279482079563
 11
-4.318500650058176
 21
-21.50279482079563
 72
     1
 10
-4.318500650058176
 20
-21.50279482079563
 11
2.729936251830907
 21
-13.10279482079561
 97
        0
 75
     0
 76
     1
 98
        1
 10
-5.420228102496566
 20
22.69720517920439
  0
HATCH
  5
E5
330
1F
100
AcDbEntity
  8
중심선
100
AcDbHatch
 10
0.0
 20
0.0
 30
0.0
210
0.0
220
0.0
230
1.0
  2
SOLID
 70
     1
 71
     0
 91
        1
 92
        0
 93
        6
 72
     3
 10
7.529826682843105
 20
-17.30279482084688
 11
3.960054785062283
 21
1.540882976769353E-10
 40
0.3939339440162628
 50
17.09539180608436
 51
320.0019657685081
 73
     0
 72
     1
 10
9.212826338543701
 20
-15.89068882543391
 11
11.51812821224476
 21
-13.95636211538596
 72
     3
 10
7.529826682790258
 20
-17.30279482079576
 11
6.600054785286829
 21
-1.278976924368180E-13
 40
0.636358354079598
 50
39.99873849337413
 51
368.4976242363724
 73
     1
 72
     1
 10
13.95515917469087
 20
-16.34279482072563
 11
6.209893989626181
 21
-16.34279482072563
 72
     1
 10
6.209893989626181
 20
-16.34279482072563
 11
6.209868945180247
 21
-18.26279482072552
 72
     1
 10
6.209868945180247
 20
-18.26279482072552
 11
10.65124871465228
 21
-18.2627948207255
 97
        0
 75
     0
 76
     1
 98
        1
 10
-5.420228102496566
 20
22.69720517920439
  0
DIMENSION
  5
E6
330
1F
100
AcDbEntity
  8
치수문자_일반주서
100
AcDbDimension
  2
_D
 10
44.83561671491864
 20
-3.968749999999961
 30
0.0
 11
44.83561671491854
 21
24.57275000000004
 31
0.0
 70
   160
  1
%%c<>
 71
     2
 42
7.937500000000004
 52
-270.0
  3
SLDDIMSTYLE0
100
AcDbAlignedDimension
 13
32.22500000000114
 23
3.968749999999997
 33
0.0
 14
32.22500000000114
 24
-3.968750000000006
 34
0.0
 50
90.0000000000002
100
AcDbRotatedDimension
1001
ACAD
1000
DSTYLE
1002
{
1070
   171
1070
     6
1070
   273
1070
     5
1002
}
  0
DIMENSION
  5
FA
330
1F
100
AcDbEntity
  8
치수문자_일반주서
100
AcDbDimension
  2
_D_1
 10
10.00000000000114
 20
26.06187027038452
 30
0.0
 11
21.11250000000114
 21
26.06187027038452
 31
0.0
 70
   160
  1
<>
 71
     2
 42
22.225
  3
SLDDIMSTYLE0
100
AcDbAlignedDimension
 13
32.22500000000114
 23
3.939788248901587
 33
0.0
 14
10.00000000000114
 24
3.852121902860246
 34
0.0
100
AcDbRotatedDimension
1001
ACAD
1000
DSTYLE
1002
{
1070
   171
1070
     6
1070
   273
1070
     5
1002
}
  0
DIMENSION
  5
110
330
1F
100
AcDbEntity
  8
치수문자_일반주서
100
AcDbDimension
  2
_D_2
 10
-31.27499999999886
 20
44.06187027038455
 30
0.0
 11
0.4750000000011383
 21
44.06187027038455
 31
0.0
 70
   160
  1
<>
 71
     2
 42
63.5
  3
SLDDIMSTYLE0
100
AcDbAlignedDimension
 13
32.22500000000114
 23
3.939788248901587
 33
0.0
 14
-31.27499999999886
 24
3.174999999999999
 34
0.0
100
AcDbRotatedDimension
1001
ACAD
1000
DSTYLE
1002
{
1070
   171
1070
     6
1070
   273
1070
     5
1002
}
  0
DIMENSION
  5
124
330
1F
100
AcDbEntity
  8
치수문자_일반주서
100
AcDbDimension
  2
_D_3
 10
-39.88256740100951
 20
-3.968750000000032
 30
0.0
 11
-39.88256740100961
 21
24.57274999999996
 31
0.0
 70
   160
  1
%%c<>
 71
     2
 42
7.937499999999986
 52
-270.0
  3
SLDDIMSTYLE0
100
AcDbAlignedDimension
 13
-30.48124999999885
 23
3.968749999999989
 33
0.0
 14
-30.48124999999885
 24
-3.968749999999997
 34
0.0
 50
90.0000000000002
100
AcDbRotatedDimension
1001
ACAD
1000
DSTYLE
1002
{
1070
   171
1070
     6
1070
   273
1070
     5
1002
}
  0
LINE
  5
138
330
1F
100
AcDbEntity
  8
참조1
100
AcDbLine
 10
82.81348381534559
 20
7.440000000000002
 30
0.0
 11
82.81348381534559
 21
-7.440000000000002
 31
0.0
  0
LINE
  5
139
330
1F
100
AcDbEntity
  8
참조1
100
AcDbLine
 10
95.5134838153456
 20
5.440000000000002
 30
0.0
 11
82.81348381534559
 21
5.440000000000002
 31
0.0
  0
SOLID
  5
13A
330
1F
100
AcDbEntity
  8
참조1
100
AcDbTrace
 10
82.81348381534559
 20
5.440000000000002
 30
0.0
 11
89.16348381534559
 21
4.424000000000002
 31
0.0
 12
89.16348381534559
 22
6.456000000000002
 32
0.0
 13
89.16348381534559
 23
6.456000000000002
 33
0.0
  0
LINE
  5
13B
330
1F
100
AcDbEntity
  8
참조1
100
AcDbLine
 10
95.5134838153456
 20
-5.440000000000002
 30
0.0
 11
82.81348381534559
 21
-5.440000000000002
 31
0.0
  0
SOLID
  5
13C
330
1F
100
AcDbEntity
  8
참조1
100
AcDbTrace
 10
82.81348381534559
 20
-5.440000000000002
 30
0.0
 11
89.16348381534559
 21
-6.456000000000002
 31
0.0
 12
89.16348381534559
 22
-4.424000000000002
 32
0.0
 13
89.16348381534559
 23
-4.424000000000002
 33
0.0
  0
MTEXT
  5
13D
330
1F
100
AcDbEntity
  8
참조1
100
AcDbMText
 10
92.41359862590816
 20
11.06571756601608
 30
0.0
 40
3.5
 41
0.0
 71
     1
 72
     1
  1
A
  7
SLDTEXTSTYLE0
 73
     1
 44
1.0
  0
MTEXT
  5
13E
330
1F
100
AcDbEntity
  8
참조1
100
AcDbMText
 10
92.41359862590816
 20
0.1857175660160727
 30
0.0
 40
3.5
 41
0.0
 71
     1
 72
     1
  1
A
  7
SLDTEXTSTYLE0
 73
     1
 44
1.0
  0
INSERT
  5
145
330
1F
100
AcDbEntity
  8
해칭선
100
AcDbBlockReference
  2
SW_DOWELSYMBOL_0
 10
0.0
 20
0.0
 30
0.0
  0
ENDSEC
  0
SECTION
  2
OBJECTS
  0
DICTIONARY
  5
C
330
0
100
AcDbDictionary
281
     1
  3
ACAD_GROUP
350
D
  3
ACAD_IMAGE_VARS
350
169
  3
ACAD_LAYOUT
350
1A
  3
ACAD_MLINESTYLE
350
17
  3
ACAD_PLOTSETTINGS
350
19
  3
ACAD_PLOTSTYLENAME
350
E
  3
ACAD_SCALELIST
350
47
  3
APPDATA
350
167
  3
DWGPROPS
350
2FD
  0
DICTIONARY
  5
223
330
2
100
AcDbDictionary
280
     1
281
     1
  3
ACAD_LAYERSTATES
360
224
  0
DICTIONARY
  5
2FB
330
1F
100
AcDbDictionary
280
     1
281
     1
  3
DIM_BOUNDING_BOXES_V1
360
2FC
  0
DICTIONARY
  5
D
102
{ACAD_REACTORS
330
C
102
}
330
C
100
AcDbDictionary
281
     1
  0
RASTERVARIABLES
  5
169
102
{ACAD_REACTORS
330
C
102
}
330
C
100
AcDbRasterVariables
 90
        0
 70
     1
 71
     1
 72
     1
  0
DICTIONARY
  5
1A
102
{ACAD_REACTORS
330
C
102
}
330
C
100
AcDbDictionary
281
     1
  3
Layout1
350
1E
  3
Layout2
350
26
  3
Model
350
22
  0
DICTIONARY
  5
17
102
{ACAD_REACTORS
330
C
102
}
330
C
100
AcDbDictionary
281
     1
  3
Standard
350
18
  0
DICTIONARY
  5
19
102
{ACAD_REACTORS
330
C
102
}
330
C
100
AcDbDictionary
281
     1
  0
ACDBDICTIONARYWDFLT
  5
E
102
{ACAD_REACTORS
330
C
102
}
330
C
100
AcDbDictionary
281
     1
  3
Normal
350
F
100
AcDbDictionaryWithDefault
340
F
  0
DICTIONARY
  5
47
102
{ACAD_REACTORS
330
C
102
}
330
C
100
AcDbDictionary
281
     1
  3
A0
350
48
  3
A1
350
49
  3
A2
350
4A
  3
A3
350
4B
  3
A4
350
4C
  3
A5
350
4D
  3
A6
350
4E
  3
A7
350
4F
  3
A8
350
50
  3
A9
350
51
  3
B0
350
52
  3
B1
350
53
  3
B2
350
54
  3
B3
350
55
  3
B4
350
56
  3
B5
350
57
  3
B6
350
58
  3
B7
350
59
  3
B8
350
5A
  3
B9
350
5B
  3
C0
350
5C
  3
C1
350
5D
  3
C2
350
5E
  3
C3
350
5F
  3
C4
350
60
  3
C5
350
61
  3
C6
350
62
  3
C7
350
63
  3
C8
350
64
  3
C9
350
65
  3
D0
350
66
  3
D1
350
67
  3
D2
350
68
  0
DICTIONARY
  5
167
102
{ACAD_REACTORS
330
C
102
}
330
C
100
AcDbDictionary
281
     1
  0
XRECORD
  5
2FD
102
{ACAD_REACTORS
330
C
102
}
330
C
100
AcDbXrecord
280
     1
  1
DWGPROPS COOKIE
  2

  3

  4

  6

  7

  8
12011056
  9

300
=
301
=
302
=
303
=
304
=
305
=
306
=
307
=
308
=
309
=
 40
0.0
 41
2458316.092740313
 42
2459720.020193796
  1

 90
        0
  0
DICTIONARY
  5
224
102
{ACAD_REACTORS
330
223
102
}
330
223
100
AcDbDictionary
281
     1
  0
DICTIONARY
  5
2FC
102
{ACAD_REACTORS
330
2FB
102
}
330
2FB
100
AcDbDictionary
281
     1
  0
LAYOUT
  5
1E
102
{ACAD_REACTORS
330
1A
102
}
330
1A
100
AcDbPlotSettings
  1

  2
none_device
  4

  6

 40
0.0
 41
0.0
 42
0.0
 43
0.0
 44
0.0
 45
0.0
 46
0.0
 47
0.0
 48
0.0
 49
0.0
140
0.0
141
0.0
142
1.0
143
1.0
 70
   688
 72
     1
 73
     0
 74
     5
  7

 75
    16
147
1.0
148
0.0
149
0.0
100
AcDbLayout
  1
Layout1
 70
     1
 71
     1
 10
0.0
 20
0.0
 11
420.0
 21
297.0
 12
0.0
 22
0.0
 32
0.0
 14
1.000000000000000E+20
 24
1.000000000000000E+20
 34
1.000000000000000E+20
 15
-1.000000000000000E+20
 25
-1.000000000000000E+20
 35
-1.000000000000000E+20
146
0.0
 13
0.0
 23
0.0
 33
0.0
 16
1.0
 26
0.0
 36
0.0
 17
0.0
 27
1.0
 37
0.0
 76
     0
330
1B
  0
LAYOUT
  5
26
102
{ACAD_REACTORS
330
1A
102
}
330
1A
100
AcDbPlotSettings
  1

  2
none_device
  4

  6

 40
0.0
 41
0.0
 42
0.0
 43
0.0
 44
0.0
 45
0.0
 46
0.0
 47
0.0
 48
0.0
 49
0.0
140
0.0
141
0.0
142
1.0
143
1.0
 70
   688
 72
     1
 73
     0
 74
     5
  7

 75
    16
147
1.0
148
0.0
149
0.0
100
AcDbLayout
  1
Layout2
 70
     1
 71
     2
 10
0.0
 20
0.0
 11
0.0
 21
0.0
 12
0.0
 22
0.0
 32
0.0
 14
0.0
 24
0.0
 34
0.0
 15
0.0
 25
0.0
 35
0.0
146
0.0
 13
0.0
 23
0.0
 33
0.0
 16
1.0
 26
0.0
 36
0.0
 17
0.0
 27
1.0
 37
0.0
 76
     0
330
23
  0
LAYOUT
  5
22
102
{ACAD_REACTORS
330
1A
102
}
330
1A
100
AcDbPlotSettings
  1

  2
none_device
  4
ANSI_A_(11.00_x_8.50_Inches)
  6

 40
6.35
 41
19.05
 42
6.35000508
 43
19.05000254
 44
279.4
 45
215.9
 46
83.36376522134539
 47
84.82033834791511
 48
0.0
 49
0.0
140
0.0
141
0.0
142
0.0776116795560611
143
1.0
 70
  1696
 72
     0
 73
     0
 74
     0
  7

 75
     0
147
0.0235690232323232
148
0.0
149
0.0
100
AcDbLayout
  1
Model
 70
     1
 71
     0
 10
0.0
 20
0.0
 11
420.0
 21
297.0
 12
0.0
 22
0.0
 32
0.0
 14
-44.25756740100967
 24
-40.00000000000001
 34
0.0
 15
95.5134838153456
 25
48.43687027038455
 35
0.0
146
0.0
 13
0.0
 23
0.0
 33
0.0
 16
1.0
 26
0.0
 36
0.0
 17
0.0
 27
1.0
 37
0.0
 76
     0
330
1F
331
29
  0
MLINESTYLE
  5
18
102
{ACAD_REACTORS
330
17
102
}
330
17
100
AcDbMlineStyle
  2
Standard
 70
     0
  3

 62
   256
 51
90.0
 52
90.0
 71
     2
 49
0.5
 62
   256
  6
BYLAYER
 49
-0.5
 62
   256
  6
BYLAYER
  0
ACDBPLACEHOLDER
  5
F
102
{ACAD_REACTORS
330
E
102
}
330
E
  0
SCALE
  5
48
102
{ACAD_REACTORS
330
47
102
}
330
47
100
AcDbScale
 70
     0
300
1:1
140
1.0
141
1.0
290
     1
  0
SCALE
  5
49
102
{ACAD_REACTORS
330
47
102
}
330
47
100
AcDbScale
 70
     0
300
1:2
140
1.0
141
2.0
290
     0
  0
SCALE
  5
4A
102
{ACAD_REACTORS
330
47
102
}
330
47
100
AcDbScale
 70
     0
300
1:4
140
1.0
141
4.0
290
     0
  0
SCALE
  5
4B
102
{ACAD_REACTORS
330
47
102
}
330
47
100
AcDbScale
 70
     0
300
1:5
140
1.0
141
5.0
290
     0
  0
SCALE
  5
4C
102
{ACAD_REACTORS
330
47
102
}
330
47
100
AcDbScale
 70
     0
300
1:8
140
1.0
141
8.0
290
     0
  0
SCALE
  5
4D
102
{ACAD_REACTORS
330
47
102
}
330
47
100
AcDbScale
 70
     0
300
1:10
140
1.0
141
10.0
290
     0
  0
SCALE
  5
4E
102
{ACAD_REACTORS
330
47
102
}
330
47
100
AcDbScale
 70
     0
300
1:16
140
1.0
141
16.0
290
     0
  0
SCALE
  5
4F
102
{ACAD_REACTORS
330
47
102
}
330
47
100
AcDbScale
 70
     0
300
1:20
140
1.0
141
20.0
290
     0
  0
SCALE
  5
50
102
{ACAD_REACTORS
330
47
102
}
330
47
100
AcDbScale
 70
     0
300
1:30
140
1.0
141
30.0
290
     0
  0
SCALE
  5
51
102
{ACAD_REACTORS
330
47
102
}
330
47
100
AcDbScale
 70
     0
300
1:40
140
1.0
141
40.0
290
     0
  0
SCALE
  5
52
102
{ACAD_REACTORS
330
47
102
}
330
47
100
AcDbScale
 70
     0
300
1:50
140
1.0
141
50.0
290
     0
  0
SCALE
  5
53
102
{ACAD_REACTORS
330
47
102
}
330
47
100
AcDbScale
 70
     0
300
1:100
140
1.0
141
100.0
290
     0
  0
SCALE
  5
54
102
{ACAD_REACTORS
330
47
102
}
330
47
100
AcDbScale
 70
     0
300
2:1
140
2.0
141
1.0
290
     0
  0
SCALE
  5
55
102
{ACAD_REACTORS
330
47
102
}
330
47
100
AcDbScale
 70
     0
300
4:1
140
4.0
141
1.0
290
     0
  0
SCALE
  5
56
102
{ACAD_REACTORS
330
47
102
}
330
47
100
AcDbScale
 70
     0
300
8:1
140
8.0
141
1.0
290
     0
  0
SCALE
  5
57
102
{ACAD_REACTORS
330
47
102
}
330
47
100
AcDbScale
 70
     0
300
10:1
140
10.0
141
1.0
290
     0
  0
SCALE
  5
58
102
{ACAD_REACTORS
330
47
102
}
330
47
100
AcDbScale
 70
     0
300
100:1
140
100.0
141
1.0
290
     0
  0
SCALE
  5
59
102
{ACAD_REACTORS
330
47
102
}
330
47
100
AcDbScale
 70
     0
300
1/128" = 1'-0"
140
0.0078125
141
12.0
290
     0
  0
SCALE
  5
5A
102
{ACAD_REACTORS
330
47
102
}
330
47
100
AcDbScale
 70
     0
300
1/64" = 1'-0"
140
0.015625
141
12.0
290
     0
  0
SCALE
  5
5B
102
{ACAD_REACTORS
330
47
102
}
330
47
100
AcDbScale
 70
     0
300
1/32" = 1'-0"
140
0.03125
141
12.0
290
     0
  0
SCALE
  5
5C
102
{ACAD_REACTORS
330
47
102
}
330
47
100
AcDbScale
 70
     0
300
1/16" = 1'-0"
140
0.0625
141
12.0
290
     0
  0
SCALE
  5
5D
102
{ACAD_REACTORS
330
47
102
}
330
47
100
AcDbScale
 70
     0
300
3/32" = 1'-0"
140
0.09375
141
12.0
290
     0
  0
SCALE
  5
5E
102
{ACAD_REACTORS
330
47
102
}
330
47
100
AcDbScale
 70
     0
300
1/8" = 1'-0"
140
0.125
141
12.0
290
     0
  0
SCALE
  5
5F
102
{ACAD_REACTORS
330
47
102
}
330
47
100
AcDbScale
 70
     0
300
3/16" = 1'-0"
140
0.1875
141
12.0
290
     0
  0
SCALE
  5
60
102
{ACAD_REACTORS
330
47
102
}
330
47
100
AcDbScale
 70
     0
300
1/4" = 1'-0"
140
0.25
141
12.0
290
     0
  0
SCALE
  5
61
102
{ACAD_REACTORS
330
47
102
}
330
47
100
AcDbScale
 70
     0
300
3/8" = 1'-0"
140
0.375
141
12.0
290
     0
  0
SCALE
  5
62
102
{ACAD_REACTORS
330
47
102
}
330
47
100
AcDbScale
 70
     0
300
1/2" = 1'-0"
140
0.5
141
12.0
290
     0
  0
SCALE
  5
63
102
{ACAD_REACTORS
330
47
102
}
330
47
100
AcDbScale
 70
     0
300
3/4" = 1'-0"
140
0.75
141
12.0
290
     0
  0
SCALE
  5
64
102
{ACAD_REACTORS
330
47
102
}
330
47
100
AcDbScale
 70
     0
300
1" = 1'-0"
140
1.0
141
12.0
290
     0
  0
SCALE
  5
65
102
{ACAD_REACTORS
330
47
102
}
330
47
100
AcDbScale
 70
     0
300
1-1/2" = 1'-0"
140
1.5
141
12.0
290
     0
  0
SCALE
  5
66
102
{ACAD_REACTORS
330
47
102
}
330
47
100
AcDbScale
 70
     0
300
3" = 1'-0"
140
3.0
141
12.0
290
     0
  0
SCALE
  5
67
102
{ACAD_REACTORS
330
47
102
}
330
47
100
AcDbScale
 70
     0
300
6" = 1'-0"
140
6.0
141
12.0
290
     0
  0
SCALE
  5
68
102
{ACAD_REACTORS
330
47
102
}
330
47
100
AcDbScale
 70
     0
300
1'-0" = 1'-0"
140
12.0
141
12.0
290
     0
  0
ENDSEC
  0
EOF
